  0
SECTION
  2
HEADER
  9
$ACADVER
  1
AC1009
  9
$INSBASE
 10
-155.805722
 20
224.12296
 30
0.0
  9
$EXTMIN
 10
-155.805722
 20
224.12296
 30
0.0
  9
$EXTMAX
 10
684.194278
 20
818.12296
 30
0.0
  9
$LIMMIN
 10
-155.805722
 20
224.12296
  9
$LIMMAX
 10
684.194278
 20
818.12296
  9
$ORTHOMODE
 70
     0
  9
$REGENMODE
 70
     1
  9
$FILLMODE
 70
     1
  9
$QTEXTMODE
 70
     0
  9
$MIRRTEXT
 70
     1
  9
$DRAGMODE
 70
     2
  9
$LTSCALE
 40
2.0
  9
$OSMODE
 70
     0
  9
$ATTMODE
 70
     1
  9
$TEXTSIZE
 40
0.2
  9
$TRACEWID
 40
0.05
  9
$TEXTSTYLE
  7
STANDARD
  9
$CLAYER
  8
0
  9
$CELTYPE
  6
BYLAYER
  9
$CECOLOR
 62
     7
  9
$DIMSCALE
 40
2.0
  9
$DIMASZ
 40
3.5
  9
$DIMEXO
 40
0.0625
  9
$DIMDLI
 40
0.38
  9
$DIMRND
 40
0.0
  9
$DIMDLE
 40
0.0
  9
$DIMEXE
 40
0.18
  9
$DIMTP
 40
0.0
  9
$DIMTM
 40
0.0
  9
$DIMTXT
 40
3.5
  9
$DIMCEN
 40
0.09
  9
$DIMTSZ
 40
0.0
  9
$DIMTOL
 70
     0
  9
$DIMLIM
 70
     0
  9
$DIMTIH
 70
     1
  9
$DIMTOH
 70
     1
  9
$DIMSE1
 70
     0
  9
$DIMSE2
 70
     0
  9
$DIMTAD
 70
     1
  9
$DIMZIN
 70
     0
  9
$DIMBLK
  1

  9
$DIMASO
 70
     1
  9
$DIMSHO
 70
     1
  9
$DIMPOST
  1

  9
$DIMAPOST
  1

  9
$DIMALT
 70
     0
  9
$DIMALTD
 70
     2
  9
$DIMALTF
 40
25.4
  9
$DIMLFAC
 40
1.0
  9
$DIMTOFL
 70
     0
  9
$DIMTVP
 40
0.0
  9
$DIMTIX
 70
     0
  9
$DIMSOXD
 70
     0
  9
$DIMSAH
 70
     0
  9
$DIMBLK1
  1

  9
$DIMBLK2
  1

  9
$DIMSTYLE
  2
STANDARD
  9
$DIMCLRD
 70
     0
  9
$DIMCLRE
 70
     0
  9
$DIMCLRT
 70
     0
  9
$DIMTFAC
 40
1.0
  9
$DIMGAP
 40
0.09
  9
$LUNITS
 70
     2
  9
$LUPREC
 70
     2
  9
$AXISMODE
 70
     0
  9
$AXISUNIT
 10
0.0
 20
0.0
  9
$SKETCHINC
 40
0.1
  9
$FILLETRAD
 40
0.0
  9
$AUNITS
 70
     0
  9
$AUPREC
 70
     0
  9
$MENU
  1
acad
  9
$ELEVATION
 40
0.0
  9
$PELEVATION
 40
0.0
  9
$THICKNESS
 40
0.0
  9
$LIMCHECK
 70
     0
  9
$BLIPMODE
 70
     1
  9
$CHAMFERA
 40
0.0
  9
$CHAMFERB
 40
0.0
  9
$SKPOLY
 70
     0
  9
$TDCREATE
 40
0.000000000
  9
$TDUPDATE
 40
0.000000000
  9
$TDINDWG
 40
0.0000000000
  9
$TDUSRTIMER
 40
0.0000000000
  9
$USRTIMER
 70
     1
  9
$ANGBASE
 50
0.0
  9
$ANGDIR
 70
     0
  9
$PDMODE
 70
     0
  9
$PDSIZE
 40
0.0
  9
$PLINEWID
 40
0.0
  9
$COORDS
 70
     0
  9
$SPLFRAME
 70
     0
  9
$SPLINETYPE
 70
     6
  9
$SPLINESEGS
 70
     8
  9
$ATTDIA
 70
     0
  9
$ATTREQ
 70
     1
  9
$HANDLING
 70
     1
  9
$HANDSEED
  5
A4A
  9
$SURFTAB1
 70
     6
  9
$SURFTAB2
 70
     6
  9
$SURFTYPE
 70
     6
  9
$SURFU
 70
     6
  9
$SURFV
 70
     6
  9
$UCSNAME
  2

  9
$UCSORG
 10
0.0
 20
0.0
 30
0.0
  9
$UCSXDIR
 10
1.0
 20
0.0
 30
0.0
  9
$UCSYDIR
 10
0.0
 20
1.0
 30
0.0
  9
$PUCSNAME
  2

  9
$PUCSORG
 10
0.0
 20
0.0
 30
0.0
  9
$PUCSXDIR
 10
1.0
 20
0.0
 30
0.0
  9
$PUCSYDIR
 10
0.0
 20
1.0
 30
0.0
  9
$USERI1
 70
     0
  9
$USERI2
 70
     0
  9
$USERI3
 70
     0
  9
$USERI4
 70
     0
  9
$USERI5
 70
     0
  9
$USERR1
 40
0.0
  9
$USERR2
 40
0.0
  9
$USERR3
 40
0.0
  9
$USERR4
 40
0.0
  9
$USERR5
 40
0.0
  9
$WORLDVIEW
 70
     1
  9
$SHADEDGE
 70
     3
  9
$SHADEDIF
 70
    70
  9
$TILEMODE
 70
     1
  9
$MAXACTVP
 70
    16
  9
$PINSBASE
 10
0.0
 20
0.0
 30
0.0
  9
$PLIMCHECK
 70
     0
  9
$PEXTMIN
 10
1.000000E+20
 20
1.000000E+20
 30
1.000000E+20
  9
$PEXTMAX
 10
-1.000000E+20
 20
-1.000000E+20
 30
-1.000000E+20
  9
$PLIMMIN
 10
-155.805722
 20
224.12296
  9
$PLIMMAX
 10
684.194278
 20
818.12296
  9
$UNITMODE
 70
     0
  9
$VISRETAIN
 70
     0
  9
$PLINEGEN
 70
     1
  9
$PSLTSCALE
 70
     0
  9
$TREEDEPTH
 70
  3020
  9
$DWGCODEPAGE
  3
dos850
  0
ENDSEC
  0
SECTION
  2
TABLES
  0
TABLE
  2
VPORT
 70
     1
  0
VPORT
  2
*ACTIVE
 70
     0
 10
0.0
 20
0.0
 11
1.0
 21
1.0
 12
420.0
 22
297.0
 13
0.0
 23
0.0
 14
1.0
 24
1.0
 15
0.0
 25
0.0
 16
0.0
 26
0.0
 36
1.0
 17
-155.805722
 27
224.12296
 37
0.0
 40
594.0
 41
1.604229
 42
50.0
 43
0.0
 44
0.0
 50
0.0
 51
0.0
 71
     0
 72
   100
 73
     1
 74
     1
 75
     0
 76
     0
 77
     0
 78
     0
  0
ENDTAB
  0
TABLE
  2
LTYPE
 70
     3
  0
LTYPE
  2
CONTINUOUS
 70
    64
  3
Solid line
 72
    65
 73
     0
 40
0.0
  0
LTYPE
  2
DASHED
 70
    64
  3
__ __ __ __ __
 72
    65
 73
     2
 40
6.25
 49
5.0
 49
-1.25
  0
LTYPE
  2
DASHDOT
 70
    64
  3
__ . __ . __ . __ . __
 72
    65
 73
     4
 40
7.5
 49
5.0
 49
-1.25
 49
0.0
 49
-1.25
  0
ENDTAB
  0
TABLE
  2
LAYER
 70
    18
  0
LAYER
  2
0
 70
     0
 62
     7
  6
CONTINUOUS
  0
LAYER
  2
LC-INFO-1-2-MM-A3-0
 70
     1
 62
    -1
  6
CONTINUOUS
  0
LAYER
  2
LC-008-003-MTH-0
 70
     0
 62
     2
  6
CONTINUOUS
  0
LAYER
  2
LC-009-003-MTG-0
 70
     0
 62
     2
  6
CONTINUOUS
  0
LAYER
  2
LC-007-003-----0
 70
     0
 62
     2
  6
CONTINUOUS
  0
LAYER
  2
LC-003-005-----0
 70
     0
 62
     2
  6
CONTINUOUS
  0
LAYER
  2
LC-002-000-----0
 70
     0
 62
     7
  6
CONTINUOUS
  0
LAYER
  2
LC-010-000-----0
 70
     0
 62
     7
  6
CONTINUOUS
  0
LAYER
  2
LC-001-002-----0
 70
     0
 62
     2
  6
DASHDOT
  0
LAYER
  2
LC-004-205-RND-0
 70
     0
 62
     1
  6
CONTINUOUS
  0
LAYER
  2
LC-005-205-----0
 70
     0
 62
     1
  6
CONTINUOUS
  0
LAYER
  2
LC-006-002-RND-0
 70
     0
 62
     2
  6
DASHDOT
  0
LAYER
  2
LC-011-007-KH--0
 70
     0
 62
     7
  6
DASHDOT
  0
LAYER
  2
LC-012-207-----0
 70
     0
 62
     1
  6
CONTINUOUS
  0
LAYER
  2
LC-013-207-RND-0
 70
     0
 62
     1
  6
CONTINUOUS
  0
LAYER
  2
LC-014-206-----0
 70
     0
 62
     1
  6
CONTINUOUS
  0
LAYER
  2
LC-015-206-RND-0
 70
     0
 62
     1
  6
CONTINUOUS
  0
LAYER
  2
LC-000
 70
     0
 62
     7
  6
CONTINUOUS
  0
ENDTAB
  0
TABLE
  2
STYLE
 70
     3
  0
STYLE
  2
STANDARD
 70
     0
 40
0.0
 41
1.0
 50
0.0
 71
     0
 42
0.0
  3
txt
  4

  0
STYLE
  2
LC-TXTSTYLE-150-400-0-0-A1
 70
    64
 40
0.0
 41
1.0
 50
15.0
 71
     0
 42
3.5
  3
Arial
  4

  0
STYLE
  2
LC-STANDARD
 70
    64
 40
0.0
 41
1.0
 50
0.0
 71
     0
 42
3.5
  3
MONOTXT
  4

  0
ENDTAB
  0
TABLE
  2
VIEW
 70
     0
  0
ENDTAB
  0
TABLE
  2
UCS
 70
     0
  0
ENDTAB
  0
TABLE
  2
APPID
 70
     1
  0
APPID
  2
ACAD
 70
     0
  0
ENDTAB
  0
TABLE
  2
DIMSTYLE
 70
     4
  0
DIMSTYLE
  2
STANDARD
 70
     0
  3

  4

  5

  6

  7

 40
1.0
 41
0.18
 42
0.0625
 43
0.38
 44
0.18
 45
0.0
 46
0.0
 47
0.0
 48
0.0
 71
     0
 72
     0
 73
     1
 74
     1
 75
     0
 76
     0
 77
     0
 78
     0
140
0.18
141
0.09
142
0.0
143
25.4
144
1.0
145
0.0
146
1.0
147
0.09
170
     0
171
     2
172
     0
173
     0
174
     0
175
     0
176
     0
177
     0
178
     0
  0
DIMSTYLE
  2
LC-STANDARD
 70
     0
  3

  4

  5

  6

  7

 40
1.0
 41
3.5
 42
0.0
 43
7.5
 44
1.8
 45
0.0
 46
0.0
 47
0.0
 48
0.0
 71
     0
 72
     0
 73
     0
 74
     0
 75
     0
 76
     0
 77
     1
 78
     8
140
3.5
141
0.0
142
0.0
143
25.4
144
1.0
145
0.0
146
0.71
147
1.5
170
     0
171
     2
172
     1
173
     0
174
     0
175
     0
176
     0
177
     0
178
     3
  0
DIMSTYLE
  2
LC-DIM-L-0140-02-02
 70
     0
  3

  4

  5

  6

  7

 40
2.0
 41
3.5
 42
0.0
 43
7.5
 44
1.8
 45
0.0
 46
0.0
 47
0.0
 48
0.0
 71
     0
 72
     0
 73
     0
 74
     0
 75
     0
 76
     0
 77
     1
 78
     8
140
14.0
141
0.0
142
0.0
143
25.4
144
1.0
145
0.0
146
0.71
147
1.5
170
     0
171
     2
172
     0
173
     0
174
     0
175
     0
176
     2
177
     2
178
     8
  0
DIMSTYLE
  2
LC-DIM-W-0140-02-02
 70
     0
  3

  4

  5

  6

  7

 40
2.0
 41
3.5
 42
0.0
 43
7.5
 44
1.8
 45
0.0
 46
0.0
 47
0.0
 48
0.0
 71
     0
 72
     0
 73
     0
 74
     0
 75
     0
 76
     0
 77
     1
 78
     8
140
14.0
141
0.0
142
0.0
143
25.4
144
1.0
145
0.0
146
0.71
147
1.5
170
     0
171
     2
172
     0
173
     0
174
     0
175
     0
176
     2
177
     2
178
     8
  0
ENDTAB
  0
ENDSEC
  0
SECTION
  2
BLOCKS
  0
BLOCK
  8
0
  5
24
  2
BLK1
 70
    64
 10
0.0
 20
0.0
 30
0.0
  3
BLK1
  0
ENDBLK
  8
0
  5
25
  0
BLOCK
  8
0
  5
27
  2
BLK2
 70
    64
 10
0.0
 20
0.0
 30
0.0
  3
BLK2
  0
ENDBLK
  8
0
  5
28
  0
BLOCK
  8
0
  5
2A
  2
BLK3
 70
    64
 10
0.0
 20
0.0
 30
0.0
  3
BLK3
  0
ENDBLK
  8
0
  5
2B
  0
BLOCK
  8
0
  5
2D
  2
*D3
 70
    65
 10
0.0
 20
0.0
 30
0.0
  3
*D3
  0
LINE
  8
LC-008-003-MTH-0
  6
CONTINUOUS
  5
2F
 10
75.491064
 20
526.081716
 30
0.0
 11
75.491064
 21
576.8
 31
0.0
  0
LINE
  8
LC-008-003-MTH-0
  6
CONTINUOUS
  5
30
 10
377.491064
 20
526.081716
 30
0.0
 11
377.491064
 21
576.8
 31
0.0
  0
LINE
  8
LC-009-003-MTG-0
  6
CONTINUOUS
  5
32
 10
75.491064
 20
560.0
 30
0.0
 11
377.491064
 21
560.0
 31
0.0
  0
LINE
  8
LC-007-003-----0
  6
CONTINUOUS
  5
34
 10
103.25152
 20
563.654733
 30
0.0
 11
75.491064
 21
560.0
 31
0.0
  0
LINE
  8
LC-007-003-----0
  6
CONTINUOUS
  5
35
 10
75.491064
 20
560.0
 30
0.0
 11
103.25152
 21
556.345267
 31
0.0
  0
LINE
  8
LC-007-003-----0
  6
CONTINUOUS
  5
36
 10
103.25152
 20
556.345267
 30
0.0
 11
103.25152
 21
563.654733
 31
0.0
  0
LINE
  8
LC-007-003-----0
  6
CONTINUOUS
  5
37
 10
103.313801
 20
562.704503
 30
0.0
 11
82.771064
 21
560.0
 31
0.0
  0
LINE
  8
LC-007-003-----0
  6
CONTINUOUS
  5
38
 10
82.771064
 20
560.0
 30
0.0
 11
103.313801
 21
557.295497
 31
0.0
  0
LINE
  8
LC-007-003-----0
  6
CONTINUOUS
  5
39
 10
103.376083
 20
561.754272
 30
0.0
 11
90.051064
 21
560.0
 31
0.0
  0
LINE
  8
LC-007-003-----0
  6
CONTINUOUS
  5
3A
 10
90.051064
 20
560.0
 30
0.0
 11
103.376083
 21
558.245728
 31
0.0
  0
LINE
  8
LC-007-003-----0
  6
CONTINUOUS
  5
3B
 10
103.438364
 20
560.804041
 30
0.0
 11
97.331064
 21
560.0
 31
0.0
  0
LINE
  8
LC-007-003-----0
  6
CONTINUOUS
  5
3C
 10
97.331064
 20
560.0
 30
0.0
 11
103.438364
 21
559.195959
 31
0.0
  0
LINE
  8
LC-007-003-----0
  6
CONTINUOUS
  5
3D
 10
349.730608
 20
556.345267
 30
0.0
 11
377.491064
 21
560.0
 31
0.0
  0
LINE
  8
LC-007-003-----0
  6
CONTINUOUS
  5
3E
 10
377.491064
 20
560.0
 30
0.0
 11
349.730608
 21
563.654733
 31
0.0
  0
LINE
  8
LC-007-003-----0
  6
CONTINUOUS
  5
3F
 10
349.730608
 20
563.654733
 30
0.0
 11
349.730608
 21
556.345267
 31
0.0
  0
LINE
  8
LC-007-003-----0
  6
CONTINUOUS
  5
40
 10
349.668326
 20
557.295497
 30
0.0
 11
370.211064
 21
560.0
 31
0.0
  0
LINE
  8
LC-007-003-----0
  6
CONTINUOUS
  5
41
 10
370.211064
 20
560.0
 30
0.0
 11
349.668326
 21
562.704503
 31
0.0
  0
LINE
  8
LC-007-003-----0
  6
CONTINUOUS
  5
42
 10
349.606045
 20
558.245728
 30
0.0
 11
362.931064
 21
560.0
 31
0.0
  0
LINE
  8
LC-007-003-----0
  6
CONTINUOUS
  5
43
 10
362.931064
 20
560.0
 30
0.0
 11
349.606045
 21
561.754272
 31
0.0
  0
LINE
  8
LC-007-003-----0
  6
CONTINUOUS
  5
44
 10
349.543763
 20
559.195959
 30
0.0
 11
355.651064
 21
560.0
 31
0.0
  0
LINE
  8
LC-007-003-----0
  6
CONTINUOUS
  5
45
 10
355.651064
 20
560.0
 30
0.0
 11
349.543763
 21
560.804041
 31
0.0
  0
TEXT
  8
LC-007-003-----0
  6
CONTINUOUS
 62
     8
  5
46
 10
192.567774
 20
567.827554
 30
0.0
 40
28.0
  1
Ø300
 41
0.9
 51
15.0
  7
LC-TXTSTYLE-150-400-0-0-A0
 72
     1
 11
230.839224
 21
567.827554
 31
0.0
  0
ENDBLK
  8
0
  5
47
  0
BLOCK
  8
0
  5
49
  2
*D4
 70
    65
 10
0.0
 20
0.0
 30
0.0
  3
*D4
  0
LINE
  8
LC-008-003-MTH-0
  6
CONTINUOUS
  5
4A
 10
27.714132
 20
453.841245
 30
0.0
 11
27.714132
 21
336.0
 31
0.0
  0
LINE
  8
LC-008-003-MTH-0
  6
CONTINUOUS
  5
4B
 10
226.491064
 20
411.391245
 30
0.0
 11
226.491064
 21
336.0
 31
0.0
  0
LINE
  8
LC-009-003-MTG-0
  6
CONTINUOUS
  5
4C
 10
27.714132
 20
352.8
 30
0.0
 11
226.491064
 21
352.8
 31
0.0
  0
LINE
  8
LC-007-003-----0
  6
CONTINUOUS
  5
4D
 10
55.474589
 20
356.454733
 30
0.0
 11
27.714132
 21
352.8
 31
0.0
  0
LINE
  8
LC-007-003-----0
  6
CONTINUOUS
  5
4E
 10
27.714132
 20
352.8
 30
0.0
 11
55.474589
 21
349.145267
 31
0.0
  0
LINE
  8
LC-007-003-----0
  6
CONTINUOUS
  5
4F
 10
55.474589
 20
349.145267
 30
0.0
 11
55.474589
 21
356.454733
 31
0.0
  0
LINE
  8
LC-007-003-----0
  6
CONTINUOUS
  5
50
 10
55.53687
 20
355.504503
 30
0.0
 11
34.994132
 21
352.8
 31
0.0
  0
LINE
  8
LC-007-003-----0
  6
CONTINUOUS
  5
51
 10
34.994132
 20
352.8
 30
0.0
 11
55.53687
 21
350.095497
 31
0.0
  0
LINE
  8
LC-007-003-----0
  6
CONTINUOUS
  5
52
 10
55.599151
 20
354.554272
 30
0.0
 11
42.274132
 21
352.8
 31
0.0
  0
LINE
  8
LC-007-003-----0
  6
CONTINUOUS
  5
53
 10
42.274132
 20
352.8
 30
0.0
 11
55.599151
 21
351.045728
 31
0.0
  0
LINE
  8
LC-007-003-----0
  6
CONTINUOUS
  5
54
 10
55.661433
 20
353.604041
 30
0.0
 11
49.554132
 21
352.8
 31
0.0
  0
LINE
  8
LC-007-003-----0
  6
CONTINUOUS
  5
55
 10
49.554132
 20
352.8
 30
0.0
 11
55.661433
 21
351.995959
 31
0.0
  0
LINE
  8
LC-007-003-----0
  6
CONTINUOUS
  5
56
 10
198.730608
 20
349.145267
 30
0.0
 11
226.491064
 21
352.8
 31
0.0
  0
LINE
  8
LC-007-003-----0
  6
CONTINUOUS
  5
57
 10
226.491064
 20
352.8
 30
0.0
 11
198.730608
 21
356.454733
 31
0.0
  0
LINE
  8
LC-007-003-----0
  6
CONTINUOUS
  5
58
 10
198.730608
 20
356.454733
 30
0.0
 11
198.730608
 21
349.145267
 31
0.0
  0
LINE
  8
LC-007-003-----0
  6
CONTINUOUS
  5
59
 10
198.668326
 20
350.095497
 30
0.0
 11
219.211064
 21
352.8
 31
0.0
  0
LINE
  8
LC-007-003-----0
  6
CONTINUOUS
  5
5A
 10
219.211064
 20
352.8
 30
0.0
 11
198.668326
 21
355.504503
 31
0.0
  0
LINE
  8
LC-007-003-----0
  6
CONTINUOUS
  5
5B
 10
198.606045
 20
351.045728
 30
0.0
 11
211.931064
 21
352.8
 31
0.0
  0
LINE
  8
LC-007-003-----0
  6
CONTINUOUS
  5
5C
 10
211.931064
 20
352.8
 30
0.0
 11
198.606045
 21
354.554272
 31
0.0
  0
LINE
  8
LC-007-003-----0
  6
CONTINUOUS
  5
5D
 10
198.543763
 20
351.995959
 30
0.0
 11
204.651064
 21
352.8
 31
0.0
  0
LINE
  8
LC-007-003-----0
  6
CONTINUOUS
  5
5E
 10
204.651064
 20
352.8
 30
0.0
 11
198.543763
 21
353.604041
 31
0.0
  0
TEXT
  8
LC-007-003-----0
  6
CONTINUOUS
 62
     8
  5
5F
 10
105.047458
 20
360.627554
 30
0.0
 40
28.0
  1
200
 41
0.9
 51
15.0
  7
LC-TXTSTYLE-150-400-0-0-A0
 72
     1
 11
131.450758
 21
360.627554
 31
0.0
  0
ENDBLK
  8
0
  5
60
  0
BLOCK
  8
0
  5
62
  2
*D5
 70
    65
 10
0.0
 20
0.0
 30
0.0
  3
*D5
  0
LINE
  8
LC-008-003-MTH-0
  6
CONTINUOUS
  5
63
 10
27.714132
 20
453.841245
 30
0.0
 11
27.714132
 21
296.8
 31
0.0
  0
LINE
  8
LC-008-003-MTH-0
  6
CONTINUOUS
  5
64
 10
424.959023
 20
424.377151
 30
0.0
 11
424.959023
 21
296.8
 31
0.0
  0
LINE
  8
LC-009-003-MTG-0
  6
CONTINUOUS
  5
65
 10
27.714132
 20
313.6
 30
0.0
 11
424.959023
 21
313.6
 31
0.0
  0
LINE
  8
LC-007-003-----0
  6
CONTINUOUS
  5
66
 10
55.474589
 20
317.254733
 30
0.0
 11
27.714132
 21
313.6
 31
0.0
  0
LINE
  8
LC-007-003-----0
  6
CONTINUOUS
  5
67
 10
27.714132
 20
313.6
 30
0.0
 11
55.474589
 21
309.945267
 31
0.0
  0
LINE
  8
LC-007-003-----0
  6
CONTINUOUS
  5
68
 10
55.474589
 20
309.945267
 30
0.0
 11
55.474589
 21
317.254733
 31
0.0
  0
LINE
  8
LC-007-003-----0
  6
CONTINUOUS
  5
69
 10
55.53687
 20
316.304503
 30
0.0
 11
34.994132
 21
313.6
 31
0.0
  0
LINE
  8
LC-007-003-----0
  6
CONTINUOUS
  5
6A
 10
34.994132
 20
313.6
 30
0.0
 11
55.53687
 21
310.895497
 31
0.0
  0
LINE
  8
LC-007-003-----0
  6
CONTINUOUS
  5
6B
 10
55.599151
 20
315.354272
 30
0.0
 11
42.274132
 21
313.6
 31
0.0
  0
LINE
  8
LC-007-003-----0
  6
CONTINUOUS
  5
6C
 10
42.274132
 20
313.6
 30
0.0
 11
55.599151
 21
311.845728
 31
0.0
  0
LINE
  8
LC-007-003-----0
  6
CONTINUOUS
  5
6D
 10
55.661433
 20
314.404041
 30
0.0
 11
49.554132
 21
313.6
 31
0.0
  0
LINE
  8
LC-007-003-----0
  6
CONTINUOUS
  5
6E
 10
49.554132
 20
313.6
 30
0.0
 11
55.661433
 21
312.795959
 31
0.0
  0
LINE
  8
LC-007-003-----0
  6
CONTINUOUS
  5
6F
 10
397.198567
 20
309.945267
 30
0.0
 11
424.959023
 21
313.6
 31
0.0
  0
LINE
  8
LC-007-003-----0
  6
CONTINUOUS
  5
70
 10
424.959023
 20
313.6
 30
0.0
 11
397.198567
 21
317.254733
 31
0.0
  0
LINE
  8
LC-007-003-----0
  6
CONTINUOUS
  5
71
 10
397.198567
 20
317.254733
 30
0.0
 11
397.198567
 21
309.945267
 31
0.0
  0
LINE
  8
LC-007-003-----0
  6
CONTINUOUS
  5
72
 10
397.136285
 20
310.895497
 30
0.0
 11
417.679023
 21
313.6
 31
0.0
  0
LINE
  8
LC-007-003-----0
  6
CONTINUOUS
  5
73
 10
417.679023
 20
313.6
 30
0.0
 11
397.136285
 21
316.304503
 31
0.0
  0
LINE
  8
LC-007-003-----0
  6
CONTINUOUS
  5
74
 10
397.074004
 20
311.845728
 30
0.0
 11
410.399023
 21
313.6
 31
0.0
  0
LINE
  8
LC-007-003-----0
  6
CONTINUOUS
  5
75
 10
410.399023
 20
313.6
 30
0.0
 11
397.074004
 21
315.354272
 31
0.0
  0
LINE
  8
LC-007-003-----0
  6
CONTINUOUS
  5
76
 10
397.011722
 20
312.795959
 30
0.0
 11
403.119023
 21
313.6
 31
0.0
  0
LINE
  8
LC-007-003-----0
  6
CONTINUOUS
  5
77
 10
403.119023
 20
313.6
 30
0.0
 11
397.011722
 21
314.404041
 31
0.0
  0
TEXT
  8
LC-007-003-----0
  6
CONTINUOUS
 62
     8
  5
78
 10
204.281438
 20
321.427554
 30
0.0
 40
28.0
  1
400
 41
0.9
 51
15.0
  7
LC-TXTSTYLE-150-400-0-0-A0
 72
     1
 11
230.684738
 21
321.427554
 31
0.0
  0
ENDBLK
  8
0
  5
79
  0
BLOCK
  8
0
  5
7B
  2
*D6
 70
    65
 10
0.0
 20
0.0
 30
0.0
  3
*D6
  0
LINE
  8
LC-008-003-MTH-0
  6
CONTINUOUS
  5
7C
 10
27.714132
 20
481.591245
 30
0.0
 11
-2.8
 21
481.591245
 31
0.0
  0
LINE
  8
LC-008-003-MTH-0
  6
CONTINUOUS
  5
7D
 10
75.491064
 20
523.074518
 30
0.0
 11
-2.8
 21
523.074518
 31
0.0
  0
LINE
  8
LC-007-003-----0
  6
CONTINUOUS
  5
7E
 10
17.654733
 20
453.830789
 30
0.0
 11
14.0
 21
481.591245
 31
0.0
  0
LINE
  8
LC-007-003-----0
  6
CONTINUOUS
  5
7F
 10
14.0
 20
481.591245
 30
0.0
 11
10.345267
 21
453.830789
 31
0.0
  0
LINE
  8
LC-007-003-----0
  6
CONTINUOUS
  5
80
 10
10.345267
 20
453.830789
 30
0.0
 11
17.654733
 21
453.830789
 31
0.0
  0
LINE
  8
LC-007-003-----0
  6
CONTINUOUS
  5
81
 10
16.704503
 20
453.768508
 30
0.0
 11
14.0
 21
474.311245
 31
0.0
  0
LINE
  8
LC-007-003-----0
  6
CONTINUOUS
  5
82
 10
14.0
 20
474.311245
 30
0.0
 11
11.295497
 21
453.768508
 31
0.0
  0
LINE
  8
LC-007-003-----0
  6
CONTINUOUS
  5
83
 10
15.754272
 20
453.706226
 30
0.0
 11
14.0
 21
467.031245
 31
0.0
  0
LINE
  8
LC-007-003-----0
  6
CONTINUOUS
  5
84
 10
14.0
 20
467.031245
 30
0.0
 11
12.245728
 21
453.706226
 31
0.0
  0
LINE
  8
LC-007-003-----0
  6
CONTINUOUS
  5
85
 10
14.804041
 20
453.643945
 30
0.0
 11
14.0
 21
459.751245
 31
0.0
  0
LINE
  8
LC-007-003-----0
  6
CONTINUOUS
  5
86
 10
14.0
 20
459.751245
 30
0.0
 11
13.195959
 21
453.643945
 31
0.0
  0
LINE
  8
LC-007-003-----0
  6
CONTINUOUS
  5
87
 10
10.345267
 20
550.834974
 30
0.0
 11
14.0
 21
523.074518
 31
0.0
  0
LINE
  8
LC-007-003-----0
  6
CONTINUOUS
  5
88
 10
14.0
 20
523.074518
 30
0.0
 11
17.654733
 21
550.834974
 31
0.0
  0
LINE
  8
LC-007-003-----0
  6
CONTINUOUS
  5
89
 10
17.654733
 20
550.834974
 30
0.0
 11
10.345267
 21
550.834974
 31
0.0
  0
LINE
  8
LC-007-003-----0
  6
CONTINUOUS
  5
8A
 10
11.295497
 20
550.897255
 30
0.0
 11
14.0
 21
530.354518
 31
0.0
  0
LINE
  8
LC-007-003-----0
  6
CONTINUOUS
  5
8B
 10
14.0
 20
530.354518
 30
0.0
 11
16.704503
 21
550.897255
 31
0.0
  0
LINE
  8
LC-007-003-----0
  6
CONTINUOUS
  5
8C
 10
12.245728
 20
550.959537
 30
0.0
 11
14.0
 21
537.634518
 31
0.0
  0
LINE
  8
LC-007-003-----0
  6
CONTINUOUS
  5
8D
 10
14.0
 20
537.634518
 30
0.0
 11
15.754272
 21
550.959537
 31
0.0
  0
LINE
  8
LC-007-003-----0
  6
CONTINUOUS
  5
8E
 10
13.195959
 20
551.021818
 30
0.0
 11
14.0
 21
544.914518
 31
0.0
  0
LINE
  8
LC-007-003-----0
  6
CONTINUOUS
  5
8F
 10
14.0
 20
544.914518
 30
0.0
 11
14.804041
 21
551.021818
 31
0.0
  0
LINE
  8
LC-009-003-MTG-0
  6
CONTINUOUS
  5
90
 10
14.0
 20
442.391245
 30
0.0
 11
14.0
 21
606.438918
 31
0.0
  0
TEXT
  8
LC-007-003-----0
  6
CONTINUOUS
 62
     8
  5
91
 10
6.172446
 20
565.502678
 30
0.0
 40
28.0
  1
40
 50
90.0
 41
0.9
 51
15.0
  7
LC-TXTSTYLE-150-400-0-0-A0
  0
ENDBLK
  8
0
  5
92
  0
BLOCK
  8
0
  5
94
  2
*D7
 70
    65
 10
0.0
 20
0.0
 30
0.0
  3
*D7
  0
LINE
  8
LC-008-003-MTH-0
  6
CONTINUOUS
  5
95
 10
103.382491
 20
411.391245
 30
0.0
 11
-72.8
 21
411.391245
 31
0.0
  0
LINE
  8
LC-008-003-MTH-0
  6
CONTINUOUS
  5
96
 10
76.63105
 20
522.9955
 30
0.0
 11
-72.8
 21
522.9955
 31
0.0
  0
LINE
  8
LC-009-003-MTG-0
  6
CONTINUOUS
  5
97
 10
-56.0
 20
411.391245
 30
0.0
 11
-56.0
 21
522.9955
 31
0.0
  0
LINE
  8
LC-007-003-----0
  6
CONTINUOUS
  5
98
 10
-59.654733
 20
439.151701
 30
0.0
 11
-56.0
 21
411.391245
 31
0.0
  0
LINE
  8
LC-007-003-----0
  6
CONTINUOUS
  5
99
 10
-56.0
 20
411.391245
 30
0.0
 11
-52.345267
 21
439.151701
 31
0.0
  0
LINE
  8
LC-007-003-----0
  6
CONTINUOUS
  5
9A
 10
-52.345267
 20
439.151701
 30
0.0
 11
-59.654733
 21
439.151701
 31
0.0
  0
LINE
  8
LC-007-003-----0
  6
CONTINUOUS
  5
9B
 10
-58.704503
 20
439.213983
 30
0.0
 11
-56.0
 21
418.671245
 31
0.0
  0
LINE
  8
LC-007-003-----0
  6
CONTINUOUS
  5
9C
 10
-56.0
 20
418.671245
 30
0.0
 11
-53.295497
 21
439.213983
 31
0.0
  0
LINE
  8
LC-007-003-----0
  6
CONTINUOUS
  5
9D
 10
-57.754272
 20
439.276264
 30
0.0
 11
-56.0
 21
425.951245
 31
0.0
  0
LINE
  8
LC-007-003-----0
  6
CONTINUOUS
  5
9E
 10
-56.0
 20
425.951245
 30
0.0
 11
-54.245728
 21
439.276264
 31
0.0
  0
LINE
  8
LC-007-003-----0
  6
CONTINUOUS
  5
9F
 10
-56.804041
 20
439.338546
 30
0.0
 11
-56.0
 21
433.231245
 31
0.0
  0
LINE
  8
LC-007-003-----0
  6
CONTINUOUS
  5
A0
 10
-56.0
 20
433.231245
 30
0.0
 11
-55.195959
 21
439.338546
 31
0.0
  0
LINE
  8
LC-007-003-----0
  6
CONTINUOUS
  5
A1
 10
-52.345267
 20
495.235044
 30
0.0
 11
-56.0
 21
522.9955
 31
0.0
  0
LINE
  8
LC-007-003-----0
  6
CONTINUOUS
  5
A2
 10
-56.0
 20
522.9955
 30
0.0
 11
-59.654733
 21
495.235044
 31
0.0
  0
LINE
  8
LC-007-003-----0
  6
CONTINUOUS
  5
A3
 10
-59.654733
 20
495.235044
 30
0.0
 11
-52.345267
 21
495.235044
 31
0.0
  0
LINE
  8
LC-007-003-----0
  6
CONTINUOUS
  5
A4
 10
-53.295497
 20
495.172762
 30
0.0
 11
-56.0
 21
515.7155
 31
0.0
  0
LINE
  8
LC-007-003-----0
  6
CONTINUOUS
  5
A5
 10
-56.0
 20
515.7155
 30
0.0
 11
-58.704503
 21
495.172762
 31
0.0
  0
LINE
  8
LC-007-003-----0
  6
CONTINUOUS
  5
A6
 10
-54.245728
 20
495.110481
 30
0.0
 11
-56.0
 21
508.4355
 31
0.0
  0
LINE
  8
LC-007-003-----0
  6
CONTINUOUS
  5
A7
 10
-56.0
 20
508.4355
 30
0.0
 11
-57.754272
 21
495.110481
 31
0.0
  0
LINE
  8
LC-007-003-----0
  6
CONTINUOUS
  5
A8
 10
-55.195959
 20
495.0482
 30
0.0
 11
-56.0
 21
501.1555
 31
0.0
  0
LINE
  8
LC-007-003-----0
  6
CONTINUOUS
  5
A9
 10
-56.0
 20
501.1555
 30
0.0
 11
-56.804041
 21
495.0482
 31
0.0
  0
TEXT
  8
LC-007-003-----0
  6
CONTINUOUS
 62
     8
  5
AA
 10
-63.827554
 20
445.138233
 30
0.0
 40
28.0
  1
110
 50
90.0
 41
0.9
 51
15.0
  7
LC-TXTSTYLE-150-400-0-0-A0
 72
     1
 11
-63.827554
 21
471.541533
 31
0.0
  0
ENDBLK
  8
0
  5
AB
  0
BLOCK
  8
0
  5
AD
  2
*D8
 70
    65
 10
0.0
 20
0.0
 30
0.0
  3
*D8
  0
LINE
  8
LC-008-003-MTH-0
  6
CONTINUOUS
  5
AE
 10
27.714132
 20
456.341245
 30
0.0
 11
-44.8
 21
456.341245
 31
0.0
  0
LINE
  8
LC-008-003-MTH-0
  6
CONTINUOUS
  5
AF
 10
27.714132
 20
506.841245
 30
0.0
 11
-44.8
 21
506.841245
 31
0.0
  0
LINE
  8
LC-007-003-----0
  6
CONTINUOUS
  5
B0
 10
-24.345267
 20
428.580789
 30
0.0
 11
-28.0
 21
456.341245
 31
0.0
  0
LINE
  8
LC-007-003-----0
  6
CONTINUOUS
  5
B1
 10
-28.0
 20
456.341245
 30
0.0
 11
-31.654733
 21
428.580789
 31
0.0
  0
LINE
  8
LC-007-003-----0
  6
CONTINUOUS
  5
B2
 10
-31.654733
 20
428.580789
 30
0.0
 11
-24.345267
 21
428.580789
 31
0.0
  0
LINE
  8
LC-007-003-----0
  6
CONTINUOUS
  5
B3
 10
-25.295497
 20
428.518508
 30
0.0
 11
-28.0
 21
449.061245
 31
0.0
  0
LINE
  8
LC-007-003-----0
  6
CONTINUOUS
  5
B4
 10
-28.0
 20
449.061245
 30
0.0
 11
-30.704503
 21
428.518508
 31
0.0
  0
LINE
  8
LC-007-003-----0
  6
CONTINUOUS
  5
B5
 10
-26.245728
 20
428.456226
 30
0.0
 11
-28.0
 21
441.781245
 31
0.0
  0
LINE
  8
LC-007-003-----0
  6
CONTINUOUS
  5
B6
 10
-28.0
 20
441.781245
 30
0.0
 11
-29.754272
 21
428.456226
 31
0.0
  0
LINE
  8
LC-007-003-----0
  6
CONTINUOUS
  5
B7
 10
-27.195959
 20
428.393945
 30
0.0
 11
-28.0
 21
434.501245
 31
0.0
  0
LINE
  8
LC-007-003-----0
  6
CONTINUOUS
  5
B8
 10
-28.0
 20
434.501245
 30
0.0
 11
-28.804041
 21
428.393945
 31
0.0
  0
LINE
  8
LC-007-003-----0
  6
CONTINUOUS
  5
B9
 10
-31.654733
 20
534.601701
 30
0.0
 11
-28.0
 21
506.841245
 31
0.0
  0
LINE
  8
LC-007-003-----0
  6
CONTINUOUS
  5
BA
 10
-28.0
 20
506.841245
 30
0.0
 11
-24.345267
 21
534.601701
 31
0.0
  0
LINE
  8
LC-007-003-----0
  6
CONTINUOUS
  5
BB
 10
-24.345267
 20
534.601701
 30
0.0
 11
-31.654733
 21
534.601701
 31
0.0
  0
LINE
  8
LC-007-003-----0
  6
CONTINUOUS
  5
BC
 10
-30.704503
 20
534.663983
 30
0.0
 11
-28.0
 21
514.121245
 31
0.0
  0
LINE
  8
LC-007-003-----0
  6
CONTINUOUS
  5
BD
 10
-28.0
 20
514.121245
 30
0.0
 11
-25.295497
 21
534.663983
 31
0.0
  0
LINE
  8
LC-007-003-----0
  6
CONTINUOUS
  5
BE
 10
-29.754272
 20
534.726264
 30
0.0
 11
-28.0
 21
521.401245
 31
0.0
  0
LINE
  8
LC-007-003-----0
  6
CONTINUOUS
  5
BF
 10
-28.0
 20
521.401245
 30
0.0
 11
-26.245728
 21
534.726264
 31
0.0
  0
LINE
  8
LC-007-003-----0
  6
CONTINUOUS
  5
C0
 10
-28.804041
 20
534.788546
 30
0.0
 11
-28.0
 21
528.681245
 31
0.0
  0
LINE
  8
LC-007-003-----0
  6
CONTINUOUS
  5
C1
 10
-28.0
 20
528.681245
 30
0.0
 11
-27.195959
 21
534.788546
 31
0.0
  0
LINE
  8
LC-009-003-MTG-0
  6
CONTINUOUS
  5
C2
 10
-28.0
 20
417.141245
 30
0.0
 11
-28.0
 21
635.811345
 31
0.0
  0
TEXT
  8
LC-007-003-----0
  6
CONTINUOUS
 62
     8
  5
C3
 10
-35.827554
 20
549.269405
 30
0.0
 40
28.0
  1
DN50
 50
90.0
 41
0.9
 51
15.0
  7
LC-TXTSTYLE-150-400-0-0-A0
  0
ENDBLK
  8
0
  5
C4
  0
BLOCK
  8
0
  5
C6
  2
*D9
 70
    65
 10
0.0
 20
0.0
 30
0.0
  3
*D9
  0
LINE
  8
LC-008-003-MTH-0
  6
CONTINUOUS
  5
C7
 10
424.959023
 20
452.877151
 30
0.0
 11
487.2
 21
452.877151
 31
0.0
  0
LINE
  8
LC-008-003-MTH-0
  6
CONTINUOUS
  5
C8
 10
377.491064
 20
523.074518
 30
0.0
 11
487.2
 21
523.074518
 31
0.0
  0
LINE
  8
LC-009-003-MTG-0
  6
CONTINUOUS
  5
C9
 10
470.4
 20
452.877151
 30
0.0
 11
470.4
 21
523.074518
 31
0.0
  0
LINE
  8
LC-007-003-----0
  6
CONTINUOUS
  5
CA
 10
466.745267
 20
480.637607
 30
0.0
 11
470.4
 21
452.877151
 31
0.0
  0
LINE
  8
LC-007-003-----0
  6
CONTINUOUS
  5
CB
 10
470.4
 20
452.877151
 30
0.0
 11
474.054733
 21
480.637607
 31
0.0
  0
LINE
  8
LC-007-003-----0
  6
CONTINUOUS
  5
CC
 10
474.054733
 20
480.637607
 30
0.0
 11
466.745267
 21
480.637607
 31
0.0
  0
LINE
  8
LC-007-003-----0
  6
CONTINUOUS
  5
CD
 10
467.695497
 20
480.699889
 30
0.0
 11
470.4
 21
460.157151
 31
0.0
  0
LINE
  8
LC-007-003-----0
  6
CONTINUOUS
  5
CE
 10
470.4
 20
460.157151
 30
0.0
 11
473.104503
 21
480.699889
 31
0.0
  0
LINE
  8
LC-007-003-----0
  6
CONTINUOUS
  5
CF
 10
468.645728
 20
480.76217
 30
0.0
 11
470.4
 21
467.437151
 31
0.0
  0
LINE
  8
LC-007-003-----0
  6
CONTINUOUS
  5
D0
 10
470.4
 20
467.437151
 30
0.0
 11
472.154272
 21
480.76217
 31
0.0
  0
LINE
  8
LC-007-003-----0
  6
CONTINUOUS
  5
D1
 10
469.595959
 20
480.824452
 30
0.0
 11
470.4
 21
474.717151
 31
0.0
  0
LINE
  8
LC-007-003-----0
  6
CONTINUOUS
  5
D2
 10
470.4
 20
474.717151
 30
0.0
 11
471.204041
 21
480.824452
 31
0.0
  0
LINE
  8
LC-007-003-----0
  6
CONTINUOUS
  5
D3
 10
474.054733
 20
495.314062
 30
0.0
 11
470.4
 21
523.074518
 31
0.0
  0
LINE
  8
LC-007-003-----0
  6
CONTINUOUS
  5
D4
 10
470.4
 20
523.074518
 30
0.0
 11
466.745267
 21
495.314062
 31
0.0
  0
LINE
  8
LC-007-003-----0
  6
CONTINUOUS
  5
D5
 10
466.745267
 20
495.314062
 30
0.0
 11
474.054733
 21
495.314062
 31
0.0
  0
LINE
  8
LC-007-003-----0
  6
CONTINUOUS
  5
D6
 10
473.104503
 20
495.25178
 30
0.0
 11
470.4
 21
515.794518
 31
0.0
  0
LINE
  8
LC-007-003-----0
  6
CONTINUOUS
  5
D7
 10
470.4
 20
515.794518
 30
0.0
 11
467.695497
 21
495.25178
 31
0.0
  0
LINE
  8
LC-007-003-----0
  6
CONTINUOUS
  5
D8
 10
472.154272
 20
495.189499
 30
0.0
 11
470.4
 21
508.514518
 31
0.0
  0
LINE
  8
LC-007-003-----0
  6
CONTINUOUS
  5
D9
 10
470.4
 20
508.514518
 30
0.0
 11
468.645728
 21
495.189499
 31
0.0
  0
LINE
  8
LC-007-003-----0
  6
CONTINUOUS
  5
DA
 10
471.204041
 20
495.127218
 30
0.0
 11
470.4
 21
501.234518
 31
0.0
  0
LINE
  8
LC-007-003-----0
  6
CONTINUOUS
  5
DB
 10
470.4
 20
501.234518
 30
0.0
 11
469.595959
 21
495.127218
 31
0.0
  0
TEXT
  8
LC-007-003-----0
  6
CONTINUOUS
 62
     8
  5
DC
 10
462.572446
 20
474.721795
 30
0.0
 40
28.0
  1
70
 50
90.0
 41
0.9
 51
15.0
  7
LC-TXTSTYLE-150-400-0-0-A0
 72
     1
 11
462.572446
 21
492.323995
 31
0.0
  0
ENDBLK
  8
0
  5
DD
  0
BLOCK
  8
0
  5
DF
  2
*D10
 70
    65
 10
0.0
 20
0.0
 30
0.0
  3
*D10
  0
LINE
  8
LC-008-003-MTH-0
  6
CONTINUOUS
  5
E0
 10
424.959023
 20
421.377151
 30
0.0
 11
565.6
 21
421.377151
 31
0.0
  0
LINE
  8
LC-008-003-MTH-0
  6
CONTINUOUS
  5
E1
 10
424.959023
 20
484.377151
 30
0.0
 11
565.6
 21
484.377151
 31
0.0
  0
LINE
  8
LC-007-003-----0
  6
CONTINUOUS
  5
E2
 10
552.454733
 20
393.616695
 30
0.0
 11
548.8
 21
421.377151
 31
0.0
  0
LINE
  8
LC-007-003-----0
  6
CONTINUOUS
  5
E3
 10
548.8
 20
421.377151
 30
0.0
 11
545.145267
 21
393.616695
 31
0.0
  0
LINE
  8
LC-007-003-----0
  6
CONTINUOUS
  5
E4
 10
545.145267
 20
393.616695
 30
0.0
 11
552.454733
 21
393.616695
 31
0.0
  0
LINE
  8
LC-007-003-----0
  6
CONTINUOUS
  5
E5
 10
551.504503
 20
393.554414
 30
0.0
 11
548.8
 21
414.097151
 31
0.0
  0
LINE
  8
LC-007-003-----0
  6
CONTINUOUS
  5
E6
 10
548.8
 20
414.097151
 30
0.0
 11
546.095497
 21
393.554414
 31
0.0
  0
LINE
  8
LC-007-003-----0
  6
CONTINUOUS
  5
E7
 10
550.554272
 20
393.492132
 30
0.0
 11
548.8
 21
406.817151
 31
0.0
  0
LINE
  8
LC-007-003-----0
  6
CONTINUOUS
  5
E8
 10
548.8
 20
406.817151
 30
0.0
 11
547.045728
 21
393.492132
 31
0.0
  0
LINE
  8
LC-007-003-----0
  6
CONTINUOUS
  5
E9
 10
549.604041
 20
393.429851
 30
0.0
 11
548.8
 21
399.537151
 31
0.0
  0
LINE
  8
LC-007-003-----0
  6
CONTINUOUS
  5
EA
 10
548.8
 20
399.537151
 30
0.0
 11
547.995959
 21
393.429851
 31
0.0
  0
LINE
  8
LC-007-003-----0
  6
CONTINUOUS
  5
EB
 10
545.145267
 20
512.137607
 30
0.0
 11
548.8
 21
484.377151
 31
0.0
  0
LINE
  8
LC-007-003-----0
  6
CONTINUOUS
  5
EC
 10
548.8
 20
484.377151
 30
0.0
 11
552.454733
 21
512.137607
 31
0.0
  0
LINE
  8
LC-007-003-----0
  6
CONTINUOUS
  5
ED
 10
552.454733
 20
512.137607
 30
0.0
 11
545.145267
 21
512.137607
 31
0.0
  0
LINE
  8
LC-007-003-----0
  6
CONTINUOUS
  5
EE
 10
546.095497
 20
512.199889
 30
0.0
 11
548.8
 21
491.657151
 31
0.0
  0
LINE
  8
LC-007-003-----0
  6
CONTINUOUS
  5
EF
 10
548.8
 20
491.657151
 30
0.0
 11
551.504503
 21
512.199889
 31
0.0
  0
LINE
  8
LC-007-003-----0
  6
CONTINUOUS
  5
F0
 10
547.045728
 20
512.26217
 30
0.0
 11
548.8
 21
498.937151
 31
0.0
  0
LINE
  8
LC-007-003-----0
  6
CONTINUOUS
  5
F1
 10
548.8
 20
498.937151
 30
0.0
 11
550.554272
 21
512.26217
 31
0.0
  0
LINE
  8
LC-007-003-----0
  6
CONTINUOUS
  5
F2
 10
547.995959
 20
512.324452
 30
0.0
 11
548.8
 21
506.217151
 31
0.0
  0
LINE
  8
LC-007-003-----0
  6
CONTINUOUS
  5
F3
 10
548.8
 20
506.217151
 30
0.0
 11
549.604041
 21
512.324452
 31
0.0
  0
LINE
  8
LC-009-003-MTG-0
  6
CONTINUOUS
  5
F4
 10
548.8
 20
382.177151
 30
0.0
 11
548.8
 21
592.277951
 31
0.0
  0
TEXT
  8
LC-007-003-----0
  6
CONTINUOUS
 62
     8
  5
F5
 10
540.972446
 20
526.805311
 30
0.0
 40
28.0
  1
Ø63
 50
90.0
 41
0.9
 51
15.0
  7
LC-TXTSTYLE-150-400-0-0-A0
  0
ENDBLK
  8
0
  5
F6
  0
BLOCK
  8
0
  5
F8
  2
*D11
 70
    65
 10
0.0
 20
0.0
 30
0.0
  3
*D11
  0
LINE
  8
LC-008-003-MTH-0
  6
CONTINUOUS
  5
F9
 10
381.459023
 20
424.877151
 30
0.0
 11
526.4
 21
424.877151
 31
0.0
  0
LINE
  8
LC-008-003-MTH-0
  6
CONTINUOUS
  5
FA
 10
381.459023
 20
480.877151
 30
0.0
 11
526.4
 21
480.877151
 31
0.0
  0
LINE
  8
LC-007-003-----0
  6
CONTINUOUS
  5
FB
 10
513.254733
 20
397.116695
 30
0.0
 11
509.6
 21
424.877151
 31
0.0
  0
LINE
  8
LC-007-003-----0
  6
CONTINUOUS
  5
FC
 10
509.6
 20
424.877151
 30
0.0
 11
505.945267
 21
397.116695
 31
0.0
  0
LINE
  8
LC-007-003-----0
  6
CONTINUOUS
  5
FD
 10
505.945267
 20
397.116695
 30
0.0
 11
513.254733
 21
397.116695
 31
0.0
  0
LINE
  8
LC-007-003-----0
  6
CONTINUOUS
  5
FE
 10
512.304503
 20
397.054414
 30
0.0
 11
509.6
 21
417.597151
 31
0.0
  0
LINE
  8
LC-007-003-----0
  6
CONTINUOUS
  5
FF
 10
509.6
 20
417.597151
 30
0.0
 11
506.895497
 21
397.054414
 31
0.0
  0
LINE
  8
LC-007-003-----0
  6
CONTINUOUS
  5
100
 10
511.354272
 20
396.992132
 30
0.0
 11
509.6
 21
410.317151
 31
0.0
  0
LINE
  8
LC-007-003-----0
  6
CONTINUOUS
  5
101
 10
509.6
 20
410.317151
 30
0.0
 11
507.845728
 21
396.992132
 31
0.0
  0
LINE
  8
LC-007-003-----0
  6
CONTINUOUS
  5
102
 10
510.404041
 20
396.929851
 30
0.0
 11
509.6
 21
403.037151
 31
0.0
  0
LINE
  8
LC-007-003-----0
  6
CONTINUOUS
  5
103
 10
509.6
 20
403.037151
 30
0.0
 11
508.795959
 21
396.929851
 31
0.0
  0
LINE
  8
LC-007-003-----0
  6
CONTINUOUS
  5
104
 10
505.945267
 20
508.637607
 30
0.0
 11
509.6
 21
480.877151
 31
0.0
  0
LINE
  8
LC-007-003-----0
  6
CONTINUOUS
  5
105
 10
509.6
 20
480.877151
 30
0.0
 11
513.254733
 21
508.637607
 31
0.0
  0
LINE
  8
LC-007-003-----0
  6
CONTINUOUS
  5
106
 10
513.254733
 20
508.637607
 30
0.0
 11
505.945267
 21
508.637607
 31
0.0
  0
LINE
  8
LC-007-003-----0
  6
CONTINUOUS
  5
107
 10
506.895497
 20
508.699889
 30
0.0
 11
509.6
 21
488.157151
 31
0.0
  0
LINE
  8
LC-007-003-----0
  6
CONTINUOUS
  5
108
 10
509.6
 20
488.157151
 30
0.0
 11
512.304503
 21
508.699889
 31
0.0
  0
LINE
  8
LC-007-003-----0
  6
CONTINUOUS
  5
109
 10
507.845728
 20
508.76217
 30
0.0
 11
509.6
 21
495.437151
 31
0.0
  0
LINE
  8
LC-007-003-----0
  6
CONTINUOUS
  5
10A
 10
509.6
 20
495.437151
 30
0.0
 11
511.354272
 21
508.76217
 31
0.0
  0
LINE
  8
LC-007-003-----0
  6
CONTINUOUS
  5
10B
 10
508.795959
 20
508.824452
 30
0.0
 11
509.6
 21
502.717151
 31
0.0
  0
LINE
  8
LC-007-003-----0
  6
CONTINUOUS
  5
10C
 10
509.6
 20
502.717151
 30
0.0
 11
510.404041
 21
508.824452
 31
0.0
  0
LINE
  8
LC-009-003-MTG-0
  6
CONTINUOUS
  5
10D
 10
509.6
 20
385.677151
 30
0.0
 11
509.6
 21
588.777951
 31
0.0
  0
TEXT
  8
LC-007-003-----0
  6
CONTINUOUS
 62
     8
  5
10E
 10
501.772446
 20
523.305311
 30
0.0
 40
28.0
  1
Ø56
 50
90.0
 41
0.9
 51
15.0
  7
LC-TXTSTYLE-150-400-0-0-A0
  0
ENDBLK
  8
0
  5
10F
  0
BLOCK
  8
0
  5
111
  2
*X12
 70
    65
 10
162.690979
 20
430.553997
 30
0.0
  3
*X12
  0
LINE
  8
LC-003-005-----0
  6
CONTINUOUS
  5
113
 10
165.490804
 20
431.362953
 30
0.0
 11
166.490796
 21
432.362946
 31
0.0
  0
LINE
  8
LC-003-005-----0
  6
CONTINUOUS
  5
114
 10
165.490805
 20
434.191382
 30
0.0
 11
166.490798
 21
435.191375
 31
0.0
  0
LINE
  8
LC-003-005-----0
  6
CONTINUOUS
  5
115
 10
165.490807
 20
437.019811
 30
0.0
 11
166.4908
 21
438.019804
 31
0.0
  0
LINE
  8
LC-003-005-----0
  6
CONTINUOUS
  5
116
 10
165.490809
 20
439.84824
 30
0.0
 11
166.490802
 21
440.848233
 31
0.0
  0
LINE
  8
LC-003-005-----0
  6
CONTINUOUS
  5
117
 10
165.490811
 20
442.676669
 30
0.0
 11
166.490804
 21
443.676662
 31
0.0
  0
LINE
  8
LC-003-005-----0
  6
CONTINUOUS
  5
118
 10
165.490813
 20
445.505098
 30
0.0
 11
166.490806
 21
446.505091
 31
0.0
  0
LINE
  8
LC-003-005-----0
  6
CONTINUOUS
  5
119
 10
165.490815
 20
448.333527
 30
0.0
 11
166.490808
 21
449.333521
 31
0.0
  0
LINE
  8
LC-003-005-----0
  6
CONTINUOUS
  5
11A
 10
165.490817
 20
451.161956
 30
0.0
 11
166.490811
 21
452.161951
 31
0.0
  0
LINE
  8
LC-003-005-----0
  6
CONTINUOUS
  5
11B
 10
165.490818
 20
453.990385
 30
0.0
 11
166.490813
 21
454.99038
 31
0.0
  0
LINE
  8
LC-003-005-----0
  6
CONTINUOUS
  5
11C
 10
165.49082
 20
456.818814
 30
0.0
 11
166.490816
 21
457.81881
 31
0.0
  0
LINE
  8
LC-003-005-----0
  6
CONTINUOUS
  5
11D
 10
165.490822
 20
459.647243
 30
0.0
 11
166.490818
 21
460.647239
 31
0.0
  0
LINE
  8
LC-003-005-----0
  6
CONTINUOUS
  5
11E
 10
165.490824
 20
462.475672
 30
0.0
 11
166.490821
 21
463.475669
 31
0.0
  0
LINE
  8
LC-003-005-----0
  6
CONTINUOUS
  5
11F
 10
165.490826
 20
465.304101
 30
0.0
 11
166.490823
 21
466.304099
 31
0.0
  0
LINE
  8
LC-003-005-----0
  6
CONTINUOUS
  5
120
 10
165.490828
 20
468.13253
 30
0.0
 11
166.490826
 21
469.132528
 31
0.0
  0
LINE
  8
LC-003-005-----0
  6
CONTINUOUS
  5
121
 10
165.490829
 20
470.960959
 30
0.0
 11
166.490828
 21
471.960958
 31
0.0
  0
LINE
  8
LC-003-005-----0
  6
CONTINUOUS
  5
122
 10
165.490831
 20
473.789388
 30
0.0
 11
166.490831
 21
474.789387
 31
0.0
  0
LINE
  8
LC-003-005-----0
  6
CONTINUOUS
  5
123
 10
165.490833
 20
476.617817
 30
0.0
 11
166.490833
 21
477.617817
 31
0.0
  0
LINE
  8
LC-003-005-----0
  6
CONTINUOUS
  5
124
 10
165.490835
 20
479.446246
 30
0.0
 11
169.790998
 21
483.746409
 31
0.0
  0
LINE
  8
LC-003-005-----0
  6
CONTINUOUS
  5
125
 10
163.799621
 20
480.583459
 30
0.0
 11
164.999621
 21
481.783459
 31
0.0
  0
LINE
  8
LC-003-005-----0
  6
CONTINUOUS
  5
126
 10
167.790996
 20
484.574834
 30
0.0
 11
169.79099
 21
486.574828
 31
0.0
  0
LINE
  8
LC-003-005-----0
  6
CONTINUOUS
  5
127
 10
167.790988
 20
487.403253
 30
0.0
 11
169.790982
 21
489.403247
 31
0.0
  0
LINE
  8
LC-003-005-----0
  6
CONTINUOUS
  5
128
 10
166.942767
 20
489.383459
 30
0.0
 11
168.142767
 21
490.583459
 31
0.0
  0
LINE
  8
LC-003-005-----0
  6
CONTINUOUS
  5
129
 10
164.11434
 20
489.383459
 30
0.0
 11
165.31434
 21
490.583459
 31
0.0
  0
ENDBLK
  8
0
  5
12A
  0
BLOCK
  8
0
  5
12C
  2
*X13
 70
    65
 10
212.320504
 20
430.553997
 30
0.0
  3
*X13
  0
LINE
  8
LC-003-005-----0
  6
CONTINUOUS
  5
12D
 10
212.765109
 20
430.553997
 30
0.0
 11
214.516742
 21
432.30563
 31
0.0
  0
LINE
  8
LC-003-005-----0
  6
CONTINUOUS
  5
12E
 10
212.602177
 20
433.219493
 30
0.0
 11
214.85095
 21
435.468265
 31
0.0
  0
LINE
  8
LC-003-005-----0
  6
CONTINUOUS
  5
12F
 10
212.936385
 20
436.382128
 30
0.0
 11
215.185158
 21
438.630901
 31
0.0
  0
LINE
  8
LC-003-005-----0
  6
CONTINUOUS
  5
130
 10
213.270593
 20
439.544763
 30
0.0
 11
215.519366
 21
441.793536
 31
0.0
  0
LINE
  8
LC-003-005-----0
  6
CONTINUOUS
  5
131
 10
213.604801
 20
442.707399
 30
0.0
 11
215.853574
 21
444.956171
 31
0.0
  0
LINE
  8
LC-003-005-----0
  6
CONTINUOUS
  5
132
 10
213.93901
 20
445.870034
 30
0.0
 11
216.187782
 21
448.118806
 31
0.0
  0
LINE
  8
LC-003-005-----0
  6
CONTINUOUS
  5
133
 10
214.273218
 20
449.032669
 30
0.0
 11
216.52199
 21
451.281442
 31
0.0
  0
LINE
  8
LC-003-005-----0
  6
CONTINUOUS
  5
134
 10
214.607426
 20
452.195304
 30
0.0
 11
216.856198
 21
454.444077
 31
0.0
  0
LINE
  8
LC-003-005-----0
  6
CONTINUOUS
  5
135
 10
214.941634
 20
455.357939
 30
0.0
 11
217.190407
 21
457.606712
 31
0.0
  0
LINE
  8
LC-003-005-----0
  6
CONTINUOUS
  5
136
 10
215.275842
 20
458.520575
 30
0.0
 11
217.524615
 21
460.769347
 31
0.0
  0
LINE
  8
LC-003-005-----0
  6
CONTINUOUS
  5
137
 10
215.61005
 20
461.68321
 30
0.0
 11
217.858823
 21
463.931983
 31
0.0
  0
LINE
  8
LC-003-005-----0
  6
CONTINUOUS
  5
138
 10
215.944258
 20
464.845845
 30
0.0
 11
218.193031
 21
467.094618
 31
0.0
  0
LINE
  8
LC-003-005-----0
  6
CONTINUOUS
  5
139
 10
216.278466
 20
468.00848
 30
0.0
 11
218.527239
 21
470.257253
 31
0.0
  0
LINE
  8
LC-003-005-----0
  6
CONTINUOUS
  5
13A
 10
216.612674
 20
471.171116
 30
0.0
 11
218.861447
 21
473.419888
 31
0.0
  0
LINE
  8
LC-003-005-----0
  6
CONTINUOUS
  5
13B
 10
216.946883
 20
474.333751
 30
0.0
 11
219.195655
 21
476.582524
 31
0.0
  0
LINE
  8
LC-003-005-----0
  6
CONTINUOUS
  5
13C
 10
217.281091
 20
477.496386
 30
0.0
 11
221.993143
 21
482.208439
 31
0.0
  0
LINE
  8
LC-003-005-----0
  6
CONTINUOUS
  5
13D
 10
217.615299
 20
480.659021
 30
0.0
 11
221.993143
 21
485.036866
 31
0.0
  0
LINE
  8
LC-003-005-----0
  6
CONTINUOUS
  5
13E
 10
217.949507
 20
483.821657
 30
0.0
 11
221.993143
 21
487.865293
 31
0.0
  0
LINE
  8
LC-003-005-----0
  6
CONTINUOUS
  5
13F
 10
218.283715
 20
486.984292
 30
0.0
 11
221.993143
 21
490.69372
 31
0.0
  0
LINE
  8
LC-003-005-----0
  6
CONTINUOUS
  5
140
 10
218.617923
 20
490.146927
 30
0.0
 11
221.993143
 21
493.522147
 31
0.0
  0
LINE
  8
LC-003-005-----0
  6
CONTINUOUS
  5
141
 10
218.952131
 20
493.309562
 30
0.0
 11
221.993143
 21
496.350574
 31
0.0
  0
LINE
  8
LC-003-005-----0
  6
CONTINUOUS
  5
142
 10
219.286339
 20
496.472198
 30
0.0
 11
221.993143
 21
499.179001
 31
0.0
  0
LINE
  8
LC-003-005-----0
  6
CONTINUOUS
  5
143
 10
228.106999
 20
505.292857
 30
0.0
 11
230.034978
 21
507.220836
 31
0.0
  0
LINE
  8
LC-003-005-----0
  6
CONTINUOUS
  5
144
 10
219.620547
 20
499.634833
 30
0.0
 11
221.993143
 21
502.007428
 31
0.0
  0
LINE
  8
LC-003-005-----0
  6
CONTINUOUS
  5
145
 10
225.37401
 20
505.388295
 30
0.0
 11
227.313591
 21
507.327876
 31
0.0
  0
LINE
  8
LC-003-005-----0
  6
CONTINUOUS
  5
146
 10
219.954756
 20
502.797468
 30
0.0
 11
224.580073
 21
507.422786
 31
0.0
  0
ENDBLK
  8
0
  5
147
  0
BLOCK
  8
0
  5
149
  2
*X14
 70
    65
 10
265.044003
 20
480.583376
 30
0.0
  3
*X14
  0
LINE
  8
LC-003-005-----0
  6
CONTINUOUS
  5
14A
 10
288.250331
 20
480.583376
 30
0.0
 11
289.450332
 21
481.783377
 31
0.0
  0
LINE
  8
LC-003-005-----0
  6
CONTINUOUS
  5
14B
 10
285.435053
 20
480.596524
 30
0.0
 11
286.621909
 21
481.783381
 31
0.0
  0
LINE
  8
LC-003-005-----0
  6
CONTINUOUS
  5
14C
 10
283.649969
 20
481.639868
 30
0.0
 11
285.191118
 21
483.181016
 31
0.0
  0
LINE
  8
LC-003-005-----0
  6
CONTINUOUS
  5
14D
 10
283.19096
 20
484.009285
 30
0.0
 11
285.191129
 21
486.009455
 31
0.0
  0
LINE
  8
LC-003-005-----0
  6
CONTINUOUS
  5
14E
 10
288.565052
 20
489.383378
 30
0.0
 11
289.765059
 21
490.583385
 31
0.0
  0
LINE
  8
LC-003-005-----0
  6
CONTINUOUS
  5
14F
 10
283.190846
 20
486.837599
 30
0.0
 11
285.191141
 21
488.837894
 31
0.0
  0
LINE
  8
LC-003-005-----0
  6
CONTINUOUS
  5
150
 10
285.736629
 20
489.383382
 30
0.0
 11
286.936632
 21
490.583385
 31
0.0
  0
LINE
  8
LC-003-005-----0
  6
CONTINUOUS
  5
151
 10
283.190847
 20
489.666027
 30
0.0
 11
286.409745
 21
492.884925
 31
0.0
  0
LINE
  8
LC-003-005-----0
  6
CONTINUOUS
  5
152
 10
283.190848
 20
492.494455
 30
0.0
 11
286.154992
 21
495.4586
 31
0.0
  0
LINE
  8
LC-003-005-----0
  6
CONTINUOUS
  5
153
 10
283.190848
 20
495.322883
 30
0.0
 11
285.884999
 21
498.017034
 31
0.0
  0
LINE
  8
LC-003-005-----0
  6
CONTINUOUS
  5
154
 10
283.049349
 20
498.009811
 30
0.0
 11
285.241512
 21
500.201974
 31
0.0
  0
LINE
  8
LC-003-005-----0
  6
CONTINUOUS
  5
155
 10
282.277623
 20
500.066512
 30
0.0
 11
284.198922
 21
501.98781
 31
0.0
  0
LINE
  8
LC-003-005-----0
  6
CONTINUOUS
  5
156
 10
281.040249
 20
501.657565
 30
0.0
 11
282.827766
 21
503.445082
 31
0.0
  0
LINE
  8
LC-003-005-----0
  6
CONTINUOUS
  5
157
 10
279.389941
 20
502.835684
 30
0.0
 11
281.135048
 21
504.580791
 31
0.0
  0
LINE
  8
LC-003-005-----0
  6
CONTINUOUS
  5
158
 10
277.254077
 20
503.528247
 30
0.0
 11
279.071378
 21
505.345548
 31
0.0
  0
LINE
  8
LC-003-005-----0
  6
CONTINUOUS
  5
159
 10
274.567813
 20
503.67041
 30
0.0
 11
276.507394
 21
505.609991
 31
0.0
  0
LINE
  8
LC-003-005-----0
  6
CONTINUOUS
  5
15A
 10
271.834824
 20
503.765848
 30
0.0
 11
273.774405
 21
505.705429
 31
0.0
  0
LINE
  8
LC-003-005-----0
  6
CONTINUOUS
  5
15B
 10
269.101834
 20
503.861286
 30
0.0
 11
271.041415
 21
505.800867
 31
0.0
  0
LINE
  8
LC-003-005-----0
  6
CONTINUOUS
  5
15C
 10
266.368845
 20
503.956724
 30
0.0
 11
268.308426
 21
505.896305
 31
0.0
  0
LINE
  8
LC-003-005-----0
  6
CONTINUOUS
  5
15D
 10
265.096735
 20
505.513041
 30
0.0
 11
265.575437
 21
505.991743
 31
0.0
  0
ENDBLK
  8
0
  5
15E
  0
BLOCK
  8
0
  5
160
  2
BLK4
 70
    64
 10
0.0
 20
0.0
 30
0.0
  3
BLK4
  0
ENDBLK
  8
0
  5
161
  0
BLOCK
  8
0
  5
163
  2
*X16
 70
    65
 10
292.959023
 20
420.377151
 30
0.0
  3
*X16
  0
LINE
  8
LC-003-005-----0
  6
CONTINUOUS
  5
164
 10
424.959023
 20
423.569115
 30
0.0
 11
424.144417
 21
424.38372
 31
0.0
  0
LINE
  8
LC-003-005-----0
  6
CONTINUOUS
  5
165
 10
424.018734
 20
421.680976
 30
0.0
 11
421.292996
 21
424.406715
 31
0.0
  0
LINE
  8
LC-003-005-----0
  6
CONTINUOUS
  5
166
 10
421.494132
 20
421.377151
 30
0.0
 11
418.441574
 21
424.429709
 31
0.0
  0
LINE
  8
LC-003-005-----0
  6
CONTINUOUS
  5
167
 10
418.665705
 20
421.377151
 30
0.0
 11
415.590153
 21
424.452703
 31
0.0
  0
LINE
  8
LC-003-005-----0
  6
CONTINUOUS
  5
168
 10
415.837278
 20
421.377151
 30
0.0
 11
412.738732
 21
424.475697
 31
0.0
  0
LINE
  8
LC-003-005-----0
  6
CONTINUOUS
  5
169
 10
413.008851
 20
421.377151
 30
0.0
 11
409.88731
 21
424.498692
 31
0.0
  0
LINE
  8
LC-003-005-----0
  6
CONTINUOUS
  5
16A
 10
410.180423
 20
421.377151
 30
0.0
 11
407.035889
 21
424.521686
 31
0.0
  0
LINE
  8
LC-003-005-----0
  6
CONTINUOUS
  5
16B
 10
407.351996
 20
421.377151
 30
0.0
 11
404.184467
 21
424.54468
 31
0.0
  0
LINE
  8
LC-003-005-----0
  6
CONTINUOUS
  5
16C
 10
404.523569
 20
421.377151
 30
0.0
 11
401.333046
 21
424.567674
 31
0.0
  0
LINE
  8
LC-003-005-----0
  6
CONTINUOUS
  5
16D
 10
401.695142
 20
421.377151
 30
0.0
 11
398.481625
 21
424.590669
 31
0.0
  0
LINE
  8
LC-003-005-----0
  6
CONTINUOUS
  5
16E
 10
398.866715
 20
421.377151
 30
0.0
 11
395.630203
 21
424.613663
 31
0.0
  0
LINE
  8
LC-003-005-----0
  6
CONTINUOUS
  5
16F
 10
396.038288
 20
421.377151
 30
0.0
 11
392.778782
 21
424.636657
 31
0.0
  0
LINE
  8
LC-003-005-----0
  6
CONTINUOUS
  5
170
 10
393.209861
 20
421.377151
 30
0.0
 11
389.92736
 21
424.659651
 31
0.0
  0
LINE
  8
LC-003-005-----0
  6
CONTINUOUS
  5
171
 10
390.381434
 20
421.377151
 30
0.0
 11
387.075939
 21
424.682646
 31
0.0
  0
LINE
  8
LC-003-005-----0
  6
CONTINUOUS
  5
172
 10
384.959023
 20
426.799562
 30
0.0
 11
383.871952
 21
427.886633
 31
0.0
  0
LINE
  8
LC-003-005-----0
  6
CONTINUOUS
  5
173
 10
387.553006
 20
421.377151
 30
0.0
 11
381.018639
 21
427.911519
 31
0.0
  0
LINE
  8
LC-003-005-----0
  6
CONTINUOUS
  5
174
 10
384.724579
 20
421.377151
 30
0.0
 11
381.959023
 21
424.142708
 31
0.0
  0
LINE
  8
LC-003-005-----0
  6
CONTINUOUS
  5
175
 10
381.224579
 20
424.877151
 30
0.0
 11
378.165325
 21
427.936405
 31
0.0
  0
LINE
  8
LC-003-005-----0
  6
CONTINUOUS
  5
176
 10
378.396152
 20
424.877151
 30
0.0
 11
375.312012
 21
427.961292
 31
0.0
  0
LINE
  8
LC-003-005-----0
  6
CONTINUOUS
  5
177
 10
375.567725
 20
424.877151
 30
0.0
 11
372.458698
 21
427.986178
 31
0.0
  0
LINE
  8
LC-003-005-----0
  6
CONTINUOUS
  5
178
 10
372.739298
 20
424.877151
 30
0.0
 11
369.605385
 21
428.011064
 31
0.0
  0
LINE
  8
LC-003-005-----0
  6
CONTINUOUS
  5
179
 10
369.910871
 20
424.877151
 30
0.0
 11
366.752071
 21
428.035951
 31
0.0
  0
LINE
  8
LC-003-005-----0
  6
CONTINUOUS
  5
17A
 10
367.082444
 20
424.877151
 30
0.0
 11
363.898758
 21
428.060837
 31
0.0
  0
LINE
  8
LC-003-005-----0
  6
CONTINUOUS
  5
17B
 10
364.254017
 20
424.877151
 30
0.0
 11
361.045444
 21
428.085724
 31
0.0
  0
LINE
  8
LC-003-005-----0
  6
CONTINUOUS
  5
17C
 10
361.425589
 20
424.877151
 30
0.0
 11
358.192131
 21
428.11061
 31
0.0
  0
LINE
  8
LC-003-005-----0
  6
CONTINUOUS
  5
17D
 10
358.597162
 20
424.877151
 30
0.0
 11
355.338817
 21
428.135496
 31
0.0
  0
LINE
  8
LC-003-005-----0
  6
CONTINUOUS
  5
17E
 10
355.768735
 20
424.877151
 30
0.0
 11
352.485504
 21
428.160383
 31
0.0
  0
LINE
  8
LC-003-005-----0
  6
CONTINUOUS
  5
17F
 10
352.940308
 20
424.877151
 30
0.0
 11
349.63219
 21
428.185269
 31
0.0
  0
LINE
  8
LC-003-005-----0
  6
CONTINUOUS
  5
180
 10
350.111881
 20
424.877151
 30
0.0
 11
345.235344
 21
429.753688
 31
0.0
  0
LINE
  8
LC-003-005-----0
  6
CONTINUOUS
  5
181
 10
347.283454
 20
424.877151
 30
0.0
 11
343.072581
 21
429.088024
 31
0.0
  0
LINE
  8
LC-003-005-----0
  6
CONTINUOUS
  5
182
 10
344.455027
 20
424.877151
 30
0.0
 11
341.397475
 21
427.934703
 31
0.0
  0
LINE
  8
LC-003-005-----0
  6
CONTINUOUS
  5
183
 10
341.749194
 20
424.754557
 30
0.0
 11
339.619625
 21
426.884126
 31
0.0
  0
LINE
  8
LC-003-005-----0
  6
CONTINUOUS
  5
184
 10
339.90909
 20
423.766233
 30
0.0
 11
337.733313
 21
425.942011
 31
0.0
  0
LINE
  8
LC-003-005-----0
  6
CONTINUOUS
  5
185
 10
337.966591
 20
422.880306
 30
0.0
 11
335.730464
 21
425.116433
 31
0.0
  0
LINE
  8
LC-003-005-----0
  6
CONTINUOUS
  5
186
 10
335.913824
 20
422.104645
 30
0.0
 11
333.599835
 21
424.418634
 31
0.0
  0
LINE
  8
LC-003-005-----0
  6
CONTINUOUS
  5
187
 10
333.740154
 20
421.449888
 30
0.0
 11
331.325686
 21
423.864356
 31
0.0
  0
LINE
  8
LC-003-005-----0
  6
CONTINUOUS
  5
188
 10
331.431057
 20
420.930558
 30
0.0
 11
328.885475
 21
423.476141
 31
0.0
  0
LINE
  8
LC-003-005-----0
  6
CONTINUOUS
  5
189
 10
328.966243
 20
420.566945
 30
0.0
 11
326.245584
 21
423.287604
 31
0.0
  0
LINE
  8
LC-003-005-----0
  6
CONTINUOUS
  5
18A
 10
326.316301
 20
420.38846
 30
0.0
 11
323.352562
 21
423.352199
 31
0.0
  0
LINE
  8
LC-003-005-----0
  6
CONTINUOUS
  5
18B
 10
323.499183
 20
420.377151
 30
0.0
 11
320.112278
 21
423.764056
 31
0.0
  0
LINE
  8
LC-003-005-----0
  6
CONTINUOUS
  5
18C
 10
320.670755
 20
420.377151
 30
0.0
 11
317.193726
 21
423.854181
 31
0.0
  0
LINE
  8
LC-003-005-----0
  6
CONTINUOUS
  5
18D
 10
317.842328
 20
420.377151
 30
0.0
 11
316.959023
 21
421.260457
 31
0.0
  0
ENDBLK
  8
0
  5
18E
  0
BLOCK
  8
0
  5
190
  2
*X17
 70
    65
 10
292.959023
 20
420.377151
 30
0.0
  3
*X17
  0
LINE
  8
LC-003-005-----0
  6
CONTINUOUS
  5
191
 10
424.823012
 20
483.102095
 30
0.0
 11
423.683966
 21
484.241141
 31
0.0
  0
LINE
  8
LC-003-005-----0
  6
CONTINUOUS
  5
192
 10
423.729444
 20
481.367236
 30
0.0
 11
420.719529
 21
484.377151
 31
0.0
  0
LINE
  8
LC-003-005-----0
  6
CONTINUOUS
  5
193
 10
420.923643
 20
481.344609
 30
0.0
 11
417.891102
 21
484.377151
 31
0.0
  0
LINE
  8
LC-003-005-----0
  6
CONTINUOUS
  5
194
 10
418.117843
 20
481.321983
 30
0.0
 11
415.062674
 21
484.377151
 31
0.0
  0
LINE
  8
LC-003-005-----0
  6
CONTINUOUS
  5
195
 10
415.312042
 20
481.299357
 30
0.0
 11
412.234247
 21
484.377151
 31
0.0
  0
LINE
  8
LC-003-005-----0
  6
CONTINUOUS
  5
196
 10
412.506241
 20
481.27673
 30
0.0
 11
409.40582
 21
484.377151
 31
0.0
  0
LINE
  8
LC-003-005-----0
  6
CONTINUOUS
  5
197
 10
409.70044
 20
481.254104
 30
0.0
 11
406.577393
 21
484.377151
 31
0.0
  0
LINE
  8
LC-003-005-----0
  6
CONTINUOUS
  5
198
 10
406.89464
 20
481.231477
 30
0.0
 11
403.748966
 21
484.377151
 31
0.0
  0
LINE
  8
LC-003-005-----0
  6
CONTINUOUS
  5
199
 10
404.088839
 20
481.208851
 30
0.0
 11
400.920539
 21
484.377151
 31
0.0
  0
LINE
  8
LC-003-005-----0
  6
CONTINUOUS
  5
19A
 10
401.283038
 20
481.186225
 30
0.0
 11
398.092112
 21
484.377151
 31
0.0
  0
LINE
  8
LC-003-005-----0
  6
CONTINUOUS
  5
19B
 10
398.477237
 20
481.163598
 30
0.0
 11
395.263685
 21
484.377151
 31
0.0
  0
LINE
  8
LC-003-005-----0
  6
CONTINUOUS
  5
19C
 10
395.671437
 20
481.140972
 30
0.0
 11
392.435257
 21
484.377151
 31
0.0
  0
LINE
  8
LC-003-005-----0
  6
CONTINUOUS
  5
19D
 10
392.865636
 20
481.118346
 30
0.0
 11
389.60683
 21
484.377151
 31
0.0
  0
LINE
  8
LC-003-005-----0
  6
CONTINUOUS
  5
19E
 10
390.059835
 20
481.095719
 30
0.0
 11
386.778403
 21
484.377151
 31
0.0
  0
LINE
  8
LC-003-005-----0
  6
CONTINUOUS
  5
19F
 10
384.959023
 20
486.196532
 30
0.0
 11
383.778403
 21
487.377151
 31
0.0
  0
LINE
  8
LC-003-005-----0
  6
CONTINUOUS
  5
1A0
 10
387.254034
 20
481.073093
 30
0.0
 11
381.959023
 21
486.368105
 31
0.0
  0
LINE
  8
LC-003-005-----0
  6
CONTINUOUS
  5
1A1
 10
384.959023
 20
480.539678
 30
0.0
 11
381.959023
 21
483.539678
 31
0.0
  0
LINE
  8
LC-003-005-----0
  6
CONTINUOUS
  5
1A2
 10
384.794556
 20
477.875717
 30
0.0
 11
381.719757
 21
480.950516
 31
0.0
  0
LINE
  8
LC-003-005-----0
  6
CONTINUOUS
  5
1A3
 10
381.990585
 20
477.851261
 30
0.0
 11
378.964695
 21
480.877151
 31
0.0
  0
LINE
  8
LC-003-005-----0
  6
CONTINUOUS
  5
1A4
 10
379.186614
 20
477.826805
 30
0.0
 11
376.136268
 21
480.877151
 31
0.0
  0
LINE
  8
LC-003-005-----0
  6
CONTINUOUS
  5
1A5
 10
376.382643
 20
477.802349
 30
0.0
 11
373.30784
 21
480.877151
 31
0.0
  0
LINE
  8
LC-003-005-----0
  6
CONTINUOUS
  5
1A6
 10
373.578672
 20
477.777893
 30
0.0
 11
370.479413
 21
480.877151
 31
0.0
  0
LINE
  8
LC-003-005-----0
  6
CONTINUOUS
  5
1A7
 10
370.774701
 20
477.753437
 30
0.0
 11
367.650986
 21
480.877151
 31
0.0
  0
LINE
  8
LC-003-005-----0
  6
CONTINUOUS
  5
1A8
 10
367.97073
 20
477.728981
 30
0.0
 11
364.822559
 21
480.877151
 31
0.0
  0
LINE
  8
LC-003-005-----0
  6
CONTINUOUS
  5
1A9
 10
365.166758
 20
477.704525
 30
0.0
 11
361.994132
 21
480.877151
 31
0.0
  0
LINE
  8
LC-003-005-----0
  6
CONTINUOUS
  5
1AA
 10
362.362787
 20
477.680069
 30
0.0
 11
359.165705
 21
480.877151
 31
0.0
  0
LINE
  8
LC-003-005-----0
  6
CONTINUOUS
  5
1AB
 10
359.558816
 20
477.655613
 30
0.0
 11
356.337278
 21
480.877151
 31
0.0
  0
LINE
  8
LC-003-005-----0
  6
CONTINUOUS
  5
1AC
 10
356.754845
 20
477.631157
 30
0.0
 11
353.508851
 21
480.877151
 31
0.0
  0
LINE
  8
LC-003-005-----0
  6
CONTINUOUS
  5
1AD
 10
353.950874
 20
477.606701
 30
0.0
 11
350.680423
 21
480.877151
 31
0.0
  0
LINE
  8
LC-003-005-----0
  6
CONTINUOUS
  5
1AE
 10
351.146903
 20
477.582245
 30
0.0
 11
347.851996
 21
480.877151
 31
0.0
  0
LINE
  8
LC-003-005-----0
  6
CONTINUOUS
  5
1AF
 10
348.342932
 20
477.557789
 30
0.0
 11
345.023569
 21
480.877151
 31
0.0
  0
LINE
  8
LC-003-005-----0
  6
CONTINUOUS
  5
1B0
 10
346.938023
 20
476.134271
 30
0.0
 11
342.195142
 21
480.877151
 31
0.0
  0
LINE
  8
LC-003-005-----0
  6
CONTINUOUS
  5
1B1
 10
344.243252
 20
476.000615
 30
0.0
 11
336.975638
 21
483.268228
 31
0.0
  0
LINE
  8
LC-003-005-----0
  6
CONTINUOUS
  5
1B2
 10
337.496472
 20
479.918967
 30
0.0
 11
332.902054
 21
484.513385
 31
0.0
  0
LINE
  8
LC-003-005-----0
  6
CONTINUOUS
  5
1B3
 10
333.117867
 20
481.469145
 30
0.0
 11
329.456661
 21
485.130351
 31
0.0
  0
LINE
  8
LC-003-005-----0
  6
CONTINUOUS
  5
1B4
 10
329.568021
 20
482.190563
 30
0.0
 11
326.394912
 21
485.363673
 31
0.0
  0
LINE
  8
LC-003-005-----0
  6
CONTINUOUS
  5
1B5
 10
326.470286
 20
482.459872
 30
0.0
 11
323.553006
 21
485.377151
 31
0.0
  0
LINE
  8
LC-003-005-----0
  6
CONTINUOUS
  5
1B6
 10
323.678198
 20
482.423533
 30
0.0
 11
320.724579
 21
485.377151
 31
0.0
  0
LINE
  8
LC-003-005-----0
  6
CONTINUOUS
  5
1B7
 10
321.116434
 20
482.15687
 30
0.0
 11
317.896152
 21
485.377151
 31
0.0
  0
LINE
  8
LC-003-005-----0
  6
CONTINUOUS
  5
1B8
 10
318.740323
 20
481.704553
 30
0.0
 11
316.959023
 21
483.485854
 31
0.0
  0
ENDBLK
  8
0
  5
1B9
  0
BLOCK
  8
0
  5
1BB
  2
*D18
 70
    65
 10
0.0
 20
0.0
 30
0.0
  3
*D18
  0
TEXT
  8
LC-007-003-----0
  6
CONTINUOUS
 62
     8
  5
1BC
 10
421.506398
 20
323.353657
 30
0.0
 40
28.0
  1
 15%%d
 50
56.3
 41
0.9
 51
15.0
  7
LC-TXTSTYLE-150-400-0-0-A0
 72
     1
 11
454.209317
 21
372.389616
 31
0.0
  0
LINE
  8
LC-007-003-----0
  6
CONTINUOUS
  5
1BD
 10
481.787072
 20
382.034496
 30
0.0
 11
487.734561
 21
409.395552
 31
0.0
  0
LINE
  8
LC-007-003-----0
  6
CONTINUOUS
  5
1BE
 10
487.734561
 20
409.395552
 30
0.0
 11
474.908165
 21
384.506125
 31
0.0
  0
LINE
  8
LC-007-003-----0
  6
CONTINUOUS
  5
1BF
 10
474.908165
 20
384.506125
 30
0.0
 11
481.787072
 21
382.034496
 31
0.0
  0
LINE
  8
LC-007-003-----0
  6
CONTINUOUS
  5
1C0
 10
480.871754
 20
382.297195
 30
0.0
 11
485.272896
 21
402.544376
 31
0.0
  0
LINE
  8
LC-007-003-----0
  6
CONTINUOUS
  5
1C1
 10
485.272896
 20
402.544376
 30
0.0
 11
475.781363
 21
384.1262
 31
0.0
  0
LINE
  8
LC-007-003-----0
  6
CONTINUOUS
  5
1C2
 10
479.956437
 20
382.559894
 30
0.0
 11
482.811231
 21
395.693201
 31
0.0
  0
LINE
  8
LC-007-003-----0
  6
CONTINUOUS
  5
1C3
 10
482.811231
 20
395.693201
 30
0.0
 11
476.654561
 21
383.746276
 31
0.0
  0
LINE
  8
LC-007-003-----0
  6
CONTINUOUS
  5
1C4
 10
479.041119
 20
382.822593
 30
0.0
 11
480.349566
 21
388.842025
 31
0.0
  0
LINE
  8
LC-007-003-----0
  6
CONTINUOUS
  5
1C5
 10
480.349566
 20
388.842025
 30
0.0
 11
477.527759
 21
383.366351
 31
0.0
  0
LINE
  8
LC-007-003-----0
  6
CONTINUOUS
  5
1C6
 10
487.511533
 20
480.238207
 30
0.0
 11
493.459023
 21
452.877151
 31
0.0
  0
LINE
  8
LC-007-003-----0
  6
CONTINUOUS
  5
1C7
 10
493.459023
 20
452.877151
 30
0.0
 11
494.795751
 21
480.845225
 31
0.0
  0
LINE
  8
LC-007-003-----0
  6
CONTINUOUS
  5
1C8
 10
494.795751
 20
480.845225
 30
0.0
 11
487.511533
 21
480.238207
 31
0.0
  0
LINE
  8
LC-007-003-----0
  6
CONTINUOUS
  5
1C9
 10
488.453309
 20
480.379186
 30
0.0
 11
492.854452
 21
460.132004
 31
0.0
  0
LINE
  8
LC-007-003-----0
  6
CONTINUOUS
  5
1CA
 10
492.854452
 20
460.132004
 30
0.0
 11
493.843631
 21
480.828379
 31
0.0
  0
LINE
  8
LC-007-003-----0
  6
CONTINUOUS
  5
1CB
 10
489.395086
 20
480.520164
 30
0.0
 11
492.24988
 21
467.386857
 31
0.0
  0
LINE
  8
LC-007-003-----0
  6
CONTINUOUS
  5
1CC
 10
492.24988
 20
467.386857
 30
0.0
 11
492.89151
 21
480.811533
 31
0.0
  0
LINE
  8
LC-007-003-----0
  6
CONTINUOUS
  5
1CD
 10
490.336862
 20
480.661143
 30
0.0
 11
491.645309
 21
474.641711
 31
0.0
  0
LINE
  8
LC-007-003-----0
  6
CONTINUOUS
  5
1CE
 10
491.645309
 20
474.641711
 30
0.0
 11
491.93939
 21
480.794687
 31
0.0
  0
ARC
  8
LC-009-003-MTG-0
  6
CONTINUOUS
  5
1CF
 10
325.459023
 20
452.877151
 30
0.0
 40
168.0
 50
313.462599
 51
13.134022
  0
LINE
  8
LC-008-003-MTH-0
  6
CONTINUOUS
  5
1D0
 10
421.568642
 20
427.124656
 30
0.0
 11
491.598265
 21
408.360275
 31
0.0
  0
LINE
  8
LC-008-003-MTH-0
  6
CONTINUOUS
  5
1D1
 10
424.959023
 20
452.877151
 30
0.0
 11
497.459023
 21
452.877151
 31
0.0
  0
ENDBLK
  8
0
  5
1D2
  0
BLOCK
  8
0
  5
1D4
  2
*D19
 70
    65
 10
0.0
 20
0.0
 30
0.0
  3
*D19
  0
LINE
  8
LC-008-003-MTH-0
  6
CONTINUOUS
  5
1D5
 10
214.33164
 20
430.553997
 30
0.0
 11
268.8
 21
430.553997
 31
0.0
  0
LINE
  8
LC-008-003-MTH-0
  6
CONTINUOUS
  5
1D6
 10
268.991064
 20
480.387697
 30
0.0
 11
235.2
 21
480.387697
 31
0.0
  0
LINE
  8
LC-007-003-----0
  6
CONTINUOUS
  5
1D7
 10
255.654733
 20
402.793541
 30
0.0
 11
252.0
 21
430.553997
 31
0.0
  0
LINE
  8
LC-007-003-----0
  6
CONTINUOUS
  5
1D8
 10
252.0
 20
430.553997
 30
0.0
 11
248.345267
 21
402.793541
 31
0.0
  0
LINE
  8
LC-007-003-----0
  6
CONTINUOUS
  5
1D9
 10
248.345267
 20
402.793541
 30
0.0
 11
255.654733
 21
402.793541
 31
0.0
  0
LINE
  8
LC-007-003-----0
  6
CONTINUOUS
  5
1DA
 10
254.704503
 20
402.73126
 30
0.0
 11
252.0
 21
423.273997
 31
0.0
  0
LINE
  8
LC-007-003-----0
  6
CONTINUOUS
  5
1DB
 10
252.0
 20
423.273997
 30
0.0
 11
249.295497
 21
402.73126
 31
0.0
  0
LINE
  8
LC-007-003-----0
  6
CONTINUOUS
  5
1DC
 10
253.754272
 20
402.668978
 30
0.0
 11
252.0
 21
415.993997
 31
0.0
  0
LINE
  8
LC-007-003-----0
  6
CONTINUOUS
  5
1DD
 10
252.0
 20
415.993997
 30
0.0
 11
250.245728
 21
402.668978
 31
0.0
  0
LINE
  8
LC-007-003-----0
  6
CONTINUOUS
  5
1DE
 10
252.804041
 20
402.606697
 30
0.0
 11
252.0
 21
408.713997
 31
0.0
  0
LINE
  8
LC-007-003-----0
  6
CONTINUOUS
  5
1DF
 10
252.0
 20
408.713997
 30
0.0
 11
251.195959
 21
402.606697
 31
0.0
  0
LINE
  8
LC-007-003-----0
  6
CONTINUOUS
  5
1E0
 10
249.253626
 20
501.248477
 30
0.0
 11
252.0
 21
480.387697
 31
0.0
  0
LINE
  8
LC-007-003-----0
  6
CONTINUOUS
  5
1E1
 10
252.0
 20
480.387697
 30
0.0
 11
254.721237
 21
501.057543
 31
0.0
  0
LINE
  8
LC-007-003-----0
  6
CONTINUOUS
  5
1E2
 10
250.216483
 20
501.214853
 30
0.0
 11
252.0
 21
487.667697
 31
0.0
  0
LINE
  8
LC-007-003-----0
  6
CONTINUOUS
  5
1E3
 10
252.0
 20
487.667697
 30
0.0
 11
253.767193
 21
501.090859
 31
0.0
  0
LINE
  8
LC-007-003-----0
  6
CONTINUOUS
  5
1E4
 10
251.17934
 20
501.181229
 30
0.0
 11
252.0
 21
494.947697
 31
0.0
  0
LINE
  8
LC-007-003-----0
  6
CONTINUOUS
  5
1E5
 10
252.0
 20
494.947697
 30
0.0
 11
252.813149
 21
501.124175
 31
0.0
  0
LINE
  8
LC-009-003-MTG-0
  6
CONTINUOUS
  5
1E6
 10
252.0
 20
391.353997
 30
0.0
 11
252.0
 21
501.152571
 31
0.0
  0
LINE
  8
LC-009-003-MTG-0
  6
CONTINUOUS
  5
1E7
 10
252.0
 20
510.658362
 30
0.0
 11
252.0
 21
519.587697
 31
0.0
  0
TEXT
  8
LC-007-003-----0
  6
CONTINUOUS
 62
     8
  5
1E8
 10
244.172446
 20
445.150507
 30
0.0
 40
28.0
  1
50
 50
90.0
 41
0.75
 51
15.0
  7
LC-TXTSTYLE-150-400-0-0-A0
 72
     1
 11
244.172446
 21
459.819007
 31
0.0
  0
ENDBLK
  8
0
  5
1E9
  0
BLOCK
  8
0
  5
1EB
  2
*X20
 70
    65
 10
149.541064
 20
500.706196
 30
0.0
  3
*X20
  0
LINE
  8
LC-003-005-----0
  6
CONTINUOUS
  5
1EC
 10
152.182847
 20
501.183819
 30
0.0
 11
152.541064
 21
500.825602
 31
0.0
  0
LINE
  8
LC-003-005-----0
  6
CONTINUOUS
  5
1ED
 10
149.541064
 20
506.654029
 30
0.0
 11
152.541064
 21
503.654029
 31
0.0
  0
LINE
  8
LC-003-005-----0
  6
CONTINUOUS
  5
1EE
 10
149.541064
 20
509.482456
 30
0.0
 11
152.541064
 21
506.482456
 31
0.0
  0
LINE
  8
LC-003-005-----0
  6
CONTINUOUS
  5
1EF
 10
149.541064
 20
512.310884
 30
0.0
 11
152.541064
 21
509.310884
 31
0.0
  0
LINE
  8
LC-003-005-----0
  6
CONTINUOUS
  5
1F0
 10
149.541064
 20
515.139311
 30
0.0
 11
152.541064
 21
512.139311
 31
0.0
  0
LINE
  8
LC-003-005-----0
  6
CONTINUOUS
  5
1F1
 10
149.541064
 20
517.967738
 30
0.0
 11
152.541064
 21
514.967738
 31
0.0
  0
LINE
  8
LC-003-005-----0
  6
CONTINUOUS
  5
1F2
 10
151.131875
 20
519.205354
 30
0.0
 11
152.541064
 21
517.796165
 31
0.0
  0
ENDBLK
  8
0
  5
1F3
  0
BLOCK
  8
0
  5
1F5
  2
*X21
 70
    65
 10
300.441064
 20
500.706196
 30
0.0
  3
*X21
  0
LINE
  8
LC-003-005-----0
  6
CONTINUOUS
  5
1F6
 10
300.441064
 20
502.83224
 30
0.0
 11
301.352225
 21
501.921079
 31
0.0
  0
LINE
  8
LC-003-005-----0
  6
CONTINUOUS
  5
1F7
 10
300.441064
 20
505.660667
 30
0.0
 11
302.564407
 21
503.537324
 31
0.0
  0
LINE
  8
LC-003-005-----0
  6
CONTINUOUS
  5
1F8
 10
300.441064
 20
508.489094
 30
0.0
 11
303.441064
 21
505.489094
 31
0.0
  0
LINE
  8
LC-003-005-----0
  6
CONTINUOUS
  5
1F9
 10
300.441064
 20
511.317521
 30
0.0
 11
303.441064
 21
508.317521
 31
0.0
  0
LINE
  8
LC-003-005-----0
  6
CONTINUOUS
  5
1FA
 10
300.441064
 20
514.145948
 30
0.0
 11
303.441064
 21
511.145948
 31
0.0
  0
LINE
  8
LC-003-005-----0
  6
CONTINUOUS
  5
1FB
 10
300.441064
 20
516.974375
 30
0.0
 11
303.441064
 21
513.974375
 31
0.0
  0
LINE
  8
LC-003-005-----0
  6
CONTINUOUS
  5
1FC
 10
301.038513
 20
519.205354
 30
0.0
 11
303.441064
 21
516.802803
 31
0.0
  0
ENDBLK
  8
0
  5
1FD
  0
BLOCK
  8
0
  5
1FF
  2
*X22
 70
    65
 10
-23.508936
 20
526.016013
 30
0.0
  3
*X22
  0
LINE
  8
LC-003-005-----0
  6
CONTINUOUS
  5
200
 10
-13.647883
 20
526.016013
 30
0.0
 11
-13.508936
 21
526.154959
 31
0.0
  0
LINE
  8
LC-003-005-----0
  6
CONTINUOUS
  5
201
 10
-13.930726
 20
526.016013
 30
0.0
 11
-13.508936
 21
526.437802
 31
0.0
  0
LINE
  8
LC-003-005-----0
  6
CONTINUOUS
  5
202
 10
-14.213568
 20
526.016013
 30
0.0
 11
-13.508936
 21
526.720645
 31
0.0
  0
LINE
  8
LC-003-005-----0
  6
CONTINUOUS
  5
203
 10
-14.496411
 20
526.016013
 30
0.0
 11
-13.508936
 21
527.003487
 31
0.0
  0
LINE
  8
LC-003-005-----0
  6
CONTINUOUS
  5
204
 10
-14.779254
 20
526.016013
 30
0.0
 11
-13.508936
 21
527.28633
 31
0.0
  0
LINE
  8
LC-003-005-----0
  6
CONTINUOUS
  5
205
 10
-15.062096
 20
526.016013
 30
0.0
 11
-13.508936
 21
527.569173
 31
0.0
  0
LINE
  8
LC-003-005-----0
  6
CONTINUOUS
  5
206
 10
-15.344939
 20
526.016013
 30
0.0
 11
-13.508936
 21
527.852015
 31
0.0
  0
LINE
  8
LC-003-005-----0
  6
CONTINUOUS
  5
207
 10
-15.627782
 20
526.016013
 30
0.0
 11
-13.508936
 21
528.134858
 31
0.0
  0
LINE
  8
LC-003-005-----0
  6
CONTINUOUS
  5
208
 10
-15.910625
 20
526.016013
 30
0.0
 11
-13.508936
 21
528.417701
 31
0.0
  0
LINE
  8
LC-003-005-----0
  6
CONTINUOUS
  5
209
 10
-16.193467
 20
526.016013
 30
0.0
 11
-13.508936
 21
528.700543
 31
0.0
  0
LINE
  8
LC-003-005-----0
  6
CONTINUOUS
  5
20A
 10
-16.47631
 20
526.016013
 30
0.0
 11
-13.508936
 21
528.983386
 31
0.0
  0
LINE
  8
LC-003-005-----0
  6
CONTINUOUS
  5
20B
 10
-16.759153
 20
526.016013
 30
0.0
 11
-13.508936
 21
529.266229
 31
0.0
  0
LINE
  8
LC-003-005-----0
  6
CONTINUOUS
  5
20C
 10
-17.041995
 20
526.016013
 30
0.0
 11
-13.508936
 21
529.549072
 31
0.0
  0
LINE
  8
LC-003-005-----0
  6
CONTINUOUS
  5
20D
 10
-17.324838
 20
526.016013
 30
0.0
 11
-13.508936
 21
529.831914
 31
0.0
  0
LINE
  8
LC-003-005-----0
  6
CONTINUOUS
  5
20E
 10
-17.607681
 20
526.016013
 30
0.0
 11
-13.607681
 21
530.016013
 31
0.0
  0
LINE
  8
LC-003-005-----0
  6
CONTINUOUS
  5
20F
 10
-17.890524
 20
526.016013
 30
0.0
 11
-13.890524
 21
530.016013
 31
0.0
  0
LINE
  8
LC-003-005-----0
  6
CONTINUOUS
  5
210
 10
-18.173366
 20
526.016013
 30
0.0
 11
-14.173366
 21
530.016013
 31
0.0
  0
LINE
  8
LC-003-005-----0
  6
CONTINUOUS
  5
211
 10
-18.456209
 20
526.016013
 30
0.0
 11
-14.456209
 21
530.016013
 31
0.0
  0
LINE
  8
LC-003-005-----0
  6
CONTINUOUS
  5
212
 10
-18.739052
 20
526.016013
 30
0.0
 11
-14.739052
 21
530.016013
 31
0.0
  0
LINE
  8
LC-003-005-----0
  6
CONTINUOUS
  5
213
 10
-19.021894
 20
526.016013
 30
0.0
 11
-15.021894
 21
530.016013
 31
0.0
  0
LINE
  8
LC-003-005-----0
  6
CONTINUOUS
  5
214
 10
-19.304737
 20
526.016013
 30
0.0
 11
-15.304737
 21
530.016013
 31
0.0
  0
LINE
  8
LC-003-005-----0
  6
CONTINUOUS
  5
215
 10
-19.58758
 20
526.016013
 30
0.0
 11
-15.58758
 21
530.016013
 31
0.0
  0
LINE
  8
LC-003-005-----0
  6
CONTINUOUS
  5
216
 10
-19.870423
 20
526.016013
 30
0.0
 11
-15.870423
 21
530.016013
 31
0.0
  0
LINE
  8
LC-003-005-----0
  6
CONTINUOUS
  5
217
 10
-20.153265
 20
526.016013
 30
0.0
 11
-16.153265
 21
530.016013
 31
0.0
  0
LINE
  8
LC-003-005-----0
  6
CONTINUOUS
  5
218
 10
-20.436108
 20
526.016013
 30
0.0
 11
-16.436108
 21
530.016013
 31
0.0
  0
LINE
  8
LC-003-005-----0
  6
CONTINUOUS
  5
219
 10
-20.718951
 20
526.016013
 30
0.0
 11
-16.718951
 21
530.016013
 31
0.0
  0
LINE
  8
LC-003-005-----0
  6
CONTINUOUS
  5
21A
 10
-21.001793
 20
526.016013
 30
0.0
 11
-17.001793
 21
530.016013
 31
0.0
  0
LINE
  8
LC-003-005-----0
  6
CONTINUOUS
  5
21B
 10
-21.284636
 20
526.016013
 30
0.0
 11
-17.284636
 21
530.016013
 31
0.0
  0
LINE
  8
LC-003-005-----0
  6
CONTINUOUS
  5
21C
 10
-21.567479
 20
526.016013
 30
0.0
 11
-17.567479
 21
530.016013
 31
0.0
  0
LINE
  8
LC-003-005-----0
  6
CONTINUOUS
  5
21D
 10
-21.850322
 20
526.016013
 30
0.0
 11
-17.850322
 21
530.016013
 31
0.0
  0
LINE
  8
LC-003-005-----0
  6
CONTINUOUS
  5
21E
 10
-22.133164
 20
526.016013
 30
0.0
 11
-18.133164
 21
530.016013
 31
0.0
  0
LINE
  8
LC-003-005-----0
  6
CONTINUOUS
  5
21F
 10
-22.416007
 20
526.016013
 30
0.0
 11
-18.416007
 21
530.016013
 31
0.0
  0
LINE
  8
LC-003-005-----0
  6
CONTINUOUS
  5
220
 10
-22.69885
 20
526.016013
 30
0.0
 11
-18.69885
 21
530.016013
 31
0.0
  0
LINE
  8
LC-003-005-----0
  6
CONTINUOUS
  5
221
 10
-22.981692
 20
526.016013
 30
0.0
 11
-18.981692
 21
530.016013
 31
0.0
  0
LINE
  8
LC-003-005-----0
  6
CONTINUOUS
  5
222
 10
-23.264535
 20
526.016013
 30
0.0
 11
-19.264535
 21
530.016013
 31
0.0
  0
LINE
  8
LC-003-005-----0
  6
CONTINUOUS
  5
223
 10
-23.508936
 20
526.054454
 30
0.0
 11
-19.547378
 21
530.016013
 31
0.0
  0
LINE
  8
LC-003-005-----0
  6
CONTINUOUS
  5
224
 10
-23.508936
 20
526.337297
 30
0.0
 11
-19.830221
 21
530.016013
 31
0.0
  0
LINE
  8
LC-003-005-----0
  6
CONTINUOUS
  5
225
 10
-23.508936
 20
526.620139
 30
0.0
 11
-20.113063
 21
530.016013
 31
0.0
  0
LINE
  8
LC-003-005-----0
  6
CONTINUOUS
  5
226
 10
-23.508936
 20
526.902982
 30
0.0
 11
-20.395906
 21
530.016013
 31
0.0
  0
LINE
  8
LC-003-005-----0
  6
CONTINUOUS
  5
227
 10
-23.508936
 20
527.185825
 30
0.0
 11
-20.678749
 21
530.016013
 31
0.0
  0
LINE
  8
LC-003-005-----0
  6
CONTINUOUS
  5
228
 10
-23.508936
 20
527.468668
 30
0.0
 11
-20.961591
 21
530.016013
 31
0.0
  0
LINE
  8
LC-003-005-----0
  6
CONTINUOUS
  5
229
 10
-23.508936
 20
527.75151
 30
0.0
 11
-21.244434
 21
530.016013
 31
0.0
  0
LINE
  8
LC-003-005-----0
  6
CONTINUOUS
  5
22A
 10
-23.508936
 20
528.034353
 30
0.0
 11
-21.527277
 21
530.016013
 31
0.0
  0
LINE
  8
LC-003-005-----0
  6
CONTINUOUS
  5
22B
 10
-23.508936
 20
528.317196
 30
0.0
 11
-21.81012
 21
530.016013
 31
0.0
  0
LINE
  8
LC-003-005-----0
  6
CONTINUOUS
  5
22C
 10
-23.508936
 20
528.600038
 30
0.0
 11
-22.092962
 21
530.016013
 31
0.0
  0
LINE
  8
LC-003-005-----0
  6
CONTINUOUS
  5
22D
 10
-23.508936
 20
528.882881
 30
0.0
 11
-22.375805
 21
530.016013
 31
0.0
  0
LINE
  8
LC-003-005-----0
  6
CONTINUOUS
  5
22E
 10
-23.508936
 20
529.165724
 30
0.0
 11
-22.658648
 21
530.016013
 31
0.0
  0
LINE
  8
LC-003-005-----0
  6
CONTINUOUS
  5
22F
 10
-23.508936
 20
529.448567
 30
0.0
 11
-22.94149
 21
530.016013
 31
0.0
  0
LINE
  8
LC-003-005-----0
  6
CONTINUOUS
  5
230
 10
-23.508936
 20
529.731409
 30
0.0
 11
-23.224333
 21
530.016013
 31
0.0
  0
LINE
  8
LC-003-005-----0
  6
CONTINUOUS
  5
231
 10
-23.508936
 20
530.014252
 30
0.0
 11
-23.507176
 21
530.016013
 31
0.0
  0
ENDBLK
  8
0
  5
232
  0
BLOCK
  8
0
  5
234
  2
*X23
 70
    65
 10
-3.508936
 20
526.016013
 30
0.0
  3
*X23
  0
LINE
  8
LC-003-005-----0
  6
CONTINUOUS
  5
235
 10
6.43395
 20
526.016013
 30
0.0
 11
6.491064
 21
526.073126
 31
0.0
  0
LINE
  8
LC-003-005-----0
  6
CONTINUOUS
  5
236
 10
6.151107
 20
526.016013
 30
0.0
 11
6.491064
 21
526.355969
 31
0.0
  0
LINE
  8
LC-003-005-----0
  6
CONTINUOUS
  5
237
 10
5.868264
 20
526.016013
 30
0.0
 11
6.491064
 21
526.638812
 31
0.0
  0
LINE
  8
LC-003-005-----0
  6
CONTINUOUS
  5
238
 10
5.585422
 20
526.016013
 30
0.0
 11
6.491064
 21
526.921655
 31
0.0
  0
LINE
  8
LC-003-005-----0
  6
CONTINUOUS
  5
239
 10
5.302579
 20
526.016013
 30
0.0
 11
6.491064
 21
527.204497
 31
0.0
  0
LINE
  8
LC-003-005-----0
  6
CONTINUOUS
  5
23A
 10
5.019736
 20
526.016013
 30
0.0
 11
6.491064
 21
527.48734
 31
0.0
  0
LINE
  8
LC-003-005-----0
  6
CONTINUOUS
  5
23B
 10
4.736893
 20
526.016013
 30
0.0
 11
6.491064
 21
527.770183
 31
0.0
  0
LINE
  8
LC-003-005-----0
  6
CONTINUOUS
  5
23C
 10
4.454051
 20
526.016013
 30
0.0
 11
6.491064
 21
528.053025
 31
0.0
  0
LINE
  8
LC-003-005-----0
  6
CONTINUOUS
  5
23D
 10
4.171208
 20
526.016013
 30
0.0
 11
6.491064
 21
528.335868
 31
0.0
  0
LINE
  8
LC-003-005-----0
  6
CONTINUOUS
  5
23E
 10
3.888365
 20
526.016013
 30
0.0
 11
6.491064
 21
528.618711
 31
0.0
  0
LINE
  8
LC-003-005-----0
  6
CONTINUOUS
  5
23F
 10
3.605523
 20
526.016013
 30
0.0
 11
6.491064
 21
528.901554
 31
0.0
  0
LINE
  8
LC-003-005-----0
  6
CONTINUOUS
  5
240
 10
3.32268
 20
526.016013
 30
0.0
 11
6.491064
 21
529.184396
 31
0.0
  0
LINE
  8
LC-003-005-----0
  6
CONTINUOUS
  5
241
 10
3.039837
 20
526.016013
 30
0.0
 11
6.491064
 21
529.467239
 31
0.0
  0
LINE
  8
LC-003-005-----0
  6
CONTINUOUS
  5
242
 10
2.756994
 20
526.016013
 30
0.0
 11
6.491064
 21
529.750082
 31
0.0
  0
LINE
  8
LC-003-005-----0
  6
CONTINUOUS
  5
243
 10
2.474152
 20
526.016013
 30
0.0
 11
6.474152
 21
530.016013
 31
0.0
  0
LINE
  8
LC-003-005-----0
  6
CONTINUOUS
  5
244
 10
2.191309
 20
526.016013
 30
0.0
 11
6.191309
 21
530.016013
 31
0.0
  0
LINE
  8
LC-003-005-----0
  6
CONTINUOUS
  5
245
 10
1.908466
 20
526.016013
 30
0.0
 11
5.908466
 21
530.016013
 31
0.0
  0
LINE
  8
LC-003-005-----0
  6
CONTINUOUS
  5
246
 10
1.625624
 20
526.016013
 30
0.0
 11
5.625624
 21
530.016013
 31
0.0
  0
LINE
  8
LC-003-005-----0
  6
CONTINUOUS
  5
247
 10
1.342781
 20
526.016013
 30
0.0
 11
5.342781
 21
530.016013
 31
0.0
  0
LINE
  8
LC-003-005-----0
  6
CONTINUOUS
  5
248
 10
1.059938
 20
526.016013
 30
0.0
 11
5.059938
 21
530.016013
 31
0.0
  0
LINE
  8
LC-003-005-----0
  6
CONTINUOUS
  5
249
 10
0.777095
 20
526.016013
 30
0.0
 11
4.777095
 21
530.016013
 31
0.0
  0
LINE
  8
LC-003-005-----0
  6
CONTINUOUS
  5
24A
 10
0.494253
 20
526.016013
 30
0.0
 11
4.494253
 21
530.016013
 31
0.0
  0
LINE
  8
LC-003-005-----0
  6
CONTINUOUS
  5
24B
 10
0.21141
 20
526.016013
 30
0.0
 11
4.21141
 21
530.016013
 31
0.0
  0
LINE
  8
LC-003-005-----0
  6
CONTINUOUS
  5
24C
 10
-0.071433
 20
526.016013
 30
0.0
 11
3.928567
 21
530.016013
 31
0.0
  0
LINE
  8
LC-003-005-----0
  6
CONTINUOUS
  5
24D
 10
-0.354275
 20
526.016013
 30
0.0
 11
3.645725
 21
530.016013
 31
0.0
  0
LINE
  8
LC-003-005-----0
  6
CONTINUOUS
  5
24E
 10
-0.637118
 20
526.016013
 30
0.0
 11
3.362882
 21
530.016013
 31
0.0
  0
LINE
  8
LC-003-005-----0
  6
CONTINUOUS
  5
24F
 10
-0.919961
 20
526.016013
 30
0.0
 11
3.080039
 21
530.016013
 31
0.0
  0
LINE
  8
LC-003-005-----0
  6
CONTINUOUS
  5
250
 10
-1.202804
 20
526.016013
 30
0.0
 11
2.797196
 21
530.016013
 31
0.0
  0
LINE
  8
LC-003-005-----0
  6
CONTINUOUS
  5
251
 10
-1.485646
 20
526.016013
 30
0.0
 11
2.514354
 21
530.016013
 31
0.0
  0
LINE
  8
LC-003-005-----0
  6
CONTINUOUS
  5
252
 10
-1.768489
 20
526.016013
 30
0.0
 11
2.231511
 21
530.016013
 31
0.0
  0
LINE
  8
LC-003-005-----0
  6
CONTINUOUS
  5
253
 10
-2.051332
 20
526.016013
 30
0.0
 11
1.948668
 21
530.016013
 31
0.0
  0
LINE
  8
LC-003-005-----0
  6
CONTINUOUS
  5
254
 10
-2.334174
 20
526.016013
 30
0.0
 11
1.665826
 21
530.016013
 31
0.0
  0
LINE
  8
LC-003-005-----0
  6
CONTINUOUS
  5
255
 10
-2.617017
 20
526.016013
 30
0.0
 11
1.382983
 21
530.016013
 31
0.0
  0
LINE
  8
LC-003-005-----0
  6
CONTINUOUS
  5
256
 10
-2.89986
 20
526.016013
 30
0.0
 11
1.10014
 21
530.016013
 31
0.0
  0
LINE
  8
LC-003-005-----0
  6
CONTINUOUS
  5
257
 10
-3.182703
 20
526.016013
 30
0.0
 11
0.817297
 21
530.016013
 31
0.0
  0
LINE
  8
LC-003-005-----0
  6
CONTINUOUS
  5
258
 10
-3.465545
 20
526.016013
 30
0.0
 11
0.534455
 21
530.016013
 31
0.0
  0
LINE
  8
LC-003-005-----0
  6
CONTINUOUS
  5
259
 10
-3.508936
 20
526.255464
 30
0.0
 11
0.251612
 21
530.016013
 31
0.0
  0
LINE
  8
LC-003-005-----0
  6
CONTINUOUS
  5
25A
 10
-3.508936
 20
526.538307
 30
0.0
 11
-0.031231
 21
530.016013
 31
0.0
  0
LINE
  8
LC-003-005-----0
  6
CONTINUOUS
  5
25B
 10
-3.508936
 20
526.82115
 30
0.0
 11
-0.314073
 21
530.016013
 31
0.0
  0
LINE
  8
LC-003-005-----0
  6
CONTINUOUS
  5
25C
 10
-3.508936
 20
527.103992
 30
0.0
 11
-0.596916
 21
530.016013
 31
0.0
  0
LINE
  8
LC-003-005-----0
  6
CONTINUOUS
  5
25D
 10
-3.508936
 20
527.386835
 30
0.0
 11
-0.879759
 21
530.016013
 31
0.0
  0
LINE
  8
LC-003-005-----0
  6
CONTINUOUS
  5
25E
 10
-3.508936
 20
527.669678
 30
0.0
 11
-1.162602
 21
530.016013
 31
0.0
  0
LINE
  8
LC-003-005-----0
  6
CONTINUOUS
  5
25F
 10
-3.508936
 20
527.95252
 30
0.0
 11
-1.445444
 21
530.016013
 31
0.0
  0
LINE
  8
LC-003-005-----0
  6
CONTINUOUS
  5
260
 10
-3.508936
 20
528.235363
 30
0.0
 11
-1.728287
 21
530.016013
 31
0.0
  0
LINE
  8
LC-003-005-----0
  6
CONTINUOUS
  5
261
 10
-3.508936
 20
528.518206
 30
0.0
 11
-2.01113
 21
530.016013
 31
0.0
  0
LINE
  8
LC-003-005-----0
  6
CONTINUOUS
  5
262
 10
-3.508936
 20
528.801049
 30
0.0
 11
-2.293972
 21
530.016013
 31
0.0
  0
LINE
  8
LC-003-005-----0
  6
CONTINUOUS
  5
263
 10
-3.508936
 20
529.083891
 30
0.0
 11
-2.576815
 21
530.016013
 31
0.0
  0
LINE
  8
LC-003-005-----0
  6
CONTINUOUS
  5
264
 10
-3.508936
 20
529.366734
 30
0.0
 11
-2.859658
 21
530.016013
 31
0.0
  0
LINE
  8
LC-003-005-----0
  6
CONTINUOUS
  5
265
 10
-3.508936
 20
529.649577
 30
0.0
 11
-3.1425
 21
530.016013
 31
0.0
  0
LINE
  8
LC-003-005-----0
  6
CONTINUOUS
  5
266
 10
-3.508936
 20
529.932419
 30
0.0
 11
-3.425343
 21
530.016013
 31
0.0
  0
ENDBLK
  8
0
  5
267
  0
BLOCK
  8
0
  5
269
  2
*X24
 70
    65
 10
16.491064
 20
526.016013
 30
0.0
  3
*X24
  0
LINE
  8
LC-003-005-----0
  6
CONTINUOUS
  5
26A
 10
26.23294
 20
526.016013
 30
0.0
 11
26.491064
 21
526.274137
 31
0.0
  0
LINE
  8
LC-003-005-----0
  6
CONTINUOUS
  5
26B
 10
25.950097
 20
526.016013
 30
0.0
 11
26.491064
 21
526.556979
 31
0.0
  0
LINE
  8
LC-003-005-----0
  6
CONTINUOUS
  5
26C
 10
25.667254
 20
526.016013
 30
0.0
 11
26.491064
 21
526.839822
 31
0.0
  0
LINE
  8
LC-003-005-----0
  6
CONTINUOUS
  5
26D
 10
25.384411
 20
526.016013
 30
0.0
 11
26.491064
 21
527.122665
 31
0.0
  0
LINE
  8
LC-003-005-----0
  6
CONTINUOUS
  5
26E
 10
25.101569
 20
526.016013
 30
0.0
 11
26.491064
 21
527.405507
 31
0.0
  0
LINE
  8
LC-003-005-----0
  6
CONTINUOUS
  5
26F
 10
24.818726
 20
526.016013
 30
0.0
 11
26.491064
 21
527.68835
 31
0.0
  0
LINE
  8
LC-003-005-----0
  6
CONTINUOUS
  5
270
 10
24.535883
 20
526.016013
 30
0.0
 11
26.491064
 21
527.971193
 31
0.0
  0
LINE
  8
LC-003-005-----0
  6
CONTINUOUS
  5
271
 10
24.253041
 20
526.016013
 30
0.0
 11
26.491064
 21
528.254036
 31
0.0
  0
LINE
  8
LC-003-005-----0
  6
CONTINUOUS
  5
272
 10
23.970198
 20
526.016013
 30
0.0
 11
26.491064
 21
528.536878
 31
0.0
  0
LINE
  8
LC-003-005-----0
  6
CONTINUOUS
  5
273
 10
23.687355
 20
526.016013
 30
0.0
 11
26.491064
 21
528.819721
 31
0.0
  0
LINE
  8
LC-003-005-----0
  6
CONTINUOUS
  5
274
 10
23.404512
 20
526.016013
 30
0.0
 11
26.491064
 21
529.102564
 31
0.0
  0
LINE
  8
LC-003-005-----0
  6
CONTINUOUS
  5
275
 10
23.12167
 20
526.016013
 30
0.0
 11
26.491064
 21
529.385406
 31
0.0
  0
LINE
  8
LC-003-005-----0
  6
CONTINUOUS
  5
276
 10
22.838827
 20
526.016013
 30
0.0
 11
26.491064
 21
529.668249
 31
0.0
  0
LINE
  8
LC-003-005-----0
  6
CONTINUOUS
  5
277
 10
22.555984
 20
526.016013
 30
0.0
 11
26.491064
 21
529.951092
 31
0.0
  0
LINE
  8
LC-003-005-----0
  6
CONTINUOUS
  5
278
 10
22.273142
 20
526.016013
 30
0.0
 11
26.273142
 21
530.016013
 31
0.0
  0
LINE
  8
LC-003-005-----0
  6
CONTINUOUS
  5
279
 10
21.990299
 20
526.016013
 30
0.0
 11
25.990299
 21
530.016013
 31
0.0
  0
LINE
  8
LC-003-005-----0
  6
CONTINUOUS
  5
27A
 10
21.707456
 20
526.016013
 30
0.0
 11
25.707456
 21
530.016013
 31
0.0
  0
LINE
  8
LC-003-005-----0
  6
CONTINUOUS
  5
27B
 10
21.424613
 20
526.016013
 30
0.0
 11
25.424613
 21
530.016013
 31
0.0
  0
LINE
  8
LC-003-005-----0
  6
CONTINUOUS
  5
27C
 10
21.141771
 20
526.016013
 30
0.0
 11
25.141771
 21
530.016013
 31
0.0
  0
LINE
  8
LC-003-005-----0
  6
CONTINUOUS
  5
27D
 10
20.858928
 20
526.016013
 30
0.0
 11
24.858928
 21
530.016013
 31
0.0
  0
LINE
  8
LC-003-005-----0
  6
CONTINUOUS
  5
27E
 10
20.576085
 20
526.016013
 30
0.0
 11
24.576085
 21
530.016013
 31
0.0
  0
LINE
  8
LC-003-005-----0
  6
CONTINUOUS
  5
27F
 10
20.293243
 20
526.016013
 30
0.0
 11
24.293243
 21
530.016013
 31
0.0
  0
LINE
  8
LC-003-005-----0
  6
CONTINUOUS
  5
280
 10
20.0104
 20
526.016013
 30
0.0
 11
24.0104
 21
530.016013
 31
0.0
  0
LINE
  8
LC-003-005-----0
  6
CONTINUOUS
  5
281
 10
19.727557
 20
526.016013
 30
0.0
 11
23.727557
 21
530.016013
 31
0.0
  0
LINE
  8
LC-003-005-----0
  6
CONTINUOUS
  5
282
 10
19.444714
 20
526.016013
 30
0.0
 11
23.444714
 21
530.016013
 31
0.0
  0
LINE
  8
LC-003-005-----0
  6
CONTINUOUS
  5
283
 10
19.161872
 20
526.016013
 30
0.0
 11
23.161872
 21
530.016013
 31
0.0
  0
LINE
  8
LC-003-005-----0
  6
CONTINUOUS
  5
284
 10
18.879029
 20
526.016013
 30
0.0
 11
22.879029
 21
530.016013
 31
0.0
  0
LINE
  8
LC-003-005-----0
  6
CONTINUOUS
  5
285
 10
18.596186
 20
526.016013
 30
0.0
 11
22.596186
 21
530.016013
 31
0.0
  0
LINE
  8
LC-003-005-----0
  6
CONTINUOUS
  5
286
 10
18.313344
 20
526.016013
 30
0.0
 11
22.313344
 21
530.016013
 31
0.0
  0
LINE
  8
LC-003-005-----0
  6
CONTINUOUS
  5
287
 10
18.030501
 20
526.016013
 30
0.0
 11
22.030501
 21
530.016013
 31
0.0
  0
LINE
  8
LC-003-005-----0
  6
CONTINUOUS
  5
288
 10
17.747658
 20
526.016013
 30
0.0
 11
21.747658
 21
530.016013
 31
0.0
  0
LINE
  8
LC-003-005-----0
  6
CONTINUOUS
  5
289
 10
17.464815
 20
526.016013
 30
0.0
 11
21.464815
 21
530.016013
 31
0.0
  0
LINE
  8
LC-003-005-----0
  6
CONTINUOUS
  5
28A
 10
17.181973
 20
526.016013
 30
0.0
 11
21.181973
 21
530.016013
 31
0.0
  0
LINE
  8
LC-003-005-----0
  6
CONTINUOUS
  5
28B
 10
16.89913
 20
526.016013
 30
0.0
 11
20.89913
 21
530.016013
 31
0.0
  0
LINE
  8
LC-003-005-----0
  6
CONTINUOUS
  5
28C
 10
16.616287
 20
526.016013
 30
0.0
 11
20.616287
 21
530.016013
 31
0.0
  0
LINE
  8
LC-003-005-----0
  6
CONTINUOUS
  5
28D
 10
16.491064
 20
526.173632
 30
0.0
 11
20.333445
 21
530.016013
 31
0.0
  0
LINE
  8
LC-003-005-----0
  6
CONTINUOUS
  5
28E
 10
16.491064
 20
526.456474
 30
0.0
 11
20.050602
 21
530.016013
 31
0.0
  0
LINE
  8
LC-003-005-----0
  6
CONTINUOUS
  5
28F
 10
16.491064
 20
526.739317
 30
0.0
 11
19.767759
 21
530.016013
 31
0.0
  0
LINE
  8
LC-003-005-----0
  6
CONTINUOUS
  5
290
 10
16.491064
 20
527.02216
 30
0.0
 11
19.484917
 21
530.016013
 31
0.0
  0
LINE
  8
LC-003-005-----0
  6
CONTINUOUS
  5
291
 10
16.491064
 20
527.305002
 30
0.0
 11
19.202074
 21
530.016013
 31
0.0
  0
LINE
  8
LC-003-005-----0
  6
CONTINUOUS
  5
292
 10
16.491064
 20
527.587845
 30
0.0
 11
18.919231
 21
530.016013
 31
0.0
  0
LINE
  8
LC-003-005-----0
  6
CONTINUOUS
  5
293
 10
16.491064
 20
527.870688
 30
0.0
 11
18.636388
 21
530.016013
 31
0.0
  0
LINE
  8
LC-003-005-----0
  6
CONTINUOUS
  5
294
 10
16.491064
 20
528.153531
 30
0.0
 11
18.353546
 21
530.016013
 31
0.0
  0
LINE
  8
LC-003-005-----0
  6
CONTINUOUS
  5
295
 10
16.491064
 20
528.436373
 30
0.0
 11
18.070703
 21
530.016013
 31
0.0
  0
LINE
  8
LC-003-005-----0
  6
CONTINUOUS
  5
296
 10
16.491064
 20
528.719216
 30
0.0
 11
17.78786
 21
530.016013
 31
0.0
  0
LINE
  8
LC-003-005-----0
  6
CONTINUOUS
  5
297
 10
16.491064
 20
529.002059
 30
0.0
 11
17.505018
 21
530.016013
 31
0.0
  0
LINE
  8
LC-003-005-----0
  6
CONTINUOUS
  5
298
 10
16.491064
 20
529.284901
 30
0.0
 11
17.222175
 21
530.016013
 31
0.0
  0
LINE
  8
LC-003-005-----0
  6
CONTINUOUS
  5
299
 10
16.491064
 20
529.567744
 30
0.0
 11
16.939332
 21
530.016013
 31
0.0
  0
LINE
  8
LC-003-005-----0
  6
CONTINUOUS
  5
29A
 10
16.491064
 20
529.850587
 30
0.0
 11
16.656489
 21
530.016013
 31
0.0
  0
ENDBLK
  8
0
  5
29B
  0
BLOCK
  8
0
  5
29D
  2
*X25
 70
    65
 10
36.491064
 20
526.016013
 30
0.0
  3
*X25
  0
LINE
  8
LC-003-005-----0
  6
CONTINUOUS
  5
29E
 10
46.314772
 20
526.016013
 30
0.0
 11
46.491064
 21
526.192304
 31
0.0
  0
LINE
  8
LC-003-005-----0
  6
CONTINUOUS
  5
29F
 10
46.031929
 20
526.016013
 30
0.0
 11
46.491064
 21
526.475147
 31
0.0
  0
LINE
  8
LC-003-005-----0
  6
CONTINUOUS
  5
2A0
 10
45.749087
 20
526.016013
 30
0.0
 11
46.491064
 21
526.757989
 31
0.0
  0
LINE
  8
LC-003-005-----0
  6
CONTINUOUS
  5
2A1
 10
45.466244
 20
526.016013
 30
0.0
 11
46.491064
 21
527.040832
 31
0.0
  0
LINE
  8
LC-003-005-----0
  6
CONTINUOUS
  5
2A2
 10
45.183401
 20
526.016013
 30
0.0
 11
46.491064
 21
527.323675
 31
0.0
  0
LINE
  8
LC-003-005-----0
  6
CONTINUOUS
  5
2A3
 10
44.900559
 20
526.016013
 30
0.0
 11
46.491064
 21
527.606518
 31
0.0
  0
LINE
  8
LC-003-005-----0
  6
CONTINUOUS
  5
2A4
 10
44.617716
 20
526.016013
 30
0.0
 11
46.491064
 21
527.88936
 31
0.0
  0
LINE
  8
LC-003-005-----0
  6
CONTINUOUS
  5
2A5
 10
44.334873
 20
526.016013
 30
0.0
 11
46.491064
 21
528.172203
 31
0.0
  0
LINE
  8
LC-003-005-----0
  6
CONTINUOUS
  5
2A6
 10
44.05203
 20
526.016013
 30
0.0
 11
46.491064
 21
528.455046
 31
0.0
  0
LINE
  8
LC-003-005-----0
  6
CONTINUOUS
  5
2A7
 10
43.769188
 20
526.016013
 30
0.0
 11
46.491064
 21
528.737888
 31
0.0
  0
LINE
  8
LC-003-005-----0
  6
CONTINUOUS
  5
2A8
 10
43.486345
 20
526.016013
 30
0.0
 11
46.491064
 21
529.020731
 31
0.0
  0
LINE
  8
LC-003-005-----0
  6
CONTINUOUS
  5
2A9
 10
43.203502
 20
526.016013
 30
0.0
 11
46.491064
 21
529.303574
 31
0.0
  0
LINE
  8
LC-003-005-----0
  6
CONTINUOUS
  5
2AA
 10
42.92066
 20
526.016013
 30
0.0
 11
46.491064
 21
529.586417
 31
0.0
  0
LINE
  8
LC-003-005-----0
  6
CONTINUOUS
  5
2AB
 10
42.637817
 20
526.016013
 30
0.0
 11
46.491064
 21
529.869259
 31
0.0
  0
LINE
  8
LC-003-005-----0
  6
CONTINUOUS
  5
2AC
 10
42.354974
 20
526.016013
 30
0.0
 11
46.354974
 21
530.016013
 31
0.0
  0
LINE
  8
LC-003-005-----0
  6
CONTINUOUS
  5
2AD
 10
42.072131
 20
526.016013
 30
0.0
 11
46.072131
 21
530.016013
 31
0.0
  0
LINE
  8
LC-003-005-----0
  6
CONTINUOUS
  5
2AE
 10
41.789289
 20
526.016013
 30
0.0
 11
45.789289
 21
530.016013
 31
0.0
  0
LINE
  8
LC-003-005-----0
  6
CONTINUOUS
  5
2AF
 10
41.506446
 20
526.016013
 30
0.0
 11
45.506446
 21
530.016013
 31
0.0
  0
LINE
  8
LC-003-005-----0
  6
CONTINUOUS
  5
2B0
 10
41.223603
 20
526.016013
 30
0.0
 11
45.223603
 21
530.016013
 31
0.0
  0
LINE
  8
LC-003-005-----0
  6
CONTINUOUS
  5
2B1
 10
40.940761
 20
526.016013
 30
0.0
 11
44.940761
 21
530.016013
 31
0.0
  0
LINE
  8
LC-003-005-----0
  6
CONTINUOUS
  5
2B2
 10
40.657918
 20
526.016013
 30
0.0
 11
44.657918
 21
530.016013
 31
0.0
  0
LINE
  8
LC-003-005-----0
  6
CONTINUOUS
  5
2B3
 10
40.375075
 20
526.016013
 30
0.0
 11
44.375075
 21
530.016013
 31
0.0
  0
LINE
  8
LC-003-005-----0
  6
CONTINUOUS
  5
2B4
 10
40.092232
 20
526.016013
 30
0.0
 11
44.092232
 21
530.016013
 31
0.0
  0
LINE
  8
LC-003-005-----0
  6
CONTINUOUS
  5
2B5
 10
39.80939
 20
526.016013
 30
0.0
 11
43.80939
 21
530.016013
 31
0.0
  0
LINE
  8
LC-003-005-----0
  6
CONTINUOUS
  5
2B6
 10
39.526547
 20
526.016013
 30
0.0
 11
43.526547
 21
530.016013
 31
0.0
  0
LINE
  8
LC-003-005-----0
  6
CONTINUOUS
  5
2B7
 10
39.243704
 20
526.016013
 30
0.0
 11
43.243704
 21
530.016013
 31
0.0
  0
LINE
  8
LC-003-005-----0
  6
CONTINUOUS
  5
2B8
 10
38.960862
 20
526.016013
 30
0.0
 11
42.960862
 21
530.016013
 31
0.0
  0
LINE
  8
LC-003-005-----0
  6
CONTINUOUS
  5
2B9
 10
38.678019
 20
526.016013
 30
0.0
 11
42.678019
 21
530.016013
 31
0.0
  0
LINE
  8
LC-003-005-----0
  6
CONTINUOUS
  5
2BA
 10
38.395176
 20
526.016013
 30
0.0
 11
42.395176
 21
530.016013
 31
0.0
  0
LINE
  8
LC-003-005-----0
  6
CONTINUOUS
  5
2BB
 10
38.112333
 20
526.016013
 30
0.0
 11
42.112333
 21
530.016013
 31
0.0
  0
LINE
  8
LC-003-005-----0
  6
CONTINUOUS
  5
2BC
 10
37.829491
 20
526.016013
 30
0.0
 11
41.829491
 21
530.016013
 31
0.0
  0
LINE
  8
LC-003-005-----0
  6
CONTINUOUS
  5
2BD
 10
37.546648
 20
526.016013
 30
0.0
 11
41.546648
 21
530.016013
 31
0.0
  0
LINE
  8
LC-003-005-----0
  6
CONTINUOUS
  5
2BE
 10
37.263805
 20
526.016013
 30
0.0
 11
41.263805
 21
530.016013
 31
0.0
  0
LINE
  8
LC-003-005-----0
  6
CONTINUOUS
  5
2BF
 10
36.980963
 20
526.016013
 30
0.0
 11
40.980963
 21
530.016013
 31
0.0
  0
LINE
  8
LC-003-005-----0
  6
CONTINUOUS
  5
2C0
 10
36.69812
 20
526.016013
 30
0.0
 11
40.69812
 21
530.016013
 31
0.0
  0
LINE
  8
LC-003-005-----0
  6
CONTINUOUS
  5
2C1
 10
36.491064
 20
526.091799
 30
0.0
 11
40.415277
 21
530.016013
 31
0.0
  0
LINE
  8
LC-003-005-----0
  6
CONTINUOUS
  5
2C2
 10
36.491064
 20
526.374642
 30
0.0
 11
40.132435
 21
530.016013
 31
0.0
  0
LINE
  8
LC-003-005-----0
  6
CONTINUOUS
  5
2C3
 10
36.491064
 20
526.657484
 30
0.0
 11
39.849592
 21
530.016013
 31
0.0
  0
LINE
  8
LC-003-005-----0
  6
CONTINUOUS
  5
2C4
 10
36.491064
 20
526.940327
 30
0.0
 11
39.566749
 21
530.016013
 31
0.0
  0
LINE
  8
LC-003-005-----0
  6
CONTINUOUS
  5
2C5
 10
36.491064
 20
527.22317
 30
0.0
 11
39.283906
 21
530.016013
 31
0.0
  0
LINE
  8
LC-003-005-----0
  6
CONTINUOUS
  5
2C6
 10
36.491064
 20
527.506013
 30
0.0
 11
39.001064
 21
530.016013
 31
0.0
  0
LINE
  8
LC-003-005-----0
  6
CONTINUOUS
  5
2C7
 10
36.491064
 20
527.788855
 30
0.0
 11
38.718221
 21
530.016013
 31
0.0
  0
LINE
  8
LC-003-005-----0
  6
CONTINUOUS
  5
2C8
 10
36.491064
 20
528.071698
 30
0.0
 11
38.435378
 21
530.016013
 31
0.0
  0
LINE
  8
LC-003-005-----0
  6
CONTINUOUS
  5
2C9
 10
36.491064
 20
528.354541
 30
0.0
 11
38.152536
 21
530.016013
 31
0.0
  0
LINE
  8
LC-003-005-----0
  6
CONTINUOUS
  5
2CA
 10
36.491064
 20
528.637383
 30
0.0
 11
37.869693
 21
530.016013
 31
0.0
  0
LINE
  8
LC-003-005-----0
  6
CONTINUOUS
  5
2CB
 10
36.491064
 20
528.920226
 30
0.0
 11
37.58685
 21
530.016013
 31
0.0
  0
LINE
  8
LC-003-005-----0
  6
CONTINUOUS
  5
2CC
 10
36.491064
 20
529.203069
 30
0.0
 11
37.304007
 21
530.016013
 31
0.0
  0
LINE
  8
LC-003-005-----0
  6
CONTINUOUS
  5
2CD
 10
36.491064
 20
529.485912
 30
0.0
 11
37.021165
 21
530.016013
 31
0.0
  0
LINE
  8
LC-003-005-----0
  6
CONTINUOUS
  5
2CE
 10
36.491064
 20
529.768754
 30
0.0
 11
36.738322
 21
530.016013
 31
0.0
  0
ENDBLK
  8
0
  5
2CF
  0
BLOCK
  8
0
  5
2D1
  2
*X26
 70
    65
 10
56.491064
 20
526.016013
 30
0.0
  3
*X26
  0
LINE
  8
LC-003-005-----0
  6
CONTINUOUS
  5
2D2
 10
66.396605
 20
526.016013
 30
0.0
 11
66.491064
 21
526.110471
 31
0.0
  0
LINE
  8
LC-003-005-----0
  6
CONTINUOUS
  5
2D3
 10
66.113762
 20
526.016013
 30
0.0
 11
66.491064
 21
526.393314
 31
0.0
  0
LINE
  8
LC-003-005-----0
  6
CONTINUOUS
  5
2D4
 10
65.830919
 20
526.016013
 30
0.0
 11
66.491064
 21
526.676157
 31
0.0
  0
LINE
  8
LC-003-005-----0
  6
CONTINUOUS
  5
2D5
 10
65.548077
 20
526.016013
 30
0.0
 11
66.491064
 21
526.959
 31
0.0
  0
LINE
  8
LC-003-005-----0
  6
CONTINUOUS
  5
2D6
 10
65.265234
 20
526.016013
 30
0.0
 11
66.491064
 21
527.241842
 31
0.0
  0
LINE
  8
LC-003-005-----0
  6
CONTINUOUS
  5
2D7
 10
64.982391
 20
526.016013
 30
0.0
 11
66.491064
 21
527.524685
 31
0.0
  0
LINE
  8
LC-003-005-----0
  6
CONTINUOUS
  5
2D8
 10
64.699548
 20
526.016013
 30
0.0
 11
66.491064
 21
527.807528
 31
0.0
  0
LINE
  8
LC-003-005-----0
  6
CONTINUOUS
  5
2D9
 10
64.416706
 20
526.016013
 30
0.0
 11
66.491064
 21
528.09037
 31
0.0
  0
LINE
  8
LC-003-005-----0
  6
CONTINUOUS
  5
2DA
 10
64.133863
 20
526.016013
 30
0.0
 11
66.491064
 21
528.373213
 31
0.0
  0
LINE
  8
LC-003-005-----0
  6
CONTINUOUS
  5
2DB
 10
63.85102
 20
526.016013
 30
0.0
 11
66.491064
 21
528.656056
 31
0.0
  0
LINE
  8
LC-003-005-----0
  6
CONTINUOUS
  5
2DC
 10
63.568178
 20
526.016013
 30
0.0
 11
66.491064
 21
528.938899
 31
0.0
  0
LINE
  8
LC-003-005-----0
  6
CONTINUOUS
  5
2DD
 10
63.285335
 20
526.016013
 30
0.0
 11
66.491064
 21
529.221741
 31
0.0
  0
LINE
  8
LC-003-005-----0
  6
CONTINUOUS
  5
2DE
 10
63.002492
 20
526.016013
 30
0.0
 11
66.491064
 21
529.504584
 31
0.0
  0
LINE
  8
LC-003-005-----0
  6
CONTINUOUS
  5
2DF
 10
62.719649
 20
526.016013
 30
0.0
 11
66.491064
 21
529.787427
 31
0.0
  0
LINE
  8
LC-003-005-----0
  6
CONTINUOUS
  5
2E0
 10
62.436807
 20
526.016013
 30
0.0
 11
66.436807
 21
530.016013
 31
0.0
  0
LINE
  8
LC-003-005-----0
  6
CONTINUOUS
  5
2E1
 10
62.153964
 20
526.016013
 30
0.0
 11
66.153964
 21
530.016013
 31
0.0
  0
LINE
  8
LC-003-005-----0
  6
CONTINUOUS
  5
2E2
 10
61.871121
 20
526.016013
 30
0.0
 11
65.871121
 21
530.016013
 31
0.0
  0
LINE
  8
LC-003-005-----0
  6
CONTINUOUS
  5
2E3
 10
61.588279
 20
526.016013
 30
0.0
 11
65.588279
 21
530.016013
 31
0.0
  0
LINE
  8
LC-003-005-----0
  6
CONTINUOUS
  5
2E4
 10
61.305436
 20
526.016013
 30
0.0
 11
65.305436
 21
530.016013
 31
0.0
  0
LINE
  8
LC-003-005-----0
  6
CONTINUOUS
  5
2E5
 10
61.022593
 20
526.016013
 30
0.0
 11
65.022593
 21
530.016013
 31
0.0
  0
LINE
  8
LC-003-005-----0
  6
CONTINUOUS
  5
2E6
 10
60.73975
 20
526.016013
 30
0.0
 11
64.73975
 21
530.016013
 31
0.0
  0
LINE
  8
LC-003-005-----0
  6
CONTINUOUS
  5
2E7
 10
60.456908
 20
526.016013
 30
0.0
 11
64.456908
 21
530.016013
 31
0.0
  0
LINE
  8
LC-003-005-----0
  6
CONTINUOUS
  5
2E8
 10
60.174065
 20
526.016013
 30
0.0
 11
64.174065
 21
530.016013
 31
0.0
  0
LINE
  8
LC-003-005-----0
  6
CONTINUOUS
  5
2E9
 10
59.891222
 20
526.016013
 30
0.0
 11
63.891222
 21
530.016013
 31
0.0
  0
LINE
  8
LC-003-005-----0
  6
CONTINUOUS
  5
2EA
 10
59.60838
 20
526.016013
 30
0.0
 11
63.60838
 21
530.016013
 31
0.0
  0
LINE
  8
LC-003-005-----0
  6
CONTINUOUS
  5
2EB
 10
59.325537
 20
526.016013
 30
0.0
 11
63.325537
 21
530.016013
 31
0.0
  0
LINE
  8
LC-003-005-----0
  6
CONTINUOUS
  5
2EC
 10
59.042694
 20
526.016013
 30
0.0
 11
63.042694
 21
530.016013
 31
0.0
  0
LINE
  8
LC-003-005-----0
  6
CONTINUOUS
  5
2ED
 10
58.759852
 20
526.016013
 30
0.0
 11
62.759852
 21
530.016013
 31
0.0
  0
LINE
  8
LC-003-005-----0
  6
CONTINUOUS
  5
2EE
 10
58.477009
 20
526.016013
 30
0.0
 11
62.477009
 21
530.016013
 31
0.0
  0
LINE
  8
LC-003-005-----0
  6
CONTINUOUS
  5
2EF
 10
58.194166
 20
526.016013
 30
0.0
 11
62.194166
 21
530.016013
 31
0.0
  0
LINE
  8
LC-003-005-----0
  6
CONTINUOUS
  5
2F0
 10
57.911323
 20
526.016013
 30
0.0
 11
61.911323
 21
530.016013
 31
0.0
  0
LINE
  8
LC-003-005-----0
  6
CONTINUOUS
  5
2F1
 10
57.628481
 20
526.016013
 30
0.0
 11
61.628481
 21
530.016013
 31
0.0
  0
LINE
  8
LC-003-005-----0
  6
CONTINUOUS
  5
2F2
 10
57.345638
 20
526.016013
 30
0.0
 11
61.345638
 21
530.016013
 31
0.0
  0
LINE
  8
LC-003-005-----0
  6
CONTINUOUS
  5
2F3
 10
57.062795
 20
526.016013
 30
0.0
 11
61.062795
 21
530.016013
 31
0.0
  0
LINE
  8
LC-003-005-----0
  6
CONTINUOUS
  5
2F4
 10
56.779953
 20
526.016013
 30
0.0
 11
60.779953
 21
530.016013
 31
0.0
  0
LINE
  8
LC-003-005-----0
  6
CONTINUOUS
  5
2F5
 10
56.49711
 20
526.016013
 30
0.0
 11
60.49711
 21
530.016013
 31
0.0
  0
LINE
  8
LC-003-005-----0
  6
CONTINUOUS
  5
2F6
 10
56.491064
 20
526.292809
 30
0.0
 11
60.214267
 21
530.016013
 31
0.0
  0
LINE
  8
LC-003-005-----0
  6
CONTINUOUS
  5
2F7
 10
56.491064
 20
526.575652
 30
0.0
 11
59.931424
 21
530.016013
 31
0.0
  0
LINE
  8
LC-003-005-----0
  6
CONTINUOUS
  5
2F8
 10
56.491064
 20
526.858495
 30
0.0
 11
59.648582
 21
530.016013
 31
0.0
  0
LINE
  8
LC-003-005-----0
  6
CONTINUOUS
  5
2F9
 10
56.491064
 20
527.141337
 30
0.0
 11
59.365739
 21
530.016013
 31
0.0
  0
LINE
  8
LC-003-005-----0
  6
CONTINUOUS
  5
2FA
 10
56.491064
 20
527.42418
 30
0.0
 11
59.082896
 21
530.016013
 31
0.0
  0
LINE
  8
LC-003-005-----0
  6
CONTINUOUS
  5
2FB
 10
56.491064
 20
527.707023
 30
0.0
 11
58.800054
 21
530.016013
 31
0.0
  0
LINE
  8
LC-003-005-----0
  6
CONTINUOUS
  5
2FC
 10
56.491064
 20
527.989865
 30
0.0
 11
58.517211
 21
530.016013
 31
0.0
  0
LINE
  8
LC-003-005-----0
  6
CONTINUOUS
  5
2FD
 10
56.491064
 20
528.272708
 30
0.0
 11
58.234368
 21
530.016013
 31
0.0
  0
LINE
  8
LC-003-005-----0
  6
CONTINUOUS
  5
2FE
 10
56.491064
 20
528.555551
 30
0.0
 11
57.951525
 21
530.016013
 31
0.0
  0
LINE
  8
LC-003-005-----0
  6
CONTINUOUS
  5
2FF
 10
56.491064
 20
528.838394
 30
0.0
 11
57.668683
 21
530.016013
 31
0.0
  0
LINE
  8
LC-003-005-----0
  6
CONTINUOUS
  5
300
 10
56.491064
 20
529.121236
 30
0.0
 11
57.38584
 21
530.016013
 31
0.0
  0
LINE
  8
LC-003-005-----0
  6
CONTINUOUS
  5
301
 10
56.491064
 20
529.404079
 30
0.0
 11
57.102997
 21
530.016013
 31
0.0
  0
LINE
  8
LC-003-005-----0
  6
CONTINUOUS
  5
302
 10
56.491064
 20
529.686922
 30
0.0
 11
56.820155
 21
530.016013
 31
0.0
  0
LINE
  8
LC-003-005-----0
  6
CONTINUOUS
  5
303
 10
56.491064
 20
529.969764
 30
0.0
 11
56.537312
 21
530.016013
 31
0.0
  0
ENDBLK
  8
0
  5
304
  0
BLOCK
  8
0
  5
306
  2
*X27
 70
    65
 10
76.491064
 20
525.270994
 30
0.0
  3
*X27
  0
LINE
  8
LC-003-005-----0
  6
CONTINUOUS
  5
307
 10
86.31165
 20
525.28354
 30
0.0
 11
86.491064
 21
525.462953
 31
0.0
  0
LINE
  8
LC-003-005-----0
  6
CONTINUOUS
  5
308
 10
86.047293
 20
525.302026
 30
0.0
 11
86.491064
 21
525.745796
 31
0.0
  0
LINE
  8
LC-003-005-----0
  6
CONTINUOUS
  5
309
 10
85.782936
 20
525.320511
 30
0.0
 11
86.491064
 21
526.028639
 31
0.0
  0
LINE
  8
LC-003-005-----0
  6
CONTINUOUS
  5
30A
 10
85.518579
 20
525.338997
 30
0.0
 11
86.491064
 21
526.311482
 31
0.0
  0
LINE
  8
LC-003-005-----0
  6
CONTINUOUS
  5
30B
 10
85.254222
 20
525.357482
 30
0.0
 11
86.491064
 21
526.594324
 31
0.0
  0
LINE
  8
LC-003-005-----0
  6
CONTINUOUS
  5
30C
 10
84.989865
 20
525.375968
 30
0.0
 11
86.491064
 21
526.877167
 31
0.0
  0
LINE
  8
LC-003-005-----0
  6
CONTINUOUS
  5
30D
 10
84.725508
 20
525.394454
 30
0.0
 11
86.491064
 21
527.16001
 31
0.0
  0
LINE
  8
LC-003-005-----0
  6
CONTINUOUS
  5
30E
 10
84.461151
 20
525.412939
 30
0.0
 11
86.491064
 21
527.442852
 31
0.0
  0
LINE
  8
LC-003-005-----0
  6
CONTINUOUS
  5
30F
 10
84.196794
 20
525.431425
 30
0.0
 11
86.491064
 21
527.725695
 31
0.0
  0
LINE
  8
LC-003-005-----0
  6
CONTINUOUS
  5
310
 10
83.932436
 20
525.449911
 30
0.0
 11
86.491064
 21
528.008538
 31
0.0
  0
LINE
  8
LC-003-005-----0
  6
CONTINUOUS
  5
311
 10
83.668079
 20
525.468396
 30
0.0
 11
86.491064
 21
528.291381
 31
0.0
  0
LINE
  8
LC-003-005-----0
  6
CONTINUOUS
  5
312
 10
83.403722
 20
525.486882
 30
0.0
 11
86.491064
 21
528.574223
 31
0.0
  0
LINE
  8
LC-003-005-----0
  6
CONTINUOUS
  5
313
 10
83.139365
 20
525.505367
 30
0.0
 11
86.491064
 21
528.857066
 31
0.0
  0
LINE
  8
LC-003-005-----0
  6
CONTINUOUS
  5
314
 10
82.875008
 20
525.523853
 30
0.0
 11
86.491064
 21
529.139909
 31
0.0
  0
LINE
  8
LC-003-005-----0
  6
CONTINUOUS
  5
315
 10
82.610651
 20
525.542339
 30
0.0
 11
86.358354
 21
529.290042
 31
0.0
  0
LINE
  8
LC-003-005-----0
  6
CONTINUOUS
  5
316
 10
82.346294
 20
525.560824
 30
0.0
 11
86.093997
 21
529.308527
 31
0.0
  0
LINE
  8
LC-003-005-----0
  6
CONTINUOUS
  5
317
 10
82.081937
 20
525.57931
 30
0.0
 11
85.82964
 21
529.327013
 31
0.0
  0
LINE
  8
LC-003-005-----0
  6
CONTINUOUS
  5
318
 10
81.81758
 20
525.597796
 30
0.0
 11
85.565283
 21
529.345499
 31
0.0
  0
LINE
  8
LC-003-005-----0
  6
CONTINUOUS
  5
319
 10
81.553223
 20
525.616281
 30
0.0
 11
85.300926
 21
529.363984
 31
0.0
  0
LINE
  8
LC-003-005-----0
  6
CONTINUOUS
  5
31A
 10
81.288866
 20
525.634767
 30
0.0
 11
85.036569
 21
529.38247
 31
0.0
  0
LINE
  8
LC-003-005-----0
  6
CONTINUOUS
  5
31B
 10
81.024509
 20
525.653253
 30
0.0
 11
84.772211
 21
529.400955
 31
0.0
  0
LINE
  8
LC-003-005-----0
  6
CONTINUOUS
  5
31C
 10
80.760151
 20
525.671738
 30
0.0
 11
84.507854
 21
529.419441
 31
0.0
  0
LINE
  8
LC-003-005-----0
  6
CONTINUOUS
  5
31D
 10
80.495794
 20
525.690224
 30
0.0
 11
84.243497
 21
529.437927
 31
0.0
  0
LINE
  8
LC-003-005-----0
  6
CONTINUOUS
  5
31E
 10
80.231437
 20
525.708709
 30
0.0
 11
83.97914
 21
529.456412
 31
0.0
  0
LINE
  8
LC-003-005-----0
  6
CONTINUOUS
  5
31F
 10
79.96708
 20
525.727195
 30
0.0
 11
83.714783
 21
529.474898
 31
0.0
  0
LINE
  8
LC-003-005-----0
  6
CONTINUOUS
  5
320
 10
79.702723
 20
525.745681
 30
0.0
 11
83.450426
 21
529.493384
 31
0.0
  0
LINE
  8
LC-003-005-----0
  6
CONTINUOUS
  5
321
 10
79.438366
 20
525.764166
 30
0.0
 11
83.186069
 21
529.511869
 31
0.0
  0
LINE
  8
LC-003-005-----0
  6
CONTINUOUS
  5
322
 10
79.174009
 20
525.782652
 30
0.0
 11
82.921712
 21
529.530355
 31
0.0
  0
LINE
  8
LC-003-005-----0
  6
CONTINUOUS
  5
323
 10
78.909652
 20
525.801138
 30
0.0
 11
82.657355
 21
529.54884
 31
0.0
  0
LINE
  8
LC-003-005-----0
  6
CONTINUOUS
  5
324
 10
78.645295
 20
525.819623
 30
0.0
 11
82.392998
 21
529.567326
 31
0.0
  0
LINE
  8
LC-003-005-----0
  6
CONTINUOUS
  5
325
 10
78.380938
 20
525.838109
 30
0.0
 11
82.128641
 21
529.585812
 31
0.0
  0
LINE
  8
LC-003-005-----0
  6
CONTINUOUS
  5
326
 10
78.116581
 20
525.856595
 30
0.0
 11
81.864284
 21
529.604297
 31
0.0
  0
LINE
  8
LC-003-005-----0
  6
CONTINUOUS
  5
327
 10
77.852224
 20
525.87508
 30
0.0
 11
81.599926
 21
529.622783
 31
0.0
  0
LINE
  8
LC-003-005-----0
  6
CONTINUOUS
  5
328
 10
77.587867
 20
525.893566
 30
0.0
 11
81.335569
 21
529.641269
 31
0.0
  0
LINE
  8
LC-003-005-----0
  6
CONTINUOUS
  5
329
 10
77.323509
 20
525.912051
 30
0.0
 11
81.071212
 21
529.659754
 31
0.0
  0
LINE
  8
LC-003-005-----0
  6
CONTINUOUS
  5
32A
 10
77.059152
 20
525.930537
 30
0.0
 11
80.806855
 21
529.67824
 31
0.0
  0
LINE
  8
LC-003-005-----0
  6
CONTINUOUS
  5
32B
 10
76.794795
 20
525.949023
 30
0.0
 11
80.542498
 21
529.696726
 31
0.0
  0
LINE
  8
LC-003-005-----0
  6
CONTINUOUS
  5
32C
 10
76.530438
 20
525.967508
 30
0.0
 11
80.278141
 21
529.715211
 31
0.0
  0
LINE
  8
LC-003-005-----0
  6
CONTINUOUS
  5
32D
 10
76.491064
 20
526.210977
 30
0.0
 11
80.013784
 21
529.733697
 31
0.0
  0
LINE
  8
LC-003-005-----0
  6
CONTINUOUS
  5
32E
 10
76.491064
 20
526.493819
 30
0.0
 11
79.749427
 21
529.752182
 31
0.0
  0
LINE
  8
LC-003-005-----0
  6
CONTINUOUS
  5
32F
 10
76.491064
 20
526.776662
 30
0.0
 11
79.48507
 21
529.770668
 31
0.0
  0
LINE
  8
LC-003-005-----0
  6
CONTINUOUS
  5
330
 10
76.491064
 20
527.059505
 30
0.0
 11
79.220713
 21
529.789154
 31
0.0
  0
LINE
  8
LC-003-005-----0
  6
CONTINUOUS
  5
331
 10
76.491064
 20
527.342347
 30
0.0
 11
78.956356
 21
529.807639
 31
0.0
  0
LINE
  8
LC-003-005-----0
  6
CONTINUOUS
  5
332
 10
76.491064
 20
527.62519
 30
0.0
 11
78.691999
 21
529.826125
 31
0.0
  0
LINE
  8
LC-003-005-----0
  6
CONTINUOUS
  5
333
 10
76.491064
 20
527.908033
 30
0.0
 11
78.427642
 21
529.844611
 31
0.0
  0
LINE
  8
LC-003-005-----0
  6
CONTINUOUS
  5
334
 10
76.491064
 20
528.190875
 30
0.0
 11
78.163284
 21
529.863096
 31
0.0
  0
LINE
  8
LC-003-005-----0
  6
CONTINUOUS
  5
335
 10
76.491064
 20
528.473718
 30
0.0
 11
77.898927
 21
529.881582
 31
0.0
  0
LINE
  8
LC-003-005-----0
  6
CONTINUOUS
  5
336
 10
76.491064
 20
528.756561
 30
0.0
 11
77.63457
 21
529.900068
 31
0.0
  0
LINE
  8
LC-003-005-----0
  6
CONTINUOUS
  5
337
 10
76.491064
 20
529.039404
 30
0.0
 11
77.370213
 21
529.918553
 31
0.0
  0
LINE
  8
LC-003-005-----0
  6
CONTINUOUS
  5
338
 10
76.491064
 20
529.322246
 30
0.0
 11
77.105856
 21
529.937039
 31
0.0
  0
LINE
  8
LC-003-005-----0
  6
CONTINUOUS
  5
339
 10
76.491064
 20
529.605089
 30
0.0
 11
76.841499
 21
529.955524
 31
0.0
  0
LINE
  8
LC-003-005-----0
  6
CONTINUOUS
  5
33A
 10
76.491064
 20
529.887932
 30
0.0
 11
76.577142
 21
529.97401
 31
0.0
  0
ENDBLK
  8
0
  5
33B
  0
BLOCK
  8
0
  5
33D
  2
*X28
 70
    65
 10
96.491064
 20
523.872459
 30
0.0
  3
*X28
  0
LINE
  8
LC-003-005-----0
  6
CONTINUOUS
  5
33E
 10
106.402788
 20
523.878632
 30
0.0
 11
106.491064
 21
523.966907
 31
0.0
  0
LINE
  8
LC-003-005-----0
  6
CONTINUOUS
  5
33F
 10
106.138431
 20
523.897117
 30
0.0
 11
106.491064
 21
524.24975
 31
0.0
  0
LINE
  8
LC-003-005-----0
  6
CONTINUOUS
  5
340
 10
105.874074
 20
523.915603
 30
0.0
 11
106.491064
 21
524.532593
 31
0.0
  0
LINE
  8
LC-003-005-----0
  6
CONTINUOUS
  5
341
 10
105.609717
 20
523.934089
 30
0.0
 11
106.491064
 21
524.815435
 31
0.0
  0
LINE
  8
LC-003-005-----0
  6
CONTINUOUS
  5
342
 10
105.34536
 20
523.952574
 30
0.0
 11
106.491064
 21
525.098278
 31
0.0
  0
LINE
  8
LC-003-005-----0
  6
CONTINUOUS
  5
343
 10
105.081003
 20
523.97106
 30
0.0
 11
106.491064
 21
525.381121
 31
0.0
  0
LINE
  8
LC-003-005-----0
  6
CONTINUOUS
  5
344
 10
104.816646
 20
523.989546
 30
0.0
 11
106.491064
 21
525.663964
 31
0.0
  0
LINE
  8
LC-003-005-----0
  6
CONTINUOUS
  5
345
 10
104.552289
 20
524.008031
 30
0.0
 11
106.491064
 21
525.946806
 31
0.0
  0
LINE
  8
LC-003-005-----0
  6
CONTINUOUS
  5
346
 10
104.287932
 20
524.026517
 30
0.0
 11
106.491064
 21
526.229649
 31
0.0
  0
LINE
  8
LC-003-005-----0
  6
CONTINUOUS
  5
347
 10
104.023575
 20
524.045003
 30
0.0
 11
106.491064
 21
526.512492
 31
0.0
  0
LINE
  8
LC-003-005-----0
  6
CONTINUOUS
  5
348
 10
103.759217
 20
524.063488
 30
0.0
 11
106.491064
 21
526.795334
 31
0.0
  0
LINE
  8
LC-003-005-----0
  6
CONTINUOUS
  5
349
 10
103.49486
 20
524.081974
 30
0.0
 11
106.491064
 21
527.078177
 31
0.0
  0
LINE
  8
LC-003-005-----0
  6
CONTINUOUS
  5
34A
 10
103.230503
 20
524.100459
 30
0.0
 11
106.491064
 21
527.36102
 31
0.0
  0
LINE
  8
LC-003-005-----0
  6
CONTINUOUS
  5
34B
 10
102.966146
 20
524.118945
 30
0.0
 11
106.491064
 21
527.643863
 31
0.0
  0
LINE
  8
LC-003-005-----0
  6
CONTINUOUS
  5
34C
 10
102.701789
 20
524.137431
 30
0.0
 11
106.449492
 21
527.885134
 31
0.0
  0
LINE
  8
LC-003-005-----0
  6
CONTINUOUS
  5
34D
 10
102.437432
 20
524.155916
 30
0.0
 11
106.185135
 21
527.903619
 31
0.0
  0
LINE
  8
LC-003-005-----0
  6
CONTINUOUS
  5
34E
 10
102.173075
 20
524.174402
 30
0.0
 11
105.920778
 21
527.922105
 31
0.0
  0
LINE
  8
LC-003-005-----0
  6
CONTINUOUS
  5
34F
 10
101.908718
 20
524.192888
 30
0.0
 11
105.656421
 21
527.94059
 31
0.0
  0
LINE
  8
LC-003-005-----0
  6
CONTINUOUS
  5
350
 10
101.644361
 20
524.211373
 30
0.0
 11
105.392064
 21
527.959076
 31
0.0
  0
LINE
  8
LC-003-005-----0
  6
CONTINUOUS
  5
351
 10
101.380004
 20
524.229859
 30
0.0
 11
105.127707
 21
527.977562
 31
0.0
  0
LINE
  8
LC-003-005-----0
  6
CONTINUOUS
  5
352
 10
101.115647
 20
524.248345
 30
0.0
 11
104.86335
 21
527.996047
 31
0.0
  0
LINE
  8
LC-003-005-----0
  6
CONTINUOUS
  5
353
 10
100.85129
 20
524.26683
 30
0.0
 11
104.598992
 21
528.014533
 31
0.0
  0
LINE
  8
LC-003-005-----0
  6
CONTINUOUS
  5
354
 10
100.586932
 20
524.285316
 30
0.0
 11
104.334635
 21
528.033019
 31
0.0
  0
LINE
  8
LC-003-005-----0
  6
CONTINUOUS
  5
355
 10
100.322575
 20
524.303801
 30
0.0
 11
104.070278
 21
528.051504
 31
0.0
  0
LINE
  8
LC-003-005-----0
  6
CONTINUOUS
  5
356
 10
100.058218
 20
524.322287
 30
0.0
 11
103.805921
 21
528.06999
 31
0.0
  0
LINE
  8
LC-003-005-----0
  6
CONTINUOUS
  5
357
 10
99.793861
 20
524.340773
 30
0.0
 11
103.541564
 21
528.088476
 31
0.0
  0
LINE
  8
LC-003-005-----0
  6
CONTINUOUS
  5
358
 10
99.529504
 20
524.359258
 30
0.0
 11
103.277207
 21
528.106961
 31
0.0
  0
LINE
  8
LC-003-005-----0
  6
CONTINUOUS
  5
359
 10
99.265147
 20
524.377744
 30
0.0
 11
103.01285
 21
528.125447
 31
0.0
  0
LINE
  8
LC-003-005-----0
  6
CONTINUOUS
  5
35A
 10
99.00079
 20
524.39623
 30
0.0
 11
102.748493
 21
528.143932
 31
0.0
  0
LINE
  8
LC-003-005-----0
  6
CONTINUOUS
  5
35B
 10
98.736433
 20
524.414715
 30
0.0
 11
102.484136
 21
528.162418
 31
0.0
  0
LINE
  8
LC-003-005-----0
  6
CONTINUOUS
  5
35C
 10
98.472076
 20
524.433201
 30
0.0
 11
102.219779
 21
528.180904
 31
0.0
  0
LINE
  8
LC-003-005-----0
  6
CONTINUOUS
  5
35D
 10
98.207719
 20
524.451686
 30
0.0
 11
101.955422
 21
528.199389
 31
0.0
  0
LINE
  8
LC-003-005-----0
  6
CONTINUOUS
  5
35E
 10
97.943362
 20
524.470172
 30
0.0
 11
101.691065
 21
528.217875
 31
0.0
  0
LINE
  8
LC-003-005-----0
  6
CONTINUOUS
  5
35F
 10
97.679005
 20
524.488658
 30
0.0
 11
101.426707
 21
528.236361
 31
0.0
  0
LINE
  8
LC-003-005-----0
  6
CONTINUOUS
  5
360
 10
97.414648
 20
524.507143
 30
0.0
 11
101.16235
 21
528.254846
 31
0.0
  0
LINE
  8
LC-003-005-----0
  6
CONTINUOUS
  5
361
 10
97.15029
 20
524.525629
 30
0.0
 11
100.897993
 21
528.273332
 31
0.0
  0
LINE
  8
LC-003-005-----0
  6
CONTINUOUS
  5
362
 10
96.885933
 20
524.544115
 30
0.0
 11
100.633636
 21
528.291818
 31
0.0
  0
LINE
  8
LC-003-005-----0
  6
CONTINUOUS
  5
363
 10
96.621576
 20
524.5626
 30
0.0
 11
100.369279
 21
528.310303
 31
0.0
  0
LINE
  8
LC-003-005-----0
  6
CONTINUOUS
  5
364
 10
96.491064
 20
524.71493
 30
0.0
 11
100.104922
 21
528.328789
 31
0.0
  0
LINE
  8
LC-003-005-----0
  6
CONTINUOUS
  5
365
 10
96.491064
 20
524.997773
 30
0.0
 11
99.840565
 21
528.347274
 31
0.0
  0
LINE
  8
LC-003-005-----0
  6
CONTINUOUS
  5
366
 10
96.491064
 20
525.280616
 30
0.0
 11
99.576208
 21
528.36576
 31
0.0
  0
LINE
  8
LC-003-005-----0
  6
CONTINUOUS
  5
367
 10
96.491064
 20
525.563458
 30
0.0
 11
99.311851
 21
528.384246
 31
0.0
  0
LINE
  8
LC-003-005-----0
  6
CONTINUOUS
  5
368
 10
96.491064
 20
525.846301
 30
0.0
 11
99.047494
 21
528.402731
 31
0.0
  0
LINE
  8
LC-003-005-----0
  6
CONTINUOUS
  5
369
 10
96.491064
 20
526.129144
 30
0.0
 11
98.783137
 21
528.421217
 31
0.0
  0
LINE
  8
LC-003-005-----0
  6
CONTINUOUS
  5
36A
 10
96.491064
 20
526.411987
 30
0.0
 11
98.51878
 21
528.439703
 31
0.0
  0
LINE
  8
LC-003-005-----0
  6
CONTINUOUS
  5
36B
 10
96.491064
 20
526.694829
 30
0.0
 11
98.254423
 21
528.458188
 31
0.0
  0
LINE
  8
LC-003-005-----0
  6
CONTINUOUS
  5
36C
 10
96.491064
 20
526.977672
 30
0.0
 11
97.990065
 21
528.476674
 31
0.0
  0
LINE
  8
LC-003-005-----0
  6
CONTINUOUS
  5
36D
 10
96.491064
 20
527.260515
 30
0.0
 11
97.725708
 21
528.495159
 31
0.0
  0
LINE
  8
LC-003-005-----0
  6
CONTINUOUS
  5
36E
 10
96.491064
 20
527.543357
 30
0.0
 11
97.461351
 21
528.513645
 31
0.0
  0
LINE
  8
LC-003-005-----0
  6
CONTINUOUS
  5
36F
 10
96.491064
 20
527.8262
 30
0.0
 11
97.196994
 21
528.532131
 31
0.0
  0
LINE
  8
LC-003-005-----0
  6
CONTINUOUS
  5
370
 10
96.491064
 20
528.109043
 30
0.0
 11
96.932637
 21
528.550616
 31
0.0
  0
LINE
  8
LC-003-005-----0
  6
CONTINUOUS
  5
371
 10
96.491064
 20
528.391886
 30
0.0
 11
96.66828
 21
528.569102
 31
0.0
  0
ENDBLK
  8
0
  5
372
  0
BLOCK
  8
0
  5
374
  2
*X29
 70
    65
 10
116.491064
 20
520.460333
 30
0.0
  3
*X29
  0
LINE
  8
LC-003-005-----0
  6
CONTINUOUS
  5
375
 10
126.462437
 20
520.462335
 30
0.0
 11
126.491064
 21
520.490962
 31
0.0
  0
LINE
  8
LC-003-005-----0
  6
CONTINUOUS
  5
376
 10
126.198079
 20
520.480821
 30
0.0
 11
126.491064
 21
520.773805
 31
0.0
  0
LINE
  8
LC-003-005-----0
  6
CONTINUOUS
  5
377
 10
125.933722
 20
520.499306
 30
0.0
 11
126.491064
 21
521.056648
 31
0.0
  0
LINE
  8
LC-003-005-----0
  6
CONTINUOUS
  5
378
 10
125.669365
 20
520.517792
 30
0.0
 11
126.491064
 21
521.33949
 31
0.0
  0
LINE
  8
LC-003-005-----0
  6
CONTINUOUS
  5
379
 10
125.405008
 20
520.536278
 30
0.0
 11
126.491064
 21
521.622333
 31
0.0
  0
LINE
  8
LC-003-005-----0
  6
CONTINUOUS
  5
37A
 10
125.140651
 20
520.554763
 30
0.0
 11
126.491064
 21
521.905176
 31
0.0
  0
LINE
  8
LC-003-005-----0
  6
CONTINUOUS
  5
37B
 10
124.876294
 20
520.573249
 30
0.0
 11
126.491064
 21
522.188018
 31
0.0
  0
LINE
  8
LC-003-005-----0
  6
CONTINUOUS
  5
37C
 10
124.611937
 20
520.591734
 30
0.0
 11
126.491064
 21
522.470861
 31
0.0
  0
LINE
  8
LC-003-005-----0
  6
CONTINUOUS
  5
37D
 10
124.34758
 20
520.61022
 30
0.0
 11
126.491064
 21
522.753704
 31
0.0
  0
LINE
  8
LC-003-005-----0
  6
CONTINUOUS
  5
37E
 10
124.083223
 20
520.628706
 30
0.0
 11
126.491064
 21
523.036547
 31
0.0
  0
LINE
  8
LC-003-005-----0
  6
CONTINUOUS
  5
37F
 10
123.818866
 20
520.647191
 30
0.0
 11
126.491064
 21
523.319389
 31
0.0
  0
LINE
  8
LC-003-005-----0
  6
CONTINUOUS
  5
380
 10
123.554509
 20
520.665677
 30
0.0
 11
126.491064
 21
523.602232
 31
0.0
  0
LINE
  8
LC-003-005-----0
  6
CONTINUOUS
  5
381
 10
123.290152
 20
520.684163
 30
0.0
 11
126.491064
 21
523.885075
 31
0.0
  0
LINE
  8
LC-003-005-----0
  6
CONTINUOUS
  5
382
 10
123.025794
 20
520.702648
 30
0.0
 11
126.491064
 21
524.167917
 31
0.0
  0
LINE
  8
LC-003-005-----0
  6
CONTINUOUS
  5
383
 10
122.761437
 20
520.721134
 30
0.0
 11
126.491064
 21
524.45076
 31
0.0
  0
LINE
  8
LC-003-005-----0
  6
CONTINUOUS
  5
384
 10
122.49708
 20
520.739619
 30
0.0
 11
126.244783
 21
524.487322
 31
0.0
  0
LINE
  8
LC-003-005-----0
  6
CONTINUOUS
  5
385
 10
122.232723
 20
520.758105
 30
0.0
 11
125.980426
 21
524.505808
 31
0.0
  0
LINE
  8
LC-003-005-----0
  6
CONTINUOUS
  5
386
 10
121.968366
 20
520.776591
 30
0.0
 11
125.716069
 21
524.524294
 31
0.0
  0
LINE
  8
LC-003-005-----0
  6
CONTINUOUS
  5
387
 10
121.704009
 20
520.795076
 30
0.0
 11
125.451712
 21
524.542779
 31
0.0
  0
LINE
  8
LC-003-005-----0
  6
CONTINUOUS
  5
388
 10
121.439652
 20
520.813562
 30
0.0
 11
125.187355
 21
524.561265
 31
0.0
  0
LINE
  8
LC-003-005-----0
  6
CONTINUOUS
  5
389
 10
121.175295
 20
520.832048
 30
0.0
 11
124.922998
 21
524.579751
 31
0.0
  0
LINE
  8
LC-003-005-----0
  6
CONTINUOUS
  5
38A
 10
120.910938
 20
520.850533
 30
0.0
 11
124.658641
 21
524.598236
 31
0.0
  0
LINE
  8
LC-003-005-----0
  6
CONTINUOUS
  5
38B
 10
120.646581
 20
520.869019
 30
0.0
 11
124.394284
 21
524.616722
 31
0.0
  0
LINE
  8
LC-003-005-----0
  6
CONTINUOUS
  5
38C
 10
120.382224
 20
520.887505
 30
0.0
 11
124.129927
 21
524.635207
 31
0.0
  0
LINE
  8
LC-003-005-----0
  6
CONTINUOUS
  5
38D
 10
120.117867
 20
520.90599
 30
0.0
 11
123.865569
 21
524.653693
 31
0.0
  0
LINE
  8
LC-003-005-----0
  6
CONTINUOUS
  5
38E
 10
119.85351
 20
520.924476
 30
0.0
 11
123.601212
 21
524.672179
 31
0.0
  0
LINE
  8
LC-003-005-----0
  6
CONTINUOUS
  5
38F
 10
119.589152
 20
520.942961
 30
0.0
 11
123.336855
 21
524.690664
 31
0.0
  0
LINE
  8
LC-003-005-----0
  6
CONTINUOUS
  5
390
 10
119.324795
 20
520.961447
 30
0.0
 11
123.072498
 21
524.70915
 31
0.0
  0
LINE
  8
LC-003-005-----0
  6
CONTINUOUS
  5
391
 10
119.060438
 20
520.979933
 30
0.0
 11
122.808141
 21
524.727636
 31
0.0
  0
LINE
  8
LC-003-005-----0
  6
CONTINUOUS
  5
392
 10
118.796081
 20
520.998418
 30
0.0
 11
122.543784
 21
524.746121
 31
0.0
  0
LINE
  8
LC-003-005-----0
  6
CONTINUOUS
  5
393
 10
118.531724
 20
521.016904
 30
0.0
 11
122.279427
 21
524.764607
 31
0.0
  0
LINE
  8
LC-003-005-----0
  6
CONTINUOUS
  5
394
 10
118.267367
 20
521.03539
 30
0.0
 11
122.01507
 21
524.783092
 31
0.0
  0
LINE
  8
LC-003-005-----0
  6
CONTINUOUS
  5
395
 10
118.00301
 20
521.053875
 30
0.0
 11
121.750713
 21
524.801578
 31
0.0
  0
LINE
  8
LC-003-005-----0
  6
CONTINUOUS
  5
396
 10
117.738653
 20
521.072361
 30
0.0
 11
121.486356
 21
524.820064
 31
0.0
  0
LINE
  8
LC-003-005-----0
  6
CONTINUOUS
  5
397
 10
117.474296
 20
521.090846
 30
0.0
 11
121.221999
 21
524.838549
 31
0.0
  0
LINE
  8
LC-003-005-----0
  6
CONTINUOUS
  5
398
 10
117.209939
 20
521.109332
 30
0.0
 11
120.957642
 21
524.857035
 31
0.0
  0
LINE
  8
LC-003-005-----0
  6
CONTINUOUS
  5
399
 10
116.945582
 20
521.127818
 30
0.0
 11
120.693285
 21
524.875521
 31
0.0
  0
LINE
  8
LC-003-005-----0
  6
CONTINUOUS
  5
39A
 10
116.681225
 20
521.146303
 30
0.0
 11
120.428927
 21
524.894006
 31
0.0
  0
LINE
  8
LC-003-005-----0
  6
CONTINUOUS
  5
39B
 10
116.491064
 20
521.238985
 30
0.0
 11
120.16457
 21
524.912492
 31
0.0
  0
LINE
  8
LC-003-005-----0
  6
CONTINUOUS
  5
39C
 10
116.491064
 20
521.521828
 30
0.0
 11
119.900213
 21
524.930978
 31
0.0
  0
LINE
  8
LC-003-005-----0
  6
CONTINUOUS
  5
39D
 10
116.491064
 20
521.804671
 30
0.0
 11
119.635856
 21
524.949463
 31
0.0
  0
LINE
  8
LC-003-005-----0
  6
CONTINUOUS
  5
39E
 10
116.491064
 20
522.087513
 30
0.0
 11
119.371499
 21
524.967949
 31
0.0
  0
LINE
  8
LC-003-005-----0
  6
CONTINUOUS
  5
39F
 10
116.491064
 20
522.370356
 30
0.0
 11
119.107142
 21
524.986434
 31
0.0
  0
LINE
  8
LC-003-005-----0
  6
CONTINUOUS
  5
3A0
 10
116.491064
 20
522.653199
 30
0.0
 11
118.842785
 21
525.00492
 31
0.0
  0
LINE
  8
LC-003-005-----0
  6
CONTINUOUS
  5
3A1
 10
116.491064
 20
522.936042
 30
0.0
 11
118.578428
 21
525.023406
 31
0.0
  0
LINE
  8
LC-003-005-----0
  6
CONTINUOUS
  5
3A2
 10
116.491064
 20
523.218884
 30
0.0
 11
118.314071
 21
525.041891
 31
0.0
  0
LINE
  8
LC-003-005-----0
  6
CONTINUOUS
  5
3A3
 10
116.491064
 20
523.501727
 30
0.0
 11
118.049714
 21
525.060377
 31
0.0
  0
LINE
  8
LC-003-005-----0
  6
CONTINUOUS
  5
3A4
 10
116.491064
 20
523.78457
 30
0.0
 11
117.785357
 21
525.078863
 31
0.0
  0
LINE
  8
LC-003-005-----0
  6
CONTINUOUS
  5
3A5
 10
116.491064
 20
524.067412
 30
0.0
 11
117.521
 21
525.097348
 31
0.0
  0
LINE
  8
LC-003-005-----0
  6
CONTINUOUS
  5
3A6
 10
116.491064
 20
524.350255
 30
0.0
 11
117.256642
 21
525.115834
 31
0.0
  0
LINE
  8
LC-003-005-----0
  6
CONTINUOUS
  5
3A7
 10
116.491064
 20
524.633098
 30
0.0
 11
116.992285
 21
525.134319
 31
0.0
  0
LINE
  8
LC-003-005-----0
  6
CONTINUOUS
  5
3A8
 10
116.491064
 20
524.91594
 30
0.0
 11
116.727928
 21
525.152805
 31
0.0
  0
ENDBLK
  8
0
  5
3A9
  0
BLOCK
  8
0
  5
3AB
  2
*X30
 70
    65
 10
366.800328
 20
525.29262
 30
0.0
  3
*X30
  0
LINE
  8
LC-003-005-----0
  6
CONTINUOUS
  5
3AC
 10
376.639703
 20
525.980656
 30
0.0
 11
376.800328
 21
526.14128
 31
0.0
  0
LINE
  8
LC-003-005-----0
  6
CONTINUOUS
  5
3AD
 10
376.335595
 20
525.95939
 30
0.0
 11
376.800328
 21
526.424123
 31
0.0
  0
LINE
  8
LC-003-005-----0
  6
CONTINUOUS
  5
3AE
 10
376.031487
 20
525.938125
 30
0.0
 11
376.800328
 21
526.706966
 31
0.0
  0
LINE
  8
LC-003-005-----0
  6
CONTINUOUS
  5
3AF
 10
375.727379
 20
525.91686
 30
0.0
 11
376.800328
 21
526.989808
 31
0.0
  0
LINE
  8
LC-003-005-----0
  6
CONTINUOUS
  5
3B0
 10
375.423271
 20
525.895594
 30
0.0
 11
376.800328
 21
527.272651
 31
0.0
  0
LINE
  8
LC-003-005-----0
  6
CONTINUOUS
  5
3B1
 10
375.119163
 20
525.874329
 30
0.0
 11
376.800328
 21
527.555494
 31
0.0
  0
LINE
  8
LC-003-005-----0
  6
CONTINUOUS
  5
3B2
 10
374.815055
 20
525.853064
 30
0.0
 11
376.800328
 21
527.838337
 31
0.0
  0
LINE
  8
LC-003-005-----0
  6
CONTINUOUS
  5
3B3
 10
374.510947
 20
525.831799
 30
0.0
 11
376.800328
 21
528.121179
 31
0.0
  0
LINE
  8
LC-003-005-----0
  6
CONTINUOUS
  5
3B4
 10
374.206839
 20
525.810533
 30
0.0
 11
376.800328
 21
528.404022
 31
0.0
  0
LINE
  8
LC-003-005-----0
  6
CONTINUOUS
  5
3B5
 10
373.902731
 20
525.789268
 30
0.0
 11
376.800328
 21
528.686865
 31
0.0
  0
LINE
  8
LC-003-005-----0
  6
CONTINUOUS
  5
3B6
 10
373.598623
 20
525.768003
 30
0.0
 11
376.800328
 21
528.969707
 31
0.0
  0
LINE
  8
LC-003-005-----0
  6
CONTINUOUS
  5
3B7
 10
373.294515
 20
525.746737
 30
0.0
 11
376.800328
 21
529.25255
 31
0.0
  0
LINE
  8
LC-003-005-----0
  6
CONTINUOUS
  5
3B8
 10
372.990407
 20
525.725472
 30
0.0
 11
376.800328
 21
529.535393
 31
0.0
  0
LINE
  8
LC-003-005-----0
  6
CONTINUOUS
  5
3B9
 10
372.686299
 20
525.704207
 30
0.0
 11
376.800328
 21
529.818236
 31
0.0
  0
LINE
  8
LC-003-005-----0
  6
CONTINUOUS
  5
3BA
 10
372.382191
 20
525.682942
 30
0.0
 11
376.69343
 21
529.99418
 31
0.0
  0
LINE
  8
LC-003-005-----0
  6
CONTINUOUS
  5
3BB
 10
372.078083
 20
525.661676
 30
0.0
 11
376.389322
 21
529.972915
 31
0.0
  0
LINE
  8
LC-003-005-----0
  6
CONTINUOUS
  5
3BC
 10
371.773975
 20
525.640411
 30
0.0
 11
376.085214
 21
529.951649
 31
0.0
  0
LINE
  8
LC-003-005-----0
  6
CONTINUOUS
  5
3BD
 10
371.469867
 20
525.619146
 30
0.0
 11
375.781106
 21
529.930384
 31
0.0
  0
LINE
  8
LC-003-005-----0
  6
CONTINUOUS
  5
3BE
 10
371.165759
 20
525.59788
 30
0.0
 11
375.476998
 21
529.909119
 31
0.0
  0
LINE
  8
LC-003-005-----0
  6
CONTINUOUS
  5
3BF
 10
370.861651
 20
525.576615
 30
0.0
 11
375.17289
 21
529.887854
 31
0.0
  0
LINE
  8
LC-003-005-----0
  6
CONTINUOUS
  5
3C0
 10
370.557543
 20
525.55535
 30
0.0
 11
374.868782
 21
529.866588
 31
0.0
  0
LINE
  8
LC-003-005-----0
  6
CONTINUOUS
  5
3C1
 10
370.253435
 20
525.534085
 30
0.0
 11
374.564674
 21
529.845323
 31
0.0
  0
LINE
  8
LC-003-005-----0
  6
CONTINUOUS
  5
3C2
 10
369.949327
 20
525.512819
 30
0.0
 11
374.260566
 21
529.824058
 31
0.0
  0
LINE
  8
LC-003-005-----0
  6
CONTINUOUS
  5
3C3
 10
369.645219
 20
525.491554
 30
0.0
 11
373.956458
 21
529.802792
 31
0.0
  0
LINE
  8
LC-003-005-----0
  6
CONTINUOUS
  5
3C4
 10
369.341111
 20
525.470289
 30
0.0
 11
373.65235
 21
529.781527
 31
0.0
  0
LINE
  8
LC-003-005-----0
  6
CONTINUOUS
  5
3C5
 10
369.037003
 20
525.449023
 30
0.0
 11
373.348242
 21
529.760262
 31
0.0
  0
LINE
  8
LC-003-005-----0
  6
CONTINUOUS
  5
3C6
 10
368.732895
 20
525.427758
 30
0.0
 11
373.044134
 21
529.738997
 31
0.0
  0
LINE
  8
LC-003-005-----0
  6
CONTINUOUS
  5
3C7
 10
368.428787
 20
525.406493
 30
0.0
 11
372.740026
 21
529.717731
 31
0.0
  0
LINE
  8
LC-003-005-----0
  6
CONTINUOUS
  5
3C8
 10
368.124679
 20
525.385228
 30
0.0
 11
372.435918
 21
529.696466
 31
0.0
  0
LINE
  8
LC-003-005-----0
  6
CONTINUOUS
  5
3C9
 10
367.820571
 20
525.363962
 30
0.0
 11
372.13181
 21
529.675201
 31
0.0
  0
LINE
  8
LC-003-005-----0
  6
CONTINUOUS
  5
3CA
 10
367.516463
 20
525.342697
 30
0.0
 11
371.827702
 21
529.653935
 31
0.0
  0
LINE
  8
LC-003-005-----0
  6
CONTINUOUS
  5
3CB
 10
367.212355
 20
525.321432
 30
0.0
 11
371.523594
 21
529.63267
 31
0.0
  0
LINE
  8
LC-003-005-----0
  6
CONTINUOUS
  5
3CC
 10
366.908247
 20
525.300166
 30
0.0
 11
371.219486
 21
529.611405
 31
0.0
  0
LINE
  8
LC-003-005-----0
  6
CONTINUOUS
  5
3CD
 10
366.800328
 20
525.47509
 30
0.0
 11
370.915378
 21
529.59014
 31
0.0
  0
LINE
  8
LC-003-005-----0
  6
CONTINUOUS
  5
3CE
 10
366.800328
 20
525.757932
 30
0.0
 11
370.61127
 21
529.568874
 31
0.0
  0
LINE
  8
LC-003-005-----0
  6
CONTINUOUS
  5
3CF
 10
366.800328
 20
526.040775
 30
0.0
 11
370.307162
 21
529.547609
 31
0.0
  0
LINE
  8
LC-003-005-----0
  6
CONTINUOUS
  5
3D0
 10
366.800328
 20
526.323618
 30
0.0
 11
370.003054
 21
529.526344
 31
0.0
  0
LINE
  8
LC-003-005-----0
  6
CONTINUOUS
  5
3D1
 10
366.800328
 20
526.606461
 30
0.0
 11
369.698946
 21
529.505078
 31
0.0
  0
LINE
  8
LC-003-005-----0
  6
CONTINUOUS
  5
3D2
 10
366.800328
 20
526.889303
 30
0.0
 11
369.394838
 21
529.483813
 31
0.0
  0
LINE
  8
LC-003-005-----0
  6
CONTINUOUS
  5
3D3
 10
366.800328
 20
527.172146
 30
0.0
 11
369.09073
 21
529.462548
 31
0.0
  0
LINE
  8
LC-003-005-----0
  6
CONTINUOUS
  5
3D4
 10
366.800328
 20
527.454989
 30
0.0
 11
368.786622
 21
529.441283
 31
0.0
  0
LINE
  8
LC-003-005-----0
  6
CONTINUOUS
  5
3D5
 10
366.800328
 20
527.737831
 30
0.0
 11
368.482514
 21
529.420017
 31
0.0
  0
LINE
  8
LC-003-005-----0
  6
CONTINUOUS
  5
3D6
 10
366.800328
 20
528.020674
 30
0.0
 11
368.178406
 21
529.398752
 31
0.0
  0
LINE
  8
LC-003-005-----0
  6
CONTINUOUS
  5
3D7
 10
366.800328
 20
528.303517
 30
0.0
 11
367.874298
 21
529.377487
 31
0.0
  0
LINE
  8
LC-003-005-----0
  6
CONTINUOUS
  5
3D8
 10
366.800328
 20
528.58636
 30
0.0
 11
367.57019
 21
529.356221
 31
0.0
  0
LINE
  8
LC-003-005-----0
  6
CONTINUOUS
  5
3D9
 10
366.800328
 20
528.869202
 30
0.0
 11
367.266082
 21
529.334956
 31
0.0
  0
LINE
  8
LC-003-005-----0
  6
CONTINUOUS
  5
3DA
 10
366.800328
 20
529.152045
 30
0.0
 11
366.961974
 21
529.313691
 31
0.0
  0
ENDBLK
  8
0
  5
3DB
  0
BLOCK
  8
0
  5
3DD
  2
*X31
 70
    65
 10
326.800328
 20
520.481959
 30
0.0
  3
*X31
  0
LINE
  8
LC-003-005-----0
  6
CONTINUOUS
  5
3DE
 10
336.765331
 20
521.178779
 30
0.0
 11
336.800328
 21
521.213777
 31
0.0
  0
LINE
  8
LC-003-005-----0
  6
CONTINUOUS
  5
3DF
 10
336.461223
 20
521.157514
 30
0.0
 11
336.800328
 21
521.496619
 31
0.0
  0
LINE
  8
LC-003-005-----0
  6
CONTINUOUS
  5
3E0
 10
336.157115
 20
521.136249
 30
0.0
 11
336.800328
 21
521.779462
 31
0.0
  0
LINE
  8
LC-003-005-----0
  6
CONTINUOUS
  5
3E1
 10
335.853007
 20
521.114983
 30
0.0
 11
336.800328
 21
522.062305
 31
0.0
  0
LINE
  8
LC-003-005-----0
  6
CONTINUOUS
  5
3E2
 10
335.548899
 20
521.093718
 30
0.0
 11
336.800328
 21
522.345147
 31
0.0
  0
LINE
  8
LC-003-005-----0
  6
CONTINUOUS
  5
3E3
 10
335.244791
 20
521.072453
 30
0.0
 11
336.800328
 21
522.62799
 31
0.0
  0
LINE
  8
LC-003-005-----0
  6
CONTINUOUS
  5
3E4
 10
334.940683
 20
521.051188
 30
0.0
 11
336.800328
 21
522.910833
 31
0.0
  0
LINE
  8
LC-003-005-----0
  6
CONTINUOUS
  5
3E5
 10
334.636575
 20
521.029922
 30
0.0
 11
336.800328
 21
523.193676
 31
0.0
  0
LINE
  8
LC-003-005-----0
  6
CONTINUOUS
  5
3E6
 10
334.332467
 20
521.008657
 30
0.0
 11
336.800328
 21
523.476518
 31
0.0
  0
LINE
  8
LC-003-005-----0
  6
CONTINUOUS
  5
3E7
 10
334.028359
 20
520.987392
 30
0.0
 11
336.800328
 21
523.759361
 31
0.0
  0
LINE
  8
LC-003-005-----0
  6
CONTINUOUS
  5
3E8
 10
333.724251
 20
520.966126
 30
0.0
 11
336.800328
 21
524.042204
 31
0.0
  0
LINE
  8
LC-003-005-----0
  6
CONTINUOUS
  5
3E9
 10
333.420143
 20
520.944861
 30
0.0
 11
336.800328
 21
524.325046
 31
0.0
  0
LINE
  8
LC-003-005-----0
  6
CONTINUOUS
  5
3EA
 10
333.116035
 20
520.923596
 30
0.0
 11
336.800328
 21
524.607889
 31
0.0
  0
LINE
  8
LC-003-005-----0
  6
CONTINUOUS
  5
3EB
 10
332.811927
 20
520.902331
 30
0.0
 11
336.800328
 21
524.890732
 31
0.0
  0
LINE
  8
LC-003-005-----0
  6
CONTINUOUS
  5
3EC
 10
332.507819
 20
520.881065
 30
0.0
 11
336.800328
 21
525.173575
 31
0.0
  0
LINE
  8
LC-003-005-----0
  6
CONTINUOUS
  5
3ED
 10
332.203711
 20
520.8598
 30
0.0
 11
336.514949
 21
525.171039
 31
0.0
  0
LINE
  8
LC-003-005-----0
  6
CONTINUOUS
  5
3EE
 10
331.899603
 20
520.838535
 30
0.0
 11
336.210841
 21
525.149773
 31
0.0
  0
LINE
  8
LC-003-005-----0
  6
CONTINUOUS
  5
3EF
 10
331.595495
 20
520.817269
 30
0.0
 11
335.906733
 21
525.128508
 31
0.0
  0
LINE
  8
LC-003-005-----0
  6
CONTINUOUS
  5
3F0
 10
331.291387
 20
520.796004
 30
0.0
 11
335.602625
 21
525.107243
 31
0.0
  0
LINE
  8
LC-003-005-----0
  6
CONTINUOUS
  5
3F1
 10
330.987279
 20
520.774739
 30
0.0
 11
335.298517
 21
525.085977
 31
0.0
  0
LINE
  8
LC-003-005-----0
  6
CONTINUOUS
  5
3F2
 10
330.683171
 20
520.753474
 30
0.0
 11
334.994409
 21
525.064712
 31
0.0
  0
LINE
  8
LC-003-005-----0
  6
CONTINUOUS
  5
3F3
 10
330.379063
 20
520.732208
 30
0.0
 11
334.690301
 21
525.043447
 31
0.0
  0
LINE
  8
LC-003-005-----0
  6
CONTINUOUS
  5
3F4
 10
330.074955
 20
520.710943
 30
0.0
 11
334.386193
 21
525.022182
 31
0.0
  0
LINE
  8
LC-003-005-----0
  6
CONTINUOUS
  5
3F5
 10
329.770847
 20
520.689678
 30
0.0
 11
334.082085
 21
525.000916
 31
0.0
  0
LINE
  8
LC-003-005-----0
  6
CONTINUOUS
  5
3F6
 10
329.466739
 20
520.668412
 30
0.0
 11
333.777977
 21
524.979651
 31
0.0
  0
LINE
  8
LC-003-005-----0
  6
CONTINUOUS
  5
3F7
 10
329.162631
 20
520.647147
 30
0.0
 11
333.473869
 21
524.958386
 31
0.0
  0
LINE
  8
LC-003-005-----0
  6
CONTINUOUS
  5
3F8
 10
328.858523
 20
520.625882
 30
0.0
 11
333.169761
 21
524.93712
 31
0.0
  0
LINE
  8
LC-003-005-----0
  6
CONTINUOUS
  5
3F9
 10
328.554415
 20
520.604617
 30
0.0
 11
332.865653
 21
524.915855
 31
0.0
  0
LINE
  8
LC-003-005-----0
  6
CONTINUOUS
  5
3FA
 10
328.250307
 20
520.583351
 30
0.0
 11
332.561545
 21
524.89459
 31
0.0
  0
LINE
  8
LC-003-005-----0
  6
CONTINUOUS
  5
3FB
 10
327.946199
 20
520.562086
 30
0.0
 11
332.257437
 21
524.873325
 31
0.0
  0
LINE
  8
LC-003-005-----0
  6
CONTINUOUS
  5
3FC
 10
327.642091
 20
520.540821
 30
0.0
 11
331.953329
 21
524.852059
 31
0.0
  0
LINE
  8
LC-003-005-----0
  6
CONTINUOUS
  5
3FD
 10
327.337983
 20
520.519556
 30
0.0
 11
331.649221
 21
524.830794
 31
0.0
  0
LINE
  8
LC-003-005-----0
  6
CONTINUOUS
  5
3FE
 10
327.033875
 20
520.49829
 30
0.0
 11
331.345113
 21
524.809529
 31
0.0
  0
LINE
  8
LC-003-005-----0
  6
CONTINUOUS
  5
3FF
 10
326.800328
 20
520.547586
 30
0.0
 11
331.041005
 21
524.788263
 31
0.0
  0
LINE
  8
LC-003-005-----0
  6
CONTINUOUS
  5
400
 10
326.800328
 20
520.830429
 30
0.0
 11
330.736897
 21
524.766998
 31
0.0
  0
LINE
  8
LC-003-005-----0
  6
CONTINUOUS
  5
401
 10
326.800328
 20
521.113272
 30
0.0
 11
330.432789
 21
524.745733
 31
0.0
  0
LINE
  8
LC-003-005-----0
  6
CONTINUOUS
  5
402
 10
326.800328
 20
521.396114
 30
0.0
 11
330.128681
 21
524.724468
 31
0.0
  0
LINE
  8
LC-003-005-----0
  6
CONTINUOUS
  5
403
 10
326.800328
 20
521.678957
 30
0.0
 11
329.824573
 21
524.703202
 31
0.0
  0
LINE
  8
LC-003-005-----0
  6
CONTINUOUS
  5
404
 10
326.800328
 20
521.9618
 30
0.0
 11
329.520465
 21
524.681937
 31
0.0
  0
LINE
  8
LC-003-005-----0
  6
CONTINUOUS
  5
405
 10
326.800328
 20
522.244642
 30
0.0
 11
329.216357
 21
524.660672
 31
0.0
  0
LINE
  8
LC-003-005-----0
  6
CONTINUOUS
  5
406
 10
326.800328
 20
522.527485
 30
0.0
 11
328.912249
 21
524.639406
 31
0.0
  0
LINE
  8
LC-003-005-----0
  6
CONTINUOUS
  5
407
 10
326.800328
 20
522.810328
 30
0.0
 11
328.608141
 21
524.618141
 31
0.0
  0
LINE
  8
LC-003-005-----0
  6
CONTINUOUS
  5
408
 10
326.800328
 20
523.093171
 30
0.0
 11
328.304033
 21
524.596876
 31
0.0
  0
LINE
  8
LC-003-005-----0
  6
CONTINUOUS
  5
409
 10
326.800328
 20
523.376013
 30
0.0
 11
327.999925
 21
524.575611
 31
0.0
  0
LINE
  8
LC-003-005-----0
  6
CONTINUOUS
  5
40A
 10
326.800328
 20
523.658856
 30
0.0
 11
327.695817
 21
524.554345
 31
0.0
  0
LINE
  8
LC-003-005-----0
  6
CONTINUOUS
  5
40B
 10
326.800328
 20
523.941699
 30
0.0
 11
327.391709
 21
524.53308
 31
0.0
  0
LINE
  8
LC-003-005-----0
  6
CONTINUOUS
  5
40C
 10
326.800328
 20
524.224541
 30
0.0
 11
327.087601
 21
524.511815
 31
0.0
  0
ENDBLK
  8
0
  5
40D
  0
BLOCK
  8
0
  5
40F
  2
*X32
 70
    65
 10
346.800328
 20
523.894085
 30
0.0
  3
*X32
  0
LINE
  8
LC-003-005-----0
  6
CONTINUOUS
  5
410
 10
356.568576
 20
524.577147
 30
0.0
 11
356.800328
 21
524.808899
 31
0.0
  0
LINE
  8
LC-003-005-----0
  6
CONTINUOUS
  5
411
 10
356.264468
 20
524.555881
 30
0.0
 11
356.800328
 21
525.091742
 31
0.0
  0
LINE
  8
LC-003-005-----0
  6
CONTINUOUS
  5
412
 10
355.96036
 20
524.534616
 30
0.0
 11
356.800328
 21
525.374585
 31
0.0
  0
LINE
  8
LC-003-005-----0
  6
CONTINUOUS
  5
413
 10
355.656252
 20
524.513351
 30
0.0
 11
356.800328
 21
525.657427
 31
0.0
  0
LINE
  8
LC-003-005-----0
  6
CONTINUOUS
  5
414
 10
355.352144
 20
524.492086
 30
0.0
 11
356.800328
 21
525.94027
 31
0.0
  0
LINE
  8
LC-003-005-----0
  6
CONTINUOUS
  5
415
 10
355.048036
 20
524.47082
 30
0.0
 11
356.800328
 21
526.223113
 31
0.0
  0
LINE
  8
LC-003-005-----0
  6
CONTINUOUS
  5
416
 10
354.743928
 20
524.449555
 30
0.0
 11
356.800328
 21
526.505956
 31
0.0
  0
LINE
  8
LC-003-005-----0
  6
CONTINUOUS
  5
417
 10
354.43982
 20
524.42829
 30
0.0
 11
356.800328
 21
526.788798
 31
0.0
  0
LINE
  8
LC-003-005-----0
  6
CONTINUOUS
  5
418
 10
354.135712
 20
524.407024
 30
0.0
 11
356.800328
 21
527.071641
 31
0.0
  0
LINE
  8
LC-003-005-----0
  6
CONTINUOUS
  5
419
 10
353.831604
 20
524.385759
 30
0.0
 11
356.800328
 21
527.354484
 31
0.0
  0
LINE
  8
LC-003-005-----0
  6
CONTINUOUS
  5
41A
 10
353.527496
 20
524.364494
 30
0.0
 11
356.800328
 21
527.637326
 31
0.0
  0
LINE
  8
LC-003-005-----0
  6
CONTINUOUS
  5
41B
 10
353.223388
 20
524.343229
 30
0.0
 11
356.800328
 21
527.920169
 31
0.0
  0
LINE
  8
LC-003-005-----0
  6
CONTINUOUS
  5
41C
 10
352.91928
 20
524.321963
 30
0.0
 11
356.800328
 21
528.203012
 31
0.0
  0
LINE
  8
LC-003-005-----0
  6
CONTINUOUS
  5
41D
 10
352.615172
 20
524.300698
 30
0.0
 11
356.800328
 21
528.485855
 31
0.0
  0
LINE
  8
LC-003-005-----0
  6
CONTINUOUS
  5
41E
 10
352.311064
 20
524.279433
 30
0.0
 11
356.622302
 21
528.590671
 31
0.0
  0
LINE
  8
LC-003-005-----0
  6
CONTINUOUS
  5
41F
 10
352.006956
 20
524.258167
 30
0.0
 11
356.318194
 21
528.569406
 31
0.0
  0
LINE
  8
LC-003-005-----0
  6
CONTINUOUS
  5
420
 10
351.702848
 20
524.236902
 30
0.0
 11
356.014086
 21
528.548141
 31
0.0
  0
LINE
  8
LC-003-005-----0
  6
CONTINUOUS
  5
421
 10
351.39874
 20
524.215637
 30
0.0
 11
355.709978
 21
528.526875
 31
0.0
  0
LINE
  8
LC-003-005-----0
  6
CONTINUOUS
  5
422
 10
351.094632
 20
524.194372
 30
0.0
 11
355.40587
 21
528.50561
 31
0.0
  0
LINE
  8
LC-003-005-----0
  6
CONTINUOUS
  5
423
 10
350.790524
 20
524.173106
 30
0.0
 11
355.101762
 21
528.484345
 31
0.0
  0
LINE
  8
LC-003-005-----0
  6
CONTINUOUS
  5
424
 10
350.486416
 20
524.151841
 30
0.0
 11
354.797654
 21
528.46308
 31
0.0
  0
LINE
  8
LC-003-005-----0
  6
CONTINUOUS
  5
425
 10
350.182308
 20
524.130576
 30
0.0
 11
354.493546
 21
528.441814
 31
0.0
  0
LINE
  8
LC-003-005-----0
  6
CONTINUOUS
  5
426
 10
349.8782
 20
524.10931
 30
0.0
 11
354.189438
 21
528.420549
 31
0.0
  0
LINE
  8
LC-003-005-----0
  6
CONTINUOUS
  5
427
 10
349.574092
 20
524.088045
 30
0.0
 11
353.88533
 21
528.399284
 31
0.0
  0
LINE
  8
LC-003-005-----0
  6
CONTINUOUS
  5
428
 10
349.269984
 20
524.06678
 30
0.0
 11
353.581222
 21
528.378018
 31
0.0
  0
LINE
  8
LC-003-005-----0
  6
CONTINUOUS
  5
429
 10
348.965876
 20
524.045515
 30
0.0
 11
353.277114
 21
528.356753
 31
0.0
  0
LINE
  8
LC-003-005-----0
  6
CONTINUOUS
  5
42A
 10
348.661768
 20
524.024249
 30
0.0
 11
352.973006
 21
528.335488
 31
0.0
  0
LINE
  8
LC-003-005-----0
  6
CONTINUOUS
  5
42B
 10
348.35766
 20
524.002984
 30
0.0
 11
352.668898
 21
528.314223
 31
0.0
  0
LINE
  8
LC-003-005-----0
  6
CONTINUOUS
  5
42C
 10
348.053552
 20
523.981719
 30
0.0
 11
352.36479
 21
528.292957
 31
0.0
  0
LINE
  8
LC-003-005-----0
  6
CONTINUOUS
  5
42D
 10
347.749444
 20
523.960453
 30
0.0
 11
352.060682
 21
528.271692
 31
0.0
  0
LINE
  8
LC-003-005-----0
  6
CONTINUOUS
  5
42E
 10
347.445336
 20
523.939188
 30
0.0
 11
351.756574
 21
528.250427
 31
0.0
  0
LINE
  8
LC-003-005-----0
  6
CONTINUOUS
  5
42F
 10
347.141228
 20
523.917923
 30
0.0
 11
351.452466
 21
528.229161
 31
0.0
  0
LINE
  8
LC-003-005-----0
  6
CONTINUOUS
  5
430
 10
346.83712
 20
523.896658
 30
0.0
 11
351.148358
 21
528.207896
 31
0.0
  0
LINE
  8
LC-003-005-----0
  6
CONTINUOUS
  5
431
 10
346.800328
 20
524.142709
 30
0.0
 11
350.84425
 21
528.186631
 31
0.0
  0
LINE
  8
LC-003-005-----0
  6
CONTINUOUS
  5
432
 10
346.800328
 20
524.425552
 30
0.0
 11
350.540142
 21
528.165366
 31
0.0
  0
LINE
  8
LC-003-005-----0
  6
CONTINUOUS
  5
433
 10
346.800328
 20
524.708394
 30
0.0
 11
350.236034
 21
528.1441
 31
0.0
  0
LINE
  8
LC-003-005-----0
  6
CONTINUOUS
  5
434
 10
346.800328
 20
524.991237
 30
0.0
 11
349.931926
 21
528.122835
 31
0.0
  0
LINE
  8
LC-003-005-----0
  6
CONTINUOUS
  5
435
 10
346.800328
 20
525.27408
 30
0.0
 11
349.627818
 21
528.10157
 31
0.0
  0
LINE
  8
LC-003-005-----0
  6
CONTINUOUS
  5
436
 10
346.800328
 20
525.556922
 30
0.0
 11
349.32371
 21
528.080304
 31
0.0
  0
LINE
  8
LC-003-005-----0
  6
CONTINUOUS
  5
437
 10
346.800328
 20
525.839765
 30
0.0
 11
349.019602
 21
528.059039
 31
0.0
  0
LINE
  8
LC-003-005-----0
  6
CONTINUOUS
  5
438
 10
346.800328
 20
526.122608
 30
0.0
 11
348.715494
 21
528.037774
 31
0.0
  0
LINE
  8
LC-003-005-----0
  6
CONTINUOUS
  5
439
 10
346.800328
 20
526.40545
 30
0.0
 11
348.411386
 21
528.016509
 31
0.0
  0
LINE
  8
LC-003-005-----0
  6
CONTINUOUS
  5
43A
 10
346.800328
 20
526.688293
 30
0.0
 11
348.107278
 21
527.995243
 31
0.0
  0
LINE
  8
LC-003-005-----0
  6
CONTINUOUS
  5
43B
 10
346.800328
 20
526.971136
 30
0.0
 11
347.80317
 21
527.973978
 31
0.0
  0
LINE
  8
LC-003-005-----0
  6
CONTINUOUS
  5
43C
 10
346.800328
 20
527.253979
 30
0.0
 11
347.499062
 21
527.952713
 31
0.0
  0
LINE
  8
LC-003-005-----0
  6
CONTINUOUS
  5
43D
 10
346.800328
 20
527.536821
 30
0.0
 11
347.194954
 21
527.931447
 31
0.0
  0
LINE
  8
LC-003-005-----0
  6
CONTINUOUS
  5
43E
 10
346.800328
 20
527.819664
 30
0.0
 11
346.890846
 21
527.910182
 31
0.0
  0
ENDBLK
  8
0
  5
43F
  0
BLOCK
  8
0
  5
441
  2
*X33
 70
    65
 10
386.800328
 20
526.037638
 30
0.0
  3
*X33
  0
LINE
  8
LC-003-005-----0
  6
CONTINUOUS
  5
442
 10
396.778519
 20
526.037638
 30
0.0
 11
396.800328
 21
526.059448
 31
0.0
  0
LINE
  8
LC-003-005-----0
  6
CONTINUOUS
  5
443
 10
396.495676
 20
526.037638
 30
0.0
 11
396.800328
 21
526.34229
 31
0.0
  0
LINE
  8
LC-003-005-----0
  6
CONTINUOUS
  5
444
 10
396.212833
 20
526.037638
 30
0.0
 11
396.800328
 21
526.625133
 31
0.0
  0
LINE
  8
LC-003-005-----0
  6
CONTINUOUS
  5
445
 10
395.929991
 20
526.037638
 30
0.0
 11
396.800328
 21
526.907976
 31
0.0
  0
LINE
  8
LC-003-005-----0
  6
CONTINUOUS
  5
446
 10
395.647148
 20
526.037638
 30
0.0
 11
396.800328
 21
527.190819
 31
0.0
  0
LINE
  8
LC-003-005-----0
  6
CONTINUOUS
  5
447
 10
395.364305
 20
526.037638
 30
0.0
 11
396.800328
 21
527.473661
 31
0.0
  0
LINE
  8
LC-003-005-----0
  6
CONTINUOUS
  5
448
 10
395.081462
 20
526.037638
 30
0.0
 11
396.800328
 21
527.756504
 31
0.0
  0
LINE
  8
LC-003-005-----0
  6
CONTINUOUS
  5
449
 10
394.79862
 20
526.037638
 30
0.0
 11
396.800328
 21
528.039347
 31
0.0
  0
LINE
  8
LC-003-005-----0
  6
CONTINUOUS
  5
44A
 10
394.515777
 20
526.037638
 30
0.0
 11
396.800328
 21
528.322189
 31
0.0
  0
LINE
  8
LC-003-005-----0
  6
CONTINUOUS
  5
44B
 10
394.232934
 20
526.037638
 30
0.0
 11
396.800328
 21
528.605032
 31
0.0
  0
LINE
  8
LC-003-005-----0
  6
CONTINUOUS
  5
44C
 10
393.950092
 20
526.037638
 30
0.0
 11
396.800328
 21
528.887875
 31
0.0
  0
LINE
  8
LC-003-005-----0
  6
CONTINUOUS
  5
44D
 10
393.667249
 20
526.037638
 30
0.0
 11
396.800328
 21
529.170718
 31
0.0
  0
LINE
  8
LC-003-005-----0
  6
CONTINUOUS
  5
44E
 10
393.384406
 20
526.037638
 30
0.0
 11
396.800328
 21
529.45356
 31
0.0
  0
LINE
  8
LC-003-005-----0
  6
CONTINUOUS
  5
44F
 10
393.101564
 20
526.037638
 30
0.0
 11
396.800328
 21
529.736403
 31
0.0
  0
LINE
  8
LC-003-005-----0
  6
CONTINUOUS
  5
450
 10
392.818721
 20
526.037638
 30
0.0
 11
396.800328
 21
530.019246
 31
0.0
  0
LINE
  8
LC-003-005-----0
  6
CONTINUOUS
  5
451
 10
392.535878
 20
526.037638
 30
0.0
 11
396.535878
 21
530.037638
 31
0.0
  0
LINE
  8
LC-003-005-----0
  6
CONTINUOUS
  5
452
 10
392.253035
 20
526.037638
 30
0.0
 11
396.253035
 21
530.037638
 31
0.0
  0
LINE
  8
LC-003-005-----0
  6
CONTINUOUS
  5
453
 10
391.970193
 20
526.037638
 30
0.0
 11
395.970193
 21
530.037638
 31
0.0
  0
LINE
  8
LC-003-005-----0
  6
CONTINUOUS
  5
454
 10
391.68735
 20
526.037638
 30
0.0
 11
395.68735
 21
530.037638
 31
0.0
  0
LINE
  8
LC-003-005-----0
  6
CONTINUOUS
  5
455
 10
391.404507
 20
526.037638
 30
0.0
 11
395.404507
 21
530.037638
 31
0.0
  0
LINE
  8
LC-003-005-----0
  6
CONTINUOUS
  5
456
 10
391.121665
 20
526.037638
 30
0.0
 11
395.121665
 21
530.037638
 31
0.0
  0
LINE
  8
LC-003-005-----0
  6
CONTINUOUS
  5
457
 10
390.838822
 20
526.037638
 30
0.0
 11
394.838822
 21
530.037638
 31
0.0
  0
LINE
  8
LC-003-005-----0
  6
CONTINUOUS
  5
458
 10
390.555979
 20
526.037638
 30
0.0
 11
394.555979
 21
530.037638
 31
0.0
  0
LINE
  8
LC-003-005-----0
  6
CONTINUOUS
  5
459
 10
390.273136
 20
526.037638
 30
0.0
 11
394.273136
 21
530.037638
 31
0.0
  0
LINE
  8
LC-003-005-----0
  6
CONTINUOUS
  5
45A
 10
389.990294
 20
526.037638
 30
0.0
 11
393.990294
 21
530.037638
 31
0.0
  0
LINE
  8
LC-003-005-----0
  6
CONTINUOUS
  5
45B
 10
389.707451
 20
526.037638
 30
0.0
 11
393.707451
 21
530.037638
 31
0.0
  0
LINE
  8
LC-003-005-----0
  6
CONTINUOUS
  5
45C
 10
389.424608
 20
526.037638
 30
0.0
 11
393.424608
 21
530.037638
 31
0.0
  0
LINE
  8
LC-003-005-----0
  6
CONTINUOUS
  5
45D
 10
389.141766
 20
526.037638
 30
0.0
 11
393.141766
 21
530.037638
 31
0.0
  0
LINE
  8
LC-003-005-----0
  6
CONTINUOUS
  5
45E
 10
388.858923
 20
526.037638
 30
0.0
 11
392.858923
 21
530.037638
 31
0.0
  0
LINE
  8
LC-003-005-----0
  6
CONTINUOUS
  5
45F
 10
388.57608
 20
526.037638
 30
0.0
 11
392.57608
 21
530.037638
 31
0.0
  0
LINE
  8
LC-003-005-----0
  6
CONTINUOUS
  5
460
 10
388.293237
 20
526.037638
 30
0.0
 11
392.293237
 21
530.037638
 31
0.0
  0
LINE
  8
LC-003-005-----0
  6
CONTINUOUS
  5
461
 10
388.010395
 20
526.037638
 30
0.0
 11
392.010395
 21
530.037638
 31
0.0
  0
LINE
  8
LC-003-005-----0
  6
CONTINUOUS
  5
462
 10
387.727552
 20
526.037638
 30
0.0
 11
391.727552
 21
530.037638
 31
0.0
  0
LINE
  8
LC-003-005-----0
  6
CONTINUOUS
  5
463
 10
387.444709
 20
526.037638
 30
0.0
 11
391.444709
 21
530.037638
 31
0.0
  0
LINE
  8
LC-003-005-----0
  6
CONTINUOUS
  5
464
 10
387.161867
 20
526.037638
 30
0.0
 11
391.161867
 21
530.037638
 31
0.0
  0
LINE
  8
LC-003-005-----0
  6
CONTINUOUS
  5
465
 10
386.879024
 20
526.037638
 30
0.0
 11
390.879024
 21
530.037638
 31
0.0
  0
LINE
  8
LC-003-005-----0
  6
CONTINUOUS
  5
466
 10
386.800328
 20
526.241785
 30
0.0
 11
390.596181
 21
530.037638
 31
0.0
  0
LINE
  8
LC-003-005-----0
  6
CONTINUOUS
  5
467
 10
386.800328
 20
526.524628
 30
0.0
 11
390.313338
 21
530.037638
 31
0.0
  0
LINE
  8
LC-003-005-----0
  6
CONTINUOUS
  5
468
 10
386.800328
 20
526.807471
 30
0.0
 11
390.030496
 21
530.037638
 31
0.0
  0
LINE
  8
LC-003-005-----0
  6
CONTINUOUS
  5
469
 10
386.800328
 20
527.090313
 30
0.0
 11
389.747653
 21
530.037638
 31
0.0
  0
LINE
  8
LC-003-005-----0
  6
CONTINUOUS
  5
46A
 10
386.800328
 20
527.373156
 30
0.0
 11
389.46481
 21
530.037638
 31
0.0
  0
LINE
  8
LC-003-005-----0
  6
CONTINUOUS
  5
46B
 10
386.800328
 20
527.655999
 30
0.0
 11
389.181968
 21
530.037638
 31
0.0
  0
LINE
  8
LC-003-005-----0
  6
CONTINUOUS
  5
46C
 10
386.800328
 20
527.938842
 30
0.0
 11
388.899125
 21
530.037638
 31
0.0
  0
LINE
  8
LC-003-005-----0
  6
CONTINUOUS
  5
46D
 10
386.800328
 20
528.221684
 30
0.0
 11
388.616282
 21
530.037638
 31
0.0
  0
LINE
  8
LC-003-005-----0
  6
CONTINUOUS
  5
46E
 10
386.800328
 20
528.504527
 30
0.0
 11
388.333439
 21
530.037638
 31
0.0
  0
LINE
  8
LC-003-005-----0
  6
CONTINUOUS
  5
46F
 10
386.800328
 20
528.78737
 30
0.0
 11
388.050597
 21
530.037638
 31
0.0
  0
LINE
  8
LC-003-005-----0
  6
CONTINUOUS
  5
470
 10
386.800328
 20
529.070212
 30
0.0
 11
387.767754
 21
530.037638
 31
0.0
  0
LINE
  8
LC-003-005-----0
  6
CONTINUOUS
  5
471
 10
386.800328
 20
529.353055
 30
0.0
 11
387.484911
 21
530.037638
 31
0.0
  0
LINE
  8
LC-003-005-----0
  6
CONTINUOUS
  5
472
 10
386.800328
 20
529.635898
 30
0.0
 11
387.202069
 21
530.037638
 31
0.0
  0
LINE
  8
LC-003-005-----0
  6
CONTINUOUS
  5
473
 10
386.800328
 20
529.918741
 30
0.0
 11
386.919226
 21
530.037638
 31
0.0
  0
ENDBLK
  8
0
  5
474
  0
BLOCK
  8
0
  5
476
  2
*X34
 70
    65
 10
406.800328
 20
526.037638
 30
0.0
  3
*X34
  0
LINE
  8
LC-003-005-----0
  6
CONTINUOUS
  5
477
 10
416.577509
 20
526.037638
 30
0.0
 11
416.800328
 21
526.260458
 31
0.0
  0
LINE
  8
LC-003-005-----0
  6
CONTINUOUS
  5
478
 10
416.294666
 20
526.037638
 30
0.0
 11
416.800328
 21
526.543301
 31
0.0
  0
LINE
  8
LC-003-005-----0
  6
CONTINUOUS
  5
479
 10
416.011823
 20
526.037638
 30
0.0
 11
416.800328
 21
526.826143
 31
0.0
  0
LINE
  8
LC-003-005-----0
  6
CONTINUOUS
  5
47A
 10
415.728981
 20
526.037638
 30
0.0
 11
416.800328
 21
527.108986
 31
0.0
  0
LINE
  8
LC-003-005-----0
  6
CONTINUOUS
  5
47B
 10
415.446138
 20
526.037638
 30
0.0
 11
416.800328
 21
527.391829
 31
0.0
  0
LINE
  8
LC-003-005-----0
  6
CONTINUOUS
  5
47C
 10
415.163295
 20
526.037638
 30
0.0
 11
416.800328
 21
527.674671
 31
0.0
  0
LINE
  8
LC-003-005-----0
  6
CONTINUOUS
  5
47D
 10
414.880452
 20
526.037638
 30
0.0
 11
416.800328
 21
527.957514
 31
0.0
  0
LINE
  8
LC-003-005-----0
  6
CONTINUOUS
  5
47E
 10
414.59761
 20
526.037638
 30
0.0
 11
416.800328
 21
528.240357
 31
0.0
  0
LINE
  8
LC-003-005-----0
  6
CONTINUOUS
  5
47F
 10
414.314767
 20
526.037638
 30
0.0
 11
416.800328
 21
528.5232
 31
0.0
  0
LINE
  8
LC-003-005-----0
  6
CONTINUOUS
  5
480
 10
414.031924
 20
526.037638
 30
0.0
 11
416.800328
 21
528.806042
 31
0.0
  0
LINE
  8
LC-003-005-----0
  6
CONTINUOUS
  5
481
 10
413.749082
 20
526.037638
 30
0.0
 11
416.800328
 21
529.088885
 31
0.0
  0
LINE
  8
LC-003-005-----0
  6
CONTINUOUS
  5
482
 10
413.466239
 20
526.037638
 30
0.0
 11
416.800328
 21
529.371728
 31
0.0
  0
LINE
  8
LC-003-005-----0
  6
CONTINUOUS
  5
483
 10
413.183396
 20
526.037638
 30
0.0
 11
416.800328
 21
529.65457
 31
0.0
  0
LINE
  8
LC-003-005-----0
  6
CONTINUOUS
  5
484
 10
412.900553
 20
526.037638
 30
0.0
 11
416.800328
 21
529.937413
 31
0.0
  0
LINE
  8
LC-003-005-----0
  6
CONTINUOUS
  5
485
 10
412.617711
 20
526.037638
 30
0.0
 11
416.617711
 21
530.037638
 31
0.0
  0
LINE
  8
LC-003-005-----0
  6
CONTINUOUS
  5
486
 10
412.334868
 20
526.037638
 30
0.0
 11
416.334868
 21
530.037638
 31
0.0
  0
LINE
  8
LC-003-005-----0
  6
CONTINUOUS
  5
487
 10
412.052025
 20
526.037638
 30
0.0
 11
416.052025
 21
530.037638
 31
0.0
  0
LINE
  8
LC-003-005-----0
  6
CONTINUOUS
  5
488
 10
411.769183
 20
526.037638
 30
0.0
 11
415.769183
 21
530.037638
 31
0.0
  0
LINE
  8
LC-003-005-----0
  6
CONTINUOUS
  5
489
 10
411.48634
 20
526.037638
 30
0.0
 11
415.48634
 21
530.037638
 31
0.0
  0
LINE
  8
LC-003-005-----0
  6
CONTINUOUS
  5
48A
 10
411.203497
 20
526.037638
 30
0.0
 11
415.203497
 21
530.037638
 31
0.0
  0
LINE
  8
LC-003-005-----0
  6
CONTINUOUS
  5
48B
 10
410.920654
 20
526.037638
 30
0.0
 11
414.920654
 21
530.037638
 31
0.0
  0
LINE
  8
LC-003-005-----0
  6
CONTINUOUS
  5
48C
 10
410.637812
 20
526.037638
 30
0.0
 11
414.637812
 21
530.037638
 31
0.0
  0
LINE
  8
LC-003-005-----0
  6
CONTINUOUS
  5
48D
 10
410.354969
 20
526.037638
 30
0.0
 11
414.354969
 21
530.037638
 31
0.0
  0
LINE
  8
LC-003-005-----0
  6
CONTINUOUS
  5
48E
 10
410.072126
 20
526.037638
 30
0.0
 11
414.072126
 21
530.037638
 31
0.0
  0
LINE
  8
LC-003-005-----0
  6
CONTINUOUS
  5
48F
 10
409.789284
 20
526.037638
 30
0.0
 11
413.789284
 21
530.037638
 31
0.0
  0
LINE
  8
LC-003-005-----0
  6
CONTINUOUS
  5
490
 10
409.506441
 20
526.037638
 30
0.0
 11
413.506441
 21
530.037638
 31
0.0
  0
LINE
  8
LC-003-005-----0
  6
CONTINUOUS
  5
491
 10
409.223598
 20
526.037638
 30
0.0
 11
413.223598
 21
530.037638
 31
0.0
  0
LINE
  8
LC-003-005-----0
  6
CONTINUOUS
  5
492
 10
408.940755
 20
526.037638
 30
0.0
 11
412.940755
 21
530.037638
 31
0.0
  0
LINE
  8
LC-003-005-----0
  6
CONTINUOUS
  5
493
 10
408.657913
 20
526.037638
 30
0.0
 11
412.657913
 21
530.037638
 31
0.0
  0
LINE
  8
LC-003-005-----0
  6
CONTINUOUS
  5
494
 10
408.37507
 20
526.037638
 30
0.0
 11
412.37507
 21
530.037638
 31
0.0
  0
LINE
  8
LC-003-005-----0
  6
CONTINUOUS
  5
495
 10
408.092227
 20
526.037638
 30
0.0
 11
412.092227
 21
530.037638
 31
0.0
  0
LINE
  8
LC-003-005-----0
  6
CONTINUOUS
  5
496
 10
407.809385
 20
526.037638
 30
0.0
 11
411.809385
 21
530.037638
 31
0.0
  0
LINE
  8
LC-003-005-----0
  6
CONTINUOUS
  5
497
 10
407.526542
 20
526.037638
 30
0.0
 11
411.526542
 21
530.037638
 31
0.0
  0
LINE
  8
LC-003-005-----0
  6
CONTINUOUS
  5
498
 10
407.243699
 20
526.037638
 30
0.0
 11
411.243699
 21
530.037638
 31
0.0
  0
LINE
  8
LC-003-005-----0
  6
CONTINUOUS
  5
499
 10
406.960856
 20
526.037638
 30
0.0
 11
410.960856
 21
530.037638
 31
0.0
  0
LINE
  8
LC-003-005-----0
  6
CONTINUOUS
  5
49A
 10
406.800328
 20
526.159953
 30
0.0
 11
410.678014
 21
530.037638
 31
0.0
  0
LINE
  8
LC-003-005-----0
  6
CONTINUOUS
  5
49B
 10
406.800328
 20
526.442795
 30
0.0
 11
410.395171
 21
530.037638
 31
0.0
  0
LINE
  8
LC-003-005-----0
  6
CONTINUOUS
  5
49C
 10
406.800328
 20
526.725638
 30
0.0
 11
410.112328
 21
530.037638
 31
0.0
  0
LINE
  8
LC-003-005-----0
  6
CONTINUOUS
  5
49D
 10
406.800328
 20
527.008481
 30
0.0
 11
409.829486
 21
530.037638
 31
0.0
  0
LINE
  8
LC-003-005-----0
  6
CONTINUOUS
  5
49E
 10
406.800328
 20
527.291324
 30
0.0
 11
409.546643
 21
530.037638
 31
0.0
  0
LINE
  8
LC-003-005-----0
  6
CONTINUOUS
  5
49F
 10
406.800328
 20
527.574166
 30
0.0
 11
409.2638
 21
530.037638
 31
0.0
  0
LINE
  8
LC-003-005-----0
  6
CONTINUOUS
  5
4A0
 10
406.800328
 20
527.857009
 30
0.0
 11
408.980957
 21
530.037638
 31
0.0
  0
LINE
  8
LC-003-005-----0
  6
CONTINUOUS
  5
4A1
 10
406.800328
 20
528.139852
 30
0.0
 11
408.698115
 21
530.037638
 31
0.0
  0
LINE
  8
LC-003-005-----0
  6
CONTINUOUS
  5
4A2
 10
406.800328
 20
528.422694
 30
0.0
 11
408.415272
 21
530.037638
 31
0.0
  0
LINE
  8
LC-003-005-----0
  6
CONTINUOUS
  5
4A3
 10
406.800328
 20
528.705537
 30
0.0
 11
408.132429
 21
530.037638
 31
0.0
  0
LINE
  8
LC-003-005-----0
  6
CONTINUOUS
  5
4A4
 10
406.800328
 20
528.98838
 30
0.0
 11
407.849587
 21
530.037638
 31
0.0
  0
LINE
  8
LC-003-005-----0
  6
CONTINUOUS
  5
4A5
 10
406.800328
 20
529.271223
 30
0.0
 11
407.566744
 21
530.037638
 31
0.0
  0
LINE
  8
LC-003-005-----0
  6
CONTINUOUS
  5
4A6
 10
406.800328
 20
529.554065
 30
0.0
 11
407.283901
 21
530.037638
 31
0.0
  0
LINE
  8
LC-003-005-----0
  6
CONTINUOUS
  5
4A7
 10
406.800328
 20
529.836908
 30
0.0
 11
407.001058
 21
530.037638
 31
0.0
  0
ENDBLK
  8
0
  5
4A8
  0
BLOCK
  8
0
  5
4AA
  2
*X35
 70
    65
 10
426.800328
 20
526.037638
 30
0.0
  3
*X35
  0
LINE
  8
LC-003-005-----0
  6
CONTINUOUS
  5
4AB
 10
436.659341
 20
526.037638
 30
0.0
 11
436.800328
 21
526.178625
 31
0.0
  0
LINE
  8
LC-003-005-----0
  6
CONTINUOUS
  5
4AC
 10
436.376499
 20
526.037638
 30
0.0
 11
436.800328
 21
526.461468
 31
0.0
  0
LINE
  8
LC-003-005-----0
  6
CONTINUOUS
  5
4AD
 10
436.093656
 20
526.037638
 30
0.0
 11
436.800328
 21
526.744311
 31
0.0
  0
LINE
  8
LC-003-005-----0
  6
CONTINUOUS
  5
4AE
 10
435.810813
 20
526.037638
 30
0.0
 11
436.800328
 21
527.027153
 31
0.0
  0
LINE
  8
LC-003-005-----0
  6
CONTINUOUS
  5
4AF
 10
435.52797
 20
526.037638
 30
0.0
 11
436.800328
 21
527.309996
 31
0.0
  0
LINE
  8
LC-003-005-----0
  6
CONTINUOUS
  5
4B0
 10
435.245128
 20
526.037638
 30
0.0
 11
436.800328
 21
527.592839
 31
0.0
  0
LINE
  8
LC-003-005-----0
  6
CONTINUOUS
  5
4B1
 10
434.962285
 20
526.037638
 30
0.0
 11
436.800328
 21
527.875681
 31
0.0
  0
LINE
  8
LC-003-005-----0
  6
CONTINUOUS
  5
4B2
 10
434.679442
 20
526.037638
 30
0.0
 11
436.800328
 21
528.158524
 31
0.0
  0
LINE
  8
LC-003-005-----0
  6
CONTINUOUS
  5
4B3
 10
434.3966
 20
526.037638
 30
0.0
 11
436.800328
 21
528.441367
 31
0.0
  0
LINE
  8
LC-003-005-----0
  6
CONTINUOUS
  5
4B4
 10
434.113757
 20
526.037638
 30
0.0
 11
436.800328
 21
528.72421
 31
0.0
  0
LINE
  8
LC-003-005-----0
  6
CONTINUOUS
  5
4B5
 10
433.830914
 20
526.037638
 30
0.0
 11
436.800328
 21
529.007052
 31
0.0
  0
LINE
  8
LC-003-005-----0
  6
CONTINUOUS
  5
4B6
 10
433.548071
 20
526.037638
 30
0.0
 11
436.800328
 21
529.289895
 31
0.0
  0
LINE
  8
LC-003-005-----0
  6
CONTINUOUS
  5
4B7
 10
433.265229
 20
526.037638
 30
0.0
 11
436.800328
 21
529.572738
 31
0.0
  0
LINE
  8
LC-003-005-----0
  6
CONTINUOUS
  5
4B8
 10
432.982386
 20
526.037638
 30
0.0
 11
436.800328
 21
529.85558
 31
0.0
  0
LINE
  8
LC-003-005-----0
  6
CONTINUOUS
  5
4B9
 10
432.699543
 20
526.037638
 30
0.0
 11
436.699543
 21
530.037638
 31
0.0
  0
LINE
  8
LC-003-005-----0
  6
CONTINUOUS
  5
4BA
 10
432.416701
 20
526.037638
 30
0.0
 11
436.416701
 21
530.037638
 31
0.0
  0
LINE
  8
LC-003-005-----0
  6
CONTINUOUS
  5
4BB
 10
432.133858
 20
526.037638
 30
0.0
 11
436.133858
 21
530.037638
 31
0.0
  0
LINE
  8
LC-003-005-----0
  6
CONTINUOUS
  5
4BC
 10
431.851015
 20
526.037638
 30
0.0
 11
435.851015
 21
530.037638
 31
0.0
  0
LINE
  8
LC-003-005-----0
  6
CONTINUOUS
  5
4BD
 10
431.568172
 20
526.037638
 30
0.0
 11
435.568172
 21
530.037638
 31
0.0
  0
LINE
  8
LC-003-005-----0
  6
CONTINUOUS
  5
4BE
 10
431.28533
 20
526.037638
 30
0.0
 11
435.28533
 21
530.037638
 31
0.0
  0
LINE
  8
LC-003-005-----0
  6
CONTINUOUS
  5
4BF
 10
431.002487
 20
526.037638
 30
0.0
 11
435.002487
 21
530.037638
 31
0.0
  0
LINE
  8
LC-003-005-----0
  6
CONTINUOUS
  5
4C0
 10
430.719644
 20
526.037638
 30
0.0
 11
434.719644
 21
530.037638
 31
0.0
  0
LINE
  8
LC-003-005-----0
  6
CONTINUOUS
  5
4C1
 10
430.436802
 20
526.037638
 30
0.0
 11
434.436802
 21
530.037638
 31
0.0
  0
LINE
  8
LC-003-005-----0
  6
CONTINUOUS
  5
4C2
 10
430.153959
 20
526.037638
 30
0.0
 11
434.153959
 21
530.037638
 31
0.0
  0
LINE
  8
LC-003-005-----0
  6
CONTINUOUS
  5
4C3
 10
429.871116
 20
526.037638
 30
0.0
 11
433.871116
 21
530.037638
 31
0.0
  0
LINE
  8
LC-003-005-----0
  6
CONTINUOUS
  5
4C4
 10
429.588273
 20
526.037638
 30
0.0
 11
433.588273
 21
530.037638
 31
0.0
  0
LINE
  8
LC-003-005-----0
  6
CONTINUOUS
  5
4C5
 10
429.305431
 20
526.037638
 30
0.0
 11
433.305431
 21
530.037638
 31
0.0
  0
LINE
  8
LC-003-005-----0
  6
CONTINUOUS
  5
4C6
 10
429.022588
 20
526.037638
 30
0.0
 11
433.022588
 21
530.037638
 31
0.0
  0
LINE
  8
LC-003-005-----0
  6
CONTINUOUS
  5
4C7
 10
428.739745
 20
526.037638
 30
0.0
 11
432.739745
 21
530.037638
 31
0.0
  0
LINE
  8
LC-003-005-----0
  6
CONTINUOUS
  5
4C8
 10
428.456903
 20
526.037638
 30
0.0
 11
432.456903
 21
530.037638
 31
0.0
  0
LINE
  8
LC-003-005-----0
  6
CONTINUOUS
  5
4C9
 10
428.17406
 20
526.037638
 30
0.0
 11
432.17406
 21
530.037638
 31
0.0
  0
LINE
  8
LC-003-005-----0
  6
CONTINUOUS
  5
4CA
 10
427.891217
 20
526.037638
 30
0.0
 11
431.891217
 21
530.037638
 31
0.0
  0
LINE
  8
LC-003-005-----0
  6
CONTINUOUS
  5
4CB
 10
427.608374
 20
526.037638
 30
0.0
 11
431.608374
 21
530.037638
 31
0.0
  0
LINE
  8
LC-003-005-----0
  6
CONTINUOUS
  5
4CC
 10
427.325532
 20
526.037638
 30
0.0
 11
431.325532
 21
530.037638
 31
0.0
  0
LINE
  8
LC-003-005-----0
  6
CONTINUOUS
  5
4CD
 10
427.042689
 20
526.037638
 30
0.0
 11
431.042689
 21
530.037638
 31
0.0
  0
LINE
  8
LC-003-005-----0
  6
CONTINUOUS
  5
4CE
 10
426.800328
 20
526.07812
 30
0.0
 11
430.759846
 21
530.037638
 31
0.0
  0
LINE
  8
LC-003-005-----0
  6
CONTINUOUS
  5
4CF
 10
426.800328
 20
526.360963
 30
0.0
 11
430.477004
 21
530.037638
 31
0.0
  0
LINE
  8
LC-003-005-----0
  6
CONTINUOUS
  5
4D0
 10
426.800328
 20
526.643806
 30
0.0
 11
430.194161
 21
530.037638
 31
0.0
  0
LINE
  8
LC-003-005-----0
  6
CONTINUOUS
  5
4D1
 10
426.800328
 20
526.926648
 30
0.0
 11
429.911318
 21
530.037638
 31
0.0
  0
LINE
  8
LC-003-005-----0
  6
CONTINUOUS
  5
4D2
 10
426.800328
 20
527.209491
 30
0.0
 11
429.628475
 21
530.037638
 31
0.0
  0
LINE
  8
LC-003-005-----0
  6
CONTINUOUS
  5
4D3
 10
426.800328
 20
527.492334
 30
0.0
 11
429.345633
 21
530.037638
 31
0.0
  0
LINE
  8
LC-003-005-----0
  6
CONTINUOUS
  5
4D4
 10
426.800328
 20
527.775176
 30
0.0
 11
429.06279
 21
530.037638
 31
0.0
  0
LINE
  8
LC-003-005-----0
  6
CONTINUOUS
  5
4D5
 10
426.800328
 20
528.058019
 30
0.0
 11
428.779947
 21
530.037638
 31
0.0
  0
LINE
  8
LC-003-005-----0
  6
CONTINUOUS
  5
4D6
 10
426.800328
 20
528.340862
 30
0.0
 11
428.497105
 21
530.037638
 31
0.0
  0
LINE
  8
LC-003-005-----0
  6
CONTINUOUS
  5
4D7
 10
426.800328
 20
528.623705
 30
0.0
 11
428.214262
 21
530.037638
 31
0.0
  0
LINE
  8
LC-003-005-----0
  6
CONTINUOUS
  5
4D8
 10
426.800328
 20
528.906547
 30
0.0
 11
427.931419
 21
530.037638
 31
0.0
  0
LINE
  8
LC-003-005-----0
  6
CONTINUOUS
  5
4D9
 10
426.800328
 20
529.18939
 30
0.0
 11
427.648576
 21
530.037638
 31
0.0
  0
LINE
  8
LC-003-005-----0
  6
CONTINUOUS
  5
4DA
 10
426.800328
 20
529.472233
 30
0.0
 11
427.365734
 21
530.037638
 31
0.0
  0
LINE
  8
LC-003-005-----0
  6
CONTINUOUS
  5
4DB
 10
426.800328
 20
529.755075
 30
0.0
 11
427.082891
 21
530.037638
 31
0.0
  0
ENDBLK
  8
0
  5
4DC
  0
BLOCK
  8
0
  5
4DE
  2
*X36
 70
    65
 10
446.800328
 20
526.037638
 30
0.0
  3
*X36
  0
LINE
  8
LC-003-005-----0
  6
CONTINUOUS
  5
4DF
 10
456.741174
 20
526.037638
 30
0.0
 11
456.800328
 21
526.096793
 31
0.0
  0
LINE
  8
LC-003-005-----0
  6
CONTINUOUS
  5
4E0
 10
456.458331
 20
526.037638
 30
0.0
 11
456.800328
 21
526.379635
 31
0.0
  0
LINE
  8
LC-003-005-----0
  6
CONTINUOUS
  5
4E1
 10
456.175488
 20
526.037638
 30
0.0
 11
456.800328
 21
526.662478
 31
0.0
  0
LINE
  8
LC-003-005-----0
  6
CONTINUOUS
  5
4E2
 10
455.892646
 20
526.037638
 30
0.0
 11
456.800328
 21
526.945321
 31
0.0
  0
LINE
  8
LC-003-005-----0
  6
CONTINUOUS
  5
4E3
 10
455.609803
 20
526.037638
 30
0.0
 11
456.800328
 21
527.228163
 31
0.0
  0
LINE
  8
LC-003-005-----0
  6
CONTINUOUS
  5
4E4
 10
455.32696
 20
526.037638
 30
0.0
 11
456.800328
 21
527.511006
 31
0.0
  0
LINE
  8
LC-003-005-----0
  6
CONTINUOUS
  5
4E5
 10
455.044118
 20
526.037638
 30
0.0
 11
456.800328
 21
527.793849
 31
0.0
  0
LINE
  8
LC-003-005-----0
  6
CONTINUOUS
  5
4E6
 10
454.761275
 20
526.037638
 30
0.0
 11
456.800328
 21
528.076692
 31
0.0
  0
LINE
  8
LC-003-005-----0
  6
CONTINUOUS
  5
4E7
 10
454.478432
 20
526.037638
 30
0.0
 11
456.800328
 21
528.359534
 31
0.0
  0
LINE
  8
LC-003-005-----0
  6
CONTINUOUS
  5
4E8
 10
454.195589
 20
526.037638
 30
0.0
 11
456.800328
 21
528.642377
 31
0.0
  0
LINE
  8
LC-003-005-----0
  6
CONTINUOUS
  5
4E9
 10
453.912747
 20
526.037638
 30
0.0
 11
456.800328
 21
528.92522
 31
0.0
  0
LINE
  8
LC-003-005-----0
  6
CONTINUOUS
  5
4EA
 10
453.629904
 20
526.037638
 30
0.0
 11
456.800328
 21
529.208062
 31
0.0
  0
LINE
  8
LC-003-005-----0
  6
CONTINUOUS
  5
4EB
 10
453.347061
 20
526.037638
 30
0.0
 11
456.800328
 21
529.490905
 31
0.0
  0
LINE
  8
LC-003-005-----0
  6
CONTINUOUS
  5
4EC
 10
453.064219
 20
526.037638
 30
0.0
 11
456.800328
 21
529.773748
 31
0.0
  0
LINE
  8
LC-003-005-----0
  6
CONTINUOUS
  5
4ED
 10
452.781376
 20
526.037638
 30
0.0
 11
456.781376
 21
530.037638
 31
0.0
  0
LINE
  8
LC-003-005-----0
  6
CONTINUOUS
  5
4EE
 10
452.498533
 20
526.037638
 30
0.0
 11
456.498533
 21
530.037638
 31
0.0
  0
LINE
  8
LC-003-005-----0
  6
CONTINUOUS
  5
4EF
 10
452.21569
 20
526.037638
 30
0.0
 11
456.21569
 21
530.037638
 31
0.0
  0
LINE
  8
LC-003-005-----0
  6
CONTINUOUS
  5
4F0
 10
451.932848
 20
526.037638
 30
0.0
 11
455.932848
 21
530.037638
 31
0.0
  0
LINE
  8
LC-003-005-----0
  6
CONTINUOUS
  5
4F1
 10
451.650005
 20
526.037638
 30
0.0
 11
455.650005
 21
530.037638
 31
0.0
  0
LINE
  8
LC-003-005-----0
  6
CONTINUOUS
  5
4F2
 10
451.367162
 20
526.037638
 30
0.0
 11
455.367162
 21
530.037638
 31
0.0
  0
LINE
  8
LC-003-005-----0
  6
CONTINUOUS
  5
4F3
 10
451.08432
 20
526.037638
 30
0.0
 11
455.08432
 21
530.037638
 31
0.0
  0
LINE
  8
LC-003-005-----0
  6
CONTINUOUS
  5
4F4
 10
450.801477
 20
526.037638
 30
0.0
 11
454.801477
 21
530.037638
 31
0.0
  0
LINE
  8
LC-003-005-----0
  6
CONTINUOUS
  5
4F5
 10
450.518634
 20
526.037638
 30
0.0
 11
454.518634
 21
530.037638
 31
0.0
  0
LINE
  8
LC-003-005-----0
  6
CONTINUOUS
  5
4F6
 10
450.235791
 20
526.037638
 30
0.0
 11
454.235791
 21
530.037638
 31
0.0
  0
LINE
  8
LC-003-005-----0
  6
CONTINUOUS
  5
4F7
 10
449.952949
 20
526.037638
 30
0.0
 11
453.952949
 21
530.037638
 31
0.0
  0
LINE
  8
LC-003-005-----0
  6
CONTINUOUS
  5
4F8
 10
449.670106
 20
526.037638
 30
0.0
 11
453.670106
 21
530.037638
 31
0.0
  0
LINE
  8
LC-003-005-----0
  6
CONTINUOUS
  5
4F9
 10
449.387263
 20
526.037638
 30
0.0
 11
453.387263
 21
530.037638
 31
0.0
  0
LINE
  8
LC-003-005-----0
  6
CONTINUOUS
  5
4FA
 10
449.104421
 20
526.037638
 30
0.0
 11
453.104421
 21
530.037638
 31
0.0
  0
LINE
  8
LC-003-005-----0
  6
CONTINUOUS
  5
4FB
 10
448.821578
 20
526.037638
 30
0.0
 11
452.821578
 21
530.037638
 31
0.0
  0
LINE
  8
LC-003-005-----0
  6
CONTINUOUS
  5
4FC
 10
448.538735
 20
526.037638
 30
0.0
 11
452.538735
 21
530.037638
 31
0.0
  0
LINE
  8
LC-003-005-----0
  6
CONTINUOUS
  5
4FD
 10
448.255892
 20
526.037638
 30
0.0
 11
452.255892
 21
530.037638
 31
0.0
  0
LINE
  8
LC-003-005-----0
  6
CONTINUOUS
  5
4FE
 10
447.97305
 20
526.037638
 30
0.0
 11
451.97305
 21
530.037638
 31
0.0
  0
LINE
  8
LC-003-005-----0
  6
CONTINUOUS
  5
4FF
 10
447.690207
 20
526.037638
 30
0.0
 11
451.690207
 21
530.037638
 31
0.0
  0
LINE
  8
LC-003-005-----0
  6
CONTINUOUS
  5
500
 10
447.407364
 20
526.037638
 30
0.0
 11
451.407364
 21
530.037638
 31
0.0
  0
LINE
  8
LC-003-005-----0
  6
CONTINUOUS
  5
501
 10
447.124522
 20
526.037638
 30
0.0
 11
451.124522
 21
530.037638
 31
0.0
  0
LINE
  8
LC-003-005-----0
  6
CONTINUOUS
  5
502
 10
446.841679
 20
526.037638
 30
0.0
 11
450.841679
 21
530.037638
 31
0.0
  0
LINE
  8
LC-003-005-----0
  6
CONTINUOUS
  5
503
 10
446.800328
 20
526.27913
 30
0.0
 11
450.558836
 21
530.037638
 31
0.0
  0
LINE
  8
LC-003-005-----0
  6
CONTINUOUS
  5
504
 10
446.800328
 20
526.561973
 30
0.0
 11
450.275993
 21
530.037638
 31
0.0
  0
LINE
  8
LC-003-005-----0
  6
CONTINUOUS
  5
505
 10
446.800328
 20
526.844816
 30
0.0
 11
449.993151
 21
530.037638
 31
0.0
  0
LINE
  8
LC-003-005-----0
  6
CONTINUOUS
  5
506
 10
446.800328
 20
527.127658
 30
0.0
 11
449.710308
 21
530.037638
 31
0.0
  0
LINE
  8
LC-003-005-----0
  6
CONTINUOUS
  5
507
 10
446.800328
 20
527.410501
 30
0.0
 11
449.427465
 21
530.037638
 31
0.0
  0
LINE
  8
LC-003-005-----0
  6
CONTINUOUS
  5
508
 10
446.800328
 20
527.693344
 30
0.0
 11
449.144623
 21
530.037638
 31
0.0
  0
LINE
  8
LC-003-005-----0
  6
CONTINUOUS
  5
509
 10
446.800328
 20
527.976187
 30
0.0
 11
448.86178
 21
530.037638
 31
0.0
  0
LINE
  8
LC-003-005-----0
  6
CONTINUOUS
  5
50A
 10
446.800328
 20
528.259029
 30
0.0
 11
448.578937
 21
530.037638
 31
0.0
  0
LINE
  8
LC-003-005-----0
  6
CONTINUOUS
  5
50B
 10
446.800328
 20
528.541872
 30
0.0
 11
448.296094
 21
530.037638
 31
0.0
  0
LINE
  8
LC-003-005-----0
  6
CONTINUOUS
  5
50C
 10
446.800328
 20
528.824715
 30
0.0
 11
448.013252
 21
530.037638
 31
0.0
  0
LINE
  8
LC-003-005-----0
  6
CONTINUOUS
  5
50D
 10
446.800328
 20
529.107557
 30
0.0
 11
447.730409
 21
530.037638
 31
0.0
  0
LINE
  8
LC-003-005-----0
  6
CONTINUOUS
  5
50E
 10
446.800328
 20
529.3904
 30
0.0
 11
447.447566
 21
530.037638
 31
0.0
  0
LINE
  8
LC-003-005-----0
  6
CONTINUOUS
  5
50F
 10
446.800328
 20
529.673243
 30
0.0
 11
447.164724
 21
530.037638
 31
0.0
  0
LINE
  8
LC-003-005-----0
  6
CONTINUOUS
  5
510
 10
446.800328
 20
529.956086
 30
0.0
 11
446.881881
 21
530.037638
 31
0.0
  0
ENDBLK
  8
0
  5
511
  0
BLOCK
  8
0
  5
513
  2
*X37
 70
    65
 10
466.800328
 20
526.037638
 30
0.0
  3
*X37
  0
LINE
  8
LC-003-005-----0
  6
CONTINUOUS
  5
514
 10
476.540164
 20
526.037638
 30
0.0
 11
476.800328
 21
526.297803
 31
0.0
  0
LINE
  8
LC-003-005-----0
  6
CONTINUOUS
  5
515
 10
476.257321
 20
526.037638
 30
0.0
 11
476.800328
 21
526.580645
 31
0.0
  0
LINE
  8
LC-003-005-----0
  6
CONTINUOUS
  5
516
 10
475.974478
 20
526.037638
 30
0.0
 11
476.800328
 21
526.863488
 31
0.0
  0
LINE
  8
LC-003-005-----0
  6
CONTINUOUS
  5
517
 10
475.691636
 20
526.037638
 30
0.0
 11
476.800328
 21
527.146331
 31
0.0
  0
LINE
  8
LC-003-005-----0
  6
CONTINUOUS
  5
518
 10
475.408793
 20
526.037638
 30
0.0
 11
476.800328
 21
527.429174
 31
0.0
  0
LINE
  8
LC-003-005-----0
  6
CONTINUOUS
  5
519
 10
475.12595
 20
526.037638
 30
0.0
 11
476.800328
 21
527.712016
 31
0.0
  0
LINE
  8
LC-003-005-----0
  6
CONTINUOUS
  5
51A
 10
474.843107
 20
526.037638
 30
0.0
 11
476.800328
 21
527.994859
 31
0.0
  0
LINE
  8
LC-003-005-----0
  6
CONTINUOUS
  5
51B
 10
474.560265
 20
526.037638
 30
0.0
 11
476.800328
 21
528.277702
 31
0.0
  0
LINE
  8
LC-003-005-----0
  6
CONTINUOUS
  5
51C
 10
474.277422
 20
526.037638
 30
0.0
 11
476.800328
 21
528.560544
 31
0.0
  0
LINE
  8
LC-003-005-----0
  6
CONTINUOUS
  5
51D
 10
473.994579
 20
526.037638
 30
0.0
 11
476.800328
 21
528.843387
 31
0.0
  0
LINE
  8
LC-003-005-----0
  6
CONTINUOUS
  5
51E
 10
473.711737
 20
526.037638
 30
0.0
 11
476.800328
 21
529.12623
 31
0.0
  0
LINE
  8
LC-003-005-----0
  6
CONTINUOUS
  5
51F
 10
473.428894
 20
526.037638
 30
0.0
 11
476.800328
 21
529.409073
 31
0.0
  0
LINE
  8
LC-003-005-----0
  6
CONTINUOUS
  5
520
 10
473.146051
 20
526.037638
 30
0.0
 11
476.800328
 21
529.691915
 31
0.0
  0
LINE
  8
LC-003-005-----0
  6
CONTINUOUS
  5
521
 10
472.863208
 20
526.037638
 30
0.0
 11
476.800328
 21
529.974758
 31
0.0
  0
LINE
  8
LC-003-005-----0
  6
CONTINUOUS
  5
522
 10
472.580366
 20
526.037638
 30
0.0
 11
476.580366
 21
530.037638
 31
0.0
  0
LINE
  8
LC-003-005-----0
  6
CONTINUOUS
  5
523
 10
472.297523
 20
526.037638
 30
0.0
 11
476.297523
 21
530.037638
 31
0.0
  0
LINE
  8
LC-003-005-----0
  6
CONTINUOUS
  5
524
 10
472.01468
 20
526.037638
 30
0.0
 11
476.01468
 21
530.037638
 31
0.0
  0
LINE
  8
LC-003-005-----0
  6
CONTINUOUS
  5
525
 10
471.731838
 20
526.037638
 30
0.0
 11
475.731838
 21
530.037638
 31
0.0
  0
LINE
  8
LC-003-005-----0
  6
CONTINUOUS
  5
526
 10
471.448995
 20
526.037638
 30
0.0
 11
475.448995
 21
530.037638
 31
0.0
  0
LINE
  8
LC-003-005-----0
  6
CONTINUOUS
  5
527
 10
471.166152
 20
526.037638
 30
0.0
 11
475.166152
 21
530.037638
 31
0.0
  0
LINE
  8
LC-003-005-----0
  6
CONTINUOUS
  5
528
 10
470.883309
 20
526.037638
 30
0.0
 11
474.883309
 21
530.037638
 31
0.0
  0
LINE
  8
LC-003-005-----0
  6
CONTINUOUS
  5
529
 10
470.600467
 20
526.037638
 30
0.0
 11
474.600467
 21
530.037638
 31
0.0
  0
LINE
  8
LC-003-005-----0
  6
CONTINUOUS
  5
52A
 10
470.317624
 20
526.037638
 30
0.0
 11
474.317624
 21
530.037638
 31
0.0
  0
LINE
  8
LC-003-005-----0
  6
CONTINUOUS
  5
52B
 10
470.034781
 20
526.037638
 30
0.0
 11
474.034781
 21
530.037638
 31
0.0
  0
LINE
  8
LC-003-005-----0
  6
CONTINUOUS
  5
52C
 10
469.751939
 20
526.037638
 30
0.0
 11
473.751939
 21
530.037638
 31
0.0
  0
LINE
  8
LC-003-005-----0
  6
CONTINUOUS
  5
52D
 10
469.469096
 20
526.037638
 30
0.0
 11
473.469096
 21
530.037638
 31
0.0
  0
LINE
  8
LC-003-005-----0
  6
CONTINUOUS
  5
52E
 10
469.186253
 20
526.037638
 30
0.0
 11
473.186253
 21
530.037638
 31
0.0
  0
LINE
  8
LC-003-005-----0
  6
CONTINUOUS
  5
52F
 10
468.90341
 20
526.037638
 30
0.0
 11
472.90341
 21
530.037638
 31
0.0
  0
LINE
  8
LC-003-005-----0
  6
CONTINUOUS
  5
530
 10
468.620568
 20
526.037638
 30
0.0
 11
472.620568
 21
530.037638
 31
0.0
  0
LINE
  8
LC-003-005-----0
  6
CONTINUOUS
  5
531
 10
468.337725
 20
526.037638
 30
0.0
 11
472.337725
 21
530.037638
 31
0.0
  0
LINE
  8
LC-003-005-----0
  6
CONTINUOUS
  5
532
 10
468.054882
 20
526.037638
 30
0.0
 11
472.054882
 21
530.037638
 31
0.0
  0
LINE
  8
LC-003-005-----0
  6
CONTINUOUS
  5
533
 10
467.77204
 20
526.037638
 30
0.0
 11
471.77204
 21
530.037638
 31
0.0
  0
LINE
  8
LC-003-005-----0
  6
CONTINUOUS
  5
534
 10
467.489197
 20
526.037638
 30
0.0
 11
471.489197
 21
530.037638
 31
0.0
  0
LINE
  8
LC-003-005-----0
  6
CONTINUOUS
  5
535
 10
467.206354
 20
526.037638
 30
0.0
 11
471.206354
 21
530.037638
 31
0.0
  0
LINE
  8
LC-003-005-----0
  6
CONTINUOUS
  5
536
 10
466.923511
 20
526.037638
 30
0.0
 11
470.923511
 21
530.037638
 31
0.0
  0
LINE
  8
LC-003-005-----0
  6
CONTINUOUS
  5
537
 10
466.800328
 20
526.197298
 30
0.0
 11
470.640669
 21
530.037638
 31
0.0
  0
LINE
  8
LC-003-005-----0
  6
CONTINUOUS
  5
538
 10
466.800328
 20
526.48014
 30
0.0
 11
470.357826
 21
530.037638
 31
0.0
  0
LINE
  8
LC-003-005-----0
  6
CONTINUOUS
  5
539
 10
466.800328
 20
526.762983
 30
0.0
 11
470.074983
 21
530.037638
 31
0.0
  0
LINE
  8
LC-003-005-----0
  6
CONTINUOUS
  5
53A
 10
466.800328
 20
527.045826
 30
0.0
 11
469.792141
 21
530.037638
 31
0.0
  0
LINE
  8
LC-003-005-----0
  6
CONTINUOUS
  5
53B
 10
466.800328
 20
527.328669
 30
0.0
 11
469.509298
 21
530.037638
 31
0.0
  0
LINE
  8
LC-003-005-----0
  6
CONTINUOUS
  5
53C
 10
466.800328
 20
527.611511
 30
0.0
 11
469.226455
 21
530.037638
 31
0.0
  0
LINE
  8
LC-003-005-----0
  6
CONTINUOUS
  5
53D
 10
466.800328
 20
527.894354
 30
0.0
 11
468.943612
 21
530.037638
 31
0.0
  0
LINE
  8
LC-003-005-----0
  6
CONTINUOUS
  5
53E
 10
466.800328
 20
528.177197
 30
0.0
 11
468.66077
 21
530.037638
 31
0.0
  0
LINE
  8
LC-003-005-----0
  6
CONTINUOUS
  5
53F
 10
466.800328
 20
528.460039
 30
0.0
 11
468.377927
 21
530.037638
 31
0.0
  0
LINE
  8
LC-003-005-----0
  6
CONTINUOUS
  5
540
 10
466.800328
 20
528.742882
 30
0.0
 11
468.095084
 21
530.037638
 31
0.0
  0
LINE
  8
LC-003-005-----0
  6
CONTINUOUS
  5
541
 10
466.800328
 20
529.025725
 30
0.0
 11
467.812242
 21
530.037638
 31
0.0
  0
LINE
  8
LC-003-005-----0
  6
CONTINUOUS
  5
542
 10
466.800328
 20
529.308568
 30
0.0
 11
467.529399
 21
530.037638
 31
0.0
  0
LINE
  8
LC-003-005-----0
  6
CONTINUOUS
  5
543
 10
466.800328
 20
529.59141
 30
0.0
 11
467.246556
 21
530.037638
 31
0.0
  0
LINE
  8
LC-003-005-----0
  6
CONTINUOUS
  5
544
 10
466.800328
 20
529.874253
 30
0.0
 11
466.963713
 21
530.037638
 31
0.0
  0
ENDBLK
  8
0
  5
545
  0
BLOCK
  8
0
  5
547
  2
*X38
 70
    65
 10
332.054452
 20
423.885251
 30
0.0
  3
*X38
  0
LINE
  8
LC-003-005-----0
  6
CONTINUOUS
  5
548
 10
336.053475
 20
479.94775
 30
0.0
 11
334.116951
 21
481.884275
 31
0.0
  0
LINE
  8
LC-003-005-----0
  6
DASHED
  5
54A
 10
335.032236
 20
478.140563
 30
0.0
 11
332.309763
 21
480.863035
 31
0.0
  0
LINE
  8
LC-003-005-----0
  6
DASHED
  5
54B
 10
333.864271
 20
477.894314
 30
0.0
 11
332.063515
 21
479.69507
 31
0.0
  0
LINE
  8
LC-003-005-----0
  6
DASHED
  5
54C
 10
336.023096
 20
426.238014
 30
0.0
 11
334.407215
 21
427.853895
 31
0.0
  0
LINE
  8
LC-003-005-----0
  6
DASHED
  5
54D
 10
335.847545
 20
424.999352
 30
0.0
 11
333.168552
 21
427.678344
 31
0.0
  0
LINE
  8
LC-003-005-----0
  6
CONTINUOUS
  5
54E
 10
334.131725
 20
423.886745
 30
0.0
 11
332.055946
 21
425.962524
 31
0.0
  0
ENDBLK
  8
0
  5
54F
  0
BLOCK
  8
0
  5
551
  2
*X39
 70
    65
 10
160.741058
 20
481.637697
 30
0.0
  3
*X39
  0
LINE
  8
LC-003-005-----0
  6
CONTINUOUS
  5
552
 10
167.701009
 20
485.665657
 30
0.0
 11
164.769018
 21
488.597647
 31
0.0
  0
LINE
  8
LC-003-005-----0
  6
DASHED
  5
553
 10
165.736534
 20
481.973277
 30
0.0
 11
161.076639
 21
486.633173
 31
0.0
  0
LINE
  8
LC-003-005-----0
  6
DASHED
  5
554
 10
163.026014
 20
481.85537
 30
0.0
 11
160.958731
 21
483.922653
 31
0.0
  0
ENDBLK
  8
0
  5
555
  0
BLOCK
  8
0
  5
557
  2
*X40
 70
    65
 10
285.241058
 20
481.637697
 30
0.0
  3
*X40
  0
LINE
  8
LC-003-005-----0
  6
DASHED
  5
558
 10
291.708005
 20
483.281027
 30
0.0
 11
286.884388
 21
488.104644
 31
0.0
  0
LINE
  8
LC-003-005-----0
  6
DASHED
  5
559
 10
290.202972
 20
481.957633
 30
0.0
 11
285.560994
 21
486.599611
 31
0.0
  0
ENDBLK
  8
0
  5
55A
  0
BLOCK
  8
0
  5
55C
  2
*X41
 70
    65
 10
201.272987
 20
501.849284
 30
0.0
  3
*X41
  0
LINE
  8
LC-003-005-----0
  6
CONTINUOUS
  5
55D
 10
227.509091
 20
502.225108
 30
0.0
 11
227.734248
 21
501.99995
 31
0.0
  0
LINE
  8
LC-003-005-----0
  6
CONTINUOUS
  5
55E
 10
227.604529
 20
504.958097
 30
0.0
 11
230.66502
 21
501.897605
 31
0.0
  0
LINE
  8
LC-003-005-----0
  6
CONTINUOUS
  5
55F
 10
226.153012
 20
509.23804
 30
0.0
 11
226.856489
 21
508.534564
 31
0.0
  0
LINE
  8
LC-003-005-----0
  6
CONTINUOUS
  5
560
 10
230.165425
 20
505.225627
 30
0.0
 11
232.099118
 21
503.291934
 31
0.0
  0
LINE
  8
LC-003-005-----0
  6
CONTINUOUS
  5
561
 10
226.676813
 20
511.542667
 30
0.0
 11
229.787261
 21
508.432219
 31
0.0
  0
LINE
  8
LC-003-005-----0
  6
CONTINUOUS
  5
562
 10
230.260863
 20
507.958616
 30
0.0
 11
232.194557
 21
506.024923
 31
0.0
  0
LINE
  8
LC-003-005-----0
  6
CONTINUOUS
  5
563
 10
229.607585
 20
511.440322
 30
0.0
 11
232.289995
 21
508.757912
 31
0.0
  0
LINE
  8
LC-003-005-----0
  6
CONTINUOUS
  5
564
 10
232.630662
 20
511.245672
 30
0.0
 11
235.81328
 21
508.063053
 31
0.0
  0
LINE
  8
LC-003-005-----0
  6
CONTINUOUS
  5
565
 10
236.867731
 20
509.83703
 30
0.0
 11
239.574937
 21
507.129824
 31
0.0
  0
LINE
  8
LC-003-005-----0
  6
CONTINUOUS
  5
566
 10
240.566137
 20
508.967051
 30
0.0
 11
242.975977
 21
506.557211
 31
0.0
  0
LINE
  8
LC-003-005-----0
  6
CONTINUOUS
  5
567
 10
243.90976
 20
508.451856
 30
0.0
 11
246.1127
 21
506.248916
 31
0.0
  0
LINE
  8
LC-003-005-----0
  6
CONTINUOUS
  5
568
 10
246.992852
 20
508.197191
 30
0.0
 11
247.608279
 21
507.581763
 31
0.0
  0
ENDBLK
  8
0
  5
569
  0
BLOCK
  8
0
  5
56B
  2
*X42
 70
    65
 10
201.272987
 20
500.619077
 30
0.0
  3
*X42
  0
LINE
  8
LC-003-005-----0
  6
CONTINUOUS
  5
56C
 10
247.608279
 20
507.581763
 30
0.0
 11
249.042359
 21
506.147684
 31
0.0
  0
LINE
  8
LC-003-005-----0
  6
CONTINUOUS
  5
56D
 10
249.871464
 20
508.147005
 30
0.0
 11
251.802294
 21
506.216175
 31
0.0
  0
LINE
  8
LC-003-005-----0
  6
CONTINUOUS
  5
56E
 10
252.582147
 20
508.264749
 30
0.0
 11
254.418441
 21
506.428455
 31
0.0
  0
LINE
  8
LC-003-005-----0
  6
CONTINUOUS
  5
56F
 10
255.150279
 20
508.525045
 30
0.0
 11
256.909654
 21
506.76567
 31
0.0
  0
LINE
  8
LC-003-005-----0
  6
CONTINUOUS
  5
570
 10
262.735687
 20
500.939636
 30
0.0
 11
262.903512
 21
500.771812
 31
0.0
  0
LINE
  8
LC-003-005-----0
  6
CONTINUOUS
  5
571
 10
257.594293
 20
508.909458
 30
0.0
 11
259.290111
 21
507.213639
 31
0.0
  0
LINE
  8
LC-003-005-----0
  6
CONTINUOUS
  5
572
 10
262.831126
 20
503.672625
 30
0.0
 11
265.834284
 21
500.669467
 31
0.0
  0
LINE
  8
LC-003-005-----0
  6
CONTINUOUS
  5
573
 10
259.928035
 20
509.404142
 30
0.0
 11
261.570758
 21
507.76142
 31
0.0
  0
LINE
  8
LC-003-005-----0
  6
CONTINUOUS
  5
574
 10
262.926564
 20
506.405614
 30
0.0
 11
264.860257
 21
504.471921
 31
0.0
  0
LINE
  8
LC-003-005-----0
  6
CONTINUOUS
  5
575
 10
265.339509
 20
503.992669
 30
0.0
 11
267.325715
 21
502.006463
 31
0.0
  0
LINE
  8
LC-003-005-----0
  6
CONTINUOUS
  5
576
 10
262.162175
 20
509.99843
 30
0.0
 11
264.956524
 21
507.204081
 31
0.0
  0
LINE
  8
LC-003-005-----0
  6
CONTINUOUS
  5
577
 10
264.776848
 20
510.212184
 30
0.0
 11
267.887296
 21
507.101736
 31
0.0
  0
LINE
  8
LC-003-005-----0
  6
CONTINUOUS
  5
578
 10
267.70762
 20
510.10984
 30
0.0
 11
269.158984
 21
508.658475
 31
0.0
  0
ENDBLK
  8
0
  5
579
  0
BLOCK
  8
0
  5
57B
  2
BLK5
 70
    64
 10
0.0
 20
0.0
 30
0.0
  3
BLK5
  0
ENDBLK
  8
0
  5
57C
  0
BLOCK
  8
0
  5
57E
  2
*X44
 70
    65
 10
226.087803
 20
507.225849
 30
0.0
  3
*X44
  0
LINE
  8
LC-003-005-----0
  6
DASHED
  5
57F
 10
228.953384
 20
507.270613
 30
0.0
 11
230.103932
 21
508.421161
 31
0.0
  0
LINE
  8
LC-003-005-----0
  6
DASHED
  5
580
 10
228.133487
 20
507.299245
 30
0.0
 11
229.284035
 21
508.449792
 31
0.0
  0
LINE
  8
LC-003-005-----0
  6
CONTINUOUS
  5
581
 10
226.493694
 20
507.356508
 30
0.0
 11
227.644241
 21
508.507055
 31
0.0
  0
LINE
  8
LC-003-005-----0
  6
CONTINUOUS
  5
582
 10
226.103306
 20
507.814648
 30
0.0
 11
226.824345
 21
508.535686
 31
0.0
  0
ENDBLK
  8
0
  5
583
  0
BLOCK
  8
0
  5
585
  2
*X45
 70
    65
 10
264.914136
 20
505.870003
 30
0.0
  3
*X45
  0
LINE
  8
LC-003-005-----0
  6
DASHED
  5
586
 10
268.308426
 20
505.896305
 30
0.0
 11
269.089813
 21
506.677692
 31
0.0
  0
LINE
  8
LC-003-005-----0
  6
DASHED
  5
587
 10
267.48853
 20
505.924936
 30
0.0
 11
268.639077
 21
507.075484
 31
0.0
  0
LINE
  8
LC-003-005-----0
  6
CONTINUOUS
  5
588
 10
265.848736
 20
505.982199
 30
0.0
 11
266.999284
 21
507.132747
 31
0.0
  0
LINE
  8
LC-003-005-----0
  6
CONTINUOUS
  5
589
 10
265.02884
 20
506.010831
 30
0.0
 11
266.179387
 21
507.161378
 31
0.0
  0
ENDBLK
  8
0
  5
58A
  0
BLOCK
  8
0
  5
58C
  2
BLK6
 70
    64
 10
0.0
 20
0.0
 30
0.0
  3
BLK6
  0
ENDBLK
  8
0
  5
58D
  0
BLOCK
  8
0
  5
58F
  2
*X47
 70
    65
 10
89.914132
 20
435.091245
 30
0.0
  3
*X47
  0
LINE
  8
LC-003-005-----0
  6
CONTINUOUS
  5
590
 10
145.37972
 20
438.690481
 30
0.0
 11
143.613368
 21
440.456833
 31
0.0
  0
LINE
  8
LC-003-005-----0
  6
DASHED
  5
591
 10
145.000663
 20
436.241111
 30
0.0
 11
141.163998
 21
440.077776
 31
0.0
  0
LINE
  8
LC-003-005-----0
  6
DASHED
  5
592
 10
144.28048
 20
435.547081
 30
0.0
 11
140.469968
 21
439.357593
 31
0.0
  0
LINE
  8
LC-003-005-----0
  6
CONTINUOUS
  5
593
 10
141.689022
 20
435.310112
 30
0.0
 11
140.232999
 21
436.766135
 31
0.0
  0
LINE
  8
LC-003-005-----0
  6
CONTINUOUS
  5
594
 10
95.412484
 20
437.746029
 30
0.0
 11
92.568917
 21
440.589596
 31
0.0
  0
LINE
  8
LC-003-005-----0
  6
DASHED
  5
595
 10
94.519054
 20
435.811032
 30
0.0
 11
90.633919
 21
439.696167
 31
0.0
  0
LINE
  8
LC-003-005-----0
  6
DASHED
  5
596
 10
93.644096
 20
435.271776
 30
0.0
 11
90.094663
 21
438.821209
 31
0.0
  0
ENDBLK
  8
0
  5
597
  0
BLOCK
  8
0
  5
599
  2
*X48
 70
    65
 10
27.714132
 20
404.341245
 30
0.0
  3
*X48
  0
LINE
  8
LC-003-005-----0
  6
CONTINUOUS
  5
59A
 10
137.714132
 20
434.698981
 30
0.0
 11
140.014132
 21
436.998981
 31
0.0
  0
LINE
  8
LC-003-005-----0
  6
CONTINUOUS
  5
59B
 10
137.714132
 20
437.527408
 30
0.0
 11
140.014132
 21
439.827408
 31
0.0
  0
LINE
  8
LC-003-005-----0
  6
CONTINUOUS
  5
59C
 10
137.714132
 20
440.355835
 30
0.0
 11
140.014132
 21
442.655835
 31
0.0
  0
LINE
  8
LC-003-005-----0
  6
CONTINUOUS
  5
59D
 10
137.714132
 20
443.184262
 30
0.0
 11
140.014132
 21
445.484262
 31
0.0
  0
LINE
  8
LC-003-005-----0
  6
CONTINUOUS
  5
59E
 10
141.922264
 20
447.392394
 30
0.0
 11
144.375426
 21
449.845555
 31
0.0
  0
LINE
  8
LC-003-005-----0
  6
CONTINUOUS
  5
59F
 10
137.714132
 20
446.012689
 30
0.0
 11
141.593837
 21
449.892394
 31
0.0
  0
LINE
  8
LC-003-005-----0
  6
CONTINUOUS
  5
5A0
 10
145.592689
 20
453.891245
 30
0.0
 11
146.814132
 21
455.112689
 31
0.0
  0
LINE
  8
LC-003-005-----0
  6
CONTINUOUS
  5
5A1
 10
137.714132
 20
448.841116
 30
0.0
 11
140.032349
 21
451.159333
 31
0.0
  0
LINE
  8
LC-003-005-----0
  6
CONTINUOUS
  5
5A2
 10
142.764262
 20
453.891245
 30
0.0
 11
145.264262
 21
456.391245
 31
0.0
  0
LINE
  8
LC-003-005-----0
  6
CONTINUOUS
  5
5A3
 10
137.714132
 20
451.669543
 30
0.0
 11
142.435834
 21
456.391245
 31
0.0
  0
LINE
  8
LC-003-005-----0
  6
CONTINUOUS
  5
5A4
 10
137.714132
 20
454.49797
 30
0.0
 11
140.160049
 21
456.943887
 31
0.0
  0
LINE
  8
LC-003-005-----0
  6
CONTINUOUS
  5
5A5
 10
137.711801
 20
457.324066
 30
0.0
 11
140.082542
 21
459.694807
 31
0.0
  0
LINE
  8
LC-003-005-----0
  6
CONTINUOUS
  5
5A6
 10
137.610959
 20
460.051651
 30
0.0
 11
139.874045
 21
462.314737
 31
0.0
  0
LINE
  8
LC-003-005-----0
  6
CONTINUOUS
  5
5A7
 10
137.376126
 20
462.645245
 30
0.0
 11
139.550392
 21
464.819511
 31
0.0
  0
LINE
  8
LC-003-005-----0
  6
CONTINUOUS
  5
5A8
 10
137.023771
 20
465.121317
 30
0.0
 11
139.123769
 21
467.221316
 31
0.0
  0
LINE
  8
LC-003-005-----0
  6
CONTINUOUS
  5
5A9
 10
136.566479
 20
467.492453
 30
0.0
 11
138.603766
 21
469.52974
 31
0.0
  0
LINE
  8
LC-003-005-----0
  6
CONTINUOUS
  5
5AA
 10
136.014093
 20
469.768494
 30
0.0
 11
137.998063
 21
471.752464
 31
0.0
  0
LINE
  8
LC-003-005-----0
  6
CONTINUOUS
  5
5AB
 10
135.374448
 20
471.957275
 30
0.0
 11
137.312892
 21
473.89572
 31
0.0
  0
LINE
  8
LC-003-005-----0
  6
CONTINUOUS
  5
5AC
 10
134.653862
 20
474.065117
 30
0.0
 11
136.553365
 21
475.96462
 31
0.0
  0
LINE
  8
LC-003-005-----0
  6
CONTINUOUS
  5
5AD
 10
133.857489
 20
476.097171
 30
0.0
 11
135.723703
 21
477.963385
 31
0.0
  0
LINE
  8
LC-003-005-----0
  6
CONTINUOUS
  5
5AE
 10
132.989553
 20
478.057662
 30
0.0
 11
134.82741
 21
479.895519
 31
0.0
  0
LINE
  8
LC-003-005-----0
  6
CONTINUOUS
  5
5AF
 10
132.053532
 20
479.950068
 30
0.0
 11
133.867396
 21
481.763933
 31
0.0
  0
LINE
  8
LC-003-005-----0
  6
CONTINUOUS
  5
5B0
 10
131.052287
 20
481.77725
 30
0.0
 11
132.846077
 21
483.57104
 31
0.0
  0
LINE
  8
LC-003-005-----0
  6
CONTINUOUS
  5
5B1
 10
129.988162
 20
483.541553
 30
0.0
 11
131.765443
 21
485.318834
 31
0.0
  0
LINE
  8
LC-003-005-----0
  6
CONTINUOUS
  5
5B2
 10
128.863056
 20
485.244874
 30
0.0
 11
130.627118
 21
487.008936
 31
0.0
  0
LINE
  8
LC-003-005-----0
  6
CONTINUOUS
  5
5B3
 10
127.678479
 20
486.888724
 30
0.0
 11
129.4324
 21
488.642645
 31
0.0
  0
LINE
  8
LC-003-005-----0
  6
CONTINUOUS
  5
5B4
 10
126.435597
 20
488.474269
 30
0.0
 11
128.182294
 21
490.220966
 31
0.0
  0
LINE
  8
LC-003-005-----0
  6
CONTINUOUS
  5
5B5
 10
125.135258
 20
490.002357
 30
0.0
 11
126.877536
 21
491.744635
 31
0.0
  0
LINE
  8
LC-003-005-----0
  6
CONTINUOUS
  5
5B6
 10
123.778018
 20
491.473544
 30
0.0
 11
125.518608
 21
493.214135
 31
0.0
  0
LINE
  8
LC-003-005-----0
  6
CONTINUOUS
  5
5B7
 10
122.364152
 20
492.888105
 30
0.0
 11
124.105754
 21
494.629708
 31
0.0
  0
LINE
  8
LC-003-005-----0
  6
CONTINUOUS
  5
5B8
 10
120.893662
 20
494.246042
 30
0.0
 11
122.638979
 21
495.99136
 31
0.0
  0
LINE
  8
LC-003-005-----0
  6
CONTINUOUS
  5
5B9
 10
119.366275
 20
495.547083
 30
0.0
 11
121.118053
 21
497.298861
 31
0.0
  0
LINE
  8
LC-003-005-----0
  6
CONTINUOUS
  5
5BA
 10
117.781441
 20
496.790675
 30
0.0
 11
119.542505
 21
498.55174
 31
0.0
  0
LINE
  8
LC-003-005-----0
  6
CONTINUOUS
  5
5BB
 10
116.138313
 20
497.975975
 30
0.0
 11
117.911613
 21
499.749274
 31
0.0
  0
LINE
  8
LC-003-005-----0
  6
CONTINUOUS
  5
5BC
 10
114.435731
 20
499.10182
 30
0.0
 11
116.224384
 21
500.890473
 31
0.0
  0
LINE
  8
LC-003-005-----0
  6
CONTINUOUS
  5
5BD
 10
112.672189
 20
500.166705
 30
0.0
 11
114.479538
 21
501.974054
 31
0.0
  0
LINE
  8
LC-003-005-----0
  6
CONTINUOUS
  5
5BE
 10
110.845792
 20
501.168735
 30
0.0
 11
112.675467
 21
502.99841
 31
0.0
  0
LINE
  8
LC-003-005-----0
  6
CONTINUOUS
  5
5BF
 10
108.954203
 20
502.105573
 30
0.0
 11
110.810201
 21
503.961571
 31
0.0
  0
LINE
  8
LC-003-005-----0
  6
CONTINUOUS
  5
5C0
 10
106.994568
 20
502.974366
 30
0.0
 11
108.881347
 21
504.861145
 31
0.0
  0
LINE
  8
LC-003-005-----0
  6
CONTINUOUS
  5
5C1
 10
104.963418
 20
503.771642
 30
0.0
 11
106.886023
 21
505.694247
 31
0.0
  0
LINE
  8
LC-003-005-----0
  6
CONTINUOUS
  5
5C2
 10
102.204594
 20
503.841245
 30
0.0
 11
104.820756
 21
506.457408
 31
0.0
  0
LINE
  8
LC-003-005-----0
  6
CONTINUOUS
  5
5C3
 10
99.376166
 20
503.841245
 30
0.0
 11
102.681366
 21
507.146444
 31
0.0
  0
LINE
  8
LC-003-005-----0
  6
CONTINUOUS
  5
5C4
 10
96.547739
 20
503.841245
 30
0.0
 11
100.46279
 21
507.756296
 31
0.0
  0
LINE
  8
LC-003-005-----0
  6
CONTINUOUS
  5
5C5
 10
93.719312
 20
503.841245
 30
0.0
 11
98.15886
 21
508.280793
 31
0.0
  0
LINE
  8
LC-003-005-----0
  6
CONTINUOUS
  5
5C6
 10
90.890885
 20
503.841245
 30
0.0
 11
95.761979
 21
508.712339
 31
0.0
  0
LINE
  8
LC-003-005-----0
  6
CONTINUOUS
  5
5C7
 10
88.062458
 20
503.841245
 30
0.0
 11
93.262667
 21
509.041454
 31
0.0
  0
LINE
  8
LC-003-005-----0
  6
CONTINUOUS
  5
5C8
 10
87.714132
 20
506.321347
 30
0.0
 11
90.64889
 21
509.256104
 31
0.0
  0
LINE
  8
LC-003-005-----0
  6
CONTINUOUS
  5
5C9
 10
85.405604
 20
506.841245
 30
0.0
 11
87.905033
 21
509.340674
 31
0.0
  0
LINE
  8
LC-003-005-----0
  6
CONTINUOUS
  5
5CA
 10
82.577177
 20
506.841245
 30
0.0
 11
85.077177
 21
509.341245
 31
0.0
  0
LINE
  8
LC-003-005-----0
  6
CONTINUOUS
  5
5CB
 10
79.748749
 20
506.841245
 30
0.0
 11
82.248749
 21
509.341245
 31
0.0
  0
LINE
  8
LC-003-005-----0
  6
CONTINUOUS
  5
5CC
 10
76.920322
 20
506.841245
 30
0.0
 11
79.420322
 21
509.341245
 31
0.0
  0
LINE
  8
LC-003-005-----0
  6
CONTINUOUS
  5
5CD
 10
74.091895
 20
506.841245
 30
0.0
 11
76.591895
 21
509.341245
 31
0.0
  0
LINE
  8
LC-003-005-----0
  6
CONTINUOUS
  5
5CE
 10
71.263468
 20
506.841245
 30
0.0
 11
73.763468
 21
509.341245
 31
0.0
  0
LINE
  8
LC-003-005-----0
  6
CONTINUOUS
  5
5CF
 10
68.435041
 20
506.841245
 30
0.0
 11
70.935041
 21
509.341245
 31
0.0
  0
LINE
  8
LC-003-005-----0
  6
CONTINUOUS
  5
5D0
 10
65.606614
 20
506.841245
 30
0.0
 11
68.106614
 21
509.341245
 31
0.0
  0
LINE
  8
LC-003-005-----0
  6
CONTINUOUS
  5
5D1
 10
62.778187
 20
506.841245
 30
0.0
 11
65.278187
 21
509.341245
 31
0.0
  0
LINE
  8
LC-003-005-----0
  6
CONTINUOUS
  5
5D2
 10
59.94976
 20
506.841245
 30
0.0
 11
62.44976
 21
509.341245
 31
0.0
  0
LINE
  8
LC-003-005-----0
  6
CONTINUOUS
  5
5D3
 10
57.121332
 20
506.841245
 30
0.0
 11
59.621332
 21
509.341245
 31
0.0
  0
LINE
  8
LC-003-005-----0
  6
CONTINUOUS
  5
5D4
 10
54.292905
 20
506.841245
 30
0.0
 11
56.792905
 21
509.341245
 31
0.0
  0
LINE
  8
LC-003-005-----0
  6
CONTINUOUS
  5
5D5
 10
51.464478
 20
506.841245
 30
0.0
 11
53.964478
 21
509.341245
 31
0.0
  0
LINE
  8
LC-003-005-----0
  6
CONTINUOUS
  5
5D6
 10
48.636051
 20
506.841245
 30
0.0
 11
51.136051
 21
509.341245
 31
0.0
  0
LINE
  8
LC-003-005-----0
  6
CONTINUOUS
  5
5D7
 10
45.807624
 20
506.841245
 30
0.0
 11
48.307624
 21
509.341245
 31
0.0
  0
LINE
  8
LC-003-005-----0
  6
CONTINUOUS
  5
5D8
 10
42.979197
 20
506.841245
 30
0.0
 11
45.479197
 21
509.341245
 31
0.0
  0
LINE
  8
LC-003-005-----0
  6
CONTINUOUS
  5
5D9
 10
41.214132
 20
507.904608
 30
0.0
 11
43.214132
 21
509.904608
 31
0.0
  0
LINE
  8
LC-003-005-----0
  6
CONTINUOUS
  5
5DA
 10
41.214132
 20
510.733035
 30
0.0
 11
43.214132
 21
512.733035
 31
0.0
  0
LINE
  8
LC-003-005-----0
  6
CONTINUOUS
  5
5DB
 10
39.243915
 20
511.591245
 30
0.0
 11
41.743915
 21
514.091245
 31
0.0
  0
LINE
  8
LC-003-005-----0
  6
CONTINUOUS
  5
5DC
 10
31.665488
 20
506.841245
 30
0.0
 11
32.714132
 21
507.889889
 31
0.0
  0
LINE
  8
LC-003-005-----0
  6
CONTINUOUS
  5
5DD
 10
36.415488
 20
511.591245
 30
0.0
 11
38.915488
 21
514.091245
 31
0.0
  0
LINE
  8
LC-003-005-----0
  6
CONTINUOUS
  5
5DE
 10
28.837061
 20
506.841245
 30
0.0
 11
32.714132
 21
510.718317
 31
0.0
  0
LINE
  8
LC-003-005-----0
  6
CONTINUOUS
  5
5DF
 10
33.587061
 20
511.591245
 30
0.0
 11
36.087061
 21
514.091245
 31
0.0
  0
LINE
  8
LC-003-005-----0
  6
CONTINUOUS
  5
5E0
 10
27.714132
 20
508.546744
 30
0.0
 11
28.508634
 21
509.341245
 31
0.0
  0
LINE
  8
LC-003-005-----0
  6
CONTINUOUS
  5
5E1
 10
30.714132
 20
511.546744
 30
0.0
 11
33.258634
 21
514.091245
 31
0.0
  0
ENDBLK
  8
0
  5
5E2
  0
BLOCK
  8
0
  5
5E4
  2
*X49
 70
    65
 10
27.714132
 20
434.102326
 30
0.0
  3
*X49
  0
LINE
  8
LC-003-005-----0
  6
CONTINUOUS
  5
5E5
 10
97.519498
 20
434.102326
 30
0.0
 11
97.714132
 21
434.29696
 31
0.0
  0
LINE
  8
LC-003-005-----0
  6
CONTINUOUS
  5
5E6
 10
95.555458
 20
434.966713
 30
0.0
 11
97.714132
 21
437.125387
 31
0.0
  0
LINE
  8
LC-003-005-----0
  6
CONTINUOUS
  5
5E7
 10
95.414132
 20
437.653815
 30
0.0
 11
97.714132
 21
439.953815
 31
0.0
  0
LINE
  8
LC-003-005-----0
  6
CONTINUOUS
  5
5E8
 10
95.414132
 20
440.482242
 30
0.0
 11
97.714132
 21
442.782242
 31
0.0
  0
LINE
  8
LC-003-005-----0
  6
CONTINUOUS
  5
5E9
 10
95.414132
 20
443.310669
 30
0.0
 11
97.714132
 21
445.610669
 31
0.0
  0
LINE
  8
LC-003-005-----0
  6
CONTINUOUS
  5
5EA
 10
95.414132
 20
446.139096
 30
0.0
 11
97.714132
 21
448.439096
 31
0.0
  0
LINE
  8
LC-003-005-----0
  6
CONTINUOUS
  5
5EB
 10
93.839003
 20
447.392394
 30
0.0
 11
97.714132
 21
451.267523
 31
0.0
  0
LINE
  8
LC-003-005-----0
  6
CONTINUOUS
  5
5EC
 10
91.055969
 20
447.437787
 30
0.0
 11
93.510576
 21
449.892394
 31
0.0
  0
LINE
  8
LC-003-005-----0
  6
CONTINUOUS
  5
5ED
 10
95.414132
 20
451.79595
 30
0.0
 11
97.714132
 21
454.09595
 31
0.0
  0
LINE
  8
LC-003-005-----0
  6
CONTINUOUS
  5
5EE
 10
94.652239
 20
453.862484
 30
0.0
 11
96.83643
 21
456.046675
 31
0.0
  0
LINE
  8
LC-003-005-----0
  6
CONTINUOUS
  5
5EF
 10
91.850045
 20
453.888717
 30
0.0
 11
94.352573
 21
456.391245
 31
0.0
  0
LINE
  8
LC-003-005-----0
  6
CONTINUOUS
  5
5F0
 10
89.018826
 20
453.885925
 30
0.0
 11
91.524146
 21
456.391245
 31
0.0
  0
LINE
  8
LC-003-005-----0
  6
CONTINUOUS
  5
5F1
 10
86.187606
 20
453.883133
 30
0.0
 11
88.695719
 21
456.391245
 31
0.0
  0
LINE
  8
LC-003-005-----0
  6
CONTINUOUS
  5
5F2
 10
83.356387
 20
453.880341
 30
0.0
 11
85.867292
 21
456.391245
 31
0.0
  0
LINE
  8
LC-003-005-----0
  6
CONTINUOUS
  5
5F3
 10
80.525168
 20
453.877548
 30
0.0
 11
83.038865
 21
456.391245
 31
0.0
  0
LINE
  8
LC-003-005-----0
  6
CONTINUOUS
  5
5F4
 10
77.693949
 20
453.874756
 30
0.0
 11
80.210438
 21
456.391245
 31
0.0
  0
LINE
  8
LC-003-005-----0
  6
CONTINUOUS
  5
5F5
 10
74.862729
 20
453.871964
 30
0.0
 11
77.382011
 21
456.391245
 31
0.0
  0
LINE
  8
LC-003-005-----0
  6
CONTINUOUS
  5
5F6
 10
72.03151
 20
453.869172
 30
0.0
 11
74.553583
 21
456.391245
 31
0.0
  0
LINE
  8
LC-003-005-----0
  6
CONTINUOUS
  5
5F7
 10
69.200291
 20
453.86638
 30
0.0
 11
71.725156
 21
456.391245
 31
0.0
  0
LINE
  8
LC-003-005-----0
  6
CONTINUOUS
  5
5F8
 10
66.369071
 20
453.863588
 30
0.0
 11
68.896729
 21
456.391245
 31
0.0
  0
LINE
  8
LC-003-005-----0
  6
CONTINUOUS
  5
5F9
 10
63.537852
 20
453.860795
 30
0.0
 11
66.068302
 21
456.391245
 31
0.0
  0
LINE
  8
LC-003-005-----0
  6
CONTINUOUS
  5
5FA
 10
60.706633
 20
453.858003
 30
0.0
 11
63.239875
 21
456.391245
 31
0.0
  0
LINE
  8
LC-003-005-----0
  6
CONTINUOUS
  5
5FB
 10
57.875414
 20
453.855211
 30
0.0
 11
60.411448
 21
456.391245
 31
0.0
  0
LINE
  8
LC-003-005-----0
  6
CONTINUOUS
  5
5FC
 10
55.044194
 20
453.852419
 30
0.0
 11
57.583021
 21
456.391245
 31
0.0
  0
LINE
  8
LC-003-005-----0
  6
CONTINUOUS
  5
5FD
 10
52.212975
 20
453.849627
 30
0.0
 11
54.754594
 21
456.391245
 31
0.0
  0
LINE
  8
LC-003-005-----0
  6
CONTINUOUS
  5
5FE
 10
49.381756
 20
453.846835
 30
0.0
 11
51.926166
 21
456.391245
 31
0.0
  0
LINE
  8
LC-003-005-----0
  6
CONTINUOUS
  5
5FF
 10
41.797739
 20
449.091245
 30
0.0
 11
43.214132
 21
450.507638
 31
0.0
  0
LINE
  8
LC-003-005-----0
  6
CONTINUOUS
  5
600
 10
46.550537
 20
453.844042
 30
0.0
 11
49.097739
 21
456.391245
 31
0.0
  0
LINE
  8
LC-003-005-----0
  6
CONTINUOUS
  5
601
 10
38.969312
 20
449.091245
 30
0.0
 11
43.214132
 21
453.336066
 31
0.0
  0
LINE
  8
LC-003-005-----0
  6
CONTINUOUS
  5
602
 10
43.719317
 20
453.84125
 30
0.0
 11
46.269312
 21
456.391245
 31
0.0
  0
LINE
  8
LC-003-005-----0
  6
CONTINUOUS
  5
603
 10
36.140885
 20
449.091245
 30
0.0
 11
38.640885
 21
451.591245
 31
0.0
  0
LINE
  8
LC-003-005-----0
  6
CONTINUOUS
  5
604
 10
41.214132
 20
454.164493
 30
0.0
 11
43.440885
 21
456.391245
 31
0.0
  0
LINE
  8
LC-003-005-----0
  6
CONTINUOUS
  5
605
 10
33.312458
 20
449.091245
 30
0.0
 11
35.812458
 21
451.591245
 31
0.0
  0
LINE
  8
LC-003-005-----0
  6
CONTINUOUS
  5
606
 10
30.901397
 20
449.508612
 30
0.0
 11
33.022296
 21
451.629511
 31
0.0
  0
LINE
  8
LC-003-005-----0
  6
CONTINUOUS
  5
607
 10
30.714132
 20
452.149774
 30
0.0
 11
32.714132
 21
454.149774
 31
0.0
  0
LINE
  8
LC-003-005-----0
  6
CONTINUOUS
  5
608
 10
29.577177
 20
453.841245
 30
0.0
 11
32.077177
 21
456.341245
 31
0.0
  0
LINE
  8
LC-003-005-----0
  6
CONTINUOUS
  5
609
 10
27.714132
 20
454.806628
 30
0.0
 11
29.248749
 21
456.341245
 31
0.0
  0
ENDBLK
  8
0
  5
60A
  0
BLOCK
  8
0
  5
60C
  2
*X50
 70
    65
 10
33.414132
 20
505.841745
 30
0.0
  3
*X50
  0
LINE
  8
LC-003-005-----0
  6
CONTINUOUS
  5
60D
 10
37.91012
 20
506.014809
 30
0.0
 11
38.610288
 21
506.714977
 31
0.0
  0
LINE
  8
LC-003-005-----0
  6
CONTINUOUS
  5
60E
 10
40.842228
 20
508.946918
 30
0.0
 11
41.209761
 21
509.31445
 31
0.0
  0
LINE
  8
LC-003-005-----0
  6
CONTINUOUS
  5
60F
 10
37.013544
 20
506.532447
 30
0.0
 11
38.31143
 21
507.830332
 31
0.0
  0
LINE
  8
LC-003-005-----0
  6
CONTINUOUS
  5
610
 10
39.621398
 20
509.140301
 30
0.0
 11
41.080187
 21
510.59909
 31
0.0
  0
LINE
  8
LC-003-005-----0
  6
CONTINUOUS
  5
611
 10
36.116969
 20
507.050085
 30
0.0
 11
40.669539
 21
511.602655
 31
0.0
  0
LINE
  8
LC-003-005-----0
  6
CONTINUOUS
  5
612
 10
35.220393
 20
507.567723
 30
0.0
 11
39.754977
 21
512.102307
 31
0.0
  0
LINE
  8
LC-003-005-----0
  6
CONTINUOUS
  5
613
 10
34.323818
 20
508.085361
 30
0.0
 11
38.358295
 21
512.119838
 31
0.0
  0
LINE
  8
LC-003-005-----0
  6
CONTINUOUS
  5
614
 10
33.589264
 20
508.765021
 30
0.0
 11
36.961613
 21
512.13737
 31
0.0
  0
LINE
  8
LC-003-005-----0
  6
CONTINUOUS
  5
615
 10
33.575461
 20
510.165432
 30
0.0
 11
35.533211
 21
512.123182
 31
0.0
  0
ENDBLK
  8
0
  5
616
  0
BLOCK
  8
0
  5
618
  2
*X51
 70
    65
 10
33.414132
 20
450.841245
 30
0.0
  3
*X51
  0
LINE
  8
LC-003-005-----0
  6
CONTINUOUS
  5
619
 10
39.439413
 20
450.97556
 30
0.0
 11
41.140464
 21
452.676611
 31
0.0
  0
LINE
  8
LC-003-005-----0
  6
CONTINUOUS
  5
61A
 10
38.042731
 20
450.993091
 30
0.0
 11
41.122616
 21
454.072977
 31
0.0
  0
LINE
  8
LC-003-005-----0
  6
CONTINUOUS
  5
61B
 10
36.646049
 20
451.010623
 30
0.0
 11
39.68965
 21
454.054224
 31
0.0
  0
LINE
  8
LC-003-005-----0
  6
CONTINUOUS
  5
61C
 10
35.281087
 20
451.059874
 30
0.0
 11
38.359934
 21
454.138722
 31
0.0
  0
LINE
  8
LC-003-005-----0
  6
CONTINUOUS
  5
61D
 10
34.309965
 20
451.502966
 30
0.0
 11
38.367165
 21
455.560166
 31
0.0
  0
LINE
  8
LC-003-005-----0
  6
CONTINUOUS
  5
61E
 10
33.798113
 20
452.405328
 30
0.0
 11
38.609362
 21
457.216576
 31
0.0
  0
LINE
  8
LC-003-005-----0
  6
CONTINUOUS
  5
61F
 10
33.437491
 20
453.458919
 30
0.0
 11
36.102793
 21
456.124221
 31
0.0
  0
ENDBLK
  8
0
  5
620
  0
BLOCK
  8
0
  5
622
  2
BLK7
 70
    64
 10
0.0
 20
0.0
 30
0.0
  3
BLK7
  0
ENDBLK
  8
0
  5
623
  0
BLOCK
  8
0
  5
625
  2
BLK8
 70
    64
 10
0.0
 20
0.0
 30
0.0
  3
BLK8
  0
ENDBLK
  8
0
  5
626
  0
BLOCK
  8
0
  5
628
  2
BLK9
 70
    64
 10
0.0
 20
0.0
 30
0.0
  3
BLK9
  0
ENDBLK
  8
0
  5
629
  0
BLOCK
  8
0
  5
62B
  2
*X55
 70
    65
 10
135.492207
 20
500.204282
 30
0.0
  3
*X55
  0
LINE
  8
LC-003-005-----0
  6
CONTINUOUS
  5
62C
 10
143.822465
 20
500.204282
 30
0.0
 11
143.992207
 21
500.374025
 31
0.0
  0
LINE
  8
LC-003-005-----0
  6
CONTINUOUS
  5
62D
 10
141.438493
 20
500.648738
 30
0.0
 11
143.992207
 21
503.202452
 31
0.0
  0
LINE
  8
LC-003-005-----0
  6
CONTINUOUS
  5
62E
 10
147.240591
 20
506.450836
 30
0.0
 11
147.787106
 21
506.99735
 31
0.0
  0
LINE
  8
LC-003-005-----0
  6
CONTINUOUS
  5
62F
 10
141.133527
 20
503.172199
 30
0.0
 11
143.992207
 21
506.030879
 31
0.0
  0
LINE
  8
LC-003-005-----0
  6
CONTINUOUS
  5
630
 10
145.44744
 20
507.486112
 30
0.0
 11
146.751829
 21
508.790501
 31
0.0
  0
LINE
  8
LC-003-005-----0
  6
CONTINUOUS
  5
631
 10
140.82856
 20
505.695659
 30
0.0
 11
145.716553
 21
510.583652
 31
0.0
  0
LINE
  8
LC-003-005-----0
  6
CONTINUOUS
  5
632
 10
148.092111
 20
512.95921
 30
0.0
 11
148.278731
 21
513.14583
 31
0.0
  0
LINE
  8
LC-003-005-----0
  6
CONTINUOUS
  5
633
 10
140.994162
 20
508.689688
 30
0.0
 11
144.681277
 21
512.376803
 31
0.0
  0
LINE
  8
LC-003-005-----0
  6
CONTINUOUS
  5
634
 10
146.29896
 20
513.994486
 30
0.0
 11
147.243455
 21
514.938981
 31
0.0
  0
LINE
  8
LC-003-005-----0
  6
CONTINUOUS
  5
635
 10
140.680329
 20
511.204282
 30
0.0
 11
143.992207
 21
514.51616
 31
0.0
  0
LINE
  8
LC-003-005-----0
  6
CONTINUOUS
  5
636
 10
144.505809
 20
515.029762
 30
0.0
 11
146.208179
 21
516.732132
 31
0.0
  0
LINE
  8
LC-003-005-----0
  6
CONTINUOUS
  5
637
 10
137.851902
 20
511.204282
 30
0.0
 11
137.992207
 21
511.344587
 31
0.0
  0
LINE
  8
LC-003-005-----0
  6
CONTINUOUS
  5
638
 10
140.494162
 20
513.846542
 30
0.0
 11
145.172903
 21
518.525283
 31
0.0
  0
LINE
  8
LC-003-005-----0
  6
CONTINUOUS
  5
639
 10
135.507841
 20
511.688648
 30
0.0
 11
137.992207
 21
514.173015
 31
0.0
  0
LINE
  8
LC-003-005-----0
  6
CONTINUOUS
  5
63A
 10
140.494162
 20
516.674969
 30
0.0
 11
143.523475
 21
519.704282
 31
0.0
  0
LINE
  8
LC-003-005-----0
  6
CONTINUOUS
  5
63B
 10
135.492207
 20
514.501442
 30
0.0
 11
137.992207
 21
517.001442
 31
0.0
  0
LINE
  8
LC-003-005-----0
  6
CONTINUOUS
  5
63C
 10
138.195048
 20
517.204282
 30
0.0
 11
140.695048
 21
519.704282
 31
0.0
  0
LINE
  8
LC-003-005-----0
  6
CONTINUOUS
  5
63D
 10
135.492207
 20
517.329869
 30
0.0
 11
137.86662
 21
519.704282
 31
0.0
  0
ENDBLK
  8
0
  5
63E
  0
BLOCK
  8
0
  5
640
  2
*X56
 70
    65
 10
304.949341
 20
500.204282
 30
0.0
  3
*X56
  0
LINE
  8
LC-003-005-----0
  6
CONTINUOUS
  5
641
 10
310.699665
 20
500.204282
 30
0.0
 11
312.168279
 21
501.672896
 31
0.0
  0
LINE
  8
LC-003-005-----0
  6
CONTINUOUS
  5
642
 10
309.490793
 20
501.823838
 30
0.0
 11
312.557091
 21
504.890135
 31
0.0
  0
LINE
  8
LC-003-005-----0
  6
CONTINUOUS
  5
643
 10
309.490793
 20
504.652265
 30
0.0
 11
312.542811
 21
507.704282
 31
0.0
  0
LINE
  8
LC-003-005-----0
  6
CONTINUOUS
  5
644
 10
316.042811
 20
511.204282
 30
0.0
 11
317.990793
 21
513.152265
 31
0.0
  0
LINE
  8
LC-003-005-----0
  6
CONTINUOUS
  5
645
 10
309.490793
 20
507.480692
 30
0.0
 11
312.488838
 21
510.478737
 31
0.0
  0
LINE
  8
LC-003-005-----0
  6
CONTINUOUS
  5
646
 10
315.490793
 20
513.480692
 30
0.0
 11
317.990793
 21
515.980692
 31
0.0
  0
LINE
  8
LC-003-005-----0
  6
CONTINUOUS
  5
647
 10
305.035927
 20
505.854252
 30
0.0
 11
312.988838
 21
513.807164
 31
0.0
  0
LINE
  8
LC-003-005-----0
  6
CONTINUOUS
  5
648
 10
315.490793
 20
516.309119
 30
0.0
 11
317.990793
 21
518.809119
 31
0.0
  0
LINE
  8
LC-003-005-----0
  6
CONTINUOUS
  5
649
 10
308.89963
 20
512.546383
 30
0.0
 11
312.988838
 21
516.635591
 31
0.0
  0
LINE
  8
LC-003-005-----0
  6
CONTINUOUS
  5
64A
 10
313.557529
 20
517.204282
 30
0.0
 11
316.057529
 21
519.704282
 31
0.0
  0
LINE
  8
LC-003-005-----0
  6
CONTINUOUS
  5
64B
 10
307.977288
 20
514.452468
 30
0.0
 11
313.229102
 21
519.704282
 31
0.0
  0
LINE
  8
LC-003-005-----0
  6
CONTINUOUS
  5
64C
 10
307.064859
 20
516.368466
 30
0.0
 11
310.400675
 21
519.704282
 31
0.0
  0
ENDBLK
  8
0
  5
64D
  0
ENDSEC
  0
SECTION
  2
ENTITIES
  0
VIEWPORT
  8
LC-000
  5
A3D
 67
     1
 68
     1
 10
420.0
 20
297.0
 30
0.0
 40
840.0
 41
594.0
 69
     1
1001
ACAD
1000
MVIEW
1002
{
1070
    16
1010
0.0
1020
0.0
1030
0.0
1010
0.0
1020
0.0
1030
1.0
1040
0.0
1040
594.0
1040
420.0
1040
297.0
1040
50.0
1040
0.0
1040
0.0
1070
     0
1070
   100
1070
     1
1070
     1
1070
     0
1070
     0
1070
     0
1070
     0
1040
0.0
1040
0.0
1040
0.0
1040
1.0
1040
1.0
1040
0.0
1040
0.0
1070
     0
1002
{
1002
}
1002
}
  0
VIEWPORT
  8
0
  5
A3E
 67
     1
 68
     1
 10
0.0
 20
0.0
 30
0.0
 40
0.0
 41
0.0
 69
     1
1001
ACAD
1000
MVIEW
1002
{
1070
    16
1010
0.0
1020
0.0
1030
0.0
1010
0.0
1020
0.0
1030
1.0
1040
0.0
1040
594.0
1040
0.0
1040
0.0
1040
50.0
1040
0.0
1040
0.0
1070
     0
1070
   100
1070
     0
1070
     1
1070
     0
1070
     0
1070
     0
1070
     0
1040
0.0
1040
0.0
1040
0.0
1040
0.5
1040
0.5
1040
0.5
1040
0.5
1070
     0
1002
{
1002
}
1002
}
  0
INSERT
  8
LC-002-000-----0
  5
64F
  2
BLK1
 10
0.0
 20
0.0
 30
0.0
  0
INSERT
  8
LC-002-000-----0
  5
650
  2
BLK2
 10
0.0
 20
0.0
 30
0.0
  0
INSERT
  8
LC-002-000-----0
  5
651
  2
BLK3
 10
0.0
 20
0.0
 30
0.0
  0
DIMENSION
  8
LC-007-003-----0
  6
CONTINUOUS
  5
652
  2
*D3
 10
226.491064
 20
560.0
 30
0.0
 11
226.491064
 21
560.0
 31
0.0
  1
%%c300
 13
75.491064
 23
526.081716
 33
0.0
 14
377.491064
 24
526.081716
 34
0.0
  3
LC-DIM-L-0140-02-02
  0
DIMENSION
  8
LC-007-003-----0
  6
CONTINUOUS
  5
653
  2
*D4
 10
127.102598
 20
352.8
 30
0.0
 11
127.102598
 21
352.8
 31
0.0
  1
200
 13
27.714132
 23
453.841245
 33
0.0
 14
226.491064
 24
411.391245
 34
0.0
  3
LC-DIM-L-0140-02-02
  0
DIMENSION
  8
LC-007-003-----0
  6
CONTINUOUS
  5
654
  2
*D5
 10
226.336578
 20
313.6
 30
0.0
 11
226.336578
 21
313.6
 31
0.0
  1
400
 13
27.714132
 23
453.841245
 33
0.0
 14
424.959023
 24
424.377151
 34
0.0
  3
LC-DIM-L-0140-02-02
  0
DIMENSION
  8
LC-007-003-----0
  6
CONTINUOUS
  5
655
  2
*D6
 10
14.0
 20
502.332882
 30
0.0
 11
14.0
 21
502.332882
 31
0.0
  1
40
 13
75.491064
 23
523.074518
 33
0.0
 14
27.714132
 24
481.591245
 34
0.0
 50
90.0
  3
LC-DIM-L-0140-02-02
  0
DIMENSION
  8
LC-007-003-----0
  6
CONTINUOUS
  5
656
  2
*D7
 10
-56.0
 20
467.193373
 30
0.0
 11
-56.0
 21
467.193373
 31
0.0
  1
110
 13
76.63105
 23
522.9955
 33
0.0
 14
103.382491
 24
411.391245
 34
0.0
 50
90.0
  3
LC-DIM-L-0140-02-02
  0
DIMENSION
  8
LC-007-003-----0
  6
CONTINUOUS
  5
657
  2
*D8
 10
-28.0
 20
481.591245
 30
0.0
 11
-28.0
 21
481.591245
 31
0.0
  1
DN50
 13
27.714132
 23
506.841245
 33
0.0
 14
27.714132
 24
456.341245
 34
0.0
 50
90.0
  3
LC-DIM-L-0140-02-02
  0
DIMENSION
  8
LC-007-003-----0
  6
CONTINUOUS
  5
658
  2
*D9
 10
470.4
 20
487.975835
 30
0.0
 11
470.4
 21
487.975835
 31
0.0
  1
70
 13
377.491064
 23
523.074518
 33
0.0
 14
424.959023
 24
452.877151
 34
0.0
 50
90.0
  3
LC-DIM-L-0140-02-02
  0
DIMENSION
  8
LC-007-003-----0
  6
CONTINUOUS
  5
659
  2
*D10
 10
548.8
 20
452.877151
 30
0.0
 11
548.8
 21
452.877151
 31
0.0
  1
%%c<>
 13
424.959023
 23
484.377151
 33
0.0
 14
424.959023
 24
421.377151
 34
0.0
 50
90.0
  3
LC-DIM-L-0140-02-02
  0
DIMENSION
  8
LC-007-003-----0
  6
CONTINUOUS
  5
65A
  2
*D11
 10
509.6
 20
452.877151
 30
0.0
 11
509.6
 21
452.877151
 31
0.0
  1
%%c<>
 13
381.459023
 23
480.877151
 33
0.0
 14
381.459023
 24
424.877151
 34
0.0
 50
90.0
  3
LC-DIM-L-0140-02-02
  0
INSERT
  8
LC-003-005-----0
  6
CONTINUOUS
  5
65B
  2
*X12
 10
162.690979
 20
430.553997
 30
0.0
  0
INSERT
  8
LC-003-005-----0
  6
CONTINUOUS
  5
65C
  2
*X13
 10
212.320504
 20
430.553997
 30
0.0
  0
INSERT
  8
LC-003-005-----0
  6
CONTINUOUS
  5
65D
  2
*X14
 10
265.044003
 20
480.583376
 30
0.0
  0
INSERT
  8
LC-010-000-----0
  5
65F
  2
BLK4
 10
0.0
 20
0.0
 30
0.0
  0
INSERT
  8
LC-003-005-----0
  6
CONTINUOUS
  5
660
  2
*X16
 10
292.959023
 20
420.377151
 30
0.0
  0
INSERT
  8
LC-003-005-----0
  6
CONTINUOUS
  5
661
  2
*X17
 10
292.959023
 20
420.377151
 30
0.0
  0
DIMENSION
  8
LC-007-003-----0
  6
CONTINUOUS
  5
662
  2
*D18
 10
492.021759
 20
430.948751
 30
0.0
 11
465.297345
 21
359.768378
 31
0.0
 70
   133
 13
421.568642
 23
427.124656
 33
0.0
 14
424.959023
 24
452.877151
 34
0.0
 15
325.459023
 25
452.877151
 35
0.0
  3
LC-DIM-W-0140-02-02
  0
DIMENSION
  8
LC-007-003-----0
  6
CONTINUOUS
  5
663
  2
*D19
 10
252.0
 20
455.470847
 30
0.0
 11
252.0
 21
455.470847
 31
0.0
  1
50
 13
268.991064
 23
480.387697
 33
0.0
 14
214.33164
 24
430.553997
 34
0.0
 50
90.0
  3
LC-DIM-L-0140-02-02
  0
INSERT
  8
LC-003-005-----0
  6
CONTINUOUS
  5
664
  2
*X20
 10
149.541064
 20
500.706196
 30
0.0
  0
INSERT
  8
LC-003-005-----0
  6
CONTINUOUS
  5
665
  2
*X21
 10
300.441064
 20
500.706196
 30
0.0
  0
INSERT
  8
LC-003-005-----0
  6
CONTINUOUS
  5
666
  2
*X22
 10
-23.508936
 20
526.016013
 30
0.0
  0
INSERT
  8
LC-003-005-----0
  6
CONTINUOUS
  5
667
  2
*X23
 10
-3.508936
 20
526.016013
 30
0.0
  0
INSERT
  8
LC-003-005-----0
  6
CONTINUOUS
  5
668
  2
*X24
 10
16.491064
 20
526.016013
 30
0.0
  0
INSERT
  8
LC-003-005-----0
  6
CONTINUOUS
  5
669
  2
*X25
 10
36.491064
 20
526.016013
 30
0.0
  0
INSERT
  8
LC-003-005-----0
  6
CONTINUOUS
  5
66A
  2
*X26
 10
56.491064
 20
526.016013
 30
0.0
  0
INSERT
  8
LC-003-005-----0
  6
CONTINUOUS
  5
66B
  2
*X27
 10
76.491064
 20
525.270994
 30
0.0
  0
INSERT
  8
LC-003-005-----0
  6
CONTINUOUS
  5
66C
  2
*X28
 10
96.491064
 20
523.872459
 30
0.0
  0
INSERT
  8
LC-003-005-----0
  6
CONTINUOUS
  5
66D
  2
*X29
 10
116.491064
 20
520.460333
 30
0.0
  0
INSERT
  8
LC-003-005-----0
  6
CONTINUOUS
  5
66E
  2
*X30
 10
366.800328
 20
525.29262
 30
0.0
  0
INSERT
  8
LC-003-005-----0
  6
CONTINUOUS
  5
66F
  2
*X31
 10
326.800328
 20
520.481959
 30
0.0
  0
INSERT
  8
LC-003-005-----0
  6
CONTINUOUS
  5
670
  2
*X32
 10
346.800328
 20
523.894085
 30
0.0
  0
INSERT
  8
LC-003-005-----0
  6
CONTINUOUS
  5
671
  2
*X33
 10
386.800328
 20
526.037638
 30
0.0
  0
INSERT
  8
LC-003-005-----0
  6
CONTINUOUS
  5
672
  2
*X34
 10
406.800328
 20
526.037638
 30
0.0
  0
INSERT
  8
LC-003-005-----0
  6
CONTINUOUS
  5
673
  2
*X35
 10
426.800328
 20
526.037638
 30
0.0
  0
INSERT
  8
LC-003-005-----0
  6
CONTINUOUS
  5
674
  2
*X36
 10
446.800328
 20
526.037638
 30
0.0
  0
INSERT
  8
LC-003-005-----0
  6
CONTINUOUS
  5
675
  2
*X37
 10
466.800328
 20
526.037638
 30
0.0
  0
INSERT
  8
LC-003-005-----0
  6
CONTINUOUS
  5
676
  2
*X38
 10
332.054452
 20
423.885251
 30
0.0
  0
INSERT
  8
LC-003-005-----0
  6
CONTINUOUS
  5
677
  2
*X39
 10
160.741058
 20
481.637697
 30
0.0
  0
INSERT
  8
LC-003-005-----0
  6
CONTINUOUS
  5
678
  2
*X40
 10
285.241058
 20
481.637697
 30
0.0
  0
INSERT
  8
LC-003-005-----0
  6
CONTINUOUS
  5
679
  2
*X41
 10
201.272987
 20
501.849284
 30
0.0
  0
INSERT
  8
LC-003-005-----0
  6
CONTINUOUS
  5
67A
  2
*X42
 10
201.272987
 20
500.619077
 30
0.0
  0
INSERT
  8
LC-002-000-----0
  5
67B
  2
BLK5
 10
0.0
 20
0.0
 30
0.0
  0
INSERT
  8
LC-003-005-----0
  6
CONTINUOUS
  5
67C
  2
*X44
 10
226.087803
 20
507.225849
 30
0.0
  0
INSERT
  8
LC-003-005-----0
  6
CONTINUOUS
  5
67D
  2
*X45
 10
264.914136
 20
505.870003
 30
0.0
  0
INSERT
  8
LC-002-000-----0
  5
67E
  2
BLK6
 10
0.0
 20
0.0
 30
0.0
  0
INSERT
  8
LC-003-005-----0
  6
CONTINUOUS
  5
67F
  2
*X47
 10
89.914132
 20
435.091245
 30
0.0
  0
INSERT
  8
LC-003-005-----0
  6
CONTINUOUS
  5
680
  2
*X48
 10
27.714132
 20
404.341245
 30
0.0
  0
INSERT
  8
LC-003-005-----0
  6
CONTINUOUS
  5
681
  2
*X49
 10
27.714132
 20
434.102326
 30
0.0
  0
INSERT
  8
LC-003-005-----0
  6
CONTINUOUS
  5
682
  2
*X50
 10
33.414132
 20
505.841745
 30
0.0
  0
INSERT
  8
LC-003-005-----0
  6
CONTINUOUS
  5
683
  2
*X51
 10
33.414132
 20
450.841245
 30
0.0
  0
INSERT
  8
LC-002-000-----0
  5
684
  2
BLK7
 10
0.0
 20
0.0
 30
0.0
  0
INSERT
  8
LC-002-000-----0
  5
685
  2
BLK8
 10
0.0
 20
0.0
 30
0.0
  0
INSERT
  8
LC-002-000-----0
  5
686
  2
BLK9
 10
0.0
 20
0.0
 30
0.0
  0
INSERT
  8
LC-003-005-----0
  6
CONTINUOUS
  5
687
  2
*X55
 10
135.492207
 20
500.204282
 30
0.0
  0
INSERT
  8
LC-003-005-----0
  6
CONTINUOUS
  5
688
  2
*X56
 10
304.949341
 20
500.204282
 30
0.0
  0
LINE
  8
LC-001-002-----0
  6
DASHDOT
  5
68B
 10
226.491064
 20
526.016013
 30
0.0
 11
226.491064
 21
511.549153
 31
0.0
  0
LINE
  8
LC-001-002-----0
  6
DASHDOT
  5
68C
 10
226.491064
 20
508.547325
 30
0.0
 11
226.491064
 21
482.745104
 31
0.0
  0
LINE
  8
LC-001-002-----0
  6
CONTINUOUS
 62
     1
  5
68D
 10
137.741771
 20
517.204282
 30
0.0
 11
139.241771
 21
517.204282
 31
0.0
  0
LINE
  8
LC-001-002-----0
  6
CONTINUOUS
 62
     1
  5
68E
 10
290.291146
 20
489.883374
 30
0.0
 11
290.291146
 21
490.583385
 31
0.0
  0
LINE
  8
LC-001-002-----0
  6
DASHDOT
  5
68F
 10
27.714132
 20
481.591245
 30
0.0
 11
87.687329
 21
481.591245
 31
0.0
  0
LINE
  8
LC-003-005-----0
  6
CONTINUOUS
  5
690
 10
343.001085
 20
429.15952
 30
0.0
 11
341.576229
 21
430.584376
 31
0.0
  0
LINE
  8
LC-003-005-----0
  6
CONTINUOUS
  5
691
 10
341.325064
 20
428.007114
 30
0.0
 11
338.747802
 21
430.584376
 31
0.0
  0
LINE
  8
LC-001-002-----0
  6
CONTINUOUS
 62
     1
  5
692
 10
304.147592
 20
498.478476
 30
0.0
 11
304.347592
 21
498.478476
 31
0.0
  0
LINE
  8
LC-001-002-----0
  6
CONTINUOUS
 62
     1
  5
693
 10
424.959023
 20
424.377151
 30
0.0
 11
424.959023
 21
484.377151
 31
0.0
  0
LINE
  8
LC-003-005-----0
  6
CONTINUOUS
  5
694
 10
339.545897
 20
426.957854
 30
0.0
 11
335.919374
 21
430.584376
 31
0.0
  0
LINE
  8
LC-001-002-----0
  6
CONTINUOUS
 62
     1
  5
695
 10
220.01806
 20
503.396525
 30
0.0
 11
212.320504
 21
430.553997
 31
0.0
  0
LINE
  8
LC-001-002-----0
  6
CONTINUOUS
 62
     1
  5
696
 10
221.993143
 20
502.923625
 30
0.0
 11
221.993143
 21
479.743377
 31
0.0
  0
ARC
  8
LC-004-205-RND-0
  6
CONTINUOUS
  5
698
 10
224.493143
 20
502.923625
 30
0.0
 40
2.5
 50
92.0
 51
180.0
  0
ARC
  8
LC-004-205-RND-0
  6
CONTINUOUS
  5
699
 10
224.493143
 20
502.923625
 30
0.0
 40
4.5
 50
88.0
 51
173.967717
  0
ARC
  8
LC-004-205-RND-0
  6
CONTINUOUS
  5
69A
 10
276.190849
 20
496.609465
 30
0.0
 40
7.0
 50
359.999987
 51
88.0
  0
LINE
  8
LC-001-002-----0
  6
CONTINUOUS
 62
     1
  5
69B
 10
90.964132
 20
435.679649
 30
0.0
 11
90.964132
 21
435.091245
 31
0.0
  0
ARC
  8
LC-004-205-RND-0
  6
CONTINUOUS
  5
69C
 10
276.999284
 20
496.587328
 30
0.0
 40
9.0
 50
5.652944
 51
88.0
  0
LINE
  8
LC-001-002-----0
  6
CONTINUOUS
 62
     1
  5
69D
 10
224.650191
 20
507.420884
 30
0.0
 11
230.035397
 21
507.232829
 31
0.0
  0
LINE
  8
LC-001-002-----0
  6
DASHDOT
  5
69E
 10
117.687294
 20
451.637054
 30
0.0
 11
117.714086
 21
434.091245
 31
0.0
  0
LINE
  8
LC-001-002-----0
  6
CONTINUOUS
 62
     1
  5
69F
 10
230.035397
 20
507.232829
 30
0.0
 11
230.235275
 21
507.225849
 31
0.0
  0
LINE
  8
LC-001-002-----0
  6
CONTINUOUS
 62
     1
  5
6A0
 10
264.914136
 20
506.014836
 30
0.0
 11
277.313379
 21
505.581845
 31
0.0
  0
LINE
  8
LC-001-002-----0
  6
CONTINUOUS
 62
     1
  5
6A1
 10
229.965385
 20
505.227961
 30
0.0
 11
230.165263
 21
505.220981
 31
0.0
  0
LINE
  8
LC-001-002-----0
  6
CONTINUOUS
 62
     1
  5
6A2
 10
267.392571
 20
503.920975
 30
0.0
 11
276.435145
 21
503.605201
 31
0.0
  0
LINE
  8
LC-001-002-----0
  6
CONTINUOUS
 62
     1
  5
6A3
 10
265.114015
 20
506.007856
 30
0.0
 11
265.044003
 21
504.002988
 31
0.0
  0
LINE
  8
LC-005-205-----0
  6
CONTINUOUS
  5
6A5
 10
283.190846
 20
484.67787
 30
0.0
 11
283.190849
 21
496.609464
 31
0.0
  0
LINE
  8
LC-005-205-----0
  6
CONTINUOUS
  5
6A6
 10
285.955515
 20
497.47385
 30
0.0
 11
286.637553
 21
490.583459
 31
0.0
  0
LINE
  8
LC-003-005-----0
  6
CONTINUOUS
  5
6A7
 10
139.741771
 20
513.624895
 30
0.0
 11
137.741771
 21
515.624895
 31
0.0
  0
LINE
  8
LC-003-005-----0
  6
CONTINUOUS
  5
6A8
 10
134.643152
 20
518.723513
 30
0.0
 11
133.339048
 21
520.027618
 31
0.0
  0
ARC
  8
LC-005-205-----0
  6
CONTINUOUS
  5
6A9
 10
285.691117
 20
483.083376
 30
0.0
 40
2.5
 50
179.999761
 51
270.0
  0
ARC
  8
LC-006-002-RND-0
  6
DASHDOT
  5
6AB
 10
87.687329
 20
451.591245
 30
0.0
 40
30.0
 50
0.087488
 51
90.0
  0
ARC
  8
LC-005-205-----0
  6
CONTINUOUS
  5
6AC
 10
289.791136
 20
481.283376
 30
0.0
 40
0.5
 50
359.999925
 51
89.999925
  0
LINE
  8
LC-005-205-----0
  6
CONTINUOUS
  5
6AD
 10
283.191117
 20
483.083386
 30
0.0
 11
283.191148
 21
490.578117
 31
0.0
  0
LINE
  8
LC-005-205-----0
  6
CONTINUOUS
  5
6AE
 10
285.191114
 20
482.283384
 30
0.0
 11
285.191141
 21
488.883384
 31
0.0
  0
ARC
  8
LC-005-205-----0
  6
CONTINUOUS
  5
6AF
 10
285.691114
 20
482.283382
 30
0.0
 40
0.5
 50
179.999761
 51
269.999925
  0
LINE
  8
LC-005-205-----0
  6
CONTINUOUS
  5
6B0
 10
289.791137
 20
481.783376
 30
0.0
 11
285.691113
 21
481.783382
 31
0.0
  0
ARC
  8
LC-005-205-----0
  6
CONTINUOUS
  5
6B1
 10
285.691141
 20
488.883382
 30
0.0
 40
0.5
 50
89.999925
 51
179.999761
  0
ARC
  8
LC-005-205-----0
  6
CONTINUOUS
  5
6B2
 10
289.791146
 20
489.883376
 30
0.0
 40
0.5
 50
269.999925
 51
359.999761
  0
LINE
  8
LC-005-205-----0
  6
CONTINUOUS
  5
6B3
 10
289.791145
 20
489.383376
 30
0.0
 11
285.691142
 21
489.383382
 31
0.0
  0
LINE
  8
LC-005-205-----0
  6
CONTINUOUS
  5
6B4
 10
286.637553
 20
490.583385
 30
0.0
 11
290.291148
 21
490.583385
 31
0.0
  0
LINE
  8
LC-005-205-----0
  6
CONTINUOUS
  5
6B5
 10
290.291135
 20
480.583376
 30
0.0
 11
285.691117
 21
480.583376
 31
0.0
  0
LINE
  8
LC-001-002-----0
  6
CONTINUOUS
 62
     1
  5
6B6
 10
224.405894
 20
505.422102
 30
0.0
 11
229.965385
 21
505.227961
 31
0.0
  0
LINE
  8
LC-001-002-----0
  6
CONTINUOUS
 62
     1
  5
6B7
 10
230.165263
 20
505.220981
 30
0.0
 11
227.616817
 21
505.309975
 31
0.0
  0
LINE
  8
LC-001-002-----0
  6
CONTINUOUS
 62
     1
  5
6B8
 10
230.035397
 20
507.232829
 30
0.0
 11
229.965385
 21
505.227961
 31
0.0
  0
ARC
  8
LC-005-205-----0
  6
CONTINUOUS
  5
6B9
 10
167.291
 20
483.083459
 30
0.0
 40
2.5
 50
270.0
 51
0.000164
  0
ARC
  8
LC-005-205-----0
  6
CONTINUOUS
  5
6BA
 10
167.291003
 20
482.283459
 30
0.0
 40
0.5
 50
270.0
 51
0.000164
  0
ARC
  8
LC-005-205-----0
  6
CONTINUOUS
  5
6BB
 10
166.990835
 20
480.083459
 30
0.0
 40
0.5
 50
90.0
 51
179.999963
  0
LINE
  8
LC-005-205-----0
  6
CONTINUOUS
  5
6BC
 10
166.990835
 20
480.583459
 30
0.0
 11
167.291
 21
480.583459
 31
0.0
  0
LINE
  8
LC-005-205-----0
  6
CONTINUOUS
  5
6BD
 10
163.190979
 20
481.783459
 30
0.0
 11
167.291003
 21
481.783459
 31
0.0
  0
ARC
  8
LC-005-205-----0
  6
CONTINUOUS
  5
6BE
 10
167.290984
 20
488.883459
 30
0.0
 40
0.5
 50
0.000164
 51
90.0
  0
LINE
  8
LC-005-205-----0
  6
CONTINUOUS
  5
6BF
 10
163.190981
 20
489.383459
 30
0.0
 11
167.290984
 21
489.383459
 31
0.0
  0
LINE
  8
LC-003-005-----0
  6
CONTINUOUS
  5
6C0
 10
337.657803
 20
426.017521
 30
0.0
 11
336.054452
 21
427.620871
 31
0.0
  0
LINE
  8
LC-003-005-----0
  6
CONTINUOUS
  5
6C1
 10
162.312061
 20
488.226178
 30
0.0
 11
159.95478
 21
490.583459
 31
0.0
  0
LINE
  8
LC-001-002-----0
  6
CONTINUOUS
 62
     1
  5
6C2
 10
304.147592
 20
496.478476
 30
0.0
 11
304.347592
 21
496.478476
 31
0.0
  0
ARC
  8
LC-005-205-----0
  6
CONTINUOUS
  5
6C3
 10
163.190979
 20
481.283459
 30
0.0
 40
0.5
 50
90.0
 51
180.0
  0
ARC
  8
LC-005-205-----0
  6
CONTINUOUS
  5
6C4
 10
163.190981
 20
489.883459
 30
0.0
 40
0.5
 50
180.000164
 51
270.0
  0
LINE
  8
LC-005-205-----0
  6
CONTINUOUS
  5
6C5
 10
165.490803
 20
430.553997
 30
0.0
 11
165.490835
 21
480.083459
 31
0.0
  0
ARC
  8
LC-005-205-----0
  6
CONTINUOUS
  5
6C6
 10
164.990835
 20
480.083459
 30
0.0
 40
0.5
 50
359.999963
 51
85.018931
  0
LINE
  8
LC-005-205-----0
  6
CONTINUOUS
  5
6C7
 10
162.690979
 20
480.583459
 30
0.0
 11
164.990835
 21
480.583459
 31
0.0
  0
LINE
  8
LC-005-205-----0
  6
CONTINUOUS
  5
6C8
 10
162.690979
 20
480.583459
 30
0.0
 11
162.690979
 21
481.283459
 31
0.0
  0
LINE
  8
LC-005-205-----0
  6
CONTINUOUS
  5
6C9
 10
162.690981
 20
489.883458
 30
0.0
 11
162.690979
 21
490.578191
 31
0.0
  0
LINE
  8
LC-001-002-----0
  6
CONTINUOUS
 62
     1
  5
6CA
 10
219.529675
 20
479.743377
 30
0.0
 11
214.33164
 21
430.553997
 31
0.0
  0
LINE
  8
LC-005-205-----0
  6
CONTINUOUS
  5
6CB
 10
290.291135
 20
480.583376
 30
0.0
 11
290.291136
 21
481.283376
 31
0.0
  0
LINE
  8
LC-001-002-----0
  6
CONTINUOUS
 62
     1
  5
6CC
 10
219.529675
 20
479.743377
 30
0.0
 11
221.993143
 21
479.743377
 31
0.0
  0
LINE
  8
LC-001-002-----0
  6
CONTINUOUS
 62
     1
  5
6CD
 10
285.691117
 20
480.583376
 30
0.0
 11
225.630488
 21
480.583376
 31
0.0
  0
LINE
  8
LC-003-005-----0
  6
CONTINUOUS
  5
6CE
 10
139.741771
 20
510.796468
 30
0.0
 11
137.741771
 21
512.796468
 31
0.0
  0
LINE
  8
LC-003-005-----0
  6
CONTINUOUS
  5
6CF
 10
134.643152
 20
515.895086
 30
0.0
 11
130.288974
 21
520.249265
 31
0.0
  0
LINE
  8
LC-003-005-----0
  6
CONTINUOUS
  5
6D0
 10
335.790798
 20
427.884525
 30
0.0
 11
333.090947
 21
430.584376
 31
0.0
  0
LINE
  8
LC-003-005-----0
  6
CONTINUOUS
  5
6D1
 10
161.076639
 20
486.633173
 30
0.0
 11
157.126352
 21
490.583459
 31
0.0
  0
LINE
  8
LC-003-005-----0
  6
CONTINUOUS
  5
6D2
 10
139.741771
 20
507.968041
 30
0.0
 11
136.526044
 21
511.183768
 31
0.0
  0
LINE
  8
LC-003-005-----0
  6
CONTINUOUS
  5
6D3
 10
134.643152
 20
513.066659
 30
0.0
 11
132.241064
 21
515.468748
 31
0.0
  0
LINE
  8
LC-003-005-----0
  6
CONTINUOUS
  5
6D4
 10
130.493999
 20
517.215812
 30
0.0
 11
127.2389
 21
520.470912
 31
0.0
  0
LINE
  8
LC-003-005-----0
  6
CONTINUOUS
  5
6D5
 10
332.961821
 20
427.885075
 30
0.0
 11
330.26252
 21
430.584376
 31
0.0
  0
LINE
  8
LC-001-002-----0
  6
CONTINUOUS
 62
     1
  5
6D6
 10
225.630488
 20
480.583376
 30
0.0
 11
221.993143
 21
480.583376
 31
0.0
  0
LINE
  8
LC-001-002-----0
  6
CONTINUOUS
 62
     1
  5
6D7
 10
212.320504
 20
430.553997
 30
0.0
 11
212.320504
 21
483.083466
 31
0.0
  0
LINE
  8
LC-005-205-----0
  6
CONTINUOUS
  5
6D8
 10
169.790979
 20
490.583459
 30
0.0
 11
218.664053
 21
490.583459
 31
0.0
  0
LINE
  8
LC-005-205-----0
  6
CONTINUOUS
  5
6D9
 10
162.690979
 20
490.583459
 30
0.0
 11
169.790979
 21
490.583459
 31
0.0
  0
LINE
  8
LC-001-002-----0
  6
CONTINUOUS
 62
     1
  5
6DA
 10
304.147592
 20
494.978476
 30
0.0
 11
304.347592
 21
494.978476
 31
0.0
  0
LINE
  8
LC-001-002-----0
  6
CONTINUOUS
 62
     1
  5
6DB
 10
304.147592
 20
492.978476
 30
0.0
 11
304.347592
 21
492.978476
 31
0.0
  0
LINE
  8
LC-001-002-----0
  6
CONTINUOUS
 62
     1
  5
6DC
 10
315.240357
 20
517.204282
 30
0.0
 11
313.740357
 21
517.204282
 31
0.0
  0
LINE
  8
LC-003-005-----0
  6
CONTINUOUS
  5
6DD
 10
342.233851
 20
475.169926
 30
0.0
 11
343.052184
 21
475.988259
 31
0.0
  0
LINE
  8
LC-003-005-----0
  6
CONTINUOUS
  5
6DE
 10
339.405424
 20
475.169926
 30
0.0
 11
341.723779
 21
477.488281
 31
0.0
  0
LINE
  8
LC-003-005-----0
  6
CONTINUOUS
  5
6DF
 10
336.576997
 20
475.169926
 30
0.0
 11
339.969034
 21
478.561963
 31
0.0
  0
LINE
  8
LC-003-005-----0
  6
CONTINUOUS
  5
6E0
 10
333.74857
 20
475.169926
 30
0.0
 11
338.106897
 21
479.528254
 31
0.0
  0
LINE
  8
LC-003-005-----0
  6
CONTINUOUS
  5
6E1
 10
330.920143
 20
475.169926
 30
0.0
 11
333.619572
 21
477.869355
 31
0.0
  0
LINE
  8
LC-003-005-----0
  6
CONTINUOUS
  5
6E2
 10
336.054452
 20
480.304236
 30
0.0
 11
336.12981
 21
480.379593
 31
0.0
  0
LINE
  8
LC-003-005-----0
  6
CONTINUOUS
  5
6E3
 10
328.091716
 20
475.169926
 30
0.0
 11
331.55591
 21
478.634121
 31
0.0
  0
LINE
  8
LC-003-005-----0
  6
CONTINUOUS
  5
6E4
 10
375.884982
 20
522.963193
 30
0.0
 11
377.491064
 21
524.569274
 31
0.0
  0
LINE
  8
LC-003-005-----0
  6
CONTINUOUS
  5
6E5
 10
325.263288
 20
475.169926
 30
0.0
 11
331.55591
 21
481.462548
 31
0.0
  0
LINE
  8
LC-003-005-----0
  6
CONTINUOUS
  5
6E6
 10
372.845902
 20
522.75254
 30
0.0
 11
376.077068
 21
525.983705
 31
0.0
  0
LINE
  8
LC-003-005-----0
  6
CONTINUOUS
  5
6E7
 10
322.434861
 20
475.169926
 30
0.0
 11
329.380307
 21
482.115372
 31
0.0
  0
LINE
  8
LC-003-005-----0
  6
CONTINUOUS
  5
6E8
 10
369.806822
 20
522.541887
 30
0.0
 11
373.037988
 21
525.773052
 31
0.0
  0
LINE
  8
LC-003-005-----0
  6
CONTINUOUS
  5
6E9
 10
319.606434
 20
475.169926
 30
0.0
 11
326.783894
 21
482.347386
 31
0.0
  0
LINE
  8
LC-003-005-----0
  6
CONTINUOUS
  5
6EA
 10
366.767742
 20
522.331234
 30
0.0
 11
369.998908
 21
525.562399
 31
0.0
  0
LINE
  8
LC-003-005-----0
  6
CONTINUOUS
  5
6EB
 10
316.778007
 20
475.169926
 30
0.0
 11
323.946428
 21
482.338347
 31
0.0
  0
LINE
  8
LC-003-005-----0
  6
CONTINUOUS
  5
6EC
 10
363.728662
 20
522.120581
 30
0.0
 11
366.959828
 21
525.351746
 31
0.0
  0
LINE
  8
LC-003-005-----0
  6
CONTINUOUS
  5
6ED
 10
313.94958
 20
475.169926
 30
0.0
 11
320.784014
 21
482.00436
 31
0.0
  0
LINE
  8
LC-003-005-----0
  6
CONTINUOUS
  5
6EE
 10
360.689582
 20
521.909928
 30
0.0
 11
363.920747
 21
525.141094
 31
0.0
  0
LINE
  8
LC-003-005-----0
  6
CONTINUOUS
  5
6EF
 10
311.121153
 20
475.169926
 30
0.0
 11
317.127385
 21
481.176159
 31
0.0
  0
LINE
  8
LC-003-005-----0
  6
CONTINUOUS
  5
6F0
 10
357.650502
 20
521.699275
 30
0.0
 11
360.881667
 21
524.930441
 31
0.0
  0
LINE
  8
LC-003-005-----0
  6
CONTINUOUS
  5
6F1
 10
308.292726
 20
475.169926
 30
0.0
 11
312.502257
 21
479.379457
 31
0.0
  0
LINE
  8
LC-003-005-----0
  6
CONTINUOUS
  5
6F2
 10
354.611422
 20
521.488622
 30
0.0
 11
357.842587
 21
524.719788
 31
0.0
  0
LINE
  8
LC-003-005-----0
  6
CONTINUOUS
  5
6F3
 10
305.464299
 20
475.169926
 30
0.0
 11
308.163424
 21
477.869051
 31
0.0
  0
LINE
  8
LC-003-005-----0
  6
CONTINUOUS
  5
6F4
 10
351.572342
 20
521.277969
 30
0.0
 11
354.803507
 21
524.509135
 31
0.0
  0
LINE
  8
LC-003-005-----0
  6
CONTINUOUS
  5
6F5
 10
302.635871
 20
475.169926
 30
0.0
 11
305.334997
 21
477.869051
 31
0.0
  0
LINE
  8
LC-001-002-----0
  6
CONTINUOUS
 62
     1
  5
6F6
 10
144.464132
 20
435.679649
 30
0.0
 11
144.464132
 21
435.091245
 31
0.0
  0
LINE
  8
LC-001-002-----0
  6
CONTINUOUS
 62
     1
  5
6F7
 10
144.464132
 20
447.492394
 30
0.0
 11
144.464132
 21
440.002842
 31
0.0
  0
LINE
  8
LC-001-002-----0
  6
CONTINUOUS
 62
     1
  5
6F8
 10
90.964132
 20
447.492394
 30
0.0
 11
90.964132
 21
440.002842
 31
0.0
  0
LINE
  8
LC-001-002-----0
  6
CONTINUOUS
 62
     1
  5
6F9
 10
140.514132
 20
453.891245
 30
0.0
 11
144.464132
 21
453.891245
 31
0.0
  0
LINE
  8
LC-003-005-----0
  6
CONTINUOUS
  5
6FA
 10
139.451034
 20
431.891245
 30
0.0
 11
137.714132
 21
433.628147
 31
0.0
  0
LINE
  8
LC-003-005-----0
  6
CONTINUOUS
  5
6FB
 10
142.279461
 20
431.891245
 30
0.0
 11
140.079461
 21
434.091245
 31
0.0
  0
LINE
  8
LC-003-005-----0
  6
CONTINUOUS
  5
6FC
 10
145.107888
 20
431.891245
 30
0.0
 11
141.907888
 21
435.091245
 31
0.0
  0
LINE
  8
LC-003-005-----0
  6
CONTINUOUS
  5
6FD
 10
147.936315
 20
431.891245
 30
0.0
 11
144.736315
 21
435.091245
 31
0.0
  0
LINE
  8
LC-003-005-----0
  6
CONTINUOUS
  5
6FE
 10
150.764742
 20
431.891245
 30
0.0
 11
148.564742
 21
434.091245
 31
0.0
  0
LINE
  8
LC-003-005-----0
  6
CONTINUOUS
  5
6FF
 10
153.59317
 20
431.891245
 30
0.0
 11
151.39317
 21
434.091245
 31
0.0
  0
LINE
  8
LC-003-005-----0
  6
CONTINUOUS
  5
700
 10
156.421597
 20
431.891245
 30
0.0
 11
154.221597
 21
434.091245
 31
0.0
  0
LINE
  8
LC-003-005-----0
  6
CONTINUOUS
  5
701
 10
159.250024
 20
431.891245
 30
0.0
 11
157.050024
 21
434.091245
 31
0.0
  0
LINE
  8
LC-003-005-----0
  6
CONTINUOUS
  5
702
 10
162.078451
 20
431.891245
 30
0.0
 11
159.878451
 21
434.091245
 31
0.0
  0
LINE
  8
LC-003-005-----0
  6
CONTINUOUS
  5
703
 10
164.906878
 20
431.891245
 30
0.0
 11
161.717146
 21
435.080978
 31
0.0
  0
LINE
  8
LC-003-005-----0
  6
CONTINUOUS
  5
704
 10
164.991064
 20
434.635487
 30
0.0
 11
161.991064
 21
437.635487
 31
0.0
  0
LINE
  8
LC-003-005-----0
  6
CONTINUOUS
  5
705
 10
146.964132
 20
452.662418
 30
0.0
 11
145.735305
 21
453.891245
 31
0.0
  0
LINE
  8
LC-003-005-----0
  6
CONTINUOUS
  5
706
 10
146.964132
 20
449.833991
 30
0.0
 11
143.464132
 21
453.333991
 31
0.0
  0
LINE
  8
LC-003-005-----0
  6
CONTINUOUS
  5
707
 10
146.964132
 20
447.005564
 30
0.0
 11
144.664132
 21
449.305564
 31
0.0
  0
LINE
  8
LC-003-005-----0
  6
CONTINUOUS
  5
708
 10
146.964132
 20
444.177137
 30
0.0
 11
144.464132
 21
446.677137
 31
0.0
  0
LINE
  8
LC-003-005-----0
  6
CONTINUOUS
  5
709
 10
146.964132
 20
441.348709
 30
0.0
 11
144.464132
 21
443.848709
 31
0.0
  0
LINE
  8
LC-003-005-----0
  6
CONTINUOUS
  5
70A
 10
146.964132
 20
438.520282
 30
0.0
 11
144.464132
 21
441.020282
 31
0.0
  0
LINE
  8
LC-003-005-----0
  6
CONTINUOUS
  5
70B
 10
146.964132
 20
435.691855
 30
0.0
 11
145.441709
 21
437.214279
 31
0.0
  0
LINE
  8
LC-001-002-----0
  6
CONTINUOUS
 62
     1
  5
70C
 10
290.670058
 20
482.217259
 30
0.0
 11
290.670058
 21
480.387697
 31
0.0
  0
LINE
  8
LC-003-005-----0
  6
CONTINUOUS
  5
70D
 10
348.533262
 20
521.067316
 30
0.0
 11
351.764427
 21
524.298482
 31
0.0
  0
ARC
  8
LC-001-002-----0
  6
CONTINUOUS
 62
     1
  5
70E
 10
325.459023
 20
452.877151
 30
0.0
 40
29.6
 50
75.423528
 51
104.187628
  0
ARC
  8
LC-001-002-----0
  6
CONTINUOUS
 62
     1
  5
70F
 10
325.459023
 20
452.877151
 30
0.0
 40
29.6
 50
290.717092
 51
308.629598
  0
LINE
  8
LC-001-002-----0
  6
DASHDOT
  5
710
 10
424.959023
 20
452.877151
 30
0.0
 11
316.959023
 21
452.877151
 31
0.0
  0
LINE
  8
LC-003-005-----0
  6
CONTINUOUS
  5
711
 10
299.807444
 20
475.169926
 30
0.0
 11
302.506569
 21
477.869051
 31
0.0
  0
LINE
  8
LC-003-005-----0
  6
CONTINUOUS
  5
712
 10
345.494182
 20
520.856663
 30
0.0
 11
348.725347
 21
524.087829
 31
0.0
  0
LINE
  8
LC-003-005-----0
  6
CONTINUOUS
  5
713
 10
296.979017
 20
475.169926
 30
0.0
 11
299.678142
 21
477.869051
 31
0.0
  0
LINE
  8
LC-003-005-----0
  6
CONTINUOUS
  5
714
 10
341.311657
 20
519.502566
 30
0.0
 11
345.686267
 21
523.877176
 31
0.0
  0
LINE
  8
LC-003-005-----0
  6
CONTINUOUS
  5
715
 10
294.15059
 20
475.169926
 30
0.0
 11
296.849715
 21
477.869051
 31
0.0
  0
LINE
  8
LC-003-005-----0
  6
CONTINUOUS
  5
716
 10
306.559772
 20
487.579108
 30
0.0
 11
311.698363
 21
492.717699
 31
0.0
  0
LINE
  8
LC-001-002-----0
  6
CONTINUOUS
 62
     1
  5
717
 10
166.990835
 20
480.583459
 30
0.0
 11
212.320504
 21
480.583459
 31
0.0
  0
LINE
  8
LC-005-205-----0
  6
CONTINUOUS
  5
718
 10
165.490803
 20
430.553997
 30
0.0
 11
214.33164
 21
430.553997
 31
0.0
  0
LINE
  8
LC-005-205-----0
  6
CONTINUOUS
  5
719
 10
166.490795
 20
430.553997
 30
0.0
 11
166.490805
 21
444.88907
 31
0.0
  0
LINE
  8
LC-005-205-----0
  6
CONTINUOUS
  5
71A
 10
166.490812
 20
444.88907
 30
0.0
 11
166.490835
 21
480.083459
 31
0.0
  0
LINE
  8
LC-005-205-----0
  6
CONTINUOUS
  5
71B
 10
169.791
 20
483.083466
 30
0.0
 11
169.790979
 21
490.578191
 31
0.0
  0
LINE
  8
LC-005-205-----0
  6
CONTINUOUS
  5
71C
 10
167.791003
 20
482.283461
 30
0.0
 11
167.790984
 21
488.883461
 31
0.0
  0
LINE
  8
LC-001-002-----0
  6
CONTINUOUS
 62
     1
  5
71D
 10
169.791
 20
483.083466
 30
0.0
 11
212.320504
 21
483.083466
 31
0.0
  0
LINE
  8
LC-003-005-----0
  6
CONTINUOUS
  5
71E
 10
164.991064
 20
479.890321
 30
0.0
 11
164.493688
 21
480.387697
 31
0.0
  0
LINE
  8
LC-003-005-----0
  6
CONTINUOUS
  5
71F
 10
160.958731
 20
483.922653
 30
0.0
 11
154.297925
 21
490.583459
 31
0.0
  0
LINE
  8
LC-003-005-----0
  6
CONTINUOUS
  5
720
 10
148.634535
 20
496.246849
 30
0.0
 11
145.603735
 21
499.27765
 31
0.0
  0
LINE
  8
LC-003-005-----0
  6
CONTINUOUS
  5
721
 10
139.741771
 20
505.139614
 30
0.0
 11
137.452765
 21
507.42862
 31
0.0
  0
LINE
  8
LC-003-005-----0
  6
CONTINUOUS
  5
722
 10
136.765165
 20
508.11622
 30
0.0
 11
131.241064
 21
513.640321
 31
0.0
  0
LINE
  8
LC-003-005-----0
  6
CONTINUOUS
  5
723
 10
127.452919
 20
517.428465
 30
0.0
 11
124.188826
 21
520.692559
 31
0.0
  0
LINE
  8
LC-003-005-----0
  6
CONTINUOUS
  5
724
 10
331.55591
 20
426.462559
 30
0.0
 11
327.434093
 21
430.584376
 31
0.0
  0
LINE
  8
LC-003-005-----0
  6
CONTINUOUS
  5
725
 10
164.991064
 20
477.061894
 30
0.0
 11
158.991064
 21
483.061894
 31
0.0
  0
LINE
  8
LC-001-002-----0
  6
CONTINUOUS
 62
     1
  5
726
 10
424.959023
 20
421.377151
 30
0.0
 11
424.959023
 21
424.377151
 31
0.0
  0
LINE
  8
LC-003-005-----0
  6
CONTINUOUS
  5
727
 10
154.47385
 20
487.579108
 30
0.0
 11
151.469498
 21
490.583459
 31
0.0
  0
LINE
  8
LC-003-005-----0
  6
CONTINUOUS
  5
728
 10
149.046021
 20
493.006936
 30
0.0
 11
142.775308
 21
499.27765
 31
0.0
  0
LINE
  8
LC-003-005-----0
  6
CONTINUOUS
  5
729
 10
139.741771
 20
502.311187
 30
0.0
 11
137.491064
 21
504.561894
 31
0.0
  0
LINE
  8
LC-003-005-----0
  6
CONTINUOUS
  5
72A
 10
133.645698
 20
508.40726
 30
0.0
 11
132.493805
 21
509.559153
 31
0.0
  0
LINE
  8
LC-003-005-----0
  6
CONTINUOUS
  5
72B
 10
124.411839
 20
517.641118
 30
0.0
 11
121.138752
 21
520.914206
 31
0.0
  0
LINE
  8
LC-003-005-----0
  6
CONTINUOUS
  5
72C
 10
331.240759
 20
423.949284
 30
0.0
 11
324.605666
 21
430.584376
 31
0.0
  0
LINE
  8
LC-003-005-----0
  6
CONTINUOUS
  5
72D
 10
164.991064
 20
474.233467
 30
0.0
 11
161.991064
 21
477.233467
 31
0.0
  0
LINE
  8
LC-003-005-----0
  6
CONTINUOUS
  5
72E
 10
160.964212
 20
478.260318
 30
0.0
 11
159.172274
 21
480.052256
 31
0.0
  0
LINE
  8
LC-003-005-----0
  6
CONTINUOUS
  5
72F
 10
151.645422
 20
487.579108
 30
0.0
 11
137.491064
 21
501.733467
 31
0.0
  0
LINE
  8
LC-003-005-----0
  6
CONTINUOUS
  5
730
 10
121.370759
 20
517.853771
 30
0.0
 11
118.088678
 21
521.135853
 31
0.0
  0
LINE
  8
LC-003-005-----0
  6
CONTINUOUS
  5
731
 10
328.79521
 20
423.566405
 30
0.0
 11
321.777239
 21
430.584376
 31
0.0
  0
LINE
  8
LC-003-005-----0
  6
CONTINUOUS
  5
732
 10
164.991064
 20
471.405039
 30
0.0
 11
161.991064
 21
474.405039
 31
0.0
  0
LINE
  8
LC-003-005-----0
  6
CONTINUOUS
  5
733
 10
148.816995
 20
487.579108
 30
0.0
 11
139.195991
 21
497.200112
 31
0.0
  0
LINE
  8
LC-003-005-----0
  6
CONTINUOUS
  5
734
 10
118.329679
 20
518.066424
 30
0.0
 11
114.802352
 21
521.593751
 31
0.0
  0
LINE
  8
LC-003-005-----0
  6
CONTINUOUS
  5
735
 10
326.14799
 20
423.385198
 30
0.0
 11
318.948812
 21
430.584376
 31
0.0
  0
LINE
  8
LC-003-005-----0
  6
CONTINUOUS
  5
736
 10
164.991064
 20
468.576612
 30
0.0
 11
161.991064
 21
471.576612
 31
0.0
  0
LINE
  8
LC-003-005-----0
  6
CONTINUOUS
  5
737
 10
145.988568
 20
487.579108
 30
0.0
 11
141.661963
 21
491.905713
 31
0.0
  0
LINE
  8
LC-003-005-----0
  6
CONTINUOUS
  5
738
 10
115.212528
 20
518.355148
 30
0.0
 11
110.090311
 21
523.477365
 31
0.0
  0
LINE
  8
LC-003-005-----0
  6
CONTINUOUS
  5
739
 10
270.991064
 20
478.542124
 30
0.0
 11
269.145491
 21
480.387697
 31
0.0
  0
LINE
  8
LC-003-005-----0
  6
CONTINUOUS
  5
73A
 10
164.991064
 20
465.748185
 30
0.0
 11
161.991064
 21
468.748185
 31
0.0
  0
LINE
  8
LC-003-005-----0
  6
CONTINUOUS
  5
73B
 10
111.028829
 20
519.71042
 30
0.0
 11
106.829766
 21
523.909483
 31
0.0
  0
LINE
  8
LC-003-005-----0
  6
CONTINUOUS
  5
73C
 10
323.244361
 20
423.4604
 30
0.0
 11
316.120385
 21
430.584376
 31
0.0
  0
LINE
  8
LC-003-005-----0
  6
CONTINUOUS
  5
73D
 10
164.991064
 20
462.919758
 30
0.0
 11
161.991064
 21
465.919758
 31
0.0
  0
LINE
  8
LC-003-005-----0
  6
CONTINUOUS
  5
73E
 10
107.021851
 20
520.888971
 30
0.0
 11
103.790686
 21
524.120136
 31
0.0
  0
LINE
  8
LC-003-005-----0
  6
CONTINUOUS
  5
73F
 10
270.991064
 20
475.713697
 30
0.0
 11
268.991064
 21
477.713697
 31
0.0
  0
LINE
  8
LC-003-005-----0
  6
CONTINUOUS
  5
740
 10
164.991064
 20
460.091331
 30
0.0
 11
161.991064
 21
463.091331
 31
0.0
  0
LINE
  8
LC-003-005-----0
  6
CONTINUOUS
  5
741
 10
103.982771
 20
521.099624
 30
0.0
 11
100.751606
 21
524.330789
 31
0.0
  0
LINE
  8
LC-003-005-----0
  6
CONTINUOUS
  5
742
 10
319.987285
 20
423.889049
 30
0.0
 11
313.291957
 21
430.584376
 31
0.0
  0
LINE
  8
LC-003-005-----0
  6
CONTINUOUS
  5
743
 10
164.991064
 20
457.262904
 30
0.0
 11
161.991064
 21
460.262904
 31
0.0
  0
LINE
  8
LC-003-005-----0
  6
CONTINUOUS
  5
744
 10
100.943691
 20
521.310277
 30
0.0
 11
97.712526
 21
524.541442
 31
0.0
  0
LINE
  8
LC-003-005-----0
  6
CONTINUOUS
  5
745
 10
270.991064
 20
472.88527
 30
0.0
 11
268.991064
 21
474.88527
 31
0.0
  0
LINE
  8
LC-003-005-----0
  6
CONTINUOUS
  5
746
 10
164.991064
 20
454.434477
 30
0.0
 11
161.991064
 21
457.434477
 31
0.0
  0
LINE
  8
LC-003-005-----0
  6
CONTINUOUS
  5
747
 10
97.904611
 20
521.520929
 30
0.0
 11
94.673445
 21
524.752095
 31
0.0
  0
LINE
  8
LC-003-005-----0
  6
CONTINUOUS
  5
748
 10
316.17017
 20
424.877737
 30
0.0
 11
310.46353
 21
430.584376
 31
0.0
  0
LINE
  8
LC-003-005-----0
  6
CONTINUOUS
  5
749
 10
164.991064
 20
451.60605
 30
0.0
 11
161.991064
 21
454.60605
 31
0.0
  0
LINE
  8
LC-003-005-----0
  6
CONTINUOUS
  5
74A
 10
94.865531
 20
521.731582
 30
0.0
 11
91.634365
 21
524.962748
 31
0.0
  0
LINE
  8
LC-003-005-----0
  6
CONTINUOUS
  5
74B
 10
270.991064
 20
470.056843
 30
0.0
 11
268.991064
 21
472.056843
 31
0.0
  0
LINE
  8
LC-003-005-----0
  6
CONTINUOUS
  5
74C
 10
164.991064
 20
448.777622
 30
0.0
 11
161.991064
 21
451.777622
 31
0.0
  0
LINE
  8
LC-003-005-----0
  6
CONTINUOUS
  5
74D
 10
91.826451
 20
521.942235
 30
0.0
 11
88.595285
 21
525.173401
 31
0.0
  0
LINE
  8
LC-003-005-----0
  6
CONTINUOUS
  5
74E
 10
311.126731
 20
427.092749
 30
0.0
 11
307.635103
 21
430.584376
 31
0.0
  0
LINE
  8
LC-003-005-----0
  6
CONTINUOUS
  5
74F
 10
164.991064
 20
445.949195
 30
0.0
 11
161.991064
 21
448.949195
 31
0.0
  0
LINE
  8
LC-003-005-----0
  6
CONTINUOUS
  5
750
 10
88.787371
 20
522.152888
 30
0.0
 11
85.556205
 21
525.384054
 31
0.0
  0
LINE
  8
LC-003-005-----0
  6
CONTINUOUS
  5
751
 10
270.991064
 20
467.228416
 30
0.0
 11
268.991064
 21
469.228416
 31
0.0
  0
LINE
  8
LC-003-005-----0
  6
CONTINUOUS
  5
752
 10
164.991064
 20
443.120768
 30
0.0
 11
161.991064
 21
446.120768
 31
0.0
  0
LINE
  8
LC-003-005-----0
  6
CONTINUOUS
  5
753
 10
85.748291
 20
522.363541
 30
0.0
 11
82.517125
 21
525.594707
 31
0.0
  0
LINE
  8
LC-003-005-----0
  6
CONTINUOUS
  5
754
 10
307.505801
 20
427.885251
 30
0.0
 11
304.806676
 21
430.584376
 31
0.0
  0
LINE
  8
LC-003-005-----0
  6
CONTINUOUS
  5
755
 10
164.991064
 20
440.292341
 30
0.0
 11
161.991064
 21
443.292341
 31
0.0
  0
LINE
  8
LC-003-005-----0
  6
CONTINUOUS
  5
756
 10
82.709211
 20
522.574194
 30
0.0
 11
79.478045
 21
525.80536
 31
0.0
  0
LINE
  8
LC-003-005-----0
  6
CONTINUOUS
  5
757
 10
164.991064
 20
437.463914
 30
0.0
 11
161.991064
 21
440.463914
 31
0.0
  0
LINE
  8
LC-003-005-----0
  6
CONTINUOUS
  5
758
 10
79.67013
 20
522.784847
 30
0.0
 11
76.438965
 21
526.016013
 31
0.0
  0
LINE
  8
LC-003-005-----0
  6
CONTINUOUS
  5
759
 10
164.991064
 20
434.635487
 30
0.0
 11
161.991064
 21
437.635487
 31
0.0
  0
LINE
  8
LC-003-005-----0
  6
CONTINUOUS
  5
75A
 10
76.63105
 20
522.9955
 30
0.0
 11
75.491064
 21
524.135487
 31
0.0
  0
LINE
  8
LC-003-005-----0
  6
CONTINUOUS
  5
75B
 10
164.906878
 20
431.891245
 30
0.0
 11
161.717146
 21
435.080978
 31
0.0
  0
LINE
  8
LC-003-005-----0
  6
CONTINUOUS
  5
75C
 10
162.078451
 20
431.891245
 30
0.0
 11
159.878451
 21
434.091245
 31
0.0
  0
LINE
  8
LC-003-005-----0
  6
CONTINUOUS
  5
75D
 10
159.250024
 20
431.891245
 30
0.0
 11
157.050024
 21
434.091245
 31
0.0
  0
LINE
  8
LC-001-002-----0
  6
DASHED
  5
75E
 10
372.303936
 20
411.337362
 30
0.0
 11
334.149866
 21
421.560714
 31
0.0
  0
LINE
  8
LC-003-005-----0
  6
CONTINUOUS
  5
75F
 10
156.421597
 20
431.891245
 30
0.0
 11
154.221597
 21
434.091245
 31
0.0
  0
LINE
  8
LC-003-005-----0
  6
CONTINUOUS
  5
760
 10
270.991064
 20
464.399989
 30
0.0
 11
268.991064
 21
466.399989
 31
0.0
  0
LINE
  8
LC-003-005-----0
  6
CONTINUOUS
  5
761
 10
304.677374
 20
427.885251
 30
0.0
 11
301.978249
 21
430.584376
 31
0.0
  0
LINE
  8
LC-003-005-----0
  6
CONTINUOUS
  5
762
 10
270.991064
 20
461.571562
 30
0.0
 11
268.991064
 21
463.571562
 31
0.0
  0
LINE
  8
LC-003-005-----0
  6
CONTINUOUS
  5
763
 10
301.848947
 20
427.885251
 30
0.0
 11
299.149822
 21
430.584376
 31
0.0
  0
LINE
  8
LC-003-005-----0
  6
CONTINUOUS
  5
764
 10
270.991064
 20
458.743135
 30
0.0
 11
268.991064
 21
460.743135
 31
0.0
  0
LINE
  8
LC-003-005-----0
  6
CONTINUOUS
  5
765
 10
299.02052
 20
427.885251
 30
0.0
 11
296.321395
 21
430.584376
 31
0.0
  0
LINE
  8
LC-003-005-----0
  6
CONTINUOUS
  5
766
 10
270.991064
 20
455.914707
 30
0.0
 11
268.991064
 21
457.914707
 31
0.0
  0
LINE
  8
LC-003-005-----0
  6
CONTINUOUS
  5
767
 10
296.192093
 20
427.885251
 30
0.0
 11
293.492968
 21
430.584376
 31
0.0
  0
ARC
  8
LC-006-002-RND-0
  6
CONTINUOUS
 62
     1
  5
768
 10
384.459023
 20
486.877151
 30
0.0
 40
0.5
 50
0.0
 51
90.0
  0
ARC
  8
LC-006-002-RND-0
  6
CONTINUOUS
 62
     1
  5
769
 10
381.459023
 20
424.377151
 30
0.0
 40
0.5
 50
0.0
 51
90.0
  0
LINE
  8
LC-001-002-----0
  6
CONTINUOUS
 62
     1
  5
76A
 10
382.459023
 20
487.377151
 30
0.0
 11
384.459023
 21
487.377151
 31
0.0
  0
ARC
  8
LC-006-002-RND-0
  6
CONTINUOUS
 62
     1
  5
76B
 10
381.459023
 20
481.377151
 30
0.0
 40
0.5
 50
270.0
 51
0.0
  0
ARC
  8
LC-006-002-RND-0
  6
CONTINUOUS
 62
     1
  5
76C
 10
382.459023
 20
421.877151
 30
0.0
 40
0.5
 50
180.0
 51
270.0
  0
ARC
  8
LC-006-002-RND-0
  6
CONTINUOUS
 62
     1
  5
76D
 10
385.459023
 20
425.195701
 30
0.0
 40
0.5
 50
180.0
 51
269.5
  0
LINE
  8
LC-001-002-----0
  6
CONTINUOUS
 62
     1
  5
76E
 10
385.454659
 20
481.058582
 30
0.0
 11
424.959023
 21
481.377151
 31
0.0
  0
LINE
  8
LC-003-005-----0
  6
CONTINUOUS
  5
76F
 10
270.991064
 20
453.08628
 30
0.0
 11
268.991064
 21
455.08628
 31
0.0
  0
LINE
  8
LC-001-002-----0
  6
DASHED
  5
770
 10
372.010441
 20
408.310175
 30
0.0
 11
372.657489
 21
410.724989
 31
0.0
  0
LINE
  8
LC-001-002-----0
  6
CONTINUOUS
 62
     1
  5
771
 10
384.959023
 20
427.877151
 30
0.0
 11
384.959023
 21
452.877151
 31
0.0
  0
LINE
  8
LC-001-002-----0
  6
CONTINUOUS
 62
     1
  5
772
 10
384.959023
 20
477.877151
 30
0.0
 11
384.959023
 21
452.877151
 31
0.0
  0
LINE
  8
LC-001-002-----0
  6
CONTINUOUS
 62
     1
  5
773
 10
346.938023
 20
429.753688
 30
0.0
 11
346.938023
 21
476.000615
 31
0.0
  0
ARC
  8
LC-006-002-RND-0
  6
CONTINUOUS
 62
     1
  5
774
 10
385.459023
 20
480.558602
 30
0.0
 40
0.5
 50
90.5
 51
180.0
  0
LINE
  8
LC-001-002-----0
  6
CONTINUOUS
 62
     1
  5
775
 10
424.959023
 20
482.377151
 30
0.0
 11
424.959023
 21
481.377151
 31
0.0
  0
LINE
  8
LC-001-002-----0
  6
CONTINUOUS
 62
     1
  5
776
 10
347.929296
 20
428.200121
 30
0.0
 11
384.959023
 21
427.877151
 31
0.0
  0
LINE
  8
LC-001-002-----0
  6
CONTINUOUS
 62
     1
  5
777
 10
384.959023
 20
484.377151
 30
0.0
 11
424.959023
 21
484.377151
 31
0.0
  0
LINE
  8
LC-001-002-----0
  6
CONTINUOUS
 62
     1
  5
778
 10
385.454659
 20
424.69572
 30
0.0
 11
424.959023
 21
424.377151
 31
0.0
  0
LINE
  8
LC-001-002-----0
  6
CONTINUOUS
 62
     1
  5
779
 10
347.929296
 20
477.554181
 30
0.0
 11
384.959023
 21
477.877151
 31
0.0
  0
ARC
  8
LC-006-002-RND-0
  6
CONTINUOUS
 62
     1
  5
77A
 10
382.459023
 20
486.877151
 30
0.0
 40
0.5
 50
90.0
 51
180.0
  0
ARC
  8
LC-006-002-RND-0
  6
CONTINUOUS
 62
     1
  5
77B
 10
317.959023
 20
423.210503
 30
0.0
 40
1.0
 50
75.812372
 51
180.0
  0
LINE
  8
LC-001-002-----0
  6
CONTINUOUS
 62
     1
  5
77C
 10
341.959023
 20
480.877151
 30
0.0
 11
381.459023
 21
480.877151
 31
0.0
  0
LINE
  8
LC-001-002-----0
  6
CONTINUOUS
 62
     1
  5
77D
 10
343.415169
 20
480.877151
 30
0.0
 11
341.959023
 21
480.877151
 31
0.0
  0
LINE
  8
LC-001-002-----0
  6
CONTINUOUS
 62
     1
  5
77E
 10
381.959023
 20
486.877151
 30
0.0
 11
381.959023
 21
481.377151
 31
0.0
  0
ARC
  8
LC-006-002-RND-0
  6
CONTINUOUS
 62
     1
  5
77F
 10
347.938023
 20
429.200083
 30
0.0
 40
1.0
 50
180.0
 51
269.5
  0
LINE
  8
LC-001-002-----0
  6
CONTINUOUS
 62
     1
  5
780
 10
382.459023
 20
421.377151
 30
0.0
 11
424.959023
 21
421.377151
 31
0.0
  0
LINE
  8
LC-001-002-----0
  6
CONTINUOUS
 62
     1
  5
781
 10
381.459023
 20
424.877151
 30
0.0
 11
341.959023
 21
424.877151
 31
0.0
  0
LINE
  8
LC-003-005-----0
  6
CONTINUOUS
  5
782
 10
293.363666
 20
427.885251
 30
0.0
 11
290.66454
 21
430.584376
 31
0.0
  0
LINE
  8
LC-001-002-----0
  6
CONTINUOUS
 62
     1
  5
783
 10
381.959023
 20
421.877151
 30
0.0
 11
381.959023
 21
424.377151
 31
0.0
  0
LINE
  8
LC-001-002-----0
  6
CONTINUOUS
 62
     1
  5
784
 10
384.959023
 20
480.558602
 30
0.0
 11
384.959023
 21
477.877151
 31
0.0
  0
LINE
  8
LC-001-002-----0
  6
CONTINUOUS
 62
     1
  5
785
 10
384.959023
 20
425.195701
 30
0.0
 11
384.959023
 21
427.877151
 31
0.0
  0
ARC
  8
LC-006-002-RND-0
  6
CONTINUOUS
 62
     1
  5
786
 10
347.938023
 20
476.554219
 30
0.0
 40
1.0
 50
90.5
 51
180.0
  0
ARC
  8
LC-001-002-----0
  6
CONTINUOUS
 62
     1
  5
787
 10
325.459023
 20
452.877151
 30
0.0
 40
32.5
 50
59.489763
 51
90.0
  0
LINE
  8
LC-003-005-----0
  6
CONTINUOUS
  5
788
 10
270.991064
 20
450.257853
 30
0.0
 11
268.991064
 21
452.257853
 31
0.0
  0
LINE
  8
LC-001-002-----0
  6
CONTINUOUS
 62
     1
  5
789
 10
316.959023
 20
420.377151
 30
0.0
 11
316.959023
 21
423.210503
 31
0.0
  0
LINE
  8
LC-001-002-----0
  6
CONTINUOUS
 62
     1
  5
78A
 10
325.459023
 20
485.377151
 30
0.0
 11
316.959023
 21
485.377151
 31
0.0
  0
LINE
  8
LC-003-005-----0
  6
CONTINUOUS
  5
78B
 10
291.367423
 20
427.053066
 30
0.0
 11
287.831799
 21
430.58869
 31
0.0
  0
LINE
  8
LC-003-005-----0
  6
CONTINUOUS
  5
78C
 10
270.991064
 20
447.429426
 30
0.0
 11
268.991064
 21
449.429426
 31
0.0
  0
LINE
  8
LC-003-005-----0
  6
CONTINUOUS
  5
78D
 10
290.991064
 20
424.600999
 30
0.0
 11
284.912973
 21
430.67909
 31
0.0
  0
LINE
  8
LC-003-005-----0
  6
CONTINUOUS
  5
78E
 10
270.991064
 20
444.600999
 30
0.0
 11
268.991064
 21
446.600999
 31
0.0
  0
LINE
  8
LC-003-005-----0
  6
CONTINUOUS
  5
78F
 10
290.991064
 20
421.772572
 30
0.0
 11
287.991064
 21
424.772572
 31
0.0
  0
LINE
  8
LC-003-005-----0
  6
CONTINUOUS
  5
790
 10
284.575424
 20
428.188211
 30
0.0
 11
281.994147
 21
430.769489
 31
0.0
  0
LINE
  8
LC-003-005-----0
  6
CONTINUOUS
  5
791
 10
270.991064
 20
441.772572
 30
0.0
 11
268.991064
 21
443.772572
 31
0.0
  0
LINE
  8
LC-003-005-----0
  6
CONTINUOUS
  5
792
 10
290.991064
 20
418.944145
 30
0.0
 11
287.991064
 21
421.944145
 31
0.0
  0
LINE
  8
LC-003-005-----0
  6
CONTINUOUS
  5
793
 10
281.656598
 20
428.27861
 30
0.0
 11
279.075321
 21
430.859888
 31
0.0
  0
LINE
  8
LC-003-005-----0
  6
CONTINUOUS
  5
794
 10
270.991064
 20
438.944145
 30
0.0
 11
268.991064
 21
440.944145
 31
0.0
  0
LINE
  8
LC-003-005-----0
  6
CONTINUOUS
  5
795
 10
290.991064
 20
416.115718
 30
0.0
 11
287.991064
 21
419.115718
 31
0.0
  0
LINE
  8
LC-003-005-----0
  6
CONTINUOUS
  5
796
 10
278.737772
 20
428.369009
 30
0.0
 11
276.156494
 21
430.950287
 31
0.0
  0
LINE
  8
LC-003-005-----0
  6
CONTINUOUS
  5
797
 10
270.991064
 20
436.115718
 30
0.0
 11
268.991064
 21
438.115718
 31
0.0
  0
LINE
  8
LC-003-005-----0
  6
CONTINUOUS
  5
798
 10
290.991064
 20
413.28729
 30
0.0
 11
287.991064
 21
416.28729
 31
0.0
  0
LINE
  8
LC-003-005-----0
  6
CONTINUOUS
  5
799
 10
275.818946
 20
428.459408
 30
0.0
 11
273.237668
 21
431.040686
 31
0.0
  0
LINE
  8
LC-003-005-----0
  6
CONTINUOUS
  5
79A
 10
270.991064
 20
433.28729
 30
0.0
 11
268.991064
 21
435.28729
 31
0.0
  0
LINE
  8
LC-003-005-----0
  6
CONTINUOUS
  5
79B
 10
290.056536
 20
411.393391
 30
0.0
 11
287.991064
 21
413.458863
 31
0.0
  0
LINE
  8
LC-003-005-----0
  6
CONTINUOUS
  5
79C
 10
272.90012
 20
428.549807
 30
0.0
 11
268.991064
 21
432.458863
 31
0.0
  0
LINE
  8
LC-003-005-----0
  6
CONTINUOUS
  5
79D
 10
270.991064
 20
427.630436
 30
0.0
 11
268.991064
 21
429.630436
 31
0.0
  0
LINE
  8
LC-003-005-----0
  6
CONTINUOUS
  5
79E
 10
270.991064
 20
424.802009
 30
0.0
 11
268.991064
 21
426.802009
 31
0.0
  0
LINE
  8
LC-003-005-----0
  6
CONTINUOUS
  5
79F
 10
270.991064
 20
421.973582
 30
0.0
 11
268.991064
 21
423.973582
 31
0.0
  0
LINE
  8
LC-003-005-----0
  6
CONTINUOUS
  5
7A0
 10
270.991064
 20
419.145155
 30
0.0
 11
268.991064
 21
421.145155
 31
0.0
  0
LINE
  8
LC-003-005-----0
  6
CONTINUOUS
  5
7A1
 10
270.991064
 20
416.316728
 30
0.0
 11
268.991064
 21
418.316728
 31
0.0
  0
LINE
  8
LC-003-005-----0
  6
CONTINUOUS
  5
7A2
 10
270.991064
 20
413.488301
 30
0.0
 11
268.991064
 21
415.488301
 31
0.0
  0
LINE
  8
LC-001-002-----0
  6
CONTINUOUS
 62
     1
  5
7A3
 10
325.459023
 20
420.377151
 30
0.0
 11
316.959023
 21
420.377151
 31
0.0
  0
LINE
  8
LC-003-005-----0
  6
CONTINUOUS
  5
7A4
 10
270.259692
 20
411.391245
 30
0.0
 11
267.259692
 21
414.391245
 31
0.0
  0
LINE
  8
LC-003-005-----0
  6
CONTINUOUS
  5
7A5
 10
267.431265
 20
411.391245
 30
0.0
 11
264.431265
 21
414.391245
 31
0.0
  0
LINE
  8
LC-003-005-----0
  6
CONTINUOUS
  5
7A6
 10
264.602838
 20
411.391245
 30
0.0
 11
261.602838
 21
414.391245
 31
0.0
  0
LINE
  8
LC-003-005-----0
  6
CONTINUOUS
  5
7A7
 10
261.77441
 20
411.391245
 30
0.0
 11
258.77441
 21
414.391245
 31
0.0
  0
LINE
  8
LC-003-005-----0
  6
CONTINUOUS
  5
7A8
 10
258.945983
 20
411.391245
 30
0.0
 11
255.945983
 21
414.391245
 31
0.0
  0
LINE
  8
LC-003-005-----0
  6
CONTINUOUS
  5
7A9
 10
256.117556
 20
411.391245
 30
0.0
 11
253.117556
 21
414.391245
 31
0.0
  0
LINE
  8
LC-003-005-----0
  6
CONTINUOUS
  5
7AA
 10
253.289129
 20
411.391245
 30
0.0
 11
250.289129
 21
414.391245
 31
0.0
  0
LINE
  8
LC-003-005-----0
  6
CONTINUOUS
  5
7AB
 10
250.460702
 20
411.391245
 30
0.0
 11
247.460702
 21
414.391245
 31
0.0
  0
LINE
  8
LC-003-005-----0
  6
CONTINUOUS
  5
7AC
 10
247.632275
 20
411.391245
 30
0.0
 11
244.632275
 21
414.391245
 31
0.0
  0
LINE
  8
LC-003-005-----0
  6
CONTINUOUS
  5
7AD
 10
244.803848
 20
411.391245
 30
0.0
 11
241.803848
 21
414.391245
 31
0.0
  0
LINE
  8
LC-003-005-----0
  6
CONTINUOUS
  5
7AE
 10
241.975421
 20
411.391245
 30
0.0
 11
238.975421
 21
414.391245
 31
0.0
  0
LINE
  8
LC-003-005-----0
  6
CONTINUOUS
  5
7AF
 10
239.146993
 20
411.391245
 30
0.0
 11
236.146993
 21
414.391245
 31
0.0
  0
LINE
  8
LC-003-005-----0
  6
CONTINUOUS
  5
7B0
 10
236.318566
 20
411.391245
 30
0.0
 11
233.318566
 21
414.391245
 31
0.0
  0
LINE
  8
LC-003-005-----0
  6
CONTINUOUS
  5
7B1
 10
233.490139
 20
411.391245
 30
0.0
 11
230.490139
 21
414.391245
 31
0.0
  0
LINE
  8
LC-003-005-----0
  6
CONTINUOUS
  5
7B2
 10
230.661712
 20
411.391245
 30
0.0
 11
227.661712
 21
414.391245
 31
0.0
  0
LINE
  8
LC-003-005-----0
  6
CONTINUOUS
  5
7B3
 10
227.833285
 20
411.391245
 30
0.0
 11
224.833285
 21
414.391245
 31
0.0
  0
LINE
  8
LC-003-005-----0
  6
CONTINUOUS
  5
7B4
 10
225.004858
 20
411.391245
 30
0.0
 11
222.004858
 21
414.391245
 31
0.0
  0
LINE
  8
LC-003-005-----0
  6
CONTINUOUS
  5
7B5
 10
222.176431
 20
411.391245
 30
0.0
 11
219.176431
 21
414.391245
 31
0.0
  0
LINE
  8
LC-003-005-----0
  6
CONTINUOUS
  5
7B6
 10
219.348004
 20
411.391245
 30
0.0
 11
216.348004
 21
414.391245
 31
0.0
  0
LINE
  8
LC-003-005-----0
  6
CONTINUOUS
  5
7B7
 10
216.519576
 20
411.391245
 30
0.0
 11
213.519576
 21
414.391245
 31
0.0
  0
LINE
  8
LC-003-005-----0
  6
CONTINUOUS
  5
7B8
 10
213.691149
 20
411.391245
 30
0.0
 11
210.691149
 21
414.391245
 31
0.0
  0
ARC
  8
LC-006-002-RND-0
  6
DASHED
  5
7B9
 10
372.493404
 20
408.180765
 30
0.0
 40
0.5
 50
165.0
 51
255.0
  0
LINE
  8
LC-003-005-----0
  6
CONTINUOUS
  5
7BA
 10
210.862722
 20
411.391245
 30
0.0
 11
207.862722
 21
414.391245
 31
0.0
  0
LINE
  8
LC-001-002-----0
  6
DASHED
  5
7BB
 10
372.363995
 20
407.697802
 30
0.0
 11
413.415842
 21
396.697993
 31
0.0
  0
LINE
  8
LC-003-005-----0
  6
CONTINUOUS
  5
7BC
 10
208.034295
 20
411.391245
 30
0.0
 11
205.034295
 21
414.391245
 31
0.0
  0
ARC
  8
LC-006-002-RND-0
  6
DASHED
  5
7BD
 10
372.174526
 20
410.854399
 30
0.0
 40
0.5
 50
345.0
 51
75.0
  0
LINE
  8
LC-003-005-----0
  6
CONTINUOUS
  5
7BE
 10
205.205868
 20
411.391245
 30
0.0
 11
202.205868
 21
414.391245
 31
0.0
  0
LINE
  8
LC-001-002-----0
  6
DASHED
  5
7BF
 10
413.415842
 20
396.697993
 30
0.0
 11
414.1923
 21
399.59577
 31
0.0
  0
LINE
  8
LC-003-005-----0
  6
CONTINUOUS
  5
7C0
 10
202.377441
 20
411.391245
 30
0.0
 11
199.377441
 21
414.391245
 31
0.0
  0
LINE
  8
LC-001-002-----0
  6
DASHED
  5
7C1
 10
391.084409
 20
467.904082
 30
0.0
 11
429.721442
 21
457.55132
 31
0.0
  0
LINE
  8
LC-003-005-----0
  6
CONTINUOUS
  5
7C2
 10
199.549014
 20
411.391245
 30
0.0
 11
196.549014
 21
414.391245
 31
0.0
  0
LINE
  8
LC-003-005-----0
  6
CONTINUOUS
  5
7C3
 10
196.720587
 20
411.391245
 30
0.0
 11
193.720587
 21
414.391245
 31
0.0
  0
LINE
  8
LC-003-005-----0
  6
CONTINUOUS
  5
7C4
 10
193.892159
 20
411.391245
 30
0.0
 11
190.892159
 21
414.391245
 31
0.0
  0
LINE
  8
LC-003-005-----0
  6
CONTINUOUS
  5
7C5
 10
191.063732
 20
411.391245
 30
0.0
 11
188.063732
 21
414.391245
 31
0.0
  0
LINE
  8
LC-003-005-----0
  6
CONTINUOUS
  5
7C6
 10
188.235305
 20
411.391245
 30
0.0
 11
185.235305
 21
414.391245
 31
0.0
  0
LINE
  8
LC-003-005-----0
  6
CONTINUOUS
  5
7C7
 10
185.406878
 20
411.391245
 30
0.0
 11
182.406878
 21
414.391245
 31
0.0
  0
LINE
  8
LC-003-005-----0
  6
CONTINUOUS
  5
7C8
 10
182.578451
 20
411.391245
 30
0.0
 11
179.578451
 21
414.391245
 31
0.0
  0
LINE
  8
LC-003-005-----0
  6
CONTINUOUS
  5
7C9
 10
179.750024
 20
411.391245
 30
0.0
 11
176.750024
 21
414.391245
 31
0.0
  0
LINE
  8
LC-003-005-----0
  6
CONTINUOUS
  5
7CA
 10
176.921597
 20
411.391245
 30
0.0
 11
173.921597
 21
414.391245
 31
0.0
  0
LINE
  8
LC-003-005-----0
  6
CONTINUOUS
  5
7CB
 10
174.09317
 20
411.391245
 30
0.0
 11
171.09317
 21
414.391245
 31
0.0
  0
LINE
  8
LC-003-005-----0
  6
CONTINUOUS
  5
7CC
 10
171.264742
 20
411.391245
 30
0.0
 11
168.264742
 21
414.391245
 31
0.0
  0
LINE
  8
LC-003-005-----0
  6
CONTINUOUS
  5
7CD
 10
168.436315
 20
411.391245
 30
0.0
 11
165.436315
 21
414.391245
 31
0.0
  0
ARC
  8
LC-001-002-----0
  6
CONTINUOUS
 62
     1
  5
7CE
 10
325.459023
 20
452.877151
 30
0.0
 40
32.5
 50
270.0
 51
300.510237
  0
LINE
  8
LC-001-002-----0
  6
DASHED
  5
7CF
 10
391.731457
 20
470.318896
 30
0.0
 11
391.084409
 21
467.904082
 31
0.0
  0
LINE
  8
LC-001-002-----0
  6
CONTINUOUS
 62
     1
  5
7D0
 10
346.938023
 20
429.200083
 30
0.0
 11
346.938023
 21
429.753688
 31
0.0
  0
LINE
  8
LC-001-002-----0
  6
CONTINUOUS
 62
     1
  5
7D1
 10
346.938023
 20
476.000615
 30
0.0
 11
346.938023
 21
476.554219
 31
0.0
  0
LINE
  8
LC-003-005-----0
  6
CONTINUOUS
  5
7D2
 10
165.607888
 20
411.391245
 30
0.0
 11
162.607888
 21
414.391245
 31
0.0
  0
ARC
  8
LC-006-002-RND-0
  6
DASHED
  5
7D3
 10
391.248494
 20
470.448306
 30
0.0
 40
0.5
 50
345.0
 51
75.0
  0
LINE
  8
LC-001-002-----0
  6
CONTINUOUS
 62
     1
  5
7D4
 10
316.959023
 20
482.543799
 30
0.0
 11
316.959023
 21
485.377151
 31
0.0
  0
LINE
  8
LC-001-002-----0
  6
DASHED
  5
7D5
 10
389.446052
 20
471.448907
 30
0.0
 11
391.377903
 21
470.931269
 31
0.0
  0
ARC
  8
LC-001-002-----0
  6
CONTINUOUS
 62
     1
  5
7D6
 10
325.459023
 20
452.877151
 30
0.0
 40
29.6
 50
51.370402
 51
69.268737
  0
LINE
  8
LC-001-002-----0
  6
CONTINUOUS
 62
     1
  5
7D7
 10
343.937806
 20
476.000615
 30
0.0
 11
346.938023
 21
476.000615
 31
0.0
  0
ARC
  8
LC-006-002-RND-0
  6
CONTINUOUS
 62
     1
  5
7D8
 10
317.959023
 20
482.543799
 30
0.0
 40
1.0
 50
180.0
 51
284.187628
  0
ARC
  8
LC-001-002-----0
  6
CONTINUOUS
 62
     1
  5
7D9
 10
325.459023
 20
452.877151
 30
0.0
 40
29.6
 50
255.812372
 51
284.610517
  0
LINE
  8
LC-001-002-----0
  6
CONTINUOUS
 62
     1
  5
7DA
 10
343.937806
 20
429.753688
 30
0.0
 11
343.937806
 21
476.000615
 31
0.0
  0
LINE
  8
LC-001-002-----0
  6
CONTINUOUS
 62
     1
  5
7DB
 10
343.937806
 20
429.753688
 30
0.0
 11
346.938023
 21
429.753688
 31
0.0
  0
LINE
  8
LC-001-002-----0
  6
CONTINUOUS
 62
     1
  5
7DC
 10
384.959023
 20
486.877151
 30
0.0
 11
384.959023
 21
484.377151
 31
0.0
  0
ARC
  8
LC-006-002-RND-0
  6
DASHED
  5
7DD
 10
389.316642
 20
470.965944
 30
0.0
 40
0.5
 50
75.0
 51
165.0
  0
LINE
  8
LC-003-005-----0
  6
CONTINUOUS
  5
7DE
 10
162.779461
 20
411.391245
 30
0.0
 11
159.779461
 21
414.391245
 31
0.0
  0
LINE
  8
LC-001-002-----0
  6
DASHED
  5
7DF
 10
388.833679
 20
471.095353
 30
0.0
 11
387.410175
 21
465.782761
 31
0.0
  0
ARC
  8
LC-006-002-RND-0
  6
DASHED
  5
7E0
 10
386.927212
 20
465.912171
 30
0.0
 40
0.5
 50
255.0
 51
345.0
  0
LINE
  8
LC-003-005-----0
  6
CONTINUOUS
  5
7E1
 10
159.951034
 20
411.391245
 30
0.0
 11
156.951034
 21
414.391245
 31
0.0
  0
LINE
  8
LC-003-005-----0
  6
CONTINUOUS
  5
7E2
 10
157.122607
 20
411.391245
 30
0.0
 11
154.122607
 21
414.391245
 31
0.0
  0
LINE
  8
LC-003-005-----0
  6
CONTINUOUS
  5
7E3
 10
154.29418
 20
411.391245
 30
0.0
 11
153.714132
 21
411.971292
 31
0.0
  0
LINE
  8
LC-001-002-----0
  6
DASHED
  5
7E4
 10
348.643732
 20
475.65256
 30
0.0
 11
386.797802
 21
465.429208
 31
0.0
  0
ARC
  8
LC-001-002-----0
  6
DASHED
  5
7E5
 10
325.459023
 20
452.877151
 30
0.0
 40
32.5
 50
44.489763
 51
58.396499
  0
LINE
  8
LC-003-005-----0
  6
CONTINUOUS
  5
7E6
 10
153.714132
 20
411.971292
 30
0.0
 11
151.29418
 21
414.391245
 31
0.0
  0
LINE
  8
LC-003-005-----0
  6
CONTINUOUS
  5
7E7
 10
151.465753
 20
411.391245
 30
0.0
 11
148.465753
 21
414.391245
 31
0.0
  0
LINE
  8
LC-003-005-----0
  6
CONTINUOUS
  5
7E8
 10
148.637325
 20
411.391245
 30
0.0
 11
145.637325
 21
414.391245
 31
0.0
  0
LINE
  8
LC-003-005-----0
  6
CONTINUOUS
  5
7E9
 10
145.808898
 20
411.391245
 30
0.0
 11
142.808898
 21
414.391245
 31
0.0
  0
LINE
  8
LC-003-005-----0
  6
CONTINUOUS
  5
7EA
 10
142.980471
 20
411.391245
 30
0.0
 11
139.980471
 21
414.391245
 31
0.0
  0
LINE
  8
LC-003-005-----0
  6
CONTINUOUS
  5
7EB
 10
140.152044
 20
411.391245
 30
0.0
 11
137.152044
 21
414.391245
 31
0.0
  0
LINE
  8
LC-003-005-----0
  6
CONTINUOUS
  5
7EC
 10
137.323617
 20
411.391245
 30
0.0
 11
134.323617
 21
414.391245
 31
0.0
  0
LINE
  8
LC-003-005-----0
  6
CONTINUOUS
  5
7ED
 10
134.49519
 20
411.391245
 30
0.0
 11
131.49519
 21
414.391245
 31
0.0
  0
LINE
  8
LC-003-005-----0
  6
CONTINUOUS
  5
7EE
 10
131.666763
 20
411.391245
 30
0.0
 11
128.666763
 21
414.391245
 31
0.0
  0
LINE
  8
LC-003-005-----0
  6
CONTINUOUS
  5
7EF
 10
91.929107
 20
451.128901
 30
0.0
 11
89.166763
 21
453.891245
 31
0.0
  0
LINE
  8
LC-003-005-----0
  6
CONTINUOUS
  5
7F0
 10
128.838336
 20
411.391245
 30
0.0
 11
125.838336
 21
414.391245
 31
0.0
  0
LINE
  8
LC-003-005-----0
  6
CONTINUOUS
  5
7F1
 10
90.964132
 20
449.265448
 30
0.0
 11
88.464132
 21
451.765448
 31
0.0
  0
LINE
  8
LC-003-005-----0
  6
CONTINUOUS
  5
7F2
 10
126.009908
 20
411.391245
 30
0.0
 11
123.009908
 21
414.391245
 31
0.0
  0
LINE
  8
LC-003-005-----0
  6
CONTINUOUS
  5
7F3
 10
90.964132
 20
446.437021
 30
0.0
 11
88.464132
 21
448.937021
 31
0.0
  0
LINE
  8
LC-003-005-----0
  6
CONTINUOUS
  5
7F4
 10
123.181481
 20
411.391245
 30
0.0
 11
120.181481
 21
414.391245
 31
0.0
  0
LINE
  8
LC-003-005-----0
  6
CONTINUOUS
  5
7F5
 10
90.964132
 20
443.608594
 30
0.0
 11
88.464132
 21
446.108594
 31
0.0
  0
LINE
  8
LC-003-005-----0
  6
CONTINUOUS
  5
7F6
 10
120.353054
 20
411.391245
 30
0.0
 11
117.353054
 21
414.391245
 31
0.0
  0
LINE
  8
LC-003-005-----0
  6
CONTINUOUS
  5
7F7
 10
97.714132
 20
434.030167
 30
0.0
 11
97.653054
 21
434.091245
 31
0.0
  0
LINE
  8
LC-003-005-----0
  6
CONTINUOUS
  5
7F8
 10
90.964132
 20
440.780167
 30
0.0
 11
88.464132
 21
443.280167
 31
0.0
  0
LINE
  8
LC-003-005-----0
  6
CONTINUOUS
  5
7F9
 10
117.524627
 20
411.391245
 30
0.0
 11
114.524627
 21
414.391245
 31
0.0
  0
LINE
  8
LC-003-005-----0
  6
CONTINUOUS
  5
7FA
 10
97.714132
 20
431.20174
 30
0.0
 11
93.824627
 21
435.091245
 31
0.0
  0
LINE
  8
LC-003-005-----0
  6
CONTINUOUS
  5
7FB
 10
90.964132
 20
437.95174
 30
0.0
 11
88.464132
 21
440.45174
 31
0.0
  0
LINE
  8
LC-003-005-----0
  6
CONTINUOUS
  5
7FC
 10
114.6962
 20
411.391245
 30
0.0
 11
111.6962
 21
414.391245
 31
0.0
  0
LINE
  8
LC-003-005-----0
  6
CONTINUOUS
  5
7FD
 10
97.714132
 20
428.373313
 30
0.0
 11
90.9962
 21
435.091245
 31
0.0
  0
LINE
  8
LC-003-005-----0
  6
CONTINUOUS
  5
7FE
 10
90.964132
 20
435.123313
 30
0.0
 11
88.464132
 21
437.623313
 31
0.0
  0
LINE
  8
LC-003-005-----0
  6
CONTINUOUS
  5
7FF
 10
111.867773
 20
411.391245
 30
0.0
 11
108.867773
 21
414.391245
 31
0.0
  0
LINE
  8
LC-003-005-----0
  6
CONTINUOUS
  5
800
 10
97.714132
 20
425.544886
 30
0.0
 11
94.714132
 21
428.544886
 31
0.0
  0
LINE
  8
LC-003-005-----0
  6
CONTINUOUS
  5
801
 10
91.367773
 20
431.891245
 30
0.0
 11
88.464132
 21
434.794886
 31
0.0
  0
LINE
  8
LC-003-005-----0
  6
CONTINUOUS
  5
802
 10
109.039346
 20
411.391245
 30
0.0
 11
106.039346
 21
414.391245
 31
0.0
  0
LINE
  8
LC-003-005-----0
  6
CONTINUOUS
  5
803
 10
97.714132
 20
422.716458
 30
0.0
 11
94.714132
 21
425.716458
 31
0.0
  0
LINE
  8
LC-003-005-----0
  6
CONTINUOUS
  5
804
 10
106.210919
 20
411.391245
 30
0.0
 11
103.210919
 21
414.391245
 31
0.0
  0
LINE
  8
LC-003-005-----0
  6
CONTINUOUS
  5
805
 10
97.714132
 20
419.888031
 30
0.0
 11
94.714132
 21
422.888031
 31
0.0
  0
LINE
  8
LC-003-005-----0
  6
CONTINUOUS
  5
806
 10
103.382491
 20
411.391245
 30
0.0
 11
100.361721
 21
414.412016
 31
0.0
  0
LINE
  8
LC-003-005-----0
  6
CONTINUOUS
  5
807
 10
97.734903
 20
417.038833
 30
0.0
 11
94.714132
 21
420.059604
 31
0.0
  0
LINE
  8
LC-003-005-----0
  6
CONTINUOUS
  5
808
 10
100.55187
 20
411.39344
 30
0.0
 11
94.716327
 21
417.228983
 31
0.0
  0
ARC
  8
LC-006-002-RND-0
  6
DASHED
  5
809
 10
325.892872
 20
483.474075
 30
0.0
 40
1.0
 50
165.0
 51
269.187628
  0
LINE
  8
LC-001-002-----0
  6
DASHDOT
  5
80A
 10
421.568642
 20
427.124656
 30
0.0
 11
317.248653
 21
455.077113
 31
0.0
  0
LINE
  8
LC-001-002-----0
  6
DASHED
  5
80B
 10
414.1923
 20
399.59577
 30
0.0
 11
429.721442
 21
457.55132
 31
0.0
  0
LINE
  8
LC-001-002-----0
  6
CONTINUOUS
 62
     1
  5
80C
 10
75.836795
 20
526.016013
 30
0.0
 11
-23.508936
 21
526.016013
 31
0.0
  0
LINE
  8
LC-001-002-----0
  6
CONTINUOUS
 62
     1
  5
80D
 10
75.976478
 20
530.016013
 30
0.0
 11
-23.508936
 21
530.016013
 31
0.0
  0
LINE
  8
LC-001-002-----0
  6
CONTINUOUS
 62
     1
  5
80E
 10
75.976478
 20
530.016013
 30
0.0
 11
110.558977
 21
527.597771
 31
0.0
  0
LINE
  8
LC-001-002-----0
  6
CONTINUOUS
 62
     1
  5
80F
 10
134.643152
 20
523.877694
 30
0.0
 11
116.581734
 21
525.190205
 31
0.0
  0
LINE
  8
LC-001-002-----0
  6
CONTINUOUS
 62
     1
  5
810
 10
110.558977
 20
527.597771
 30
0.0
 11
116.581734
 21
525.190205
 31
0.0
  0
LINE
  8
LC-003-005-----0
  6
CONTINUOUS
  5
811
 10
337.227127
 20
518.246463
 30
0.0
 11
341.999215
 21
523.018551
 31
0.0
  0
LINE
  8
LC-003-005-----0
  6
CONTINUOUS
  5
812
 10
291.322163
 20
475.169926
 30
0.0
 11
294.021288
 21
477.869051
 31
0.0
  0
LINE
  8
LC-003-005-----0
  6
CONTINUOUS
  5
813
 10
303.731345
 20
487.579108
 30
0.0
 11
314.164335
 21
498.012098
 31
0.0
  0
LINE
  8
LC-003-005-----0
  6
CONTINUOUS
  5
814
 10
334.186047
 20
518.03381
 30
0.0
 11
337.475743
 21
521.323506
 31
0.0
  0
LINE
  8
LC-003-005-----0
  6
CONTINUOUS
  5
815
 10
288.493736
 20
475.169926
 30
0.0
 11
291.192861
 21
477.869051
 31
0.0
  0
LINE
  8
LC-003-005-----0
  6
CONTINUOUS
  5
816
 10
291.436113
 20
478.112303
 30
0.0
 11
293.957869
 21
480.634059
 31
0.0
  0
LINE
  8
LC-003-005-----0
  6
CONTINUOUS
  5
817
 10
300.902917
 20
487.579108
 30
0.0
 11
315.491064
 21
502.167254
 31
0.0
  0
LINE
  8
LC-003-005-----0
  6
CONTINUOUS
  5
818
 10
331.144967
 20
517.821157
 30
0.0
 11
334.425669
 21
521.101859
 31
0.0
  0
LINE
  8
LC-003-005-----0
  6
CONTINUOUS
  5
819
 10
287.97109
 20
477.475708
 30
0.0
 11
293.991064
 21
483.495681
 31
0.0
  0
LINE
  8
LC-003-005-----0
  6
CONTINUOUS
  5
81A
 10
298.07449
 20
487.579108
 30
0.0
 11
301.078842
 21
490.583459
 31
0.0
  0
LINE
  8
LC-003-005-----0
  6
CONTINUOUS
  5
81B
 10
303.648574
 20
493.153191
 30
0.0
 11
309.773032
 21
499.27765
 31
0.0
  0
LINE
  8
LC-003-005-----0
  6
CONTINUOUS
  5
81C
 10
313.240357
 20
502.744974
 30
0.0
 11
315.491064
 21
504.995681
 31
0.0
  0
LINE
  8
LC-003-005-----0
  6
CONTINUOUS
  5
81D
 10
318.690661
 20
508.195279
 30
0.0
 11
320.700304
 21
510.204921
 31
0.0
  0
LINE
  8
LC-003-005-----0
  6
CONTINUOUS
  5
81E
 10
328.103887
 20
517.608504
 30
0.0
 11
331.43117
 21
520.935788
 31
0.0
  0
LINE
  8
LC-003-005-----0
  6
CONTINUOUS
  5
81F
 10
287.971089
 20
480.304133
 30
0.0
 11
288.054652
 21
480.387697
 31
0.0
  0
LINE
  8
LC-003-005-----0
  6
CONTINUOUS
  5
820
 10
292.185937
 20
484.518982
 30
0.0
 11
298.250415
 21
490.583459
 31
0.0
  0
LINE
  8
LC-003-005-----0
  6
CONTINUOUS
  5
821
 10
304.145434
 20
496.478479
 30
0.0
 11
306.944605
 21
499.27765
 31
0.0
  0
LINE
  8
LC-003-005-----0
  6
CONTINUOUS
  5
822
 10
313.240357
 20
505.573401
 30
0.0
 11
321.531269
 21
513.864313
 31
0.0
  0
LINE
  8
LC-003-005-----0
  6
CONTINUOUS
  5
823
 10
325.062807
 20
517.395851
 30
0.0
 11
328.325521
 21
520.658565
 31
0.0
  0
LINE
  8
LC-003-005-----0
  6
CONTINUOUS
  5
824
 10
291.755221
 20
486.916692
 30
0.0
 11
295.421988
 21
490.583459
 31
0.0
  0
LINE
  8
LC-003-005-----0
  6
CONTINUOUS
  5
825
 10
313.240357
 20
508.401828
 30
0.0
 11
315.989682
 21
511.151154
 31
0.0
  0
LINE
  8
LC-003-005-----0
  6
CONTINUOUS
  5
826
 10
318.338975
 20
513.500447
 30
0.0
 11
320.741064
 21
515.902535
 31
0.0
  0
LINE
  8
LC-003-005-----0
  6
CONTINUOUS
  5
827
 10
322.021727
 20
517.183198
 30
0.0
 11
325.275447
 21
520.436918
 31
0.0
  0
LINE
  8
LC-003-005-----0
  6
CONTINUOUS
  5
828
 10
290.670058
 20
488.659957
 30
0.0
 11
292.59356
 21
490.583459
 31
0.0
  0
LINE
  8
LC-003-005-----0
  6
CONTINUOUS
  5
829
 10
313.240357
 20
511.230256
 30
0.0
 11
315.240357
 21
513.230256
 31
0.0
  0
LINE
  8
LC-003-005-----0
  6
CONTINUOUS
  5
82A
 10
318.338975
 20
516.328874
 30
0.0
 11
322.225373
 21
520.215271
 31
0.0
  0
LINE
  8
LC-003-005-----0
  6
CONTINUOUS
  5
82B
 10
313.240357
 20
514.058683
 30
0.0
 11
315.240357
 21
516.058683
 31
0.0
  0
LINE
  8
LC-003-005-----0
  6
CONTINUOUS
  5
82C
 10
318.338975
 20
519.157301
 30
0.0
 11
319.175299
 21
519.993625
 31
0.0
  0
LINE
  8
LC-001-002-----0
  6
DASHDOT
  5
82D
 10
226.491064
 20
428.507544
 30
0.0
 11
226.491064
 21
411.391245
 31
0.0
  0
LINE
  8
LC-001-002-----0
  6
CONTINUOUS
 62
     1
  5
82E
 10
-23.508936
 20
530.016013
 30
0.0
 11
-23.508936
 21
526.016013
 31
0.0
  0
LINE
  8
LC-001-002-----0
  6
CONTINUOUS
 62
     1
  5
82F
 10
476.800328
 20
530.037638
 30
0.0
 11
476.800328
 21
526.037638
 31
0.0
  0
LINE
  8
LC-001-002-----0
  6
CONTINUOUS
 62
     1
  5
830
 10
466.800328
 20
530.037638
 30
0.0
 11
466.800328
 21
526.037638
 31
0.0
  0
ARC
  8
LC-001-002-----0
  6
CONTINUOUS
 62
     1
  5
831
 10
300.643328
 20
497.405529
 30
0.0
 40
0.3
 50
180.0
 51
270.0
  0
ARC
  8
LC-001-002-----0
  6
CONTINUOUS
 62
     1
  5
832
 10
300.643571
 20
499.705897
 30
0.0
 40
1.0
 50
90.00028
 51
180.00028
  0
ARC
  8
LC-001-002-----0
  6
CONTINUOUS
 62
     1
  5
833
 10
300.643571
 20
499.705897
 30
0.0
 40
0.3
 50
90.00028
 51
180.00028
  0
LINE
  8
LC-011-007-KH--0
  6
DASHDOT
  5
835
 10
274.823031
 20
480.567571
 30
0.0
 11
274.823031
 21
479.998136
 31
0.0
  0
ARC
  8
LC-001-002-----0
  6
CONTINUOUS
 62
     1
  5
836
 10
300.643851
 20
495.605529
 30
0.0
 40
1.5
 50
0.0
 51
90.0
  0
ARC
  8
LC-001-002-----0
  6
CONTINUOUS
 62
     1
  5
837
 10
300.643851
 20
495.605529
 30
0.0
 40
1.5
 50
270.0
 51
0.0
  0
LINE
  8
LC-001-002-----0
  6
CONTINUOUS
 62
     1
  5
838
 10
300.643851
 20
494.805529
 30
0.0
 11
298.243851
 21
494.805529
 31
0.0
  0
ARC
  8
LC-001-002-----0
  6
CONTINUOUS
 62
     1
  5
839
 10
300.643851
 20
495.605529
 30
0.0
 40
0.8
 50
0.0
 51
90.0
  0
ARC
  8
LC-001-002-----0
  6
CONTINUOUS
 62
     1
  5
83A
 10
300.643851
 20
495.605529
 30
0.0
 40
0.8
 50
270.0
 51
0.0
  0
LINE
  8
LC-001-002-----0
  6
CONTINUOUS
 62
     1
  5
83B
 10
300.643851
 20
494.105529
 30
0.0
 11
298.243851
 21
494.105529
 31
0.0
  0
LINE
  8
LC-001-002-----0
  6
CONTINUOUS
 62
     1
  5
83C
 10
298.243851
 20
494.105529
 30
0.0
 11
298.243851
 21
494.805529
 31
0.0
  0
LINE
  8
LC-001-002-----0
  6
CONTINUOUS
 62
     1
  5
83D
 10
299.643851
 20
499.705529
 30
0.0
 11
299.643851
 21
497.405529
 31
0.0
  0
ARC
  8
LC-001-002-----0
  6
CONTINUOUS
 62
     1
  5
83E
 10
300.643851
 20
497.405529
 30
0.0
 40
1.0
 50
180.0
 51
270.0
  0
LINE
  8
LC-001-002-----0
  6
CONTINUOUS
 62
     1
  5
83F
 10
300.343851
 20
499.705529
 30
0.0
 11
300.343851
 21
497.405529
 31
0.0
  0
ARC
  8
LC-001-002-----0
  6
CONTINUOUS
 62
     1
  5
840
 10
300.643851
 20
503.505529
 30
0.0
 40
3.5
 50
270.0
 51
0.0
  0
ARC
  8
LC-001-002-----0
  6
CONTINUOUS
 62
     1
  5
841
 10
300.643851
 20
503.505529
 30
0.0
 40
2.8
 50
270.0
 51
0.0
  0
LINE
  8
LC-001-002-----0
  6
CONTINUOUS
 62
     1
  5
842
 10
304.143851
 20
517.094496
 30
0.0
 11
304.143851
 21
503.505529
 31
0.0
  0
LINE
  8
LC-001-002-----0
  6
CONTINUOUS
 62
     1
  5
843
 10
303.443851
 20
503.505529
 30
0.0
 11
303.443851
 21
519.205354
 31
0.0
  0
ARC
  8
LC-001-002-----0
  6
CONTINUOUS
 62
     1
  5
844
 10
310.443851
 20
517.094496
 30
0.0
 40
7.0
 50
89.0
 51
180.0
  0
ARC
  8
LC-001-002-----0
  6
CONTINUOUS
 62
     1
  5
845
 10
310.443851
 20
517.094496
 30
0.0
 40
6.3
 50
89.0
 51
180.0
  0
LINE
  8
LC-001-002-----0
  6
CONTINUOUS
 62
     1
  5
846
 10
329.531644
 20
524.717837
 30
0.0
 11
310.61393
 21
523.394981
 31
0.0
  0
LINE
  8
LC-001-002-----0
  6
CONTINUOUS
 62
     1
  5
847
 10
329.485031
 20
525.405706
 30
0.0
 11
310.567316
 21
524.082851
 31
0.0
  0
ARC
  8
LC-001-002-----0
  6
CONTINUOUS
 62
     1
  5
848
 10
329.043349
 20
531.700785
 30
0.0
 40
6.3
 50
274.0
 51
315.621929
  0
ARC
  8
LC-001-002-----0
  6
CONTINUOUS
 62
     1
  5
849
 10
329.043349
 20
531.700785
 30
0.0
 40
7.0
 50
274.0
 51
320.993096
  0
ARC
  8
LC-001-002-----0
  6
CONTINUOUS
 62
     1
  5
84A
 10
123.938778
 20
531.700785
 30
0.0
 40
6.3
 50
224.378071
 51
266.0
  0
ARC
  8
LC-001-002-----0
  6
CONTINUOUS
 62
     1
  5
84B
 10
123.938778
 20
531.700785
 30
0.0
 40
7.0
 50
219.006904
 51
266.0
  0
LINE
  8
LC-001-002-----0
  6
CONTINUOUS
 62
     1
  5
84C
 10
123.497097
 20
525.405706
 30
0.0
 11
142.414811
 21
524.082851
 31
0.0
  0
LINE
  8
LC-001-002-----0
  6
CONTINUOUS
 62
     1
  5
84D
 10
123.450483
 20
524.717837
 30
0.0
 11
142.368197
 21
523.394981
 31
0.0
  0
ARC
  8
LC-001-002-----0
  6
CONTINUOUS
 62
     1
  5
84E
 10
142.538277
 20
517.094496
 30
0.0
 40
7.0
 50
0.0
 51
91.0
  0
ARC
  8
LC-001-002-----0
  6
CONTINUOUS
 62
     1
  5
84F
 10
142.538277
 20
517.094496
 30
0.0
 40
6.3
 50
0.0
 51
91.0
  0
LINE
  8
LC-001-002-----0
  6
CONTINUOUS
 62
     1
  5
850
 10
148.838277
 20
517.094496
 30
0.0
 11
148.838277
 21
503.505529
 31
0.0
  0
ARC
  8
LC-001-002-----0
  6
CONTINUOUS
 62
     1
  5
851
 10
152.338277
 20
503.505529
 30
0.0
 40
2.8
 50
180.0
 51
270.0
  0
ARC
  8
LC-001-002-----0
  6
CONTINUOUS
 62
     1
  5
852
 10
152.338277
 20
503.505529
 30
0.0
 40
3.5
 50
180.0
 51
270.0
  0
ARC
  8
LC-001-002-----0
  6
CONTINUOUS
 62
     1
  5
853
 10
152.338557
 20
499.705897
 30
0.0
 40
1.0
 50
359.99972
 51
89.99972
  0
ARC
  8
LC-001-002-----0
  6
CONTINUOUS
 62
     1
  5
854
 10
152.338557
 20
499.705897
 30
0.0
 40
0.3
 50
359.99972
 51
89.99972
  0
LINE
  8
LC-001-002-----0
  6
CONTINUOUS
 62
     1
  5
855
 10
153.338277
 20
499.705529
 30
0.0
 11
153.338277
 21
497.405529
 31
0.0
  0
LINE
  8
LC-001-002-----0
  6
CONTINUOUS
 62
     1
  5
856
 10
152.638277
 20
499.705529
 30
0.0
 11
152.638277
 21
497.405529
 31
0.0
  0
ARC
  8
LC-001-002-----0
  6
CONTINUOUS
 62
     1
  5
857
 10
152.338799
 20
497.405529
 30
0.0
 40
0.3
 50
270.0
 51
0.0
  0
ARC
  8
LC-001-002-----0
  6
CONTINUOUS
 62
     1
  5
858
 10
152.338277
 20
495.605529
 30
0.0
 40
1.5
 50
90.0
 51
180.0
  0
ARC
  8
LC-001-002-----0
  6
CONTINUOUS
 62
     1
  5
859
 10
152.338277
 20
495.605529
 30
0.0
 40
1.5
 50
180.0
 51
270.0
  0
LINE
  8
LC-001-002-----0
  6
CONTINUOUS
 62
     1
  5
85A
 10
152.338277
 20
494.105529
 30
0.0
 11
154.738277
 21
494.105529
 31
0.0
  0
LINE
  8
LC-001-002-----0
  6
CONTINUOUS
 62
     1
  5
85B
 10
154.738277
 20
494.105529
 30
0.0
 11
154.738277
 21
494.805529
 31
0.0
  0
LINE
  8
LC-001-002-----0
  6
CONTINUOUS
 62
     1
  5
85C
 10
152.338277
 20
494.805529
 30
0.0
 11
154.738277
 21
494.805529
 31
0.0
  0
ARC
  8
LC-001-002-----0
  6
CONTINUOUS
 62
     1
  5
85D
 10
152.338277
 20
495.605529
 30
0.0
 40
0.8
 50
180.0
 51
270.0
  0
ARC
  8
LC-001-002-----0
  6
CONTINUOUS
 62
     1
  5
85E
 10
152.338277
 20
495.605529
 30
0.0
 40
0.8
 50
90.0
 51
180.0
  0
ARC
  8
LC-001-002-----0
  6
CONTINUOUS
 62
     1
  5
85F
 10
152.338277
 20
497.405529
 30
0.0
 40
1.0
 50
270.0
 51
0.0
  0
LINE
  8
LC-001-002-----0
  6
CONTINUOUS
 62
     1
  5
860
 10
153.338277
 20
499.705529
 30
0.0
 11
153.338277
 21
497.405529
 31
0.0
  0
LINE
  8
LC-001-002-----0
  6
CONTINUOUS
 62
     1
  5
861
 10
333.546213
 20
527.294629
 30
0.0
 11
334.48284
 21
527.294629
 31
0.0
  0
LINE
  8
LC-001-002-----0
  6
CONTINUOUS
 62
     1
  5
862
 10
118.499288
 20
527.294887
 30
0.0
 11
119.435914
 21
527.294887
 31
0.0
  0
LINE
  8
LC-001-002-----0
  6
CONTINUOUS
 62
     1
  5
863
 10
152.541064
 20
500.706196
 30
0.0
 11
219.781667
 21
500.706196
 31
0.0
  0
LINE
  8
LC-001-002-----0
  6
CONTINUOUS
 62
     1
  5
864
 10
300.441064
 20
519.205354
 30
0.0
 11
149.541064
 21
519.205354
 31
0.0
  0
LINE
  8
LC-001-002-----0
  6
CONTINUOUS
 62
     1
  5
865
 10
149.541064
 20
503.505529
 30
0.0
 11
149.541064
 21
519.205354
 31
0.0
  0
LINE
  8
LC-001-002-----0
  6
CONTINUOUS
 62
     1
  5
866
 10
152.541064
 20
500.706201
 30
0.0
 11
152.541064
 21
519.205354
 31
0.0
  0
ARC
  8
LC-006-002-RND-0
  6
CONTINUOUS
 62
     1
  5
867
 10
152.541064
 20
516.205354
 30
0.0
 40
3.0
 50
0.0
 51
90.0
  0
LINE
  8
LC-001-002-----0
  6
CONTINUOUS
 62
     1
  5
868
 10
149.541064
 20
504.706201
 30
0.0
 11
152.541064
 21
500.706196
 31
0.0
  0
LINE
  8
LC-001-002-----0
  6
CONTINUOUS
 62
     1
  5
869
 10
159.541064
 20
503.706201
 30
0.0
 11
159.541064
 21
500.706201
 31
0.0
  0
LINE
  8
LC-001-002-----0
  6
CONTINUOUS
 62
     1
  5
86A
 10
220.135635
 20
503.706201
 30
0.0
 11
155.541064
 21
503.706201
 31
0.0
  0
LINE
  8
LC-001-002-----0
  6
CONTINUOUS
 62
     1
  5
86B
 10
155.541064
 20
516.205354
 30
0.0
 11
155.541064
 21
503.706201
 31
0.0
  0
LINE
  8
LC-001-002-----0
  6
CONTINUOUS
 62
     1
  5
86C
 10
300.441064
 20
519.205354
 30
0.0
 11
303.441064
 21
519.205354
 31
0.0
  0
LINE
  8
LC-001-002-----0
  6
CONTINUOUS
 62
     1
  5
86D
 10
300.441064
 20
500.706201
 30
0.0
 11
300.441064
 21
519.205354
 31
0.0
  0
ARC
  8
LC-006-002-RND-0
  6
CONTINUOUS
 62
     1
  5
86E
 10
300.441064
 20
516.205354
 30
0.0
 40
3.0
 50
90.0
 51
180.0
  0
LINE
  8
LC-001-002-----0
  6
CONTINUOUS
 62
     1
  5
86F
 10
303.441064
 20
504.706201
 30
0.0
 11
300.441064
 21
500.706196
 31
0.0
  0
LINE
  8
LC-001-002-----0
  6
CONTINUOUS
 62
     1
  5
870
 10
293.441064
 20
503.706201
 30
0.0
 11
293.441064
 21
500.706201
 31
0.0
  0
LINE
  8
LC-001-002-----0
  6
CONTINUOUS
 62
     1
  5
871
 10
282.505793
 20
503.706201
 30
0.0
 11
297.441064
 21
503.706201
 31
0.0
  0
LINE
  8
LC-001-002-----0
  6
CONTINUOUS
 62
     1
  5
872
 10
297.441064
 20
516.205354
 30
0.0
 11
297.441064
 21
503.706201
 31
0.0
  0
LINE
  8
LC-001-002-----0
  6
CONTINUOUS
 62
     1
  5
873
 10
300.441064
 20
500.706196
 30
0.0
 11
285.001466
 21
500.706196
 31
0.0
  0
LINE
  8
LC-001-002-----0
  6
CONTINUOUS
 62
     1
  5
874
 10
119.435914
 20
527.294887
 30
0.0
 11
333.546213
 21
527.294887
 31
0.0
  0
LINE
  8
LC-001-002-----0
  6
CONTINUOUS
 62
     1
  5
875
 10
142.538277
 20
524.094496
 30
0.0
 11
310.443851
 21
524.094496
 31
0.0
  0
LINE
  8
LC-001-002-----0
  6
CONTINUOUS
 62
     1
  5
876
 10
456.800328
 20
530.037638
 30
0.0
 11
456.800328
 21
526.037638
 31
0.0
  0
LINE
  8
LC-001-002-----0
  6
CONTINUOUS
 62
     1
  5
877
 10
108.354213
 20
520.796618
 30
0.0
 11
114.517134
 21
518.333023
 31
0.0
  0
LINE
  8
LC-001-002-----0
  6
CONTINUOUS
 62
     1
  5
878
 10
109.466534
 20
523.726716
 30
0.0
 11
115.472177
 21
521.325992
 31
0.0
  0
LINE
  8
LC-001-002-----0
  6
CONTINUOUS
 62
     1
  5
879
 10
-13.508936
 20
530.016013
 30
0.0
 11
-13.508936
 21
526.016013
 31
0.0
  0
LINE
  8
LC-001-002-----0
  6
CONTINUOUS
 62
     1
  5
87A
 10
-3.508936
 20
530.016013
 30
0.0
 11
-3.508936
 21
526.016013
 31
0.0
  0
LINE
  8
LC-001-002-----0
  6
CONTINUOUS
 62
     1
  5
87B
 10
6.491064
 20
530.016013
 30
0.0
 11
6.491064
 21
526.016013
 31
0.0
  0
LINE
  8
LC-001-002-----0
  6
CONTINUOUS
 62
     1
  5
87C
 10
16.491064
 20
530.016013
 30
0.0
 11
16.491064
 21
526.016013
 31
0.0
  0
LINE
  8
LC-001-002-----0
  6
CONTINUOUS
 62
     1
  5
87D
 10
26.491064
 20
530.016013
 30
0.0
 11
26.491064
 21
526.016013
 31
0.0
  0
LINE
  8
LC-001-002-----0
  6
CONTINUOUS
 62
     1
  5
87E
 10
36.491064
 20
530.016013
 30
0.0
 11
36.491064
 21
526.016013
 31
0.0
  0
LINE
  8
LC-001-002-----0
  6
CONTINUOUS
 62
     1
  5
87F
 10
46.491064
 20
530.016013
 30
0.0
 11
46.491064
 21
526.016013
 31
0.0
  0
LINE
  8
LC-001-002-----0
  6
CONTINUOUS
 62
     1
  5
880
 10
56.491064
 20
530.016013
 30
0.0
 11
56.491064
 21
526.016013
 31
0.0
  0
LINE
  8
LC-001-002-----0
  6
CONTINUOUS
 62
     1
  5
881
 10
66.491064
 20
530.016013
 30
0.0
 11
66.491064
 21
526.016013
 31
0.0
  0
LINE
  8
LC-001-002-----0
  6
CONTINUOUS
 62
     1
  5
882
 10
76.491064
 20
529.980029
 30
0.0
 11
76.491064
 21
525.970262
 31
0.0
  0
LINE
  8
LC-001-002-----0
  6
CONTINUOUS
 62
     1
  5
883
 10
86.491064
 20
529.280762
 30
0.0
 11
86.491064
 21
525.270994
 31
0.0
  0
LINE
  8
LC-001-002-----0
  6
CONTINUOUS
 62
     1
  5
884
 10
96.491064
 20
528.581494
 30
0.0
 11
96.491064
 21
524.571727
 31
0.0
  0
LINE
  8
LC-001-002-----0
  6
CONTINUOUS
 62
     1
  5
885
 10
106.491064
 20
527.882227
 30
0.0
 11
106.491064
 21
523.93296
 31
0.0
  0
LINE
  8
LC-001-002-----0
  6
CONTINUOUS
 62
     1
  5
886
 10
116.491064
 20
525.196794
 30
0.0
 11
116.491064
 21
521.25195
 31
0.0
  0
LINE
  8
LC-001-002-----0
  6
CONTINUOUS
 62
     1
  5
887
 10
126.491064
 20
524.470101
 30
0.0
 11
126.491064
 21
520.525257
 31
0.0
  0
LINE
  8
LC-001-002-----0
  6
CONTINUOUS
 62
     1
  5
888
 10
446.800328
 20
530.037638
 30
0.0
 11
446.800328
 21
526.037638
 31
0.0
  0
LINE
  8
LC-001-002-----0
  6
CONTINUOUS
 62
     1
  5
889
 10
436.800328
 20
530.037638
 30
0.0
 11
436.800328
 21
526.037638
 31
0.0
  0
LINE
  8
LC-001-002-----0
  6
CONTINUOUS
 62
     1
  5
88A
 10
426.800328
 20
530.037638
 30
0.0
 11
426.800328
 21
526.037638
 31
0.0
  0
LINE
  8
LC-001-002-----0
  6
CONTINUOUS
 62
     1
  5
88B
 10
416.800328
 20
530.037638
 30
0.0
 11
416.800328
 21
526.037638
 31
0.0
  0
LINE
  8
LC-001-002-----0
  6
CONTINUOUS
 62
     1
  5
88C
 10
406.800328
 20
530.037638
 30
0.0
 11
406.800328
 21
526.037638
 31
0.0
  0
LINE
  8
LC-001-002-----0
  6
CONTINUOUS
 62
     1
  5
88D
 10
396.800328
 20
530.037638
 30
0.0
 11
396.800328
 21
526.037638
 31
0.0
  0
LINE
  8
LC-001-002-----0
  6
CONTINUOUS
 62
     1
  5
88E
 10
386.800328
 20
530.037638
 30
0.0
 11
386.800328
 21
526.037638
 31
0.0
  0
LINE
  8
LC-001-002-----0
  6
CONTINUOUS
 62
     1
  5
88F
 10
376.800328
 20
530.001655
 30
0.0
 11
376.800328
 21
525.991887
 31
0.0
  0
LINE
  8
LC-001-002-----0
  6
CONTINUOUS
 62
     1
  5
890
 10
366.800328
 20
529.302388
 30
0.0
 11
366.800328
 21
525.29262
 31
0.0
  0
LINE
  8
LC-001-002-----0
  6
CONTINUOUS
 62
     1
  5
891
 10
356.800328
 20
528.60312
 30
0.0
 11
356.800328
 21
524.593352
 31
0.0
  0
LINE
  8
LC-001-002-----0
  6
CONTINUOUS
 62
     1
  5
892
 10
346.800328
 20
527.903852
 30
0.0
 11
346.800328
 21
523.894085
 31
0.0
  0
LINE
  8
LC-001-002-----0
  6
CONTINUOUS
 62
     1
  5
893
 10
343.824285
 20
523.748113
 30
0.0
 11
337.821808
 21
521.348654
 31
0.0
  0
LINE
  8
LC-001-002-----0
  6
CONTINUOUS
 62
     1
  5
894
 10
344.936606
 20
520.818015
 30
0.0
 11
338.774257
 21
518.354649
 31
0.0
  0
LINE
  8
LC-001-002-----0
  6
CONTINUOUS
 62
     1
  5
895
 10
342.732414
 20
527.619396
 30
0.0
 11
336.709658
 21
525.211831
 31
0.0
  0
LINE
  8
LC-001-002-----0
  6
CONTINUOUS
 62
     1
  5
896
 10
336.800328
 20
525.21842
 30
0.0
 11
336.800328
 21
521.207872
 31
0.0
  0
LINE
  8
LC-001-002-----0
  6
CONTINUOUS
 62
     1
  5
897
 10
326.800328
 20
524.491727
 30
0.0
 11
326.800328
 21
520.547731
 31
0.0
  0
LINE
  8
LC-001-002-----0
  6
CONTINUOUS
 62
     1
  5
898
 10
377.314914
 20
530.037638
 30
0.0
 11
476.800328
 21
530.037638
 31
0.0
  0
LINE
  8
LC-001-002-----0
  6
CONTINUOUS
 62
     1
  5
899
 10
376.800328
 20
526.037638
 30
0.0
 11
476.800328
 21
526.037638
 31
0.0
  0
LINE
  8
LC-001-002-----0
  6
CONTINUOUS
 62
     1
  5
89A
 10
318.338975
 20
523.876846
 30
0.0
 11
336.709658
 21
525.211831
 31
0.0
  0
LINE
  8
LC-001-002-----0
  6
CONTINUOUS
 62
     1
  5
89B
 10
377.314914
 20
530.037638
 30
0.0
 11
342.732414
 21
527.619396
 31
0.0
  0
CIRCLE
  8
LC-001-002-----0
  6
CONTINUOUS
 62
     1
  5
89C
 10
334.054452
 20
479.885251
 30
0.0
 40
2.0
  0
CIRCLE
  8
LC-001-002-----0
  6
CONTINUOUS
 62
     1
  5
89D
 10
334.054452
 20
425.885251
 30
0.0
 40
2.0
  0
LINE
  8
LC-001-002-----0
  6
CONTINUOUS
 62
     1
  5
89E
 10
336.054452
 20
427.800715
 30
0.0
 11
336.054452
 21
425.885251
 31
0.0
  0
LINE
  8
LC-012-207-----0
  6
CONTINUOUS
  5
8A0
 10
198.230458
 20
414.391245
 30
0.0
 11
268.991064
 21
414.391245
 31
0.0
  0
LINE
  8
LC-001-002-----0
  6
CONTINUOUS
 62
     1
  5
8A1
 10
270.991064
 20
428.608933
 30
0.0
 11
270.991064
 21
411.391245
 31
0.0
  0
LINE
  8
LC-001-002-----0
  6
CONTINUOUS
 62
     1
  5
8A2
 10
287.971092
 20
430.584376
 30
0.0
 11
270.991064
 21
431.110265
 31
0.0
  0
LINE
  8
LC-001-002-----0
  6
CONTINUOUS
 62
     1
  5
8A3
 10
290.991064
 20
478.079108
 30
0.0
 11
290.991064
 21
477.869051
 31
0.0
  0
ARC
  8
LC-001-002-----0
  6
CONTINUOUS
 62
     1
  5
8A4
 10
285.991064
 20
426.143408
 30
0.0
 40
2.0
 50
0.0
 51
88.226057
  0
ARC
  8
LC-006-002-RND-0
  6
CONTINUOUS
 62
     1
  5
8A5
 10
307.392819
 20
490.579108
 30
0.0
 40
3.0
 50
270.0
 51
335.025313
  0
LINE
  8
LC-001-002-----0
  6
CONTINUOUS
 62
     1
  5
8A6
 10
286.052976
 20
428.14245
 30
0.0
 11
270.991064
 21
428.608933
 31
0.0
  0
LINE
  8
LC-001-002-----0
  6
CONTINUOUS
 62
     1
  5
8A7
 10
287.991064
 20
480.387697
 30
0.0
 11
287.991064
 21
475.169926
 31
0.0
  0
LINE
  8
LC-001-002-----0
  6
CONTINUOUS
 62
     1
  5
8A8
 10
164.991064
 20
480.387697
 30
0.0
 11
164.991064
 21
431.891245
 31
0.0
  0
LINE
  8
LC-001-002-----0
  6
CONTINUOUS
 62
     1
  5
8A9
 10
161.991064
 20
478.079108
 30
0.0
 11
161.991064
 21
436.091245
 31
0.0
  0
ARC
  8
LC-006-002-RND-0
  6
CONTINUOUS
 62
     1
  5
8AA
 10
159.991064
 20
436.091245
 30
0.0
 40
2.0
 50
270.0
 51
0.0
  0
ARC
  8
LC-006-002-RND-0
  6
CONTINUOUS
 62
     1
  5
8AB
 10
131.741064
 20
516.627388
 30
0.0
 40
0.5
 50
0.0
 51
86.000003
  0
ARC
  8
LC-006-002-RND-0
  6
CONTINUOUS
 62
     1
  5
8AC
 10
161.991064
 20
481.079108
 30
0.0
 40
3.0
 50
180.0
 51
270.0
  0
LINE
  8
LC-001-002-----0
  6
CONTINUOUS
 62
     1
  5
8AD
 10
287.971089
 20
480.387697
 30
0.0
 11
290.670047
 21
480.387697
 31
0.0
  0
LINE
  8
LC-001-002-----0
  6
CONTINUOUS
 62
     1
  5
8AE
 10
160.812547
 20
490.583459
 30
0.0
 11
150.633887
 21
490.583459
 31
0.0
  0
ARC
  8
LC-006-002-RND-0
  6
CONTINUOUS
 62
     1
  5
8AF
 10
150.633887
 20
492.572814
 30
0.0
 40
1.999352
 50
180.0
 51
270.0
  0
LINE
  8
LC-001-002-----0
  6
CONTINUOUS
 62
     1
  5
8B0
 10
148.634535
 20
496.478476
 30
0.0
 11
148.634535
 21
494.978476
 31
0.0
  0
LINE
  8
LC-001-002-----0
  6
CONTINUOUS
 62
     1
  5
8B1
 10
145.585224
 20
487.579108
 30
0.0
 11
155.491064
 21
487.579108
 31
0.0
  0
ARC
  8
LC-006-002-RND-0
  6
CONTINUOUS
 62
     1
  5
8B2
 10
145.585224
 20
490.578136
 30
0.0
 40
2.999028
 50
202.352488
 51
270.0
  0
LINE
  8
LC-001-002-----0
  6
CONTINUOUS
 62
     1
  5
8B3
 10
137.491064
 20
500.860562
 30
0.0
 11
142.927399
 21
489.188842
 31
0.0
  0
LINE
  8
LC-001-002-----0
  6
CONTINUOUS
 62
     1
  5
8B4
 10
162.611964
 20
480.387697
 30
0.0
 11
164.991064
 21
480.387697
 31
0.0
  0
LINE
  8
LC-001-002-----0
  6
CONTINUOUS
 62
     1
  5
8B5
 10
162.312061
 20
480.6876
 30
0.0
 11
162.312061
 21
482.217257
 31
0.0
  0
LINE
  8
LC-001-002-----0
  6
CONTINUOUS
 62
     1
  5
8B6
 10
75.491064
 20
526.081716
 30
0.0
 11
75.491064
 21
523.074518
 31
0.0
  0
LINE
  8
LC-001-002-----0
  6
CONTINUOUS
 62
     1
  5
8B7
 10
309.78564
 20
477.869051
 30
0.0
 11
290.991064
 21
477.869051
 31
0.0
  0
ARC
  8
LC-001-002-----0
  6
CONTINUOUS
 62
     1
  5
8B8
 10
162.611964
 20
480.6876
 30
0.0
 40
0.299903
 50
180.0
 51
270.0
  0
ARC
  8
LC-001-002-----0
  6
CONTINUOUS
 62
     1
  5
8B9
 10
160.812547
 20
489.083945
 30
0.0
 40
1.499514
 50
0.0
 51
90.0
  0
LINE
  8
LC-001-002-----0
  6
CONTINUOUS
 62
     1
  5
8BA
 10
162.312061
 20
488.058137
 30
0.0
 11
162.312061
 21
489.083945
 31
0.0
  0
LINE
  8
LC-001-002-----0
  6
CONTINUOUS
 62
     1
  5
8BB
 10
331.55591
 20
477.868954
 30
0.0
 11
336.054452
 21
477.869828
 31
0.0
  0
LINE
  8
LC-001-002-----0
  6
CONTINUOUS
 62
     1
  5
8BC
 10
343.052184
 20
476.556903
 30
0.0
 11
343.052184
 21
475.169926
 31
0.0
  0
LINE
  8
LC-001-002-----0
  6
CONTINUOUS
 62
     1
  5
8BD
 10
336.054452
 20
480.408713
 30
0.0
 11
336.054452
 21
477.869828
 31
0.0
  0
LINE
  8
LC-001-002-----0
  6
CONTINUOUS
 62
     1
  5
8BE
 10
331.55591
 20
481.740241
 30
0.0
 11
331.55591
 21
477.868954
 31
0.0
  0
LINE
  8
LC-001-002-----0
  6
CONTINUOUS
 62
     1
  5
8BF
 10
343.052184
 20
475.169926
 30
0.0
 11
287.971092
 21
475.169926
 31
0.0
  0
LINE
  8
LC-001-002-----0
  6
CONTINUOUS
 62
     1
  5
8C0
 10
132.241064
 20
510.922468
 30
0.0
 11
132.241064
 21
510.654519
 31
0.0
  0
ARC
  8
LC-001-002-----0
  6
CONTINUOUS
 62
     1
  5
8C1
 10
305.331812
 20
454.898825
 30
0.0
 40
26.689176
 50
130.577646
 51
245.647084
  0
LINE
  8
LC-001-002-----0
  6
CONTINUOUS
 62
     1
  5
8C2
 10
309.78564
 20
427.885251
 30
0.0
 11
292.991064
 21
427.885251
 31
0.0
  0
LINE
  8
LC-001-002-----0
  6
CONTINUOUS
 62
     1
  5
8C3
 10
343.052184
 20
430.584376
 30
0.0
 11
287.971092
 21
430.584376
 31
0.0
  0
ARC
  8
LC-006-002-RND-0
  6
CONTINUOUS
 62
     1
  5
8C4
 10
148.834535
 20
497.278476
 30
0.0
 40
0.8
 50
270.0
 51
0.0
  0
LINE
  8
LC-001-002-----0
  6
CONTINUOUS
 62
     1
  5
8C5
 10
158.991064
 20
484.079108
 30
0.0
 11
158.991064
 21
481.079108
 31
0.0
  0
LINE
  8
LC-001-002-----0
  6
CONTINUOUS
 62
     1
  5
8C6
 10
114.517134
 20
518.333023
 30
0.0
 11
131.775942
 21
517.12617
 31
0.0
  0
ARC
  8
LC-006-002-RND-0
  6
CONTINUOUS
 62
     1
  5
8C7
 10
134.741064
 20
510.654519
 30
0.0
 40
2.5
 50
180.0
 51
270.0
  0
ARC
  8
LC-006-002-RND-0
  6
CONTINUOUS
 62
     1
  5
8C8
 10
321.241064
 20
516.627388
 30
0.0
 40
0.5
 50
93.999997
 51
180.0
  0
LINE
  8
LC-001-002-----0
  6
CONTINUOUS
 62
     1
  5
8C9
 10
132.241064
 20
516.627388
 30
0.0
 11
132.241064
 21
514.654519
 31
0.0
  0
LINE
  8
LC-001-002-----0
  6
CONTINUOUS
 62
     1
  5
8CA
 10
134.741064
 20
508.154519
 30
0.0
 11
136.491064
 21
508.154519
 31
0.0
  0
LINE
  8
LC-001-002-----0
  6
CONTINUOUS
 62
     1
  5
8CB
 10
75.491064
 20
526.081716
 30
0.0
 11
109.466534
 21
523.726716
 31
0.0
  0
LINE
  8
LC-001-002-----0
  6
CONTINUOUS
 62
     1
  5
8CC
 10
134.643152
 20
519.932849
 30
0.0
 11
115.472177
 21
521.325992
 31
0.0
  0
LINE
  8
LC-001-002-----0
  6
CONTINUOUS
 62
     1
  5
8CD
 10
75.491064
 20
523.074518
 30
0.0
 11
108.354213
 21
520.796618
 31
0.0
  0
LINE
  8
LC-001-002-----0
  6
CONTINUOUS
 62
     1
  5
8CE
 10
377.491064
 20
523.074518
 30
0.0
 11
344.936606
 21
520.818015
 31
0.0
  0
LINE
  8
LC-001-002-----0
  6
CONTINUOUS
 62
     1
  5
8CF
 10
377.491064
 20
526.081716
 30
0.0
 11
343.824285
 21
523.748113
 31
0.0
  0
LINE
  8
LC-001-002-----0
  6
CONTINUOUS
 62
     1
  5
8D0
 10
377.491064
 20
526.081716
 30
0.0
 11
377.491064
 21
523.074518
 31
0.0
  0
LINE
  8
LC-001-002-----0
  6
CONTINUOUS
 62
     1
  5
8D1
 10
318.338975
 20
519.932849
 30
0.0
 11
337.821808
 21
521.348654
 31
0.0
  0
LINE
  8
LC-001-002-----0
  6
CONTINUOUS
 62
     1
  5
8D2
 10
338.774257
 20
518.354649
 30
0.0
 11
321.206185
 21
517.12617
 31
0.0
  0
LINE
  8
LC-001-002-----0
  6
CONTINUOUS
 62
     1
  5
8D3
 10
318.338975
 20
523.876846
 30
0.0
 11
318.338975
 21
512.247948
 31
0.0
  0
LINE
  8
LC-001-002-----0
  6
CONTINUOUS
 62
     1
  5
8D4
 10
315.240357
 20
511.098756
 30
0.0
 11
315.240357
 21
517.204282
 31
0.0
  0
LINE
  8
LC-001-002-----0
  6
CONTINUOUS
 62
     1
  5
8D5
 10
139.241771
 20
517.095278
 30
0.0
 11
139.241771
 21
515.878503
 31
0.0
  0
LINE
  8
LC-001-002-----0
  6
CONTINUOUS
 62
     1
  5
8D6
 10
343.052184
 20
476.556903
 30
0.0
 11
343.052184
 21
429.197399
 31
0.0
  0
LINE
  8
LC-001-002-----0
  6
CONTINUOUS
 62
     1
  5
8D7
 10
331.55591
 20
424.014061
 30
0.0
 11
331.55591
 21
427.885348
 31
0.0
  0
LINE
  8
LC-001-002-----0
  6
CONTINUOUS
 62
     1
  5
8D8
 10
331.55591
 20
427.885348
 30
0.0
 11
336.054452
 21
427.884474
 31
0.0
  0
LINE
  8
LC-001-002-----0
  6
CONTINUOUS
 62
     1
  5
8D9
 10
336.054452
 20
425.34559
 30
0.0
 11
336.054452
 21
427.884474
 31
0.0
  0
ARC
  8
LC-006-002-RND-0
  6
CONTINUOUS
 62
     1
  5
8DA
 10
135.643152
 20
512.247948
 30
0.0
 40
1.0
 50
180.0
 51
266.0
  0
LINE
  8
LC-001-002-----0
  6
CONTINUOUS
 62
     1
  5
8DB
 10
290.670058
 20
489.078622
 30
0.0
 11
290.670058
 21
488.058135
 31
0.0
  0
LINE
  8
LC-001-002-----0
  6
CONTINUOUS
 62
     1
  5
8DC
 10
139.241771
 20
515.878503
 30
0.0
 11
139.741771
 21
515.012477
 31
0.0
  0
LINE
  8
LC-001-002-----0
  6
CONTINUOUS
 62
     1
  5
8DD
 10
313.240357
 20
515.012477
 30
0.0
 11
313.240357
 21
500.77765
 31
0.0
  0
ARC
  8
LC-006-002-RND-0
  6
CONTINUOUS
 62
     1
  5
8DE
 10
311.740357
 20
500.77765
 30
0.0
 40
1.5
 50
270.0
 51
0.0
  0
LINE
  8
LC-001-002-----0
  6
CONTINUOUS
 62
     1
  5
8DF
 10
137.741771
 20
511.098756
 30
0.0
 11
137.741771
 21
517.204282
 31
0.0
  0
LINE
  8
LC-001-002-----0
  6
CONTINUOUS
 62
     1
  5
8E0
 10
311.740357
 20
499.27765
 30
0.0
 11
305.147592
 21
499.27765
 31
0.0
  0
LINE
  8
LC-001-002-----0
  6
CONTINUOUS
 62
     1
  5
8E1
 10
315.491064
 20
500.860562
 30
0.0
 11
310.112303
 21
489.312454
 31
0.0
  0
ARC
  8
LC-006-002-RND-0
  6
CONTINUOUS
 62
     1
  5
8E2
 10
148.834535
 20
497.678476
 30
0.0
 40
0.8
 50
0.0
 51
90.0
  0
LINE
  8
LC-001-002-----0
  6
CONTINUOUS
 62
     1
  5
8E3
 10
149.634535
 20
497.278476
 30
0.0
 11
149.634535
 21
497.678476
 31
0.0
  0
ARC
  8
LC-006-002-RND-0
  6
CONTINUOUS
 62
     1
  5
8E4
 10
148.834535
 20
494.178476
 30
0.0
 40
0.8
 50
0.0
 51
90.0
  0
LINE
  8
LC-001-002-----0
  6
CONTINUOUS
 62
     1
  5
8E5
 10
149.634535
 20
493.778476
 30
0.0
 11
149.634535
 21
494.178476
 31
0.0
  0
ARC
  8
LC-006-002-RND-0
  6
CONTINUOUS
 62
     1
  5
8E6
 10
148.834535
 20
493.778476
 30
0.0
 40
0.8
 50
270.0
 51
0.0
  0
LINE
  8
LC-001-002-----0
  6
CONTINUOUS
 62
     1
  5
8E7
 10
148.634535
 20
494.978476
 30
0.0
 11
148.834535
 21
494.978476
 31
0.0
  0
LINE
  8
LC-001-002-----0
  6
CONTINUOUS
 62
     1
  5
8E8
 10
148.634535
 20
492.978476
 30
0.0
 11
148.834535
 21
492.978476
 31
0.0
  0
LINE
  8
LC-001-002-----0
  6
CONTINUOUS
 62
     1
  5
8E9
 10
148.634535
 20
492.978476
 30
0.0
 11
148.634535
 21
492.572814
 31
0.0
  0
LINE
  8
LC-001-002-----0
  6
CONTINUOUS
 62
     1
  5
8EA
 10
315.491064
 20
507.154519
 30
0.0
 11
315.491064
 21
500.860562
 31
0.0
  0
LINE
  8
LC-001-002-----0
  6
CONTINUOUS
 62
     1
  5
8EB
 10
318.241064
 20
508.154519
 30
0.0
 11
316.491064
 21
508.154519
 31
0.0
  0
ARC
  8
LC-006-002-RND-0
  6
CONTINUOUS
 62
     1
  5
8EC
 10
318.241064
 20
510.654519
 30
0.0
 40
2.5
 50
270.0
 51
0.0
  0
ARC
  8
LC-006-002-RND-0
  6
CONTINUOUS
 62
     1
  5
8ED
 10
316.491064
 20
507.154519
 30
0.0
 40
1.0
 50
90.0
 51
180.0
  0
ARC
  8
LC-006-002-RND-0
  6
CONTINUOUS
 62
     1
  5
8EE
 10
136.491064
 20
507.154519
 30
0.0
 40
1.0
 50
0.0
 51
90.0
  0
LINE
  8
LC-001-002-----0
  6
CONTINUOUS
 62
     1
  5
8EF
 10
321.741064
 20
512.654519
 30
0.0
 11
320.741064
 21
510.922468
 31
0.0
  0
LINE
  8
LC-001-002-----0
  6
CONTINUOUS
 62
     1
  5
8F0
 10
321.741064
 20
513.654519
 30
0.0
 11
321.741064
 21
512.654519
 31
0.0
  0
LINE
  8
LC-001-002-----0
  6
CONTINUOUS
 62
     1
  5
8F1
 10
320.741064
 20
516.627388
 30
0.0
 11
320.741064
 21
514.654519
 31
0.0
  0
LINE
  8
LC-001-002-----0
  6
CONTINUOUS
 62
     1
  5
8F2
 10
134.643152
 20
523.877694
 30
0.0
 11
134.643152
 21
512.247948
 31
0.0
  0
LINE
  8
LC-001-002-----0
  6
CONTINUOUS
 62
     1
  5
8F3
 10
139.741771
 20
515.012477
 30
0.0
 11
139.741771
 21
500.77765
 31
0.0
  0
LINE
  8
LC-001-002-----0
  6
CONTINUOUS
 62
     1
  5
8F4
 10
141.241771
 20
499.27765
 30
0.0
 11
147.834535
 21
499.27765
 31
0.0
  0
ARC
  8
LC-006-002-RND-0
  6
CONTINUOUS
 62
     1
  5
8F5
 10
141.241771
 20
500.77765
 30
0.0
 40
1.5
 50
180.0
 51
270.0
  0
LINE
  8
LC-001-002-----0
  6
CONTINUOUS
 62
     1
  5
8F6
 10
137.741771
 20
511.098756
 30
0.0
 11
135.573396
 21
511.250383
 31
0.0
  0
ARC
  8
LC-006-002-RND-0
  6
CONTINUOUS
 62
     1
  5
8F7
 10
147.834535
 20
498.47765
 30
0.0
 40
0.8
 50
0.059159
 51
90.0
  0
LINE
  8
LC-001-002-----0
  6
CONTINUOUS
 62
     1
  5
8F8
 10
148.834535
 20
498.478476
 30
0.0
 11
148.634535
 21
498.478476
 31
0.0
  0
LINE
  8
LC-001-002-----0
  6
CONTINUOUS
 62
     1
  5
8F9
 10
148.834535
 20
496.478476
 30
0.0
 11
148.634535
 21
496.478476
 31
0.0
  0
LINE
  8
LC-001-002-----0
  6
CONTINUOUS
 62
     1
  5
8FA
 10
320.741064
 20
514.654519
 30
0.0
 11
321.741064
 21
513.654519
 31
0.0
  0
LINE
  8
LC-001-002-----0
  6
CONTINUOUS
 62
     1
  5
8FB
 10
315.240357
 20
511.098756
 30
0.0
 11
317.408731
 21
511.250383
 31
0.0
  0
LINE
  8
LC-001-002-----0
  6
CONTINUOUS
 62
     1
  5
8FC
 10
307.392819
 20
487.579108
 30
0.0
 11
297.491064
 21
487.579108
 31
0.0
  0
ARC
  8
LC-001-002-----0
  6
CONTINUOUS
 62
     1
  5
8FD
 10
292.169581
 20
489.083945
 30
0.0
 40
1.499514
 50
90.0
 51
180.0
  0
LINE
  8
LC-001-002-----0
  6
CONTINUOUS
 62
     1
  5
8FE
 10
292.169581
 20
490.583459
 30
0.0
 11
302.34824
 21
490.583459
 31
0.0
  0
LINE
  8
LC-001-002-----0
  6
CONTINUOUS
 62
     1
  5
8FF
 10
297.491064
 20
487.579108
 30
0.0
 11
293.991064
 21
484.079108
 31
0.0
  0
LINE
  8
LC-001-002-----0
  6
CONTINUOUS
 62
     1
  5
900
 10
293.991064
 20
484.079108
 30
0.0
 11
293.991064
 21
481.079108
 31
0.0
  0
ARC
  8
LC-006-002-RND-0
  6
CONTINUOUS
 62
     1
  5
901
 10
290.991064
 20
481.079108
 30
0.0
 40
3.0
 50
270.0
 51
0.0
  0
ARC
  8
LC-001-002-----0
  6
CONTINUOUS
 62
     1
  5
902
 10
325.459023
 20
452.877151
 30
0.0
 40
29.5
 50
78.07248
 51
122.093408
  0
ARC
  8
LC-001-002-----0
  6
CONTINUOUS
 62
     1
  5
903
 10
325.459023
 20
452.877151
 30
0.0
 40
29.5
 50
291.049054
 51
306.610955
  0
ARC
  8
LC-001-002-----0
  6
CONTINUOUS
 62
     1
  5
904
 10
325.459023
 20
452.877151
 30
0.0
 40
29.5
 50
237.906592
 51
281.92752
  0
ARC
  8
LC-001-002-----0
  6
CONTINUOUS
 62
     1
  5
905
 10
325.459023
 20
452.877151
 30
0.0
 40
29.5
 50
53.389045
 51
68.950946
  0
LINE
  8
LC-001-002-----0
  6
CONTINUOUS
 62
     1
  5
906
 10
268.991064
 20
480.387697
 30
0.0
 11
287.971089
 21
480.387697
 31
0.0
  0
ARC
  8
LC-006-002-RND-0
  6
CONTINUOUS
 62
     1
  5
907
 10
317.338975
 20
512.247948
 30
0.0
 40
1.0
 50
274.0
 51
0.0
  0
LINE
  8
LC-001-002-----0
  6
CONTINUOUS
 62
     1
  5
908
 10
270.991064
 20
480.387697
 30
0.0
 11
270.991064
 21
431.110265
 31
0.0
  0
LINE
  8
LC-001-002-----0
  6
CONTINUOUS
 62
     1
  5
909
 10
287.991064
 20
426.143408
 30
0.0
 11
287.991064
 21
411.391245
 31
0.0
  0
LINE
  8
LC-001-002-----0
  6
CONTINUOUS
 62
     1
  5
90A
 10
290.991064
 20
425.885251
 30
0.0
 11
290.991064
 21
412.391245
 31
0.0
  0
LINE
  8
LC-001-002-----0
  6
CONTINUOUS
 62
     1
  5
90B
 10
268.991064
 20
480.387697
 30
0.0
 11
268.991064
 21
414.391245
 31
0.0
  0
LINE
  8
LC-001-002-----0
  6
CONTINUOUS
 62
     1
  5
90C
 10
320.741064
 20
510.922468
 30
0.0
 11
320.741064
 21
510.654519
 31
0.0
  0
ARC
  8
LC-006-002-RND-0
  6
CONTINUOUS
 62
     1
  5
90D
 10
292.991064
 20
425.885251
 30
0.0
 40
2.0
 50
90.0
 51
180.0
  0
LINE
  8
LC-012-207-----0
  6
CONTINUOUS
  5
90E
 10
270.991064
 20
411.391245
 30
0.0
 11
289.991064
 21
411.391245
 31
0.0
  0
LINE
  8
LC-001-002-----0
  6
CONTINUOUS
 62
     1
  5
90F
 10
137.491064
 20
507.154519
 30
0.0
 11
137.491064
 21
500.860562
 31
0.0
  0
LINE
  8
LC-001-002-----0
  6
CONTINUOUS
 62
     1
  5
910
 10
131.241064
 20
513.654519
 30
0.0
 11
131.241064
 21
512.654519
 31
0.0
  0
LINE
  8
LC-001-002-----0
  6
CONTINUOUS
 62
     1
  5
911
 10
132.241064
 20
514.654519
 30
0.0
 11
131.241064
 21
513.654519
 31
0.0
  0
LINE
  8
LC-001-002-----0
  6
CONTINUOUS
 62
     1
  5
912
 10
313.740357
 20
517.095278
 30
0.0
 11
313.740357
 21
515.878503
 31
0.0
  0
LINE
  8
LC-001-002-----0
  6
CONTINUOUS
 62
     1
  5
913
 10
155.491064
 20
487.579108
 30
0.0
 11
158.991064
 21
484.079108
 31
0.0
  0
LINE
  8
LC-001-002-----0
  6
CONTINUOUS
 62
     1
  5
914
 10
131.241064
 20
512.654519
 30
0.0
 11
132.241064
 21
510.922468
 31
0.0
  0
LINE
  8
LC-001-002-----0
  6
CONTINUOUS
 62
     1
  5
915
 10
313.740357
 20
515.878503
 30
0.0
 11
313.240357
 21
515.012477
 31
0.0
  0
ARC
  8
LC-006-002-RND-0
  6
CONTINUOUS
 62
     1
  5
916
 10
302.34824
 20
492.572814
 30
0.0
 40
1.999352
 50
270.0
 51
0.0
  0
LINE
  8
LC-001-002-----0
  6
CONTINUOUS
 62
     1
  5
917
 10
304.347592
 20
492.978476
 30
0.0
 11
304.347592
 21
492.572814
 31
0.0
  0
ARC
  8
LC-006-002-RND-0
  6
CONTINUOUS
 62
     1
  5
918
 10
304.147592
 20
493.778476
 30
0.0
 40
0.8
 50
180.0
 51
270.0
  0
LINE
  8
LC-001-002-----0
  6
CONTINUOUS
 62
     1
  5
919
 10
303.347592
 20
493.778476
 30
0.0
 11
303.347592
 21
494.178476
 31
0.0
  0
ARC
  8
LC-006-002-RND-0
  6
CONTINUOUS
 62
     1
  5
91A
 10
304.147592
 20
494.178476
 30
0.0
 40
0.8
 50
90.0
 51
180.0
  0
LINE
  8
LC-001-002-----0
  6
CONTINUOUS
 62
     1
  5
91B
 10
304.347592
 20
496.478476
 30
0.0
 11
304.347592
 21
494.978476
 31
0.0
  0
ARC
  8
LC-006-002-RND-0
  6
CONTINUOUS
 62
     1
  5
91C
 10
304.147592
 20
497.278476
 30
0.0
 40
0.8
 50
180.0
 51
270.0
  0
LINE
  8
LC-001-002-----0
  6
CONTINUOUS
 62
     1
  5
91D
 10
303.347592
 20
497.278476
 30
0.0
 11
303.347592
 21
497.678476
 31
0.0
  0
ARC
  8
LC-006-002-RND-0
  6
CONTINUOUS
 62
     1
  5
91E
 10
304.147592
 20
497.678476
 30
0.0
 40
0.8
 50
90.0
 51
180.0
  0
ARC
  8
LC-006-002-RND-0
  6
CONTINUOUS
 62
     1
  5
91F
 10
305.147592
 20
498.47765
 30
0.0
 40
0.8
 50
90.0
 51
179.940841
  0
ARC
  8
LC-013-207-RND-0
  6
CONTINUOUS
  5
921
 10
289.991064
 20
412.391245
 30
0.0
 40
1.0
 50
270.0
 51
0.0
  0
LINE
  8
LC-001-002-----0
  6
CONTINUOUS
 62
     1
  5
922
 10
156.214132
 20
434.091245
 30
0.0
 11
159.991064
 21
434.091245
 31
0.0
  0
LINE
  8
LC-012-207-----0
  6
CONTINUOUS
  5
923
 10
156.214132
 20
411.391245
 30
0.0
 11
270.991064
 21
411.391245
 31
0.0
  0
LINE
  8
LC-012-207-----0
  6
CONTINUOUS
  5
924
 10
153.714132
 20
414.391245
 30
0.0
 11
198.230458
 21
414.391245
 31
0.0
  0
LINE
  8
LC-001-002-----0
  6
CONTINUOUS
 62
     1
  5
925
 10
153.714132
 20
431.891245
 30
0.0
 11
165.011003
 21
431.891245
 31
0.0
  0
CIRCLE
  8
LC-001-002-----0
  6
CONTINUOUS
 62
     1
  5
926
 10
164.241058
 20
485.137697
 30
0.0
 40
3.5
  0
CIRCLE
  8
LC-001-002-----0
  6
CONTINUOUS
 62
     1
  5
927
 10
288.741058
 20
485.137697
 30
0.0
 40
3.5
  0
LINE
  8
LC-001-002-----0
  6
CONTINUOUS
 62
     1
  5
928
 10
227.616817
 20
505.309975
 30
0.0
 11
230.165263
 21
505.220981
 31
0.0
  0
LINE
  8
LC-001-002-----0
  6
CONTINUOUS
 62
     1
  5
929
 10
264.844125
 20
504.009968
 30
0.0
 11
267.392571
 21
503.920975
 31
0.0
  0
LINE
  8
LC-001-002-----0
  6
CONTINUOUS
 62
     1
  5
92A
 10
226.234032
 20
511.558129
 30
0.0
 11
269.207837
 21
510.057451
 31
0.0
  0
LINE
  8
LC-001-002-----0
  6
CONTINUOUS
 62
     1
  5
92B
 10
226.234032
 20
511.558129
 30
0.0
 11
226.129333
 21
508.559957
 31
0.0
  0
LINE
  8
LC-001-002-----0
  6
CONTINUOUS
 62
     1
  5
92C
 10
269.207837
 20
510.057451
 30
0.0
 11
269.103139
 21
507.059278
 31
0.0
  0
LINE
  8
LC-001-002-----0
  6
CONTINUOUS
 62
     1
  5
92D
 10
264.955667
 20
507.204111
 30
0.0
 11
264.914136
 21
506.014836
 31
0.0
  0
LINE
  8
LC-001-002-----0
  6
CONTINUOUS
 62
     1
  5
92E
 10
230.276805
 20
508.415124
 30
0.0
 11
230.235275
 21
507.225849
 31
0.0
  0
LINE
  8
LC-001-002-----0
  6
CONTINUOUS
 62
     1
  5
92F
 10
267.392435
 20
503.917067
 30
0.0
 11
267.277267
 21
500.619077
 31
0.0
  0
LINE
  8
LC-001-002-----0
  6
CONTINUOUS
 62
     1
  5
930
 10
267.277267
 20
500.619077
 30
0.0
 11
227.501512
 21
502.008077
 31
0.0
  0
LINE
  8
LC-001-002-----0
  6
CONTINUOUS
 62
     1
  5
931
 10
227.61668
 20
505.306067
 30
0.0
 11
227.501512
 21
502.008077
 31
0.0
  0
LINE
  8
LC-001-002-----0
  6
CONTINUOUS
 62
     1
  5
932
 10
226.129333
 20
508.559957
 30
0.0
 11
230.276805
 21
508.415124
 31
0.0
  0
LINE
  8
LC-001-002-----0
  6
CONTINUOUS
 62
     1
  5
933
 10
264.955667
 20
507.204111
 30
0.0
 11
269.103139
 21
507.059278
 31
0.0
  0
LINE
  8
LC-001-002-----0
  6
CONTINUOUS
 62
     1
  5
934
 10
262.987901
 20
508.162077
 30
0.0
 11
262.730038
 21
500.77787
 31
0.0
  0
LINE
  8
LC-001-002-----0
  6
CONTINUOUS
 62
     1
  5
935
 10
232.306602
 20
509.233492
 30
0.0
 11
232.04874
 21
501.849284
 31
0.0
  0
ARC
  8
LC-001-002-----0
  6
CONTINUOUS
 62
     1
  5
936
 10
249.232987
 20
554.107305
 30
0.0
 40
45.964734
 50
248.491197
 51
287.508803
  0
ARC
  8
LC-001-002-----0
  6
CONTINUOUS
 62
     1
  5
937
 10
249.232987
 20
554.107305
 30
0.0
 40
47.96
 50
249.333544
 51
286.666456
  0
LINE
  8
LC-001-002-----0
  6
CONTINUOUS
 62
     1
  5
938
 10
230.235275
 20
507.225849
 30
0.0
 11
230.165127
 21
505.217073
 31
0.0
  0
LINE
  8
LC-001-002-----0
  6
CONTINUOUS
 62
     1
  5
939
 10
264.914136
 20
506.014836
 30
0.0
 11
264.843988
 21
504.006061
 31
0.0
  0
LINE
  8
LC-001-002-----0
  6
CONTINUOUS
 62
     1
  5
93A
 10
226.129333
 20
508.559957
 30
0.0
 11
226.087803
 21
507.370682
 31
0.0
  0
LINE
  8
LC-001-002-----0
  6
CONTINUOUS
 62
     1
  5
93B
 10
226.087803
 20
507.370682
 30
0.0
 11
230.235275
 21
507.225849
 31
0.0
  0
LINE
  8
LC-001-002-----0
  6
CONTINUOUS
 62
     1
  5
93C
 10
264.914136
 20
506.014836
 30
0.0
 11
269.061608
 21
505.870003
 31
0.0
  0
LINE
  8
LC-001-002-----0
  6
CONTINUOUS
 62
     1
  5
93D
 10
269.103139
 20
507.059278
 30
0.0
 11
269.061608
 21
505.870003
 31
0.0
  0
LINE
  8
LC-001-002-----0
  6
CONTINUOUS
 62
     1
  5
93E
 10
264.955667
 20
507.204111
 30
0.0
 11
269.103139
 21
507.059278
 31
0.0
  0
LINE
  8
LC-001-002-----0
  6
CONTINUOUS
 62
     1
  5
93F
 10
230.276805
 20
508.415124
 30
0.0
 11
230.235275
 21
507.225849
 31
0.0
  0
LINE
  8
LC-001-002-----0
  6
CONTINUOUS
 62
     1
  5
940
 10
264.955667
 20
507.204111
 30
0.0
 11
264.914136
 21
506.014836
 31
0.0
  0
LINE
  8
LC-012-207-----0
  6
CONTINUOUS
  5
941
 10
100.714132
 20
414.391245
 30
0.0
 11
153.714132
 21
414.391245
 31
0.0
  0
LINE
  8
LC-001-002-----0
  6
CONTINUOUS
 62
     1
  5
942
 10
146.964132
 20
453.891245
 30
0.0
 11
146.964132
 21
434.091245
 31
0.0
  0
LINE
  8
LC-001-002-----0
  6
CONTINUOUS
 62
     1
  5
943
 10
88.464132
 20
453.891245
 30
0.0
 11
88.464132
 21
432.891245
 31
0.0
  0
LINE
  8
LC-001-002-----0
  6
CONTINUOUS
 62
     1
  5
944
 10
88.464132
 20
453.891245
 30
0.0
 11
90.964132
 21
453.891245
 31
0.0
  0
LINE
  8
LC-001-002-----0
  6
CONTINUOUS
 62
     1
  5
945
 10
89.464132
 20
431.891245
 30
0.0
 11
92.714132
 21
431.891245
 31
0.0
  0
LINE
  8
LC-001-002-----0
  6
CONTINUOUS
 62
     1
  5
946
 10
143.464132
 20
452.891245
 30
0.0
 11
143.464132
 21
451.391245
 31
0.0
  0
LINE
  8
LC-001-002-----0
  6
CONTINUOUS
 62
     1
  5
947
 10
91.964132
 20
452.891245
 30
0.0
 11
91.964132
 21
451.391245
 31
0.0
  0
LINE
  8
LC-012-207-----0
  6
CONTINUOUS
  5
948
 10
94.714132
 20
429.891245
 30
0.0
 11
94.714132
 21
417.391245
 31
0.0
  0
LINE
  8
LC-001-002-----0
  6
CONTINUOUS
 62
     1
  5
949
 10
146.964132
 20
434.091245
 30
0.0
 11
156.214132
 21
434.091245
 31
0.0
  0
LINE
  8
LC-001-002-----0
  6
CONTINUOUS
 62
     1
  5
94A
 10
137.714132
 20
431.891245
 30
0.0
 11
153.714132
 21
431.891245
 31
0.0
  0
LINE
  8
LC-001-002-----0
  6
CONTINUOUS
 62
     1
  5
94B
 10
90.964132
 20
450.391245
 30
0.0
 11
90.964132
 21
449.792394
 31
0.0
  0
LINE
  8
LC-001-002-----0
  6
CONTINUOUS
 62
     1
  5
94C
 10
144.464132
 20
450.391245
 30
0.0
 11
144.464132
 21
449.792394
 31
0.0
  0
ARC
  8
LC-006-002-RND-0
  6
CONTINUOUS
 62
     1
  5
94D
 10
90.964132
 20
452.891245
 30
0.0
 40
1.0
 50
0.0
 51
90.0
  0
ARC
  8
LC-006-002-RND-0
  6
CONTINUOUS
 62
     1
  5
94E
 10
90.964132
 20
451.391245
 30
0.0
 40
1.0
 50
270.0
 51
0.0
  0
ARC
  8
LC-006-002-RND-0
  6
CONTINUOUS
 62
     1
  5
94F
 10
144.464132
 20
452.891245
 30
0.0
 40
1.0
 50
90.0
 51
180.0
  0
LINE
  8
LC-012-207-----0
  6
CONTINUOUS
  5
950
 10
97.714132
 20
417.391245
 30
0.0
 11
97.714132
 21
434.091245
 31
0.0
  0
ARC
  8
LC-012-207-----0
  6
CONTINUOUS
  5
951
 10
100.714132
 20
417.391245
 30
0.0
 40
6.0
 50
180.0
 51
270.0
  0
ARC
  8
LC-012-207-----0
  6
CONTINUOUS
  5
952
 10
100.714132
 20
417.391245
 30
0.0
 40
3.0
 50
180.0
 51
270.0
  0
ARC
  8
LC-006-002-RND-0
  6
CONTINUOUS
 62
     1
  5
953
 10
144.464132
 20
451.391245
 30
0.0
 40
1.0
 50
180.0
 51
270.0
  0
LINE
  8
LC-001-002-----0
  6
CONTINUOUS
 62
     1
  5
954
 10
140.214132
 20
435.091245
 30
0.0
 11
140.214132
 21
434.091245
 31
0.0
  0
LINE
  8
LC-001-002-----0
  6
CONTINUOUS
 62
     1
  5
955
 10
95.214132
 20
435.091245
 30
0.0
 11
95.214132
 21
434.091245
 31
0.0
  0
LINE
  8
LC-001-002-----0
  6
CONTINUOUS
 62
     1
  5
956
 10
90.964132
 20
435.091245
 30
0.0
 11
95.214132
 21
435.091245
 31
0.0
  0
LINE
  8
LC-012-207-----0
  6
CONTINUOUS
  5
957
 10
137.714132
 20
431.891245
 30
0.0
 11
137.714132
 21
434.091245
 31
0.0
  0
LINE
  8
LC-001-002-----0
  6
CONTINUOUS
 62
     1
  5
958
 10
146.964132
 20
431.891245
 30
0.0
 11
140.714132
 21
431.891245
 31
0.0
  0
LINE
  8
LC-001-002-----0
  6
CONTINUOUS
 62
     1
  5
959
 10
97.714132
 20
434.091245
 30
0.0
 11
137.714132
 21
434.091245
 31
0.0
  0
LINE
  8
LC-001-002-----0
  6
CONTINUOUS
 62
     1
  5
95A
 10
90.964132
 20
453.891245
 30
0.0
 11
93.914132
 21
453.891245
 31
0.0
  0
LINE
  8
LC-001-002-----0
  6
CONTINUOUS
 62
     1
  5
95B
 10
137.714132
 20
434.091245
 30
0.0
 11
140.214132
 21
434.091245
 31
0.0
  0
LINE
  8
LC-001-002-----0
  6
CONTINUOUS
 62
     1
  5
95C
 10
95.214132
 20
434.091245
 30
0.0
 11
97.714132
 21
434.091245
 31
0.0
  0
LINE
  8
LC-012-207-----0
  6
CONTINUOUS
  5
95D
 10
100.714132
 20
411.391245
 30
0.0
 11
156.214132
 21
411.391245
 31
0.0
  0
ARC
  8
LC-006-002-RND-0
  6
CONTINUOUS
 62
     1
  5
95E
 10
89.464132
 20
432.891245
 30
0.0
 40
1.0
 50
180.0
 51
270.0
  0
ARC
  8
LC-006-002-RND-0
  6
CONTINUOUS
 62
     1
  5
95F
 10
92.714132
 20
429.891245
 30
0.0
 40
2.0
 50
0.0
 51
90.0
  0
LINE
  8
LC-001-002-----0
  6
CONTINUOUS
 62
     1
  5
960
 10
140.214132
 20
435.091245
 30
0.0
 11
144.464132
 21
435.091245
 31
0.0
  0
LINE
  8
LC-001-002-----0
  6
CONTINUOUS
 62
     1
  5
961
 10
144.464132
 20
453.891245
 30
0.0
 11
146.964132
 21
453.891245
 31
0.0
  0
CIRCLE
  8
LC-001-002-----0
  6
CONTINUOUS
 62
     1
  5
962
 10
92.664132
 20
437.841245
 30
0.0
 40
2.75
  0
CIRCLE
  8
LC-001-002-----0
  6
CONTINUOUS
 62
     1
  5
963
 10
142.764132
 20
437.841245
 30
0.0
 40
2.75
  0
LINE
  8
LC-014-206-----0
  6
CONTINUOUS
  5
965
 10
146.814132
 20
456.391245
 30
0.0
 11
146.814132
 21
453.891245
 31
0.0
  0
LINE
  8
LC-014-206-----0
  6
CONTINUOUS
  5
966
 10
87.714132
 20
506.841245
 30
0.0
 11
41.214132
 21
506.841245
 31
0.0
  0
LINE
  8
LC-014-206-----0
  6
CONTINUOUS
  5
967
 10
97.714132
 20
434.102326
 30
0.0
 11
137.714132
 21
434.102326
 31
0.0
  0
LINE
  8
LC-014-206-----0
  6
CONTINUOUS
  5
968
 10
95.414132
 20
435.602326
 30
0.0
 11
95.414132
 21
442.692394
 31
0.0
  0
LINE
  8
LC-014-206-----0
  6
CONTINUOUS
  5
969
 10
27.714132
 20
509.341245
 30
0.0
 11
27.714132
 21
506.841245
 31
0.0
  0
LINE
  8
LC-014-206-----0
  6
CONTINUOUS
  5
96A
 10
93.914132
 20
449.892394
 30
0.0
 11
91.264132
 21
449.892394
 31
0.0
  0
LINE
  8
LC-014-206-----0
  6
CONTINUOUS
  5
96B
 10
27.714132
 20
509.341245
 30
0.0
 11
30.214132
 21
509.341245
 31
0.0
  0
ARC
  8
LC-014-206-----0
  6
CONTINUOUS
  5
96C
 10
95.714132
 20
454.391245
 30
0.0
 40
2.0
 50
0.0
 51
90.0
  0
ARC
  8
LC-014-206-----0
  6
CONTINUOUS
  5
96D
 10
93.914132
 20
451.392394
 30
0.0
 40
1.5
 50
270.0
 51
0.0
  0
LINE
  8
LC-014-206-----0
  6
CONTINUOUS
  5
96E
 10
97.714132
 20
454.391245
 30
0.0
 11
97.714132
 21
434.102326
 31
0.0
  0
LINE
  8
LC-014-206-----0
  6
CONTINUOUS
  5
96F
 10
140.660126
 20
456.391245
 30
0.0
 11
146.814132
 21
456.391245
 31
0.0
  0
LINE
  8
LC-014-206-----0
  6
CONTINUOUS
  5
970
 10
94.914132
 20
447.392394
 30
0.0
 11
91.264132
 21
447.392394
 31
0.0
  0
ARC
  8
LC-014-206-----0
  6
CONTINUOUS
  5
971
 10
140.660126
 20
456.891245
 30
0.0
 40
0.5
 50
180.054053
 51
270.0
  0
ARC
  8
LC-014-206-----0
  6
CONTINUOUS
  5
972
 10
96.914132
 20
435.602326
 30
0.0
 40
1.5
 50
180.0
 51
270.0
  0
ARC
  8
LC-014-206-----0
  6
CONTINUOUS
  5
973
 10
87.660149
 20
456.841245
 30
0.0
 40
52.5
 50
0.054053
 51
17.036286
  0
ARC
  8
LC-014-206-----0
  6
CONTINUOUS
  5
974
 10
138.514132
 20
435.602326
 30
0.0
 40
1.5
 50
270.0
 51
0.0
  0
LINE
  8
LC-014-206-----0
  6
CONTINUOUS
  5
975
 10
137.714132
 20
434.102326
 30
0.0
 11
138.514132
 21
434.102326
 31
0.0
  0
LINE
  8
LC-014-206-----0
  6
CONTINUOUS
  5
976
 10
140.014132
 20
435.29762
 30
0.0
 11
140.014132
 21
446.892394
 31
0.0
  0
LINE
  8
LC-014-206-----0
  6
CONTINUOUS
  5
977
 10
137.714132
 20
456.841245
 30
0.0
 11
137.714132
 21
434.102326
 31
0.0
  0
LINE
  8
LC-014-206-----0
  6
CONTINUOUS
  5
978
 10
140.514132
 20
447.392394
 30
0.0
 11
144.164132
 21
447.392394
 31
0.0
  0
ARC
  8
LC-014-206-----0
  6
CONTINUOUS
  5
979
 10
140.514132
 20
446.892394
 30
0.0
 40
0.5
 50
90.0
 51
180.0
  0
ARC
  8
LC-014-206-----0
  6
CONTINUOUS
  5
97A
 10
144.164132
 20
447.892394
 30
0.0
 40
0.5
 50
270.0
 51
0.0
  0
ARC
  8
LC-014-206-----0
  6
CONTINUOUS
  5
97B
 10
144.164132
 20
449.392394
 30
0.0
 40
0.5
 50
0.0
 51
90.0
  0
LINE
  8
LC-014-206-----0
  6
CONTINUOUS
  5
97C
 10
141.514132
 20
449.892394
 30
0.0
 11
142.014132
 21
449.892394
 31
0.0
  0
ARC
  8
LC-014-206-----0
  6
CONTINUOUS
  5
97D
 10
87.660149
 20
456.841245
 30
0.0
 40
52.5
 50
17.036286
 51
90.0
  0
ARC
  8
LC-014-206-----0
  6
CONTINUOUS
  5
97E
 10
141.514132
 20
451.392394
 30
0.0
 40
1.5
 50
180.0
 51
270.0
  0
ARC
  8
LC-014-206-----0
  6
CONTINUOUS
  5
97F
 10
87.714132
 20
456.841245
 30
0.0
 40
50.0
 50
0.0
 51
70.051556
  0
LINE
  8
LC-014-206-----0
  6
CONTINUOUS
  5
980
 10
144.664132
 20
449.392394
 30
0.0
 11
144.664132
 21
447.892394
 31
0.0
  0
LINE
  8
LC-014-206-----0
  6
CONTINUOUS
  5
981
 10
97.714132
 20
434.102326
 30
0.0
 11
96.914132
 21
434.102326
 31
0.0
  0
ARC
  8
LC-014-206-----0
  6
CONTINUOUS
  5
982
 10
94.914132
 20
446.892394
 30
0.0
 40
0.5
 50
0.0
 51
90.0
  0
ARC
  8
LC-014-206-----0
  6
CONTINUOUS
  5
983
 10
91.264132
 20
447.892394
 30
0.0
 40
0.5
 50
180.0
 51
270.0
  0
ARC
  8
LC-014-206-----0
  6
CONTINUOUS
  5
984
 10
91.264132
 20
449.392394
 30
0.0
 40
0.5
 50
90.0
 51
180.0
  0
LINE
  8
LC-014-206-----0
  6
CONTINUOUS
  5
985
 10
90.764132
 20
449.392394
 30
0.0
 11
90.764132
 21
447.892394
 31
0.0
  0
ARC
  8
LC-014-206-----0
  6
CONTINUOUS
  5
986
 10
140.514132
 20
453.391245
 30
0.0
 40
0.5
 50
90.0
 51
180.0
  0
LINE
  8
LC-014-206-----0
  6
CONTINUOUS
  5
987
 10
140.014132
 20
453.391245
 30
0.0
 11
140.014132
 21
451.392394
 31
0.0
  0
LINE
  8
LC-014-206-----0
  6
CONTINUOUS
  5
988
 10
87.714132
 20
503.841245
 30
0.0
 11
87.714132
 21
506.841245
 31
0.0
  0
LINE
  8
LC-014-206-----0
  6
CONTINUOUS
  5
989
 10
87.714132
 20
503.841245
 30
0.0
 11
104.772855
 21
503.841245
 31
0.0
  0
LINE
  8
LC-014-206-----0
  6
CONTINUOUS
  5
98A
 10
32.714132
 20
511.091245
 30
0.0
 11
32.714132
 21
506.841245
 31
0.0
  0
ARC
  8
LC-014-206-----0
  6
CONTINUOUS
  5
98B
 10
33.214132
 20
511.091245
 30
0.0
 40
0.5
 50
90.0
 51
180.0
  0
LINE
  8
LC-014-206-----0
  6
CONTINUOUS
  5
98C
 10
40.714132
 20
511.591245
 30
0.0
 11
38.464132
 21
511.591245
 31
0.0
  0
LINE
  8
LC-014-206-----0
  6
CONTINUOUS
  5
98D
 10
42.214132
 20
514.091245
 30
0.0
 11
31.714132
 21
514.091245
 31
0.0
  0
LINE
  8
LC-014-206-----0
  6
CONTINUOUS
  5
98E
 10
32.714132
 20
506.841245
 30
0.0
 11
27.714132
 21
506.841245
 31
0.0
  0
LINE
  8
LC-014-206-----0
  6
CONTINUOUS
  5
98F
 10
43.714132
 20
509.341245
 30
0.0
 11
87.660149
 21
509.341245
 31
0.0
  0
ARC
  8
LC-014-206-----0
  6
CONTINUOUS
  5
990
 10
31.714132
 20
513.091245
 30
0.0
 40
1.0
 50
90.0
 51
180.0
  0
ARC
  8
LC-014-206-----0
  6
CONTINUOUS
  5
991
 10
42.214132
 20
513.091245
 30
0.0
 40
1.0
 50
0.0
 51
90.0
  0
ARC
  8
LC-014-206-----0
  6
CONTINUOUS
  5
992
 10
43.714132
 20
509.841245
 30
0.0
 40
0.5
 50
180.0
 51
270.0
  0
ARC
  8
LC-014-206-----0
  6
CONTINUOUS
  5
993
 10
30.214132
 20
509.841245
 30
0.0
 40
0.5
 50
270.0
 51
0.0
  0
ARC
  8
LC-014-206-----0
  6
CONTINUOUS
  5
994
 10
40.714132
 20
511.091245
 30
0.0
 40
0.5
 50
0.0
 51
90.0
  0
LINE
  8
LC-014-206-----0
  6
CONTINUOUS
  5
995
 10
41.214132
 20
511.091245
 30
0.0
 11
41.214132
 21
506.841245
 31
0.0
  0
LINE
  8
LC-014-206-----0
  6
CONTINUOUS
  5
996
 10
43.214132
 20
513.091245
 30
0.0
 11
43.214132
 21
509.841245
 31
0.0
  0
LINE
  8
LC-014-206-----0
  6
CONTINUOUS
  5
997
 10
30.714132
 20
513.091245
 30
0.0
 11
30.714132
 21
509.841245
 31
0.0
  0
LINE
  8
LC-014-206-----0
  6
CONTINUOUS
  5
998
 10
95.714132
 20
456.391245
 30
0.0
 11
41.214132
 21
456.391245
 31
0.0
  0
LINE
  8
LC-014-206-----0
  6
CONTINUOUS
  5
999
 10
27.714132
 20
453.841245
 30
0.0
 11
27.714132
 21
456.341245
 31
0.0
  0
LINE
  8
LC-014-206-----0
  6
CONTINUOUS
  5
99A
 10
27.714132
 20
453.841245
 30
0.0
 11
30.214132
 21
453.841245
 31
0.0
  0
LINE
  8
LC-014-206-----0
  6
CONTINUOUS
  5
99B
 10
32.714132
 20
452.091245
 30
0.0
 11
32.714132
 21
456.341245
 31
0.0
  0
ARC
  8
LC-014-206-----0
  6
CONTINUOUS
  5
99C
 10
33.214132
 20
452.091245
 30
0.0
 40
0.5
 50
180.0
 51
270.0
  0
LINE
  8
LC-014-206-----0
  6
CONTINUOUS
  5
99D
 10
40.714132
 20
451.591245
 30
0.0
 11
33.214132
 21
451.591245
 31
0.0
  0
LINE
  8
LC-014-206-----0
  6
CONTINUOUS
  5
99E
 10
42.214132
 20
449.091245
 30
0.0
 11
31.714132
 21
449.091245
 31
0.0
  0
LINE
  8
LC-014-206-----0
  6
CONTINUOUS
  5
99F
 10
32.714132
 20
456.341245
 30
0.0
 11
27.714132
 21
456.341245
 31
0.0
  0
ARC
  8
LC-014-206-----0
  6
CONTINUOUS
  5
9A0
 10
31.714132
 20
450.091245
 30
0.0
 40
1.0
 50
180.0
 51
270.0
  0
ARC
  8
LC-014-206-----0
  6
CONTINUOUS
  5
9A1
 10
42.214132
 20
450.091245
 30
0.0
 40
1.0
 50
270.0
 51
0.0
  0
ARC
  8
LC-014-206-----0
  6
CONTINUOUS
  5
9A2
 10
43.714132
 20
453.341245
 30
0.0
 40
0.5
 50
90.0
 51
180.0
  0
ARC
  8
LC-014-206-----0
  6
CONTINUOUS
  5
9A3
 10
30.214132
 20
453.341245
 30
0.0
 40
0.5
 50
0.0
 51
90.0
  0
ARC
  8
LC-014-206-----0
  6
CONTINUOUS
  5
9A4
 10
40.714132
 20
452.091245
 30
0.0
 40
0.5
 50
270.0
 51
0.0
  0
LINE
  8
LC-014-206-----0
  6
CONTINUOUS
  5
9A5
 10
41.214132
 20
452.091245
 30
0.0
 11
41.214132
 21
456.391245
 31
0.0
  0
LINE
  8
LC-014-206-----0
  6
CONTINUOUS
  5
9A6
 10
43.214132
 20
450.091245
 30
0.0
 11
43.214132
 21
453.341245
 31
0.0
  0
LINE
  8
LC-014-206-----0
  6
CONTINUOUS
  5
9A7
 10
30.714132
 20
450.091245
 30
0.0
 11
30.714132
 21
453.341245
 31
0.0
  0
LINE
  8
LC-014-206-----0
  6
CONTINUOUS
  5
9A8
 10
142.814132
 20
449.892394
 30
0.0
 11
144.164132
 21
449.892394
 31
0.0
  0
LINE
  8
LC-001-002-----0
  6
CONTINUOUS
 62
     1
  5
9A9
 10
140.514132
 20
453.891245
 30
0.0
 11
146.814132
 21
453.891245
 31
0.0
  0
LINE
  8
LC-001-002-----0
  6
CONTINUOUS
 62
     1
  5
9AA
 10
142.014132
 20
453.892394
 30
0.0
 11
142.814132
 21
453.892394
 31
0.0
  0
LINE
  8
LC-001-002-----0
  6
CONTINUOUS
 62
     1
  5
9AB
 10
142.014132
 20
449.892394
 30
0.0
 11
142.814132
 21
449.892394
 31
0.0
  0
LINE
  8
LC-014-206-----0
  6
CONTINUOUS
  5
9AC
 10
35.464132
 20
511.591245
 30
0.0
 11
33.214132
 21
511.591245
 31
0.0
  0
LINE
  8
LC-001-002-----0
  6
CONTINUOUS
 62
     1
  5
9AD
 10
35.464132
 20
511.591245
 30
0.0
 11
38.464132
 21
511.591245
 31
0.0
  0
LINE
  8
LC-014-206-----0
  6
CONTINUOUS
  5
9AE
 10
95.414132
 20
452.391245
 30
0.0
 11
95.414132
 21
451.392394
 31
0.0
  0
ARC
  8
LC-015-206-RND-0
  6
CONTINUOUS
  5
9B0
 10
93.914132
 20
452.391245
 30
0.0
 40
1.5
 50
0.0
 51
90.0
  0
LINE
  8
LC-014-206-----0
  6
CONTINUOUS
  5
9B1
 10
43.714132
 20
453.891245
 30
0.0
 11
93.914132
 21
453.891245
 31
0.0
  0
LINE
  8
LC-014-206-----0
  6
CONTINUOUS
  5
9B2
 10
95.414132
 20
444.992394
 30
0.0
 11
95.414132
 21
446.892394
 31
0.0
  0
LINE
  8
LC-001-002-----0
  6
CONTINUOUS
 62
     1
  5
9B3
 10
95.414132
 20
444.992394
 30
0.0
 11
95.414132
 21
442.692394
 31
0.0
  0
LINE
  8
LC-001-002-----0
  6
CONTINUOUS
 62
     1
  5
9B4
 10
32.714132
 20
506.841245
 30
0.0
 11
32.714132
 21
456.341245
 31
0.0
  0
LINE
  8
LC-001-002-----0
  6
CONTINUOUS
 62
     1
  5
9B5
 10
41.214132
 20
506.841245
 30
0.0
 11
41.214132
 21
456.341245
 31
0.0
  0
LINE
  8
LC-001-002-----0
  6
CONTINUOUS
 62
     1
  5
9B6
 10
27.714132
 20
506.841245
 30
0.0
 11
27.714132
 21
456.341245
 31
0.0
  0
ARC
  8
LC-006-002-RND-0
  6
CONTINUOUS
 62
     1
  5
9B7
 10
40.780832
 20
453.806645
 30
0.0
 40
0.4333
 50
0.0
 51
100.0
  0
ARC
  8
LC-006-002-RND-0
  6
CONTINUOUS
 62
     1
  5
9B8
 10
38.383724
 20
454.617478
 30
0.0
 40
0.25998
 50
165.0
 51
210.0
  0
ARC
  8
LC-006-002-RND-0
  6
CONTINUOUS
 62
     1
  5
9B9
 10
38.661202
 20
454.136872
 30
0.0
 40
0.25998
 50
210.0
 51
280.0
  0
LINE
  8
LC-001-002-----0
  6
CONTINUOUS
 62
     1
  5
9BA
 10
37.144105
 20
451.361205
 30
0.0
 11
37.8302
 21
451.361205
 31
0.0
  0
LINE
  8
LC-001-002-----0
  6
CONTINUOUS
 62
     1
  5
9BB
 10
38.436052
 20
454.006882
 30
0.0
 11
38.158575
 21
454.487488
 31
0.0
  0
ARC
  8
LC-001-002-----0
  6
CONTINUOUS
 62
     1
  5
9BC
 10
36.793872
 20
450.927905
 30
0.0
 40
0.08666
 50
210.0
 51
330.0
  0
LINE
  8
LC-001-002-----0
  6
CONTINUOUS
 62
     1
  5
9BD
 10
38.116179
 20
457.28665
 30
0.0
 11
34.151594
 21
454.997696
 31
0.0
  0
LINE
  8
LC-001-002-----0
  6
CONTINUOUS
 62
     1
  5
9BE
 10
38.708078
 20
456.83247
 30
0.0
 11
38.132602
 21
454.684765
 31
0.0
  0
ARC
  8
LC-001-002-----0
  6
CONTINUOUS
 62
     1
  5
9BF
 10
38.318065
 20
456.936974
 30
0.0
 40
0.403771
 50
345.0
 51
120.0
  0
LINE
  8
LC-001-002-----0
  6
CONTINUOUS
 62
     1
  5
9C0
 10
36.718823
 20
450.884575
 30
0.0
 11
36.44364
 21
451.361205
 31
0.0
  0
LINE
  8
LC-001-002-----0
  6
CONTINUOUS
 62
     1
  5
9C1
 10
33.970605
 20
451.931411
 30
0.0
 11
33.503081
 21
453.215921
 31
0.0
  0
ARC
  8
LC-001-002-----0
  6
CONTINUOUS
 62
     1
  5
9C2
 10
34.889056
 20
453.720374
 30
0.0
 40
1.474924
 50
120.0
 51
200.0
  0
LINE
  8
LC-001-002-----0
  6
CONTINUOUS
 62
     1
  5
9C3
 10
36.868922
 20
450.884575
 30
0.0
 11
37.144105
 21
451.361205
 31
0.0
  0
ARC
  8
LC-001-002-----0
  6
CONTINUOUS
 62
     1
  5
9C4
 10
38.180432
 20
450.927905
 30
0.0
 40
0.08666
 50
210.0
 51
330.0
  0
LINE
  8
LC-001-002-----0
  6
CONTINUOUS
 62
     1
  5
9C5
 10
40.705591
 20
454.233362
 30
0.0
 11
38.706347
 21
453.880841
 31
0.0
  0
ARC
  8
LC-006-002-RND-0
  6
CONTINUOUS
 62
     1
  5
9C6
 10
40.780832
 20
509.375846
 30
0.0
 40
0.4333
 50
260.0
 51
0.0
  0
ARC
  8
LC-006-002-RND-0
  6
CONTINUOUS
 62
     1
  5
9C7
 10
38.383724
 20
508.565013
 30
0.0
 40
0.25998
 50
150.0
 51
195.0
  0
ARC
  8
LC-006-002-RND-0
  6
CONTINUOUS
 62
     1
  5
9C8
 10
38.661202
 20
509.045619
 30
0.0
 40
0.25998
 50
80.0
 51
150.0
  0
LINE
  8
LC-001-002-----0
  6
CONTINUOUS
 62
     1
  5
9C9
 10
37.144105
 20
511.821285
 30
0.0
 11
37.8302
 21
511.821285
 31
0.0
  0
LINE
  8
LC-001-002-----0
  6
CONTINUOUS
 62
     1
  5
9CA
 10
38.105383
 20
450.884575
 30
0.0
 11
37.8302
 21
451.361205
 31
0.0
  0
LINE
  8
LC-001-002-----0
  6
CONTINUOUS
 62
     1
  5
9CB
 10
41.214132
 20
453.094405
 30
0.0
 11
41.034793
 21
452.077322
 31
0.0
  0
LINE
  8
LC-001-002-----0
  6
CONTINUOUS
 62
     1
  5
9CC
 10
34.784942
 20
451.361205
 30
0.0
 11
35.107113
 21
451.361205
 31
0.0
  0
ARC
  8
LC-006-002-RND-0
  6
CONTINUOUS
 62
     1
  5
9CD
 10
34.784942
 20
452.227805
 30
0.0
 40
0.8666
 50
200.0
 51
270.0
  0
ARC
  8
LC-006-002-RND-0
  6
CONTINUOUS
 62
     1
  5
9CE
 10
40.181359
 20
452.227805
 30
0.0
 40
0.8666
 50
270.0
 51
350.0
  0
LINE
  8
LC-001-002-----0
  6
CONTINUOUS
 62
     1
  5
9CF
 10
41.214132
 20
453.094405
 30
0.0
 11
41.214132
 21
453.806645
 31
0.0
  0
LINE
  8
LC-001-002-----0
  6
CONTINUOUS
 62
     1
  5
9D0
 10
38.255482
 20
450.884575
 30
0.0
 11
38.530665
 21
451.361205
 31
0.0
  0
ARC
  8
LC-001-002-----0
  6
CONTINUOUS
 62
     1
  5
9D1
 10
39.566992
 20
450.927905
 30
0.0
 40
0.08666
 50
210.0
 51
330.0
  0
LINE
  8
LC-001-002-----0
  6
CONTINUOUS
 62
     1
  5
9D2
 10
39.491943
 20
450.884575
 30
0.0
 11
39.21676
 21
451.361205
 31
0.0
  0
LINE
  8
LC-001-002-----0
  6
CONTINUOUS
 62
     1
  5
9D3
 10
39.642042
 20
450.884575
 30
0.0
 11
39.917225
 21
451.361205
 31
0.0
  0
LINE
  8
LC-001-002-----0
  6
CONTINUOUS
 62
     1
  5
9D4
 10
38.530665
 20
451.361205
 30
0.0
 11
39.21676
 21
451.361205
 31
0.0
  0
LINE
  8
LC-001-002-----0
  6
CONTINUOUS
 62
     1
  5
9D5
 10
39.917225
 20
451.361205
 30
0.0
 11
40.181359
 21
451.361205
 31
0.0
  0
ARC
  8
LC-001-002-----0
  6
CONTINUOUS
 62
     1
  5
9D6
 10
35.407312
 20
451.014565
 30
0.0
 40
0.08666
 50
210.0
 51
330.0
  0
LINE
  8
LC-001-002-----0
  6
CONTINUOUS
 62
     1
  5
9D7
 10
35.332263
 20
450.971235
 30
0.0
 11
35.107113
 21
451.361205
 31
0.0
  0
LINE
  8
LC-001-002-----0
  6
CONTINUOUS
 62
     1
  5
9D8
 10
35.482362
 20
450.971235
 30
0.0
 11
35.707512
 21
451.361205
 31
0.0
  0
LINE
  8
LC-001-002-----0
  6
CONTINUOUS
 62
     1
  5
9D9
 10
35.707512
 20
451.361205
 30
0.0
 11
36.44364
 21
451.361205
 31
0.0
  0
LINE
  8
LC-001-002-----0
  6
CONTINUOUS
 62
     1
  5
9DA
 10
38.436052
 20
509.175609
 30
0.0
 11
38.158575
 21
508.695003
 31
0.0
  0
ARC
  8
LC-001-002-----0
  6
CONTINUOUS
 62
     1
  5
9DB
 10
36.793872
 20
512.254585
 30
0.0
 40
0.08666
 50
30.0
 51
150.0
  0
LINE
  8
LC-001-002-----0
  6
CONTINUOUS
 62
     1
  5
9DC
 10
38.116179
 20
505.89584
 30
0.0
 11
34.151594
 21
508.184795
 31
0.0
  0
LINE
  8
LC-001-002-----0
  6
CONTINUOUS
 62
     1
  5
9DD
 10
38.708078
 20
506.35002
 30
0.0
 11
38.132602
 21
508.497725
 31
0.0
  0
ARC
  8
LC-001-002-----0
  6
CONTINUOUS
 62
     1
  5
9DE
 10
38.318065
 20
506.245517
 30
0.0
 40
0.403771
 50
240.0
 51
15.0
  0
LINE
  8
LC-001-002-----0
  6
CONTINUOUS
 62
     1
  5
9DF
 10
36.718823
 20
512.297915
 30
0.0
 11
36.44364
 21
511.821285
 31
0.0
  0
LINE
  8
LC-001-002-----0
  6
CONTINUOUS
 62
     1
  5
9E0
 10
33.970605
 20
511.25108
 30
0.0
 11
33.503081
 21
509.96657
 31
0.0
  0
ARC
  8
LC-001-002-----0
  6
CONTINUOUS
 62
     1
  5
9E1
 10
34.889056
 20
509.462116
 30
0.0
 40
1.474924
 50
160.0
 51
240.0
  0
LINE
  8
LC-001-002-----0
  6
CONTINUOUS
 62
     1
  5
9E2
 10
36.868922
 20
512.297915
 30
0.0
 11
37.144105
 21
511.821285
 31
0.0
  0
ARC
  8
LC-001-002-----0
  6
CONTINUOUS
 62
     1
  5
9E3
 10
38.180432
 20
512.254585
 30
0.0
 40
0.08666
 50
30.0
 51
150.0
  0
LINE
  8
LC-001-002-----0
  6
CONTINUOUS
 62
     1
  5
9E4
 10
40.705591
 20
508.949129
 30
0.0
 11
38.706347
 21
509.301649
 31
0.0
  0
LINE
  8
LC-001-002-----0
  6
CONTINUOUS
 62
     1
  5
9E5
 10
38.105383
 20
512.297915
 30
0.0
 11
37.8302
 21
511.821285
 31
0.0
  0
LINE
  8
LC-001-002-----0
  6
CONTINUOUS
 62
     1
  5
9E6
 10
41.214132
 20
510.088085
 30
0.0
 11
40.947533
 21
511.105169
 31
0.0
  0
LINE
  8
LC-001-002-----0
  6
CONTINUOUS
 62
     1
  5
9E7
 10
34.784942
 20
511.821285
 30
0.0
 11
35.107113
 21
511.821285
 31
0.0
  0
ARC
  8
LC-006-002-RND-0
  6
CONTINUOUS
 62
     1
  5
9E8
 10
34.784942
 20
510.954685
 30
0.0
 40
0.8666
 50
90.0
 51
160.0
  0
ARC
  8
LC-006-002-RND-0
  6
CONTINUOUS
 62
     1
  5
9E9
 10
40.094099
 20
510.954685
 30
0.0
 40
0.8666
 50
10.0
 51
90.0
  0
LINE
  8
LC-001-002-----0
  6
CONTINUOUS
 62
     1
  5
9EA
 10
41.214132
 20
510.088085
 30
0.0
 11
41.214132
 21
509.375846
 31
0.0
  0
LINE
  8
LC-001-002-----0
  6
CONTINUOUS
 62
     1
  5
9EB
 10
38.255482
 20
512.297915
 30
0.0
 11
38.530665
 21
511.821285
 31
0.0
  0
ARC
  8
LC-001-002-----0
  6
CONTINUOUS
 62
     1
  5
9EC
 10
39.566992
 20
512.254585
 30
0.0
 40
0.08666
 50
30.0
 51
150.0
  0
LINE
  8
LC-001-002-----0
  6
CONTINUOUS
 62
     1
  5
9ED
 10
39.491943
 20
512.297915
 30
0.0
 11
39.21676
 21
511.821285
 31
0.0
  0
LINE
  8
LC-001-002-----0
  6
CONTINUOUS
 62
     1
  5
9EE
 10
39.642042
 20
512.297915
 30
0.0
 11
39.917225
 21
511.821285
 31
0.0
  0
LINE
  8
LC-001-002-----0
  6
CONTINUOUS
 62
     1
  5
9EF
 10
38.530665
 20
511.821285
 30
0.0
 11
39.21676
 21
511.821285
 31
0.0
  0
LINE
  8
LC-001-002-----0
  6
CONTINUOUS
 62
     1
  5
9F0
 10
39.917225
 20
511.821285
 30
0.0
 11
40.094099
 21
511.821285
 31
0.0
  0
ARC
  8
LC-001-002-----0
  6
CONTINUOUS
 62
     1
  5
9F1
 10
35.407312
 20
512.167925
 30
0.0
 40
0.08666
 50
30.0
 51
150.0
  0
LINE
  8
LC-001-002-----0
  6
CONTINUOUS
 62
     1
  5
9F2
 10
35.332263
 20
512.211255
 30
0.0
 11
35.107113
 21
511.821285
 31
0.0
  0
LINE
  8
LC-001-002-----0
  6
CONTINUOUS
 62
     1
  5
9F3
 10
35.482362
 20
512.211255
 30
0.0
 11
35.707512
 21
511.821285
 31
0.0
  0
LINE
  8
LC-001-002-----0
  6
CONTINUOUS
 62
     1
  5
9F4
 10
35.707512
 20
511.821285
 30
0.0
 11
36.44364
 21
511.821285
 31
0.0
  0
LINE
  8
LC-001-002-----0
  6
CONTINUOUS
 62
     1
  5
9F5
 10
38.721836
 20
506.245517
 30
0.0
 11
38.721836
 21
456.936974
 31
0.0
  0
LINE
  8
LC-001-002-----0
  6
CONTINUOUS
 62
     1
  5
9F6
 10
33.414132
 20
453.720374
 30
0.0
 11
33.414132
 21
509.462116
 31
0.0
  0
LINE
  8
LC-001-002-----0
  6
CONTINUOUS
 62
     1
  5
9F7
 10
41.214132
 20
453.806645
 30
0.0
 11
41.214132
 21
509.375846
 31
0.0
  0
CIRCLE
  8
LC-001-002-----0
  6
CONTINUOUS
 62
     1
  5
9F8
 10
333.337169
 20
496.377129
 30
0.0
 40
1.75
  0
LINE
  8
LC-001-002-----0
  6
CONTINUOUS
 62
     1
  5
9F9
 10
308.208282
 20
480.869051
 30
0.0
 11
302.208282
 21
480.869051
 31
0.0
  0
LINE
  8
LC-001-002-----0
  6
CONTINUOUS
 62
     1
  5
9FA
 10
302.208282
 20
480.869051
 30
0.0
 11
302.208282
 21
478.169051
 31
0.0
  0
LINE
  8
LC-001-002-----0
  6
CONTINUOUS
 62
     1
  5
9FB
 10
317.71636
 20
490.377129
 30
0.0
 11
308.208282
 21
480.869051
 31
0.0
  0
LINE
  8
LC-001-002-----0
  6
CONTINUOUS
 62
     1
  5
9FC
 10
317.716404
 20
415.377129
 30
0.0
 11
308.216404
 21
424.877129
 31
0.0
  0
LINE
  8
LC-001-002-----0
  6
CONTINUOUS
 62
     1
  5
9FD
 10
317.716465
 20
490.377235
 30
0.0
 11
324.933283
 21
502.877129
 31
0.0
  0
LINE
  8
LC-001-002-----0
  6
CONTINUOUS
 62
     1
  5
9FE
 10
341.837169
 20
490.377129
 30
0.0
 11
341.837169
 21
502.877129
 31
0.0
  0
LINE
  8
LC-001-002-----0
  6
CONTINUOUS
 62
     1
  5
9FF
 10
302.208282
 20
480.869051
 30
0.0
 11
302.208282
 21
478.169051
 31
0.0
  0
LINE
  8
LC-001-002-----0
  6
CONTINUOUS
 62
     1
  5
A00
 10
341.837169
 20
490.377129
 30
0.0
 11
345.208282
 21
487.006015
 31
0.0
  0
LINE
  8
LC-001-002-----0
  6
CONTINUOUS
 62
     1
  5
A01
 10
340.594528
 20
418.377129
 30
0.0
 11
318.959
 21
418.377129
 31
0.0
  0
LINE
  8
LC-001-002-----0
  6
CONTINUOUS
 62
     1
  5
A02
 10
340.594528
 20
487.377129
 30
0.0
 11
340.594528
 21
481.637653
 31
0.0
  0
LINE
  8
LC-001-002-----0
  6
CONTINUOUS
 62
     1
  5
A03
 10
340.594528
 20
487.377129
 30
0.0
 11
318.959
 21
487.377129
 31
0.0
  0
LINE
  8
LC-001-002-----0
  6
CONTINUOUS
 62
     1
  5
A04
 10
308.216404
 20
424.877129
 30
0.0
 11
302.208282
 21
424.877129
 31
0.0
  0
LINE
  8
LC-001-002-----0
  6
CONTINUOUS
 62
     1
  5
A05
 10
309.709
 20
478.127129
 30
0.0
 11
302.208282
 21
478.127129
 31
0.0
  0
LINE
  8
LC-001-002-----0
  6
CONTINUOUS
 62
     1
  5
A06
 10
341.837169
 20
490.377129
 30
0.0
 11
317.71636
 21
490.377129
 31
0.0
  0
LINE
  8
LC-001-002-----0
  6
CONTINUOUS
 62
     1
  5
A07
 10
340.594528
 20
487.377129
 30
0.0
 11
345.208282
 21
482.763375
 31
0.0
  0
LINE
  8
LC-001-002-----0
  6
CONTINUOUS
 62
     1
  5
A08
 10
345.208282
 20
487.006015
 30
0.0
 11
345.208282
 21
478.688326
 31
0.0
  0
LINE
  8
LC-001-002-----0
  6
CONTINUOUS
 62
     1
  5
A09
 10
340.594528
 20
418.377129
 30
0.0
 11
345.208282
 21
422.990883
 31
0.0
  0
LINE
  8
LC-001-002-----0
  6
CONTINUOUS
 62
     1
  5
A0A
 10
341.837169
 20
415.377129
 30
0.0
 11
345.208282
 21
418.748242
 31
0.0
  0
LINE
  8
LC-001-002-----0
  6
CONTINUOUS
 62
     1
  5
A0B
 10
341.837169
 20
502.877129
 30
0.0
 11
324.933283
 21
502.877129
 31
0.0
  0
LINE
  8
LC-001-002-----0
  6
CONTINUOUS
 62
     1
  5
A0C
 10
318.959
 20
487.377129
 30
0.0
 11
309.709
 21
478.127129
 31
0.0
  0
LINE
  8
LC-001-002-----0
  6
CONTINUOUS
 62
     1
  5
A0D
 10
318.959
 20
418.377129
 30
0.0
 11
309.709
 21
427.627129
 31
0.0
  0
LINE
  8
LC-001-002-----0
  6
CONTINUOUS
 62
     1
  5
A0E
 10
309.709
 20
427.627129
 30
0.0
 11
302.208282
 21
427.627129
 31
0.0
  0
LINE
  8
LC-001-002-----0
  6
CONTINUOUS
 62
     1
  5
A0F
 10
341.837169
 20
415.077129
 30
0.0
 11
341.837169
 21
415.377129
 31
0.0
  0
LINE
  8
LC-001-002-----0
  6
CONTINUOUS
 62
     1
  5
A10
 10
317.716404
 20
415.077129
 30
0.0
 11
317.716404
 21
415.377129
 31
0.0
  0
LINE
  8
LC-001-002-----0
  6
CONTINUOUS
 62
     1
  5
A11
 10
340.594528
 20
424.116649
 30
0.0
 11
340.594528
 21
418.377129
 31
0.0
  0
LINE
  8
LC-001-002-----0
  6
CONTINUOUS
 62
     1
  5
A12
 10
302.208282
 20
427.627129
 30
0.0
 11
302.208282
 21
424.885251
 31
0.0
  0
LINE
  8
LC-001-002-----0
  6
CONTINUOUS
 62
     1
  5
A13
 10
345.208282
 20
427.065976
 30
0.0
 11
345.208282
 21
418.748242
 31
0.0
  0
LINE
  8
LC-001-002-----0
  6
CONTINUOUS
 62
     1
  5
A14
 10
341.837169
 20
415.077129
 30
0.0
 11
341.837169
 21
415.377129
 31
0.0
  0
LINE
  8
LC-001-002-----0
  6
CONTINUOUS
 62
     1
  5
A15
 10
317.716404
 20
415.077129
 30
0.0
 11
317.716404
 21
415.377129
 31
0.0
  0
LINE
  8
LC-001-002-----0
  6
CONTINUOUS
 62
     1
  5
A16
 10
317.716404
 20
415.377129
 30
0.0
 11
341.837169
 21
415.377129
 31
0.0
  0
LINE
  8
LC-001-002-----0
  6
CONTINUOUS
 62
     1
  5
A17
 10
317.716404
 20
415.077129
 30
0.0
 11
341.837169
 21
415.077129
 31
0.0
  0
LINE
  8
LC-001-002-----0
  6
CONTINUOUS
 62
     1
  5
A18
 10
317.990793
 20
519.704282
 30
0.0
 11
308.990793
 21
519.704282
 31
0.0
  0
LINE
  8
LC-001-002-----0
  6
CONTINUOUS
 62
     1
  5
A19
 10
311.990793
 20
500.204282
 30
0.0
 11
309.490793
 21
500.204282
 31
0.0
  0
LINE
  8
LC-001-002-----0
  6
CONTINUOUS
 62
     1
  5
A1A
 10
317.990793
 20
519.704282
 30
0.0
 11
317.990793
 21
511.704282
 31
0.0
  0
LINE
  8
LC-001-002-----0
  6
CONTINUOUS
 62
     1
  5
A1B
 10
317.490793
 20
511.204282
 30
0.0
 11
315.490793
 21
511.204282
 31
0.0
  0
LINE
  8
LC-001-002-----0
  6
CONTINUOUS
 62
     1
  5
A1C
 10
315.490793
 20
517.204282
 30
0.0
 11
315.490793
 21
511.204282
 31
0.0
  0
LINE
  8
LC-001-002-----0
  6
CONTINUOUS
 62
     1
  5
A1D
 10
315.490793
 20
517.204282
 30
0.0
 11
312.988838
 21
517.204282
 31
0.0
  0
LINE
  8
LC-001-002-----0
  6
CONTINUOUS
 62
     1
  5
A1E
 10
312.988838
 20
511.204282
 30
0.0
 11
312.988838
 21
517.204282
 31
0.0
  0
LINE
  8
LC-001-002-----0
  6
CONTINUOUS
 62
     1
  5
A1F
 10
312.488838
 20
507.704282
 30
0.0
 11
312.488838
 21
511.204282
 31
0.0
  0
LINE
  8
LC-001-002-----0
  6
CONTINUOUS
 62
     1
  5
A20
 10
312.897188
 20
507.704282
 30
0.0
 11
312.488838
 21
507.704282
 31
0.0
  0
LINE
  8
LC-001-002-----0
  6
CONTINUOUS
 62
     1
  5
A21
 10
309.490793
 20
515.326291
 30
0.0
 11
309.490793
 21
513.570308
 31
0.0
  0
LINE
  8
LC-001-002-----0
  6
CONTINUOUS
 62
     1
  5
A22
 10
317.990793
 20
511.704282
 30
0.0
 11
317.490793
 21
511.204282
 31
0.0
  0
LINE
  8
LC-001-002-----0
  6
CONTINUOUS
 62
     1
  5
A23
 10
308.990793
 20
519.704282
 30
0.0
 11
304.949341
 21
512.704282
 31
0.0
  0
LINE
  8
LC-001-002-----0
  6
CONTINUOUS
 62
     1
  5
A24
 10
309.490793
 20
515.326291
 30
0.0
 11
304.949341
 21
512.704282
 31
0.0
  0
LINE
  8
LC-001-002-----0
  6
CONTINUOUS
 62
     1
  5
A25
 10
309.490793
 20
508.326291
 30
0.0
 11
304.949341
 21
505.704282
 31
0.0
  0
LINE
  8
LC-001-002-----0
  6
CONTINUOUS
 62
     1
  5
A26
 10
309.490793
 20
513.570308
 30
0.0
 11
304.949341
 21
505.704282
 31
0.0
  0
LINE
  8
LC-001-002-----0
  6
CONTINUOUS
 62
     1
  5
A27
 10
309.490793
 20
508.326291
 30
0.0
 11
309.490793
 21
500.204282
 31
0.0
  0
LINE
  8
LC-001-002-----0
  6
CONTINUOUS
 62
     1
  5
A28
 10
312.897188
 20
507.704282
 30
0.0
 11
311.990793
 21
500.204282
 31
0.0
  0
LINE
  8
LC-001-002-----0
  6
CONTINUOUS
 62
     1
  5
A29
 10
135.492207
 20
519.704282
 30
0.0
 11
144.492207
 21
519.704282
 31
0.0
  0
LINE
  8
LC-001-002-----0
  6
CONTINUOUS
 62
     1
  5
A2A
 10
141.492207
 20
500.204282
 30
0.0
 11
143.992207
 21
500.204282
 31
0.0
  0
LINE
  8
LC-001-002-----0
  6
CONTINUOUS
 62
     1
  5
A2B
 10
135.492207
 20
519.704282
 30
0.0
 11
135.492207
 21
511.704282
 31
0.0
  0
LINE
  8
LC-001-002-----0
  6
CONTINUOUS
 62
     1
  5
A2C
 10
135.992207
 20
511.204282
 30
0.0
 11
137.992207
 21
511.204282
 31
0.0
  0
LINE
  8
LC-001-002-----0
  6
CONTINUOUS
 62
     1
  5
A2D
 10
137.992207
 20
517.204282
 30
0.0
 11
137.992207
 21
511.204282
 31
0.0
  0
LINE
  8
LC-001-002-----0
  6
CONTINUOUS
 62
     1
  5
A2E
 10
137.741771
 20
517.204282
 30
0.0
 11
140.494162
 21
517.204282
 31
0.0
  0
LINE
  8
LC-001-002-----0
  6
CONTINUOUS
 62
     1
  5
A2F
 10
140.494162
 20
511.204282
 30
0.0
 11
140.494162
 21
517.204282
 31
0.0
  0
LINE
  8
LC-001-002-----0
  6
CONTINUOUS
 62
     1
  5
A30
 10
140.994162
 20
507.704282
 30
0.0
 11
140.994162
 21
511.204282
 31
0.0
  0
LINE
  8
LC-001-002-----0
  6
CONTINUOUS
 62
     1
  5
A31
 10
140.585813
 20
507.704282
 30
0.0
 11
140.994162
 21
507.704282
 31
0.0
  0
LINE
  8
LC-001-002-----0
  6
CONTINUOUS
 62
     1
  5
A32
 10
143.992207
 20
515.326291
 30
0.0
 11
143.992207
 21
513.570308
 31
0.0
  0
LINE
  8
LC-001-002-----0
  6
CONTINUOUS
 62
     1
  5
A33
 10
135.492207
 20
511.704282
 30
0.0
 11
135.992207
 21
511.204282
 31
0.0
  0
LINE
  8
LC-001-002-----0
  6
CONTINUOUS
 62
     1
  5
A34
 10
144.492207
 20
519.704282
 30
0.0
 11
148.533659
 21
512.704282
 31
0.0
  0
LINE
  8
LC-001-002-----0
  6
CONTINUOUS
 62
     1
  5
A35
 10
143.992207
 20
515.326291
 30
0.0
 11
148.533659
 21
512.704282
 31
0.0
  0
LINE
  8
LC-001-002-----0
  6
CONTINUOUS
 62
     1
  5
A36
 10
143.992207
 20
508.326291
 30
0.0
 11
148.533659
 21
505.704282
 31
0.0
  0
LINE
  8
LC-001-002-----0
  6
CONTINUOUS
 62
     1
  5
A37
 10
143.992207
 20
513.570308
 30
0.0
 11
148.533659
 21
505.704282
 31
0.0
  0
LINE
  8
LC-001-002-----0
  6
CONTINUOUS
 62
     1
  5
A38
 10
143.992207
 20
508.326291
 30
0.0
 11
143.992207
 21
500.204282
 31
0.0
  0
LINE
  8
LC-001-002-----0
  6
CONTINUOUS
 62
     1
  5
A39
 10
140.585813
 20
507.704282
 30
0.0
 11
141.492207
 21
500.204282
 31
0.0
  0
LINE
  8
LC-001-002-----0
  6
CONTINUOUS
 62
     1
  5
A3A
 10
140.494162
 20
511.204282
 30
0.0
 11
140.994162
 21
511.204282
 31
0.0
  0
LINE
  8
LC-001-002-----0
  6
CONTINUOUS
 62
     1
  5
A3B
 10
312.988838
 20
511.204282
 30
0.0
 11
312.488838
 21
511.204282
 31
0.0
  0
ENDSEC
  0
EOF
