  0
SECTION
  2
HEADER
  9
$ACADVER
  1
AC1009
  9
$INSBASE
 10
0.0
 20
0.0
 30
0.0
  9
$EXTMIN
 10
-222.52295
 20
-236.22
 30
0.0
  9
$EXTMAX
 10
617.47705
 20
357.78
 30
0.0
  9
$LIMMIN
 10
-222.52295
 20
-236.22
  9
$LIMMAX
 10
617.47705
 20
357.78
  9
$ORTHOMODE
 70
     0
  9
$REGENMODE
 70
     1
  9
$FILLMODE
 70
     1
  9
$QTEXTMODE
 70
     0
  9
$MIRRTEXT
 70
     1
  9
$DRAGMODE
 70
     2
  9
$LTSCALE
 40
2.0
  9
$OSMODE
 70
     0
  9
$ATTMODE
 70
     1
  9
$TEXTSIZE
 40
0.2
  9
$TRACEWID
 40
0.05
  9
$TEXTSTYLE
  7
STANDARD
  9
$CLAYER
  8
0
  9
$CELTYPE
  6
BYLAYER
  9
$CECOLOR
 62
     7
  9
$DIMSCALE
 40
2.0
  9
$DIMASZ
 40
3.5
  9
$DIMEXO
 40
0.0625
  9
$DIMDLI
 40
0.38
  9
$DIMRND
 40
0.0
  9
$DIMDLE
 40
0.0
  9
$DIMEXE
 40
0.18
  9
$DIMTP
 40
0.0
  9
$DIMTM
 40
0.0
  9
$DIMTXT
 40
3.5
  9
$DIMCEN
 40
0.09
  9
$DIMTSZ
 40
0.0
  9
$DIMTOL
 70
     0
  9
$DIMLIM
 70
     0
  9
$DIMTIH
 70
     1
  9
$DIMTOH
 70
     1
  9
$DIMSE1
 70
     0
  9
$DIMSE2
 70
     0
  9
$DIMTAD
 70
     1
  9
$DIMZIN
 70
     0
  9
$DIMBLK
  1

  9
$DIMASO
 70
     1
  9
$DIMSHO
 70
     1
  9
$DIMPOST
  1

  9
$DIMAPOST
  1

  9
$DIMALT
 70
     0
  9
$DIMALTD
 70
     2
  9
$DIMALTF
 40
25.4
  9
$DIMLFAC
 40
1.0
  9
$DIMTOFL
 70
     0
  9
$DIMTVP
 40
0.0
  9
$DIMTIX
 70
     0
  9
$DIMSOXD
 70
     0
  9
$DIMSAH
 70
     0
  9
$DIMBLK1
  1

  9
$DIMBLK2
  1

  9
$DIMSTYLE
  2
STANDARD
  9
$DIMCLRD
 70
     0
  9
$DIMCLRE
 70
     0
  9
$DIMCLRT
 70
     0
  9
$DIMTFAC
 40
1.0
  9
$DIMGAP
 40
0.09
  9
$LUNITS
 70
     2
  9
$LUPREC
 70
     2
  9
$AXISMODE
 70
     0
  9
$AXISUNIT
 10
0.0
 20
0.0
  9
$SKETCHINC
 40
0.1
  9
$FILLETRAD
 40
0.0
  9
$AUNITS
 70
     0
  9
$AUPREC
 70
     0
  9
$MENU
  1
acad
  9
$ELEVATION
 40
0.0
  9
$PELEVATION
 40
0.0
  9
$THICKNESS
 40
0.0
  9
$LIMCHECK
 70
     0
  9
$BLIPMODE
 70
     1
  9
$CHAMFERA
 40
0.0
  9
$CHAMFERB
 40
0.0
  9
$SKPOLY
 70
     0
  9
$TDCREATE
 40
0.000000000
  9
$TDUPDATE
 40
0.000000000
  9
$TDINDWG
 40
0.0000000000
  9
$TDUSRTIMER
 40
0.0000000000
  9
$USRTIMER
 70
     1
  9
$ANGBASE
 50
0.0
  9
$ANGDIR
 70
     0
  9
$PDMODE
 70
     0
  9
$PDSIZE
 40
0.0
  9
$PLINEWID
 40
0.0
  9
$COORDS
 70
     0
  9
$SPLFRAME
 70
     0
  9
$SPLINETYPE
 70
     6
  9
$SPLINESEGS
 70
     8
  9
$ATTDIA
 70
     0
  9
$ATTREQ
 70
     1
  9
$HANDLING
 70
     1
  9
$HANDSEED
  5
73F
  9
$SURFTAB1
 70
     6
  9
$SURFTAB2
 70
     6
  9
$SURFTYPE
 70
     6
  9
$SURFU
 70
     6
  9
$SURFV
 70
     6
  9
$UCSNAME
  2

  9
$UCSORG
 10
0.0
 20
0.0
 30
0.0
  9
$UCSXDIR
 10
1.0
 20
0.0
 30
0.0
  9
$UCSYDIR
 10
0.0
 20
1.0
 30
0.0
  9
$PUCSNAME
  2

  9
$PUCSORG
 10
0.0
 20
0.0
 30
0.0
  9
$PUCSXDIR
 10
1.0
 20
0.0
 30
0.0
  9
$PUCSYDIR
 10
0.0
 20
1.0
 30
0.0
  9
$USERI1
 70
     0
  9
$USERI2
 70
     0
  9
$USERI3
 70
     0
  9
$USERI4
 70
     0
  9
$USERI5
 70
     0
  9
$USERR1
 40
0.0
  9
$USERR2
 40
0.0
  9
$USERR3
 40
0.0
  9
$USERR4
 40
0.0
  9
$USERR5
 40
0.0
  9
$WORLDVIEW
 70
     1
  9
$SHADEDGE
 70
     3
  9
$SHADEDIF
 70
    70
  9
$TILEMODE
 70
     1
  9
$MAXACTVP
 70
    16
  9
$PINSBASE
 10
0.0
 20
0.0
 30
0.0
  9
$PLIMCHECK
 70
     0
  9
$PEXTMIN
 10
1.000000E+20
 20
1.000000E+20
 30
1.000000E+20
  9
$PEXTMAX
 10
-1.000000E+20
 20
-1.000000E+20
 30
-1.000000E+20
  9
$PLIMMIN
 10
-222.52295
 20
-236.22
  9
$PLIMMAX
 10
617.47705
 20
357.78
  9
$UNITMODE
 70
     0
  9
$VISRETAIN
 70
     0
  9
$PLINEGEN
 70
     1
  9
$PSLTSCALE
 70
     0
  9
$TREEDEPTH
 70
  3020
  9
$DWGCODEPAGE
  3
dos850
  0
ENDSEC
  0
SECTION
  2
TABLES
  0
TABLE
  2
VPORT
 70
     1
  0
VPORT
  2
*ACTIVE
 70
     0
 10
0.0
 20
0.0
 11
1.0
 21
1.0
 12
420.0
 22
297.0
 13
0.0
 23
0.0
 14
1.0
 24
1.0
 15
0.0
 25
0.0
 16
0.0
 26
0.0
 36
1.0
 17
-222.52295
 27
-236.22
 37
0.0
 40
594.0
 41
1.604229
 42
50.0
 43
0.0
 44
0.0
 50
0.0
 51
0.0
 71
     0
 72
   100
 73
     1
 74
     1
 75
     0
 76
     0
 77
     0
 78
     0
  0
ENDTAB
  0
TABLE
  2
LTYPE
 70
     3
  0
LTYPE
  2
CONTINUOUS
 70
    64
  3
Solid line
 72
    65
 73
     0
 40
0.0
  0
LTYPE
  2
DASHED
 70
    64
  3
__ __ __ __ __
 72
    65
 73
     2
 40
6.25
 49
5.0
 49
-1.25
  0
LTYPE
  2
DASHDOT
 70
    64
  3
__ . __ . __ . __ . __
 72
    65
 73
     4
 40
7.5
 49
5.0
 49
-1.25
 49
0.0
 49
-1.25
  0
ENDTAB
  0
TABLE
  2
LAYER
 70
    13
  0
LAYER
  2
0
 70
     0
 62
     7
  6
CONTINUOUS
  0
LAYER
  2
LC-INFO-1-2-MM-A3-0
 70
     1
 62
    -1
  6
CONTINUOUS
  0
LAYER
  2
LC-003-005-----0
 70
     0
 62
     2
  6
CONTINUOUS
  0
LAYER
  2
LC-008-003-MTH-0
 70
     0
 62
     2
  6
CONTINUOUS
  0
LAYER
  2
LC-009-003-MTG-0
 70
     0
 62
     2
  6
CONTINUOUS
  0
LAYER
  2
LC-007-003-----0
 70
     0
 62
     2
  6
CONTINUOUS
  0
LAYER
  2
LC-006-000-----0
 70
     0
 62
     7
  6
CONTINUOUS
  0
LAYER
  2
LC-010-000-----0
 70
     0
 62
     7
  6
CONTINUOUS
  0
LAYER
  2
LC-001-002-----0
 70
     0
 62
     1
  6
CONTINUOUS
  0
LAYER
  2
LC-002-002-RND-0
 70
     0
 62
     1
  6
CONTINUOUS
  0
LAYER
  2
LC-004-001-RND-0
 70
     0
 62
     1
  6
CONTINUOUS
  0
LAYER
  2
LC-005-001-----0
 70
     0
 62
     1
  6
CONTINUOUS
  0
LAYER
  2
LC-000
 70
     0
 62
     7
  6
CONTINUOUS
  0
ENDTAB
  0
TABLE
  2
STYLE
 70
     3
  0
STYLE
  2
STANDARD
 70
     0
 40
0.0
 41
1.0
 50
0.0
 71
     0
 42
0.0
  3
txt
  4

  0
STYLE
  2
LC-TXTSTYLE-150-400-0-0-A1
 70
    64
 40
0.0
 41
1.0
 50
15.0
 71
     0
 42
3.5
  3
Arial
  4

  0
STYLE
  2
LC-STANDARD
 70
    64
 40
0.0
 41
1.0
 50
0.0
 71
     0
 42
3.5
  3
MONOTXT
  4

  0
ENDTAB
  0
TABLE
  2
VIEW
 70
     0
  0
ENDTAB
  0
TABLE
  2
UCS
 70
     0
  0
ENDTAB
  0
TABLE
  2
APPID
 70
     1
  0
APPID
  2
ACAD
 70
     0
  0
ENDTAB
  0
TABLE
  2
DIMSTYLE
 70
     3
  0
DIMSTYLE
  2
STANDARD
 70
     0
  3

  4

  5

  6

  7

 40
1.0
 41
0.18
 42
0.0625
 43
0.38
 44
0.18
 45
0.0
 46
0.0
 47
0.0
 48
0.0
 71
     0
 72
     0
 73
     1
 74
     1
 75
     0
 76
     0
 77
     0
 78
     0
140
0.18
141
0.09
142
0.0
143
25.4
144
1.0
145
0.0
146
1.0
147
0.09
170
     0
171
     2
172
     0
173
     0
174
     0
175
     0
176
     0
177
     0
178
     0
  0
DIMSTYLE
  2
LC-STANDARD
 70
     0
  3

  4

  5

  6

  7

 40
1.0
 41
3.5
 42
0.0
 43
7.5
 44
1.8
 45
0.0
 46
0.0
 47
0.0
 48
0.0
 71
     0
 72
     0
 73
     0
 74
     0
 75
     0
 76
     0
 77
     1
 78
     8
140
3.5
141
0.0
142
0.0
143
25.4
144
1.0
145
0.0
146
0.71
147
1.5
170
     0
171
     2
172
     1
173
     0
174
     0
175
     0
176
     0
177
     0
178
     3
  0
DIMSTYLE
  2
LC-DIM-L-0140-02-02
 70
     0
  3

  4

  5

  6

  7

 40
2.0
 41
3.5
 42
0.0
 43
7.5
 44
1.8
 45
0.0
 46
0.0
 47
0.0
 48
0.0
 71
     0
 72
     0
 73
     0
 74
     0
 75
     0
 76
     0
 77
     1
 78
     8
140
14.0
141
0.0
142
0.0
143
25.4
144
1.0
145
0.0
146
0.71
147
1.5
170
     0
171
     2
172
     0
173
     0
174
     0
175
     0
176
     2
177
     2
178
     8
  0
ENDTAB
  0
ENDSEC
  0
SECTION
  2
BLOCKS
  0
BLOCK
  8
0
  5
23
  2
*X0
 70
    65
 10
144.680234
 20
20.742096
 30
0.0
  3
*X0
  0
LINE
  8
LC-003-005-----0
  6
CONTINUOUS
  5
25
 10
181.962442
 20
20.742096
 30
0.0
 11
184.256894
 21
23.036547
 31
0.0
  0
LINE
  8
LC-003-005-----0
  6
CONTINUOUS
  5
26
 10
179.136496
 20
20.744577
 30
0.0
 11
181.771471
 21
23.379552
 31
0.0
  0
LINE
  8
LC-003-005-----0
  6
CONTINUOUS
  5
27
 10
182.114338
 20
23.722419
 30
0.0
 11
184.256894
 21
25.864975
 31
0.0
  0
LINE
  8
LC-003-005-----0
  6
CONTINUOUS
  5
28
 10
182.256894
 20
26.693402
 30
0.0
 11
184.256894
 21
28.693402
 31
0.0
  0
LINE
  8
LC-003-005-----0
  6
CONTINUOUS
  5
29
 10
182.256894
 20
29.521829
 30
0.0
 11
184.256894
 21
31.521829
 31
0.0
  0
LINE
  8
LC-003-005-----0
  6
CONTINUOUS
  5
2A
 10
180.646228
 20
30.739591
 30
0.0
 11
184.256894
 21
34.350256
 31
0.0
  0
LINE
  8
LC-003-005-----0
  6
CONTINUOUS
  5
2B
 10
180.256894
 20
33.178683
 30
0.0
 11
180.317801
 21
33.239591
 31
0.0
  0
LINE
  8
LC-003-005-----0
  6
CONTINUOUS
  5
2C
 10
182.256894
 20
35.178683
 30
0.0
 11
184.256894
 21
37.178683
 31
0.0
  0
LINE
  8
LC-003-005-----0
  6
CONTINUOUS
  5
2D
 10
182.256894
 20
38.00711
 30
0.0
 11
184.256894
 21
40.00711
 31
0.0
  0
LINE
  8
LC-003-005-----0
  6
CONTINUOUS
  5
2E
 10
181.160947
 20
39.739591
 30
0.0
 11
184.223716
 21
42.80236
 31
0.0
  0
LINE
  8
LC-003-005-----0
  6
CONTINUOUS
  5
2F
 10
180.256894
 20
41.663964
 30
0.0
 11
181.389429
 21
42.7965
 31
0.0
  0
LINE
  8
LC-003-005-----0
  6
CONTINUOUS
  5
30
 10
181.999984
 20
43.407055
 30
0.0
 11
183.91459
 21
45.321661
 31
0.0
  0
LINE
  8
LC-003-005-----0
  6
CONTINUOUS
  5
31
 10
181.737107
 20
45.972605
 30
0.0
 11
183.348422
 21
47.58392
 31
0.0
  0
LINE
  8
LC-003-005-----0
  6
CONTINUOUS
  5
32
 10
180.085565
 20
47.14949
 30
0.0
 11
182.575443
 21
49.639368
 31
0.0
  0
LINE
  8
LC-003-005-----0
  6
CONTINUOUS
  5
33
 10
179.34078
 20
49.233133
 30
0.0
 11
181.625134
 21
51.517486
 31
0.0
  0
LINE
  8
LC-003-005-----0
  6
CONTINUOUS
  5
34
 10
178.255303
 20
50.976083
 30
0.0
 11
180.515374
 21
53.236154
 31
0.0
  0
LINE
  8
LC-003-005-----0
  6
CONTINUOUS
  5
35
 10
176.876946
 20
52.426152
 30
0.0
 11
179.256594
 21
54.8058
 31
0.0
  0
LINE
  8
LC-003-005-----0
  6
CONTINUOUS
  5
36
 10
175.210343
 20
53.587977
 30
0.0
 11
177.853764
 21
56.231398
 31
0.0
  0
LINE
  8
LC-003-005-----0
  6
CONTINUOUS
  5
37
 10
173.851412
 20
55.057473
 30
0.0
 11
176.633385
 21
57.839446
 31
0.0
  0
LINE
  8
LC-003-005-----0
  6
CONTINUOUS
  5
38
 10
173.606894
 20
57.641381
 30
0.0
 11
176.56208
 21
60.596568
 31
0.0
  0
LINE
  8
LC-003-005-----0
  6
CONTINUOUS
  5
39
 10
173.606894
 20
60.469809
 30
0.0
 11
176.527766
 21
63.390681
 31
0.0
  0
LINE
  8
LC-003-005-----0
  6
CONTINUOUS
  5
3A
 10
173.606894
 20
63.298236
 30
0.0
 11
176.493453
 21
66.184795
 31
0.0
  0
LINE
  8
LC-003-005-----0
  6
CONTINUOUS
  5
3B
 10
173.606894
 20
66.126663
 30
0.0
 11
176.45914
 21
68.978909
 31
0.0
  0
LINE
  8
LC-003-005-----0
  6
CONTINUOUS
  5
3C
 10
173.606894
 20
68.95509
 30
0.0
 11
176.424826
 21
71.773022
 31
0.0
  0
LINE
  8
LC-003-005-----0
  6
CONTINUOUS
  5
3D
 10
173.606894
 20
71.783517
 30
0.0
 11
176.390513
 21
74.567136
 31
0.0
  0
LINE
  8
LC-003-005-----0
  6
CONTINUOUS
  5
3E
 10
173.606894
 20
74.611944
 30
0.0
 11
176.356199
 21
77.36125
 31
0.0
  0
LINE
  8
LC-003-005-----0
  6
CONTINUOUS
  5
3F
 10
173.606894
 20
77.440371
 30
0.0
 11
176.321886
 21
80.155364
 31
0.0
  0
LINE
  8
LC-003-005-----0
  6
CONTINUOUS
  5
40
 10
173.606894
 20
80.268798
 30
0.0
 11
176.287572
 21
82.949477
 31
0.0
  0
LINE
  8
LC-003-005-----0
  6
CONTINUOUS
  5
41
 10
173.606894
 20
83.097226
 30
0.0
 11
176.253259
 21
85.743591
 31
0.0
  0
LINE
  8
LC-003-005-----0
  6
CONTINUOUS
  5
42
 10
173.606894
 20
85.925653
 30
0.0
 11
176.218945
 21
88.537705
 31
0.0
  0
LINE
  8
LC-003-005-----0
  6
CONTINUOUS
  5
43
 10
173.606894
 20
88.75408
 30
0.0
 11
176.184632
 21
91.331818
 31
0.0
  0
LINE
  8
LC-003-005-----0
  6
CONTINUOUS
  5
44
 10
173.606894
 20
91.582507
 30
0.0
 11
176.150319
 21
94.125932
 31
0.0
  0
LINE
  8
LC-003-005-----0
  6
CONTINUOUS
  5
45
 10
173.606894
 20
94.410934
 30
0.0
 11
176.116005
 21
96.920046
 31
0.0
  0
LINE
  8
LC-003-005-----0
  6
CONTINUOUS
  5
46
 10
173.606894
 20
97.239361
 30
0.0
 11
176.081692
 21
99.714159
 31
0.0
  0
LINE
  8
LC-003-005-----0
  6
CONTINUOUS
  5
47
 10
173.606894
 20
100.067788
 30
0.0
 11
176.047378
 21
102.508273
 31
0.0
  0
LINE
  8
LC-003-005-----0
  6
CONTINUOUS
  5
48
 10
173.606894
 20
102.896215
 30
0.0
 11
176.013065
 21
105.302387
 31
0.0
  0
LINE
  8
LC-003-005-----0
  6
CONTINUOUS
  5
49
 10
173.606894
 20
105.724643
 30
0.0
 11
175.978751
 21
108.0965
 31
0.0
  0
LINE
  8
LC-003-005-----0
  6
CONTINUOUS
  5
4A
 10
173.606894
 20
108.55307
 30
0.0
 11
175.944438
 21
110.890614
 31
0.0
  0
LINE
  8
LC-003-005-----0
  6
CONTINUOUS
  5
4B
 10
173.606894
 20
111.381497
 30
0.0
 11
175.910125
 21
113.684728
 31
0.0
  0
LINE
  8
LC-003-005-----0
  6
CONTINUOUS
  5
4C
 10
173.606894
 20
114.209924
 30
0.0
 11
175.875811
 21
116.478841
 31
0.0
  0
LINE
  8
LC-003-005-----0
  6
CONTINUOUS
  5
4D
 10
173.606894
 20
117.038351
 30
0.0
 11
176.907425
 21
120.338882
 31
0.0
  0
LINE
  8
LC-003-005-----0
  6
CONTINUOUS
  5
4E
 10
173.606894
 20
119.866778
 30
0.0
 11
174.479706
 21
120.739591
 31
0.0
  0
ENDBLK
  8
0
  5
4F
  0
BLOCK
  8
0
  5
51
  2
*X1
 70
    65
 10
223.956894
 20
20.742096
 30
0.0
  3
*X1
  0
LINE
  8
LC-003-005-----0
  6
CONTINUOUS
  5
52
 10
227.217276
 20
20.742096
 30
0.0
 11
229.102095
 21
22.626915
 31
0.0
  0
LINE
  8
LC-003-005-----0
  6
CONTINUOUS
  5
53
 10
224.388849
 20
20.742096
 30
0.0
 11
226.871385
 21
23.224632
 31
0.0
  0
LINE
  8
LC-003-005-----0
  6
CONTINUOUS
  5
54
 10
223.956894
 20
23.138568
 30
0.0
 11
225.956894
 21
25.138568
 31
0.0
  0
LINE
  8
LC-003-005-----0
  6
CONTINUOUS
  5
55
 10
223.956894
 20
25.966995
 30
0.0
 11
225.956894
 21
27.966995
 31
0.0
  0
LINE
  8
LC-003-005-----0
  6
CONTINUOUS
  5
56
 10
223.956894
 20
28.795422
 30
0.0
 11
227.956894
 21
32.795422
 31
0.0
  0
LINE
  8
LC-003-005-----0
  6
CONTINUOUS
  5
57
 10
223.956894
 20
31.623849
 30
0.0
 11
226.08426
 21
33.751215
 31
0.0
  0
LINE
  8
LC-003-005-----0
  6
CONTINUOUS
  5
58
 10
223.956894
 20
34.452276
 30
0.0
 11
225.956894
 21
36.452276
 31
0.0
  0
LINE
  8
LC-003-005-----0
  6
CONTINUOUS
  5
59
 10
223.956894
 20
37.280703
 30
0.0
 11
227.956894
 21
41.280703
 31
0.0
  0
LINE
  8
LC-003-005-----0
  6
CONTINUOUS
  5
5A
 10
223.956894
 20
40.10913
 30
0.0
 11
226.698569
 21
42.850806
 31
0.0
  0
LINE
  8
LC-003-005-----0
  6
CONTINUOUS
  5
5B
 10
224.001305
 20
42.981969
 30
0.0
 11
226.156894
 21
45.137558
 31
0.0
  0
LINE
  8
LC-003-005-----0
  6
CONTINUOUS
  5
5C
 10
227.258927
 20
46.239591
 30
0.0
 11
228.11583
 21
47.096494
 31
0.0
  0
LINE
  8
LC-003-005-----0
  6
CONTINUOUS
  5
5D
 10
224.515195
 20
46.324286
 30
0.0
 11
234.606894
 21
56.415985
 31
0.0
  0
LINE
  8
LC-003-005-----0
  6
CONTINUOUS
  5
5E
 10
226.232382
 20
50.8699
 30
0.0
 11
234.606894
 21
59.244412
 31
0.0
  0
LINE
  8
LC-003-005-----0
  6
CONTINUOUS
  5
5F
 10
231.63332
 20
59.099265
 30
0.0
 11
234.606894
 21
62.072839
 31
0.0
  0
LINE
  8
LC-003-005-----0
  6
CONTINUOUS
  5
60
 10
231.668486
 20
61.962859
 30
0.0
 11
234.606894
 21
64.901266
 31
0.0
  0
LINE
  8
LC-003-005-----0
  6
CONTINUOUS
  5
61
 10
231.703653
 20
64.826453
 30
0.0
 11
234.606894
 21
67.729693
 31
0.0
  0
LINE
  8
LC-003-005-----0
  6
CONTINUOUS
  5
62
 10
231.73882
 20
67.690046
 30
0.0
 11
234.606894
 21
70.55812
 31
0.0
  0
LINE
  8
LC-003-005-----0
  6
CONTINUOUS
  5
63
 10
231.773986
 20
70.55364
 30
0.0
 11
234.606894
 21
73.386547
 31
0.0
  0
LINE
  8
LC-003-005-----0
  6
CONTINUOUS
  5
64
 10
231.809153
 20
73.417234
 30
0.0
 11
234.606894
 21
76.214975
 31
0.0
  0
LINE
  8
LC-003-005-----0
  6
CONTINUOUS
  5
65
 10
231.84432
 20
76.280828
 30
0.0
 11
234.606894
 21
79.043402
 31
0.0
  0
LINE
  8
LC-003-005-----0
  6
CONTINUOUS
  5
66
 10
231.879486
 20
79.144422
 30
0.0
 11
234.606894
 21
81.871829
 31
0.0
  0
LINE
  8
LC-003-005-----0
  6
CONTINUOUS
  5
67
 10
231.914653
 20
82.008016
 30
0.0
 11
234.606894
 21
84.700256
 31
0.0
  0
LINE
  8
LC-003-005-----0
  6
CONTINUOUS
  5
68
 10
231.94982
 20
84.871609
 30
0.0
 11
234.606894
 21
87.528683
 31
0.0
  0
LINE
  8
LC-003-005-----0
  6
CONTINUOUS
  5
69
 10
231.984987
 20
87.735203
 30
0.0
 11
234.606894
 21
90.35711
 31
0.0
  0
LINE
  8
LC-003-005-----0
  6
CONTINUOUS
  5
6A
 10
232.020153
 20
90.598797
 30
0.0
 11
234.606894
 21
93.185537
 31
0.0
  0
LINE
  8
LC-003-005-----0
  6
CONTINUOUS
  5
6B
 10
232.05532
 20
93.462391
 30
0.0
 11
234.606894
 21
96.013964
 31
0.0
  0
LINE
  8
LC-003-005-----0
  6
CONTINUOUS
  5
6C
 10
232.090487
 20
96.325985
 30
0.0
 11
234.606894
 21
98.842392
 31
0.0
  0
LINE
  8
LC-003-005-----0
  6
CONTINUOUS
  5
6D
 10
232.125653
 20
99.189578
 30
0.0
 11
234.606894
 21
101.670819
 31
0.0
  0
LINE
  8
LC-003-005-----0
  6
CONTINUOUS
  5
6E
 10
232.16082
 20
102.053172
 30
0.0
 11
234.606894
 21
104.499246
 31
0.0
  0
LINE
  8
LC-003-005-----0
  6
CONTINUOUS
  5
6F
 10
232.195987
 20
104.916766
 30
0.0
 11
234.606894
 21
107.327673
 31
0.0
  0
LINE
  8
LC-003-005-----0
  6
CONTINUOUS
  5
70
 10
232.231153
 20
107.78036
 30
0.0
 11
234.606894
 21
110.1561
 31
0.0
  0
LINE
  8
LC-003-005-----0
  6
CONTINUOUS
  5
71
 10
232.26632
 20
110.643954
 30
0.0
 11
234.606894
 21
112.984527
 31
0.0
  0
LINE
  8
LC-003-005-----0
  6
CONTINUOUS
  5
72
 10
232.301487
 20
113.507548
 30
0.0
 11
234.606894
 21
115.812954
 31
0.0
  0
LINE
  8
LC-003-005-----0
  6
CONTINUOUS
  5
73
 10
232.336653
 20
116.371141
 30
0.0
 11
234.606894
 21
118.641381
 31
0.0
  0
LINE
  8
LC-003-005-----0
  6
CONTINUOUS
  5
74
 10
231.784678
 20
118.647593
 30
0.0
 11
233.876676
 21
120.739591
 31
0.0
  0
ENDBLK
  8
0
  5
75
  0
BLOCK
  8
0
  5
77
  2
*X2
 70
    65
 10
124.856894
 20
24.007172
 30
0.0
  3
*X2
  0
LINE
  8
LC-003-005-----0
  6
CONTINUOUS
  5
78
 10
271.810792
 20
54.021904
 30
0.0
 11
273.035718
 21
55.246829
 31
0.0
  0
LINE
  8
LC-003-005-----0
  6
CONTINUOUS
  5
79
 10
277.117236
 20
59.328348
 30
0.0
 11
278.342162
 21
60.553273
 31
0.0
  0
LINE
  8
LC-003-005-----0
  6
CONTINUOUS
  5
7A
 10
268.967634
 20
54.007172
 30
0.0
 11
269.967634
 21
55.007172
 31
0.0
  0
LINE
  8
LC-003-005-----0
  6
CONTINUOUS
  5
7B
 10
277.356894
 20
62.396432
 30
0.0
 11
278.356894
 21
63.396432
 31
0.0
  0
LINE
  8
LC-003-005-----0
  6
CONTINUOUS
  5
7C
 10
266.139207
 20
54.007172
 30
0.0
 11
267.139207
 21
55.007172
 31
0.0
  0
LINE
  8
LC-003-005-----0
  6
CONTINUOUS
  5
7D
 10
277.356894
 20
65.224859
 30
0.0
 11
278.356894
 21
66.224859
 31
0.0
  0
LINE
  8
LC-003-005-----0
  6
CONTINUOUS
  5
7E
 10
263.310779
 20
54.007172
 30
0.0
 11
264.310779
 21
55.007172
 31
0.0
  0
LINE
  8
LC-003-005-----0
  6
CONTINUOUS
  5
7F
 10
277.356894
 20
68.053286
 30
0.0
 11
278.356894
 21
69.053286
 31
0.0
  0
LINE
  8
LC-003-005-----0
  6
CONTINUOUS
  5
80
 10
260.482352
 20
54.007172
 30
0.0
 11
261.482352
 21
55.007172
 31
0.0
  0
LINE
  8
LC-003-005-----0
  6
CONTINUOUS
  5
81
 10
277.356894
 20
70.881713
 30
0.0
 11
278.356894
 21
71.881713
 31
0.0
  0
LINE
  8
LC-003-005-----0
  6
CONTINUOUS
  5
82
 10
228.106894
 20
24.460141
 30
0.0
 11
229.106894
 21
25.460141
 31
0.0
  0
LINE
  8
LC-003-005-----0
  6
CONTINUOUS
  5
83
 10
257.653925
 20
54.007172
 30
0.0
 11
258.653925
 21
55.007172
 31
0.0
  0
LINE
  8
LC-003-005-----0
  6
CONTINUOUS
  5
84
 10
277.356894
 20
73.710141
 30
0.0
 11
278.356894
 21
74.710141
 31
0.0
  0
LINE
  8
LC-003-005-----0
  6
CONTINUOUS
  5
85
 10
228.106894
 20
27.288568
 30
0.0
 11
229.106894
 21
28.288568
 31
0.0
  0
LINE
  8
LC-003-005-----0
  6
CONTINUOUS
  5
86
 10
254.825498
 20
54.007172
 30
0.0
 11
255.825498
 21
55.007172
 31
0.0
  0
LINE
  8
LC-003-005-----0
  6
CONTINUOUS
  5
87
 10
277.356894
 20
76.538568
 30
0.0
 11
278.356894
 21
77.538568
 31
0.0
  0
LINE
  8
LC-003-005-----0
  6
CONTINUOUS
  5
88
 10
228.106894
 20
30.116995
 30
0.0
 11
229.106894
 21
31.116995
 31
0.0
  0
LINE
  8
LC-003-005-----0
  6
CONTINUOUS
  5
89
 10
251.997071
 20
54.007172
 30
0.0
 11
252.997071
 21
55.007172
 31
0.0
  0
LINE
  8
LC-003-005-----0
  6
CONTINUOUS
  5
8A
 10
277.356894
 20
79.366995
 30
0.0
 11
278.356894
 21
80.366995
 31
0.0
  0
LINE
  8
LC-003-005-----0
  6
CONTINUOUS
  5
8B
 10
228.106894
 20
32.945422
 30
0.0
 11
229.106894
 21
33.945422
 31
0.0
  0
LINE
  8
LC-003-005-----0
  6
CONTINUOUS
  5
8C
 10
249.168644
 20
54.007172
 30
0.0
 11
250.168644
 21
55.007172
 31
0.0
  0
LINE
  8
LC-003-005-----0
  6
CONTINUOUS
  5
8D
 10
277.356894
 20
82.195422
 30
0.0
 11
278.356894
 21
83.195422
 31
0.0
  0
LINE
  8
LC-003-005-----0
  6
CONTINUOUS
  5
8E
 10
228.106894
 20
35.773849
 30
0.0
 11
229.106894
 21
36.773849
 31
0.0
  0
LINE
  8
LC-003-005-----0
  6
CONTINUOUS
  5
8F
 10
246.340217
 20
54.007172
 30
0.0
 11
247.340217
 21
55.007172
 31
0.0
  0
LINE
  8
LC-003-005-----0
  6
CONTINUOUS
  5
90
 10
277.356894
 20
85.023849
 30
0.0
 11
278.356894
 21
86.023849
 31
0.0
  0
LINE
  8
LC-003-005-----0
  6
CONTINUOUS
  5
91
 10
228.106894
 20
38.602276
 30
0.0
 11
229.106894
 21
39.602276
 31
0.0
  0
LINE
  8
LC-003-005-----0
  6
CONTINUOUS
  5
92
 10
243.51179
 20
54.007172
 30
0.0
 11
244.51179
 21
55.007172
 31
0.0
  0
LINE
  8
LC-003-005-----0
  6
CONTINUOUS
  5
93
 10
277.356894
 20
87.852276
 30
0.0
 11
278.356894
 21
88.852276
 31
0.0
  0
LINE
  8
LC-003-005-----0
  6
CONTINUOUS
  5
94
 10
228.106894
 20
41.430703
 30
0.0
 11
229.106894
 21
42.430703
 31
0.0
  0
LINE
  8
LC-003-005-----0
  6
CONTINUOUS
  5
95
 10
240.683362
 20
54.007172
 30
0.0
 11
241.683362
 21
55.007172
 31
0.0
  0
LINE
  8
LC-003-005-----0
  6
CONTINUOUS
  5
96
 10
277.356894
 20
90.680703
 30
0.0
 11
278.356894
 21
91.680703
 31
0.0
  0
LINE
  8
LC-003-005-----0
  6
CONTINUOUS
  5
97
 10
228.106894
 20
44.25913
 30
0.0
 11
229.110524
 21
45.26276
 31
0.0
  0
LINE
  8
LC-003-005-----0
  6
CONTINUOUS
  5
98
 10
237.851305
 20
54.003542
 30
0.0
 11
238.854935
 21
55.007172
 31
0.0
  0
LINE
  8
LC-003-005-----0
  6
CONTINUOUS
  5
99
 10
277.356894
 20
93.50913
 30
0.0
 11
278.356894
 21
94.50913
 31
0.0
  0
LINE
  8
LC-003-005-----0
  6
CONTINUOUS
  5
9A
 10
228.39028
 20
47.370944
 30
0.0
 11
230.062687
 21
49.043351
 31
0.0
  0
LINE
  8
LC-003-005-----0
  6
CONTINUOUS
  5
9B
 10
234.070715
 20
53.051379
 30
0.0
 11
235.743122
 21
54.723786
 31
0.0
  0
LINE
  8
LC-003-005-----0
  6
CONTINUOUS
  5
9C
 10
277.356894
 20
96.337558
 30
0.0
 11
278.356894
 21
97.337558
 31
0.0
  0
LINE
  8
LC-003-005-----0
  6
CONTINUOUS
  5
9D
 10
277.356894
 20
99.165985
 30
0.0
 11
278.356894
 21
100.165985
 31
0.0
  0
LINE
  8
LC-003-005-----0
  6
CONTINUOUS
  5
9E
 10
277.356894
 20
101.994412
 30
0.0
 11
278.356894
 21
102.994412
 31
0.0
  0
LINE
  8
LC-003-005-----0
  6
CONTINUOUS
  5
9F
 10
277.356894
 20
104.822839
 30
0.0
 11
278.356894
 21
105.822839
 31
0.0
  0
LINE
  8
LC-003-005-----0
  6
CONTINUOUS
  5
A0
 10
277.356894
 20
107.651266
 30
0.0
 11
278.356894
 21
108.651266
 31
0.0
  0
LINE
  8
LC-003-005-----0
  6
CONTINUOUS
  5
A1
 10
277.356894
 20
110.479693
 30
0.0
 11
278.356894
 21
111.479693
 31
0.0
  0
LINE
  8
LC-003-005-----0
  6
CONTINUOUS
  5
A2
 10
277.356894
 20
113.30812
 30
0.0
 11
278.356894
 21
114.30812
 31
0.0
  0
LINE
  8
LC-003-005-----0
  6
CONTINUOUS
  5
A3
 10
277.356894
 20
116.136547
 30
0.0
 11
278.361378
 21
117.141032
 31
0.0
  0
LINE
  8
LC-003-005-----0
  6
CONTINUOUS
  5
A4
 10
279.779482
 20
121.387563
 30
0.0
 11
280.857801
 21
122.465882
 31
0.0
  0
LINE
  8
LC-003-005-----0
  6
CONTINUOUS
  5
A5
 10
179.570664
 20
24.007172
 30
0.0
 11
180.106894
 21
24.543402
 31
0.0
  0
LINE
  8
LC-003-005-----0
  6
CONTINUOUS
  5
A6
 10
279.993485
 20
124.429993
 30
0.0
 11
281.071804
 21
125.508312
 31
0.0
  0
LINE
  8
LC-003-005-----0
  6
CONTINUOUS
  5
A7
 10
179.106894
 20
26.371829
 30
0.0
 11
180.106894
 21
27.371829
 31
0.0
  0
LINE
  8
LC-003-005-----0
  6
CONTINUOUS
  5
A8
 10
179.106894
 20
29.200256
 30
0.0
 11
180.106894
 21
30.200256
 31
0.0
  0
LINE
  8
LC-003-005-----0
  6
CONTINUOUS
  5
A9
 10
179.106894
 20
32.028683
 30
0.0
 11
180.106894
 21
33.028683
 31
0.0
  0
LINE
  8
LC-003-005-----0
  6
CONTINUOUS
  5
AA
 10
179.106894
 20
34.85711
 30
0.0
 11
180.106894
 21
35.85711
 31
0.0
  0
LINE
  8
LC-003-005-----0
  6
CONTINUOUS
  5
AB
 10
179.106894
 20
37.685537
 30
0.0
 11
180.106894
 21
38.685537
 31
0.0
  0
LINE
  8
LC-003-005-----0
  6
CONTINUOUS
  5
AC
 10
179.106894
 20
40.513964
 30
0.0
 11
180.106894
 21
41.513964
 31
0.0
  0
LINE
  8
LC-003-005-----0
  6
CONTINUOUS
  5
AD
 10
179.106894
 20
43.342392
 30
0.0
 11
180.106894
 21
44.342392
 31
0.0
  0
LINE
  8
LC-003-005-----0
  6
CONTINUOUS
  5
AE
 10
179.039838
 20
46.103763
 30
0.0
 11
179.911316
 21
46.975241
 31
0.0
  0
LINE
  8
LC-003-005-----0
  6
CONTINUOUS
  5
AF
 10
178.461512
 20
48.353864
 30
0.0
 11
179.223736
 21
49.116088
 31
0.0
  0
LINE
  8
LC-003-005-----0
  6
CONTINUOUS
  5
B0
 10
177.466607
 20
50.187386
 30
0.0
 11
178.183234
 21
50.904013
 31
0.0
  0
LINE
  8
LC-003-005-----0
  6
CONTINUOUS
  5
B1
 10
176.138114
 20
51.68732
 30
0.0
 11
176.846049
 21
52.395256
 31
0.0
  0
LINE
  8
LC-003-005-----0
  6
CONTINUOUS
  5
B2
 10
174.490062
 20
52.867696
 30
0.0
 11
175.222193
 21
53.599827
 31
0.0
  0
LINE
  8
LC-003-005-----0
  6
CONTINUOUS
  5
B3
 10
172.482047
 20
53.688108
 30
0.0
 11
173.283242
 21
54.489303
 31
0.0
  0
LINE
  8
LC-003-005-----0
  6
CONTINUOUS
  5
B4
 10
169.972684
 20
54.007172
 30
0.0
 11
170.938081
 21
54.972569
 31
0.0
  0
LINE
  8
LC-003-005-----0
  6
CONTINUOUS
  5
B5
 10
167.144257
 20
54.007172
 30
0.0
 11
168.144257
 21
55.007172
 31
0.0
  0
LINE
  8
LC-003-005-----0
  6
CONTINUOUS
  5
B6
 10
164.31583
 20
54.007172
 30
0.0
 11
165.31583
 21
55.007172
 31
0.0
  0
LINE
  8
LC-003-005-----0
  6
CONTINUOUS
  5
B7
 10
161.487403
 20
54.007172
 30
0.0
 11
162.487403
 21
55.007172
 31
0.0
  0
LINE
  8
LC-003-005-----0
  6
CONTINUOUS
  5
B8
 10
158.658976
 20
54.007172
 30
0.0
 11
159.658976
 21
55.007172
 31
0.0
  0
LINE
  8
LC-003-005-----0
  6
CONTINUOUS
  5
B9
 10
155.830549
 20
54.007172
 30
0.0
 11
156.830549
 21
55.007172
 31
0.0
  0
LINE
  8
LC-003-005-----0
  6
CONTINUOUS
  5
BA
 10
153.002122
 20
54.007172
 30
0.0
 11
154.002122
 21
55.007172
 31
0.0
  0
LINE
  8
LC-003-005-----0
  6
CONTINUOUS
  5
BB
 10
150.173694
 20
54.007172
 30
0.0
 11
151.173694
 21
55.007172
 31
0.0
  0
LINE
  8
LC-003-005-----0
  6
CONTINUOUS
  5
BC
 10
147.345267
 20
54.007172
 30
0.0
 11
148.345267
 21
55.007172
 31
0.0
  0
LINE
  8
LC-003-005-----0
  6
CONTINUOUS
  5
BD
 10
144.51684
 20
54.007172
 30
0.0
 11
145.51684
 21
55.007172
 31
0.0
  0
LINE
  8
LC-003-005-----0
  6
CONTINUOUS
  5
BE
 10
141.688413
 20
54.007172
 30
0.0
 11
142.688413
 21
55.007172
 31
0.0
  0
LINE
  8
LC-003-005-----0
  6
CONTINUOUS
  5
BF
 10
138.859986
 20
54.007172
 30
0.0
 11
139.859986
 21
55.007172
 31
0.0
  0
LINE
  8
LC-003-005-----0
  6
CONTINUOUS
  5
C0
 10
136.075327
 20
54.050941
 30
0.0
 11
137.031559
 21
55.007172
 31
0.0
  0
LINE
  8
LC-003-005-----0
  6
CONTINUOUS
  5
C1
 10
133.871615
 20
54.675655
 30
0.0
 11
134.631209
 21
55.435249
 31
0.0
  0
LINE
  8
LC-003-005-----0
  6
CONTINUOUS
  5
C2
 10
132.172827
 20
55.805295
 30
0.0
 11
132.881066
 21
56.513533
 31
0.0
  0
LINE
  8
LC-003-005-----0
  6
CONTINUOUS
  5
C3
 10
130.888555
 20
57.34945
 30
0.0
 11
131.619274
 21
58.080169
 31
0.0
  0
LINE
  8
LC-003-005-----0
  6
CONTINUOUS
  5
C4
 10
130.056821
 20
59.346143
 30
0.0
 11
130.911345
 21
60.200667
 31
0.0
  0
LINE
  8
LC-003-005-----0
  6
CONTINUOUS
  5
C5
 10
129.856894
 20
61.974643
 30
0.0
 11
130.856894
 21
62.974643
 31
0.0
  0
LINE
  8
LC-003-005-----0
  6
CONTINUOUS
  5
C6
 10
129.856894
 20
64.80307
 30
0.0
 11
130.856894
 21
65.80307
 31
0.0
  0
LINE
  8
LC-003-005-----0
  6
CONTINUOUS
  5
C7
 10
129.856894
 20
67.631497
 30
0.0
 11
130.856894
 21
68.631497
 31
0.0
  0
LINE
  8
LC-003-005-----0
  6
CONTINUOUS
  5
C8
 10
129.856894
 20
70.459924
 30
0.0
 11
130.856894
 21
71.459924
 31
0.0
  0
LINE
  8
LC-003-005-----0
  6
CONTINUOUS
  5
C9
 10
129.856894
 20
73.288351
 30
0.0
 11
130.856894
 21
74.288351
 31
0.0
  0
LINE
  8
LC-003-005-----0
  6
CONTINUOUS
  5
CA
 10
129.856894
 20
76.116778
 30
0.0
 11
130.856894
 21
77.116778
 31
0.0
  0
LINE
  8
LC-003-005-----0
  6
CONTINUOUS
  5
CB
 10
129.856894
 20
78.945205
 30
0.0
 11
130.856894
 21
79.945205
 31
0.0
  0
LINE
  8
LC-003-005-----0
  6
CONTINUOUS
  5
CC
 10
129.856894
 20
81.773632
 30
0.0
 11
130.856894
 21
82.773632
 31
0.0
  0
LINE
  8
LC-003-005-----0
  6
CONTINUOUS
  5
CD
 10
129.856894
 20
84.60206
 30
0.0
 11
130.856894
 21
85.60206
 31
0.0
  0
LINE
  8
LC-003-005-----0
  6
CONTINUOUS
  5
CE
 10
129.856894
 20
87.430487
 30
0.0
 11
130.856894
 21
88.430487
 31
0.0
  0
LINE
  8
LC-003-005-----0
  6
CONTINUOUS
  5
CF
 10
129.856894
 20
90.258914
 30
0.0
 11
130.856894
 21
91.258914
 31
0.0
  0
LINE
  8
LC-003-005-----0
  6
CONTINUOUS
  5
D0
 10
129.856894
 20
93.087341
 30
0.0
 11
130.856894
 21
94.087341
 31
0.0
  0
LINE
  8
LC-003-005-----0
  6
CONTINUOUS
  5
D1
 10
129.856894
 20
95.915768
 30
0.0
 11
130.856894
 21
96.915768
 31
0.0
  0
LINE
  8
LC-003-005-----0
  6
CONTINUOUS
  5
D2
 10
129.856894
 20
98.744195
 30
0.0
 11
130.856894
 21
99.744195
 31
0.0
  0
LINE
  8
LC-003-005-----0
  6
CONTINUOUS
  5
D3
 10
129.856894
 20
101.572622
 30
0.0
 11
130.856894
 21
102.572622
 31
0.0
  0
LINE
  8
LC-003-005-----0
  6
CONTINUOUS
  5
D4
 10
129.856894
 20
104.401049
 30
0.0
 11
130.856894
 21
105.401049
 31
0.0
  0
LINE
  8
LC-003-005-----0
  6
CONTINUOUS
  5
D5
 10
129.856894
 20
107.229477
 30
0.0
 11
130.856894
 21
108.229477
 31
0.0
  0
LINE
  8
LC-003-005-----0
  6
CONTINUOUS
  5
D6
 10
129.856894
 20
110.057904
 30
0.0
 11
130.856894
 21
111.057904
 31
0.0
  0
LINE
  8
LC-003-005-----0
  6
CONTINUOUS
  5
D7
 10
129.856894
 20
112.886331
 30
0.0
 11
130.856894
 21
113.886331
 31
0.0
  0
LINE
  8
LC-003-005-----0
  6
CONTINUOUS
  5
D8
 10
129.856894
 20
115.714758
 30
0.0
 11
130.856894
 21
116.714758
 31
0.0
  0
LINE
  8
LC-003-005-----0
  6
CONTINUOUS
  5
D9
 10
129.483942
 20
118.170234
 30
0.0
 11
130.197484
 21
118.883775
 31
0.0
  0
LINE
  8
LC-003-005-----0
  6
CONTINUOUS
  5
DA
 10
127.771184
 20
119.285903
 30
0.0
 11
128.528842
 21
120.04356
 31
0.0
  0
LINE
  8
LC-003-005-----0
  6
CONTINUOUS
  5
DB
 10
127.406375
 20
121.74952
 30
0.0
 11
128.342966
 21
122.686112
 31
0.0
  0
LINE
  8
LC-003-005-----0
  6
CONTINUOUS
  5
DC
 10
127.220499
 20
124.392072
 30
0.0
 11
128.15709
 21
125.328663
 31
0.0
  0
LINE
  8
LC-003-005-----0
  6
CONTINUOUS
  5
DD
 10
126.890963
 20
126.890963
 30
0.0
 11
127.599018
 21
127.599018
 31
0.0
  0
ENDBLK
  8
0
  5
DE
  0
BLOCK
  8
0
  5
E0
  2
BLK1
 70
    64
 10
0.0
 20
0.0
 30
0.0
  3
BLK1
  0
ENDBLK
  8
0
  5
E1
  0
BLOCK
  8
0
  5
E3
  2
BLK2
 70
    64
 10
0.0
 20
0.0
 30
0.0
  3
BLK2
  0
ENDBLK
  8
0
  5
E4
  0
BLOCK
  8
0
  5
E6
  2
*X5
 70
    65
 10
180.261906
 20
42.744603
 30
0.0
  3
*X5
  0
LINE
  8
LC-003-005-----0
  6
CONTINUOUS
  5
E7
 10
181.965788
 20
45.722596
 30
0.0
 11
181.539899
 21
46.148485
 31
0.0
  0
LINE
  8
LC-003-005-----0
  6
DASHED
  5
E9
 10
181.820685
 20
43.039271
 30
0.0
 11
180.261906
 21
44.59805
 31
0.0
  0
ENDBLK
  8
0
  5
EA
  0
BLOCK
  8
0
  5
EC
  2
*X6
 70
    65
 10
226.156894
 20
42.744603
 30
0.0
  3
*X6
  0
LINE
  8
LC-003-005-----0
  6
DASHED
  5
ED
 10
227.949839
 20
43.579165
 30
0.0
 11
226.162316
 21
45.366688
 31
0.0
  0
LINE
  8
LC-003-005-----0
  6
DASHED
  5
EE
 10
227.328105
 20
42.786686
 30
0.0
 11
226.156894
 21
43.957897
 31
0.0
  0
ENDBLK
  8
0
  5
EF
  0
BLOCK
  8
0
  5
F1
  2
BLK3
 70
    64
 10
0.0
 20
0.0
 30
0.0
  3
BLK3
  0
ENDBLK
  8
0
  5
F2
  0
BLOCK
  8
0
  5
F4
  2
*D8
 70
    65
 10
0.0
 20
0.0
 30
0.0
  3
*D8
  0
LINE
  8
LC-008-003-MTH-0
  6
CONTINUOUS
  5
F6
 10
53.952627
 20
161.427662
 30
0.0
 11
53.952627
 21
252.0
 31
0.0
  0
LINE
  8
LC-008-003-MTH-0
  6
CONTINUOUS
  5
F7
 10
354.253475
 20
161.427662
 30
0.0
 11
354.253475
 21
252.0
 31
0.0
  0
LINE
  8
LC-009-003-MTG-0
  6
CONTINUOUS
  5
F9
 10
53.952627
 20
235.2
 30
0.0
 11
354.253475
 21
235.2
 31
0.0
  0
LINE
  8
LC-007-003-----0
  6
CONTINUOUS
  5
FB
 10
81.713083
 20
238.854733
 30
0.0
 11
53.952627
 21
235.2
 31
0.0
  0
LINE
  8
LC-007-003-----0
  6
CONTINUOUS
  5
FC
 10
53.952627
 20
235.2
 30
0.0
 11
81.713083
 21
231.545267
 31
0.0
  0
LINE
  8
LC-007-003-----0
  6
CONTINUOUS
  5
FD
 10
81.713083
 20
231.545267
 30
0.0
 11
81.713083
 21
238.854733
 31
0.0
  0
LINE
  8
LC-007-003-----0
  6
CONTINUOUS
  5
FE
 10
81.775365
 20
237.904503
 30
0.0
 11
61.232627
 21
235.2
 31
0.0
  0
LINE
  8
LC-007-003-----0
  6
CONTINUOUS
  5
FF
 10
61.232627
 20
235.2
 30
0.0
 11
81.775365
 21
232.495497
 31
0.0
  0
LINE
  8
LC-007-003-----0
  6
CONTINUOUS
  5
100
 10
81.837646
 20
236.954272
 30
0.0
 11
68.512627
 21
235.2
 31
0.0
  0
LINE
  8
LC-007-003-----0
  6
CONTINUOUS
  5
101
 10
68.512627
 20
235.2
 30
0.0
 11
81.837646
 21
233.445728
 31
0.0
  0
LINE
  8
LC-007-003-----0
  6
CONTINUOUS
  5
102
 10
81.899928
 20
236.004041
 30
0.0
 11
75.792627
 21
235.2
 31
0.0
  0
LINE
  8
LC-007-003-----0
  6
CONTINUOUS
  5
103
 10
75.792627
 20
235.2
 30
0.0
 11
81.899928
 21
234.395959
 31
0.0
  0
LINE
  8
LC-007-003-----0
  6
CONTINUOUS
  5
104
 10
326.493019
 20
231.545267
 30
0.0
 11
354.253475
 21
235.2
 31
0.0
  0
LINE
  8
LC-007-003-----0
  6
CONTINUOUS
  5
105
 10
354.253475
 20
235.2
 30
0.0
 11
326.493019
 21
238.854733
 31
0.0
  0
LINE
  8
LC-007-003-----0
  6
CONTINUOUS
  5
106
 10
326.493019
 20
238.854733
 30
0.0
 11
326.493019
 21
231.545267
 31
0.0
  0
LINE
  8
LC-007-003-----0
  6
CONTINUOUS
  5
107
 10
326.430738
 20
232.495497
 30
0.0
 11
346.973475
 21
235.2
 31
0.0
  0
LINE
  8
LC-007-003-----0
  6
CONTINUOUS
  5
108
 10
346.973475
 20
235.2
 30
0.0
 11
326.430738
 21
237.904503
 31
0.0
  0
LINE
  8
LC-007-003-----0
  6
CONTINUOUS
  5
109
 10
326.368457
 20
233.445728
 30
0.0
 11
339.693475
 21
235.2
 31
0.0
  0
LINE
  8
LC-007-003-----0
  6
CONTINUOUS
  5
10A
 10
339.693475
 20
235.2
 30
0.0
 11
326.368457
 21
236.954272
 31
0.0
  0
LINE
  8
LC-007-003-----0
  6
CONTINUOUS
  5
10B
 10
326.306175
 20
234.395959
 30
0.0
 11
332.413475
 21
235.2
 31
0.0
  0
LINE
  8
LC-007-003-----0
  6
CONTINUOUS
  5
10C
 10
332.413475
 20
235.2
 30
0.0
 11
326.306175
 21
236.004041
 31
0.0
  0
TEXT
  8
LC-007-003-----0
  6
CONTINUOUS
 62
     8
  5
10D
 10
170.179761
 20
243.027554
 30
0.0
 40
28.0
  1
Ø300
 41
0.9
 51
15.0
  7
LC-TXTSTYLE-150-400-0-0-A0
 72
     1
 11
208.451211
 21
243.027554
 31
0.0
  0
ENDBLK
  8
0
  5
10E
  0
BLOCK
  8
0
  5
110
  2
*D9
 70
    65
 10
0.0
 20
0.0
 30
0.0
  3
*D9
  0
LINE
  8
LC-008-003-MTH-0
  6
CONTINUOUS
  5
111
 10
109.70969
 20
147.127239
 30
0.0
 11
109.70969
 21
212.8
 31
0.0
  0
LINE
  8
LC-008-003-MTH-0
  6
CONTINUOUS
  5
112
 10
298.496413
 20
147.127239
 30
0.0
 11
298.496413
 21
212.8
 31
0.0
  0
LINE
  8
LC-009-003-MTG-0
  6
CONTINUOUS
  5
113
 10
109.70969
 20
196.0
 30
0.0
 11
298.496413
 21
196.0
 31
0.0
  0
LINE
  8
LC-007-003-----0
  6
CONTINUOUS
  5
114
 10
137.470146
 20
199.654733
 30
0.0
 11
109.70969
 21
196.0
 31
0.0
  0
LINE
  8
LC-007-003-----0
  6
CONTINUOUS
  5
115
 10
109.70969
 20
196.0
 30
0.0
 11
137.470146
 21
192.345267
 31
0.0
  0
LINE
  8
LC-007-003-----0
  6
CONTINUOUS
  5
116
 10
137.470146
 20
192.345267
 30
0.0
 11
137.470146
 21
199.654733
 31
0.0
  0
LINE
  8
LC-007-003-----0
  6
CONTINUOUS
  5
117
 10
137.532427
 20
198.704503
 30
0.0
 11
116.98969
 21
196.0
 31
0.0
  0
LINE
  8
LC-007-003-----0
  6
CONTINUOUS
  5
118
 10
116.98969
 20
196.0
 30
0.0
 11
137.532427
 21
193.295497
 31
0.0
  0
LINE
  8
LC-007-003-----0
  6
CONTINUOUS
  5
119
 10
137.594709
 20
197.754272
 30
0.0
 11
124.26969
 21
196.0
 31
0.0
  0
LINE
  8
LC-007-003-----0
  6
CONTINUOUS
  5
11A
 10
124.26969
 20
196.0
 30
0.0
 11
137.594709
 21
194.245728
 31
0.0
  0
LINE
  8
LC-007-003-----0
  6
CONTINUOUS
  5
11B
 10
137.65699
 20
196.804041
 30
0.0
 11
131.54969
 21
196.0
 31
0.0
  0
LINE
  8
LC-007-003-----0
  6
CONTINUOUS
  5
11C
 10
131.54969
 20
196.0
 30
0.0
 11
137.65699
 21
195.195959
 31
0.0
  0
LINE
  8
LC-007-003-----0
  6
CONTINUOUS
  5
11D
 10
270.735957
 20
192.345267
 30
0.0
 11
298.496413
 21
196.0
 31
0.0
  0
LINE
  8
LC-007-003-----0
  6
CONTINUOUS
  5
11E
 10
298.496413
 20
196.0
 30
0.0
 11
270.735957
 21
199.654733
 31
0.0
  0
LINE
  8
LC-007-003-----0
  6
CONTINUOUS
  5
11F
 10
270.735957
 20
199.654733
 30
0.0
 11
270.735957
 21
192.345267
 31
0.0
  0
LINE
  8
LC-007-003-----0
  6
CONTINUOUS
  5
120
 10
270.673676
 20
193.295497
 30
0.0
 11
291.216413
 21
196.0
 31
0.0
  0
LINE
  8
LC-007-003-----0
  6
CONTINUOUS
  5
121
 10
291.216413
 20
196.0
 30
0.0
 11
270.673676
 21
198.704503
 31
0.0
  0
LINE
  8
LC-007-003-----0
  6
CONTINUOUS
  5
122
 10
270.611394
 20
194.245728
 30
0.0
 11
283.936413
 21
196.0
 31
0.0
  0
LINE
  8
LC-007-003-----0
  6
CONTINUOUS
  5
123
 10
283.936413
 20
196.0
 30
0.0
 11
270.611394
 21
197.754272
 31
0.0
  0
LINE
  8
LC-007-003-----0
  6
CONTINUOUS
  5
124
 10
270.549113
 20
195.195959
 30
0.0
 11
276.656413
 21
196.0
 31
0.0
  0
LINE
  8
LC-007-003-----0
  6
CONTINUOUS
  5
125
 10
276.656413
 20
196.0
 30
0.0
 11
270.549113
 21
196.804041
 31
0.0
  0
TEXT
  8
LC-007-003-----0
  6
CONTINUOUS
 62
     8
  5
126
 10
170.179762
 20
203.827554
 30
0.0
 40
28.0
  1
Ø190
 41
0.9
 51
15.0
  7
LC-TXTSTYLE-150-400-0-0-A0
 72
     1
 11
208.451212
 21
203.827554
 31
0.0
  0
ENDBLK
  8
0
  5
127
  0
BLOCK
  8
0
  5
129
  2
*D10
 70
    65
 10
0.0
 20
0.0
 30
0.0
  3
*D10
  0
LINE
  8
LC-008-003-MTH-0
  6
CONTINUOUS
  5
12A
 10
124.173857
 20
62.971273
 30
0.0
 11
124.174038
 21
-134.399886
 31
0.0
  0
LINE
  8
LC-008-003-MTH-0
  6
CONTINUOUS
  5
12B
 10
284.03993
 20
62.97142
 30
0.0
 11
284.040111
 21
-134.399739
 31
0.0
  0
LINE
  8
LC-009-003-MTG-0
  6
CONTINUOUS
  5
12C
 10
124.174023
 20
-117.599886
 30
0.0
 11
284.040096
 21
-117.599739
 31
0.0
  0
LINE
  8
LC-007-003-----0
  6
CONTINUOUS
  5
12D
 10
151.934476
 20
-113.945127
 30
0.0
 11
124.174023
 21
-117.599886
 31
0.0
  0
LINE
  8
LC-007-003-----0
  6
CONTINUOUS
  5
12E
 10
124.174023
 20
-117.599886
 30
0.0
 11
151.934482
 21
-121.254594
 31
0.0
  0
LINE
  8
LC-007-003-----0
  6
CONTINUOUS
  5
12F
 10
151.934482
 20
-121.254594
 30
0.0
 11
151.934476
 21
-113.945127
 31
0.0
  0
LINE
  8
LC-007-003-----0
  6
CONTINUOUS
  5
130
 10
151.996758
 20
-114.895358
 30
0.0
 11
131.454023
 21
-117.599879
 31
0.0
  0
LINE
  8
LC-007-003-----0
  6
CONTINUOUS
  5
131
 10
131.454023
 20
-117.599879
 30
0.0
 11
151.996763
 21
-120.304363
 31
0.0
  0
LINE
  8
LC-007-003-----0
  6
CONTINUOUS
  5
132
 10
152.05904
 20
-115.845588
 30
0.0
 11
138.734023
 21
-117.599873
 31
0.0
  0
LINE
  8
LC-007-003-----0
  6
CONTINUOUS
  5
133
 10
138.734023
 20
-117.599873
 30
0.0
 11
152.059043
 21
-119.354132
 31
0.0
  0
LINE
  8
LC-007-003-----0
  6
CONTINUOUS
  5
134
 10
152.121322
 20
-116.795819
 30
0.0
 11
146.014023
 21
-117.599866
 31
0.0
  0
LINE
  8
LC-007-003-----0
  6
CONTINUOUS
  5
135
 10
146.014023
 20
-117.599866
 30
0.0
 11
152.121324
 21
-118.403902
 31
0.0
  0
LINE
  8
LC-007-003-----0
  6
CONTINUOUS
  5
136
 10
256.279643
 20
-121.254498
 30
0.0
 11
284.040096
 21
-117.599739
 31
0.0
  0
LINE
  8
LC-007-003-----0
  6
CONTINUOUS
  5
137
 10
284.040096
 20
-117.599739
 30
0.0
 11
256.279636
 21
-113.945031
 31
0.0
  0
LINE
  8
LC-007-003-----0
  6
CONTINUOUS
  5
138
 10
256.279636
 20
-113.945031
 30
0.0
 11
256.279643
 21
-121.254498
 31
0.0
  0
LINE
  8
LC-007-003-----0
  6
CONTINUOUS
  5
139
 10
256.217361
 20
-120.304267
 30
0.0
 11
276.760096
 21
-117.599746
 31
0.0
  0
LINE
  8
LC-007-003-----0
  6
CONTINUOUS
  5
13A
 10
276.760096
 20
-117.599746
 30
0.0
 11
256.217356
 21
-114.895262
 31
0.0
  0
LINE
  8
LC-007-003-----0
  6
CONTINUOUS
  5
13B
 10
256.155079
 20
-119.354037
 30
0.0
 11
269.480096
 21
-117.599753
 31
0.0
  0
LINE
  8
LC-007-003-----0
  6
CONTINUOUS
  5
13C
 10
269.480096
 20
-117.599753
 30
0.0
 11
256.155075
 21
-115.845493
 31
0.0
  0
LINE
  8
LC-007-003-----0
  6
CONTINUOUS
  5
13D
 10
256.092796
 20
-118.403806
 30
0.0
 11
262.200096
 21
-117.599759
 31
0.0
  0
LINE
  8
LC-007-003-----0
  6
CONTINUOUS
  5
13E
 10
262.200096
 20
-117.599759
 30
0.0
 11
256.092795
 21
-116.795724
 31
0.0
  0
TEXT
  8
LC-007-003-----0
  6
CONTINUOUS
 62
     8
  5
13F
 10
170.183777
 20
-109.772259
 30
0.0
 40
28.0
  1
Ø160
 41
0.9
 51
15.0
  7
LC-TXTSTYLE-150-400-0-0-A0
 72
     1
 11
208.455227
 21
-109.772259
 31
0.0
  0
ENDBLK
  8
0
  5
140
  0
BLOCK
  8
0
  5
142
  2
*D11
 70
    65
 10
0.0
 20
0.0
 30
0.0
  3
*D11
  0
LINE
  8
LC-008-003-MTH-0
  6
CONTINUOUS
  5
143
 10
136.125991
 20
51.019139
 30
0.0
 11
23.2
 21
51.019139
 31
0.0
  0
LINE
  8
LC-008-003-MTH-0
  6
CONTINUOUS
  5
144
 10
53.952627
 20
158.432332
 30
0.0
 11
23.2
 21
158.432332
 31
0.0
  0
LINE
  8
LC-009-003-MTG-0
  6
CONTINUOUS
  5
145
 10
40.0
 20
51.019139
 30
0.0
 11
40.0
 21
158.432332
 31
0.0
  0
LINE
  8
LC-007-003-----0
  6
CONTINUOUS
  5
146
 10
36.345267
 20
78.779595
 30
0.0
 11
40.0
 21
51.019139
 31
0.0
  0
LINE
  8
LC-007-003-----0
  6
CONTINUOUS
  5
147
 10
40.0
 20
51.019139
 30
0.0
 11
43.654733
 21
78.779595
 31
0.0
  0
LINE
  8
LC-007-003-----0
  6
CONTINUOUS
  5
148
 10
43.654733
 20
78.779595
 30
0.0
 11
36.345267
 21
78.779595
 31
0.0
  0
LINE
  8
LC-007-003-----0
  6
CONTINUOUS
  5
149
 10
37.295497
 20
78.841876
 30
0.0
 11
40.0
 21
58.299139
 31
0.0
  0
LINE
  8
LC-007-003-----0
  6
CONTINUOUS
  5
14A
 10
40.0
 20
58.299139
 30
0.0
 11
42.704503
 21
78.841876
 31
0.0
  0
LINE
  8
LC-007-003-----0
  6
CONTINUOUS
  5
14B
 10
38.245728
 20
78.904157
 30
0.0
 11
40.0
 21
65.579139
 31
0.0
  0
LINE
  8
LC-007-003-----0
  6
CONTINUOUS
  5
14C
 10
40.0
 20
65.579139
 30
0.0
 11
41.754272
 21
78.904157
 31
0.0
  0
LINE
  8
LC-007-003-----0
  6
CONTINUOUS
  5
14D
 10
39.195959
 20
78.966439
 30
0.0
 11
40.0
 21
72.859139
 31
0.0
  0
LINE
  8
LC-007-003-----0
  6
CONTINUOUS
  5
14E
 10
40.0
 20
72.859139
 30
0.0
 11
40.804041
 21
78.966439
 31
0.0
  0
LINE
  8
LC-007-003-----0
  6
CONTINUOUS
  5
14F
 10
43.654733
 20
130.671875
 30
0.0
 11
40.0
 21
158.432332
 31
0.0
  0
LINE
  8
LC-007-003-----0
  6
CONTINUOUS
  5
150
 10
40.0
 20
158.432332
 30
0.0
 11
36.345267
 21
130.671875
 31
0.0
  0
LINE
  8
LC-007-003-----0
  6
CONTINUOUS
  5
151
 10
36.345267
 20
130.671875
 30
0.0
 11
43.654733
 21
130.671875
 31
0.0
  0
LINE
  8
LC-007-003-----0
  6
CONTINUOUS
  5
152
 10
42.704503
 20
130.609594
 30
0.0
 11
40.0
 21
151.152332
 31
0.0
  0
LINE
  8
LC-007-003-----0
  6
CONTINUOUS
  5
153
 10
40.0
 20
151.152332
 30
0.0
 11
37.295497
 21
130.609594
 31
0.0
  0
LINE
  8
LC-007-003-----0
  6
CONTINUOUS
  5
154
 10
41.754272
 20
130.547313
 30
0.0
 11
40.0
 21
143.872332
 31
0.0
  0
LINE
  8
LC-007-003-----0
  6
CONTINUOUS
  5
155
 10
40.0
 20
143.872332
 30
0.0
 11
38.245728
 21
130.547313
 31
0.0
  0
LINE
  8
LC-007-003-----0
  6
CONTINUOUS
  5
156
 10
40.804041
 20
130.485031
 30
0.0
 11
40.0
 21
136.592332
 31
0.0
  0
LINE
  8
LC-007-003-----0
  6
CONTINUOUS
  5
157
 10
40.0
 20
136.592332
 30
0.0
 11
39.195959
 21
130.485031
 31
0.0
  0
TEXT
  8
LC-007-003-----0
  6
CONTINUOUS
 62
     8
  5
158
 10
32.172446
 20
82.670595
 30
0.0
 40
28.0
  1
110
 50
90.0
 41
0.9
 51
15.0
  7
LC-TXTSTYLE-150-400-0-0-A0
 72
     1
 11
32.172446
 21
109.073895
 31
0.0
  0
ENDBLK
  8
0
  5
159
  0
BLOCK
  8
0
  5
15B
  2
*X12
 70
    65
 10
94.756761
 20
130.291161
 30
0.0
  3
*X12
  0
LINE
  8
LC-003-005-----0
  6
CONTINUOUS
  5
15C
 10
130.291161
 20
130.291161
 30
0.0
 11
130.991161
 21
130.991161
 31
0.0
  0
LINE
  8
LC-003-005-----0
  6
CONTINUOUS
  5
15D
 10
127.643108
 20
130.471535
 30
0.0
 11
128.181954
 21
131.010381
 31
0.0
  0
LINE
  8
LC-003-005-----0
  6
CONTINUOUS
  5
15E
 10
128.656259
 20
134.313114
 30
0.0
 11
129.356259
 21
135.013114
 31
0.0
  0
LINE
  8
LC-003-005-----0
  6
CONTINUOUS
  5
15F
 10
127.75748
 20
136.242761
 30
0.0
 11
128.40507
 21
136.890351
 31
0.0
  0
LINE
  8
LC-003-005-----0
  6
CONTINUOUS
  5
160
 10
125.892005
 20
137.205714
 30
0.0
 11
126.386985
 21
137.700694
 31
0.0
  0
LINE
  8
LC-003-005-----0
  6
CONTINUOUS
  5
161
 10
124.914295
 20
139.056431
 30
0.0
 11
125.556259
 21
139.698395
 31
0.0
  0
LINE
  8
LC-003-005-----0
  6
CONTINUOUS
  5
162
 10
124.856259
 20
141.826822
 30
0.0
 11
125.556259
 21
142.526822
 31
0.0
  0
LINE
  8
LC-003-005-----0
  6
CONTINUOUS
  5
163
 10
124.856259
 20
144.655249
 30
0.0
 11
125.556259
 21
145.355249
 31
0.0
  0
LINE
  8
LC-003-005-----0
  6
CONTINUOUS
  5
164
 10
124.856259
 20
147.483676
 30
0.0
 11
125.556259
 21
148.183676
 31
0.0
  0
LINE
  8
LC-003-005-----0
  6
CONTINUOUS
  5
165
 10
124.856259
 20
150.312103
 30
0.0
 11
125.556259
 21
151.012103
 31
0.0
  0
LINE
  8
LC-003-005-----0
  6
CONTINUOUS
  5
166
 10
124.856259
 20
153.140531
 30
0.0
 11
125.541327
 21
153.825599
 31
0.0
  0
LINE
  8
LC-003-005-----0
  6
CONTINUOUS
  5
167
 10
124.461508
 20
155.574207
 30
0.0
 11
124.997184
 21
156.109882
 31
0.0
  0
LINE
  8
LC-003-005-----0
  6
CONTINUOUS
  5
168
 10
123.430069
 20
157.371194
 30
0.0
 11
123.92242
 21
157.863546
 31
0.0
  0
LINE
  8
LC-003-005-----0
  6
CONTINUOUS
  5
169
 10
121.930102
 20
158.699655
 30
0.0
 11
122.429712
 21
159.199265
 31
0.0
  0
LINE
  8
LC-003-005-----0
  6
CONTINUOUS
  5
16A
 10
119.929695
 20
159.527674
 30
0.0
 11
120.496404
 21
160.094384
 31
0.0
  0
LINE
  8
LC-003-005-----0
  6
CONTINUOUS
  5
16B
 10
117.352366
 20
159.778773
 30
0.0
 11
117.998326
 21
160.424733
 31
0.0
  0
LINE
  8
LC-003-005-----0
  6
CONTINUOUS
  5
16C
 10
114.708796
 20
159.96363
 30
0.0
 11
115.354755
 21
160.609589
 31
0.0
  0
LINE
  8
LC-003-005-----0
  6
CONTINUOUS
  5
16D
 10
112.065225
 20
160.148486
 30
0.0
 11
112.711184
 21
160.794446
 31
0.0
  0
LINE
  8
LC-003-005-----0
  6
CONTINUOUS
  5
16E
 10
109.421654
 20
160.333343
 30
0.0
 11
110.067614
 21
160.979302
 31
0.0
  0
LINE
  8
LC-003-005-----0
  6
CONTINUOUS
  5
16F
 10
106.778084
 20
160.518199
 30
0.0
 11
107.424043
 21
161.164159
 31
0.0
  0
LINE
  8
LC-003-005-----0
  6
CONTINUOUS
  5
170
 10
104.134513
 20
160.703056
 30
0.0
 11
104.780472
 21
161.349015
 31
0.0
  0
LINE
  8
LC-003-005-----0
  6
CONTINUOUS
  5
171
 10
99.160354
 20
161.385751
 30
0.0
 11
99.70462
 21
161.930016
 31
0.0
  0
LINE
  8
LC-003-005-----0
  6
CONTINUOUS
  5
172
 10
97.374246
 20
162.42807
 30
0.0
 11
97.872501
 21
162.926325
 31
0.0
  0
ENDBLK
  8
0
  5
173
  0
BLOCK
  8
0
  5
175
  2
*X13
 70
    65
 10
-45.690954
 20
161.501645
 30
0.0
  3
*X13
  0
LINE
  8
LC-003-005-----0
  6
CONTINUOUS
  5
176
 10
-35.922568
 20
161.501645
 30
0.0
 11
-35.690954
 21
161.73326
 31
0.0
  0
LINE
  8
LC-003-005-----0
  6
CONTINUOUS
  5
177
 10
-36.488254
 20
161.501645
 30
0.0
 11
-35.690954
 21
162.298945
 31
0.0
  0
LINE
  8
LC-003-005-----0
  6
CONTINUOUS
  5
178
 10
-37.053939
 20
161.501645
 30
0.0
 11
-35.690954
 21
162.864631
 31
0.0
  0
LINE
  8
LC-003-005-----0
  6
CONTINUOUS
  5
179
 10
-37.619625
 20
161.501645
 30
0.0
 11
-35.690954
 21
163.430316
 31
0.0
  0
LINE
  8
LC-003-005-----0
  6
CONTINUOUS
  5
17A
 10
-38.18531
 20
161.501645
 30
0.0
 11
-35.690954
 21
163.996001
 31
0.0
  0
LINE
  8
LC-003-005-----0
  6
CONTINUOUS
  5
17B
 10
-38.750995
 20
161.501645
 30
0.0
 11
-35.690954
 21
164.561687
 31
0.0
  0
LINE
  8
LC-003-005-----0
  6
CONTINUOUS
  5
17C
 10
-39.316681
 20
161.501645
 30
0.0
 11
-35.690954
 21
165.127372
 31
0.0
  0
LINE
  8
LC-003-005-----0
  6
CONTINUOUS
  5
17D
 10
-39.882366
 20
161.501645
 30
0.0
 11
-35.690954
 21
165.693058
 31
0.0
  0
LINE
  8
LC-003-005-----0
  6
CONTINUOUS
  5
17E
 10
-40.448052
 20
161.501645
 30
0.0
 11
-35.748052
 21
166.201645
 31
0.0
  0
LINE
  8
LC-003-005-----0
  6
CONTINUOUS
  5
17F
 10
-41.013737
 20
161.501645
 30
0.0
 11
-36.313737
 21
166.201645
 31
0.0
  0
LINE
  8
LC-003-005-----0
  6
CONTINUOUS
  5
180
 10
-41.579423
 20
161.501645
 30
0.0
 11
-36.879423
 21
166.201645
 31
0.0
  0
LINE
  8
LC-003-005-----0
  6
CONTINUOUS
  5
181
 10
-42.145108
 20
161.501645
 30
0.0
 11
-37.445108
 21
166.201645
 31
0.0
  0
LINE
  8
LC-003-005-----0
  6
CONTINUOUS
  5
182
 10
-42.710793
 20
161.501645
 30
0.0
 11
-38.010793
 21
166.201645
 31
0.0
  0
LINE
  8
LC-003-005-----0
  6
CONTINUOUS
  5
183
 10
-43.276479
 20
161.501645
 30
0.0
 11
-38.576479
 21
166.201645
 31
0.0
  0
LINE
  8
LC-003-005-----0
  6
CONTINUOUS
  5
184
 10
-43.842164
 20
161.501645
 30
0.0
 11
-39.142164
 21
166.201645
 31
0.0
  0
LINE
  8
LC-003-005-----0
  6
CONTINUOUS
  5
185
 10
-44.40785
 20
161.501645
 30
0.0
 11
-39.70785
 21
166.201645
 31
0.0
  0
LINE
  8
LC-003-005-----0
  6
CONTINUOUS
  5
186
 10
-44.973535
 20
161.501645
 30
0.0
 11
-40.273535
 21
166.201645
 31
0.0
  0
LINE
  8
LC-003-005-----0
  6
CONTINUOUS
  5
187
 10
-45.539221
 20
161.501645
 30
0.0
 11
-40.839221
 21
166.201645
 31
0.0
  0
LINE
  8
LC-003-005-----0
  6
CONTINUOUS
  5
188
 10
-45.690954
 20
161.915597
 30
0.0
 11
-41.404906
 21
166.201645
 31
0.0
  0
LINE
  8
LC-003-005-----0
  6
CONTINUOUS
  5
189
 10
-45.690954
 20
162.481283
 30
0.0
 11
-41.970591
 21
166.201645
 31
0.0
  0
LINE
  8
LC-003-005-----0
  6
CONTINUOUS
  5
18A
 10
-45.690954
 20
163.046968
 30
0.0
 11
-42.536277
 21
166.201645
 31
0.0
  0
LINE
  8
LC-003-005-----0
  6
CONTINUOUS
  5
18B
 10
-45.690954
 20
163.612654
 30
0.0
 11
-43.101962
 21
166.201645
 31
0.0
  0
LINE
  8
LC-003-005-----0
  6
CONTINUOUS
  5
18C
 10
-45.690954
 20
164.178339
 30
0.0
 11
-43.667648
 21
166.201645
 31
0.0
  0
LINE
  8
LC-003-005-----0
  6
CONTINUOUS
  5
18D
 10
-45.690954
 20
164.744024
 30
0.0
 11
-44.233333
 21
166.201645
 31
0.0
  0
LINE
  8
LC-003-005-----0
  6
CONTINUOUS
  5
18E
 10
-45.690954
 20
165.30971
 30
0.0
 11
-44.799019
 21
166.201645
 31
0.0
  0
LINE
  8
LC-003-005-----0
  6
CONTINUOUS
  5
18F
 10
-45.690954
 20
165.875395
 30
0.0
 11
-45.364704
 21
166.201645
 31
0.0
  0
ENDBLK
  8
0
  5
190
  0
BLOCK
  8
0
  5
192
  2
*X14
 70
    65
 10
-25.690954
 20
161.501645
 30
0.0
  3
*X14
  0
LINE
  8
LC-003-005-----0
  6
CONTINUOUS
  5
193
 10
-16.123578
 20
161.501645
 30
0.0
 11
-15.690954
 21
161.93427
 31
0.0
  0
LINE
  8
LC-003-005-----0
  6
CONTINUOUS
  5
194
 10
-16.689264
 20
161.501645
 30
0.0
 11
-15.690954
 21
162.499955
 31
0.0
  0
LINE
  8
LC-003-005-----0
  6
CONTINUOUS
  5
195
 10
-17.254949
 20
161.501645
 30
0.0
 11
-15.690954
 21
163.065641
 31
0.0
  0
LINE
  8
LC-003-005-----0
  6
CONTINUOUS
  5
196
 10
-17.820635
 20
161.501645
 30
0.0
 11
-15.690954
 21
163.631326
 31
0.0
  0
LINE
  8
LC-003-005-----0
  6
CONTINUOUS
  5
197
 10
-18.38632
 20
161.501645
 30
0.0
 11
-15.690954
 21
164.197011
 31
0.0
  0
LINE
  8
LC-003-005-----0
  6
CONTINUOUS
  5
198
 10
-18.952006
 20
161.501645
 30
0.0
 11
-15.690954
 21
164.762697
 31
0.0
  0
LINE
  8
LC-003-005-----0
  6
CONTINUOUS
  5
199
 10
-19.517691
 20
161.501645
 30
0.0
 11
-15.690954
 21
165.328382
 31
0.0
  0
LINE
  8
LC-003-005-----0
  6
CONTINUOUS
  5
19A
 10
-20.083376
 20
161.501645
 30
0.0
 11
-15.690954
 21
165.894068
 31
0.0
  0
LINE
  8
LC-003-005-----0
  6
CONTINUOUS
  5
19B
 10
-20.649062
 20
161.501645
 30
0.0
 11
-15.949062
 21
166.201645
 31
0.0
  0
LINE
  8
LC-003-005-----0
  6
CONTINUOUS
  5
19C
 10
-21.214747
 20
161.501645
 30
0.0
 11
-16.514747
 21
166.201645
 31
0.0
  0
LINE
  8
LC-003-005-----0
  6
CONTINUOUS
  5
19D
 10
-21.780433
 20
161.501645
 30
0.0
 11
-17.080433
 21
166.201645
 31
0.0
  0
LINE
  8
LC-003-005-----0
  6
CONTINUOUS
  5
19E
 10
-22.346118
 20
161.501645
 30
0.0
 11
-17.646118
 21
166.201645
 31
0.0
  0
LINE
  8
LC-003-005-----0
  6
CONTINUOUS
  5
19F
 10
-22.911804
 20
161.501645
 30
0.0
 11
-18.211804
 21
166.201645
 31
0.0
  0
LINE
  8
LC-003-005-----0
  6
CONTINUOUS
  5
1A0
 10
-23.477489
 20
161.501645
 30
0.0
 11
-18.777489
 21
166.201645
 31
0.0
  0
LINE
  8
LC-003-005-----0
  6
CONTINUOUS
  5
1A1
 10
-24.043174
 20
161.501645
 30
0.0
 11
-19.343174
 21
166.201645
 31
0.0
  0
LINE
  8
LC-003-005-----0
  6
CONTINUOUS
  5
1A2
 10
-24.60886
 20
161.501645
 30
0.0
 11
-19.90886
 21
166.201645
 31
0.0
  0
LINE
  8
LC-003-005-----0
  6
CONTINUOUS
  5
1A3
 10
-25.174545
 20
161.501645
 30
0.0
 11
-20.474545
 21
166.201645
 31
0.0
  0
LINE
  8
LC-003-005-----0
  6
CONTINUOUS
  5
1A4
 10
-25.690954
 20
161.550922
 30
0.0
 11
-21.040231
 21
166.201645
 31
0.0
  0
LINE
  8
LC-003-005-----0
  6
CONTINUOUS
  5
1A5
 10
-25.690954
 20
162.116607
 30
0.0
 11
-21.605916
 21
166.201645
 31
0.0
  0
LINE
  8
LC-003-005-----0
  6
CONTINUOUS
  5
1A6
 10
-25.690954
 20
162.682293
 30
0.0
 11
-22.171602
 21
166.201645
 31
0.0
  0
LINE
  8
LC-003-005-----0
  6
CONTINUOUS
  5
1A7
 10
-25.690954
 20
163.247978
 30
0.0
 11
-22.737287
 21
166.201645
 31
0.0
  0
LINE
  8
LC-003-005-----0
  6
CONTINUOUS
  5
1A8
 10
-25.690954
 20
163.813664
 30
0.0
 11
-23.302972
 21
166.201645
 31
0.0
  0
LINE
  8
LC-003-005-----0
  6
CONTINUOUS
  5
1A9
 10
-25.690954
 20
164.379349
 30
0.0
 11
-23.868658
 21
166.201645
 31
0.0
  0
LINE
  8
LC-003-005-----0
  6
CONTINUOUS
  5
1AA
 10
-25.690954
 20
164.945035
 30
0.0
 11
-24.434343
 21
166.201645
 31
0.0
  0
LINE
  8
LC-003-005-----0
  6
CONTINUOUS
  5
1AB
 10
-25.690954
 20
165.51072
 30
0.0
 11
-25.000029
 21
166.201645
 31
0.0
  0
LINE
  8
LC-003-005-----0
  6
CONTINUOUS
  5
1AC
 10
-25.690954
 20
166.076405
 30
0.0
 11
-25.565714
 21
166.201645
 31
0.0
  0
ENDBLK
  8
0
  5
1AD
  0
BLOCK
  8
0
  5
1AF
  2
*X15
 70
    65
 10
-5.690954
 20
161.501645
 30
0.0
  3
*X15
  0
LINE
  8
LC-003-005-----0
  6
CONTINUOUS
  5
1B0
 10
4.241097
 20
161.501645
 30
0.0
 11
4.309046
 21
161.569594
 31
0.0
  0
LINE
  8
LC-003-005-----0
  6
CONTINUOUS
  5
1B1
 10
3.675411
 20
161.501645
 30
0.0
 11
4.309046
 21
162.13528
 31
0.0
  0
LINE
  8
LC-003-005-----0
  6
CONTINUOUS
  5
1B2
 10
3.109726
 20
161.501645
 30
0.0
 11
4.309046
 21
162.700965
 31
0.0
  0
LINE
  8
LC-003-005-----0
  6
CONTINUOUS
  5
1B3
 10
2.544041
 20
161.501645
 30
0.0
 11
4.309046
 21
163.266651
 31
0.0
  0
LINE
  8
LC-003-005-----0
  6
CONTINUOUS
  5
1B4
 10
1.978355
 20
161.501645
 30
0.0
 11
4.309046
 21
163.832336
 31
0.0
  0
LINE
  8
LC-003-005-----0
  6
CONTINUOUS
  5
1B5
 10
1.41267
 20
161.501645
 30
0.0
 11
4.309046
 21
164.398022
 31
0.0
  0
LINE
  8
LC-003-005-----0
  6
CONTINUOUS
  5
1B6
 10
0.846984
 20
161.501645
 30
0.0
 11
4.309046
 21
164.963707
 31
0.0
  0
LINE
  8
LC-003-005-----0
  6
CONTINUOUS
  5
1B7
 10
0.281299
 20
161.501645
 30
0.0
 11
4.309046
 21
165.529392
 31
0.0
  0
LINE
  8
LC-003-005-----0
  6
CONTINUOUS
  5
1B8
 10
-0.284387
 20
161.501645
 30
0.0
 11
4.309046
 21
166.095078
 31
0.0
  0
LINE
  8
LC-003-005-----0
  6
CONTINUOUS
  5
1B9
 10
-0.850072
 20
161.501645
 30
0.0
 11
3.849928
 21
166.201645
 31
0.0
  0
LINE
  8
LC-003-005-----0
  6
CONTINUOUS
  5
1BA
 10
-1.415757
 20
161.501645
 30
0.0
 11
3.284243
 21
166.201645
 31
0.0
  0
LINE
  8
LC-003-005-----0
  6
CONTINUOUS
  5
1BB
 10
-1.981443
 20
161.501645
 30
0.0
 11
2.718557
 21
166.201645
 31
0.0
  0
LINE
  8
LC-003-005-----0
  6
CONTINUOUS
  5
1BC
 10
-2.547128
 20
161.501645
 30
0.0
 11
2.152872
 21
166.201645
 31
0.0
  0
LINE
  8
LC-003-005-----0
  6
CONTINUOUS
  5
1BD
 10
-3.112814
 20
161.501645
 30
0.0
 11
1.587186
 21
166.201645
 31
0.0
  0
LINE
  8
LC-003-005-----0
  6
CONTINUOUS
  5
1BE
 10
-3.678499
 20
161.501645
 30
0.0
 11
1.021501
 21
166.201645
 31
0.0
  0
LINE
  8
LC-003-005-----0
  6
CONTINUOUS
  5
1BF
 10
-4.244185
 20
161.501645
 30
0.0
 11
0.455815
 21
166.201645
 31
0.0
  0
LINE
  8
LC-003-005-----0
  6
CONTINUOUS
  5
1C0
 10
-4.80987
 20
161.501645
 30
0.0
 11
-0.10987
 21
166.201645
 31
0.0
  0
LINE
  8
LC-003-005-----0
  6
CONTINUOUS
  5
1C1
 10
-5.375555
 20
161.501645
 30
0.0
 11
-0.675555
 21
166.201645
 31
0.0
  0
LINE
  8
LC-003-005-----0
  6
CONTINUOUS
  5
1C2
 10
-5.690954
 20
161.751932
 30
0.0
 11
-1.241241
 21
166.201645
 31
0.0
  0
LINE
  8
LC-003-005-----0
  6
CONTINUOUS
  5
1C3
 10
-5.690954
 20
162.317618
 30
0.0
 11
-1.806926
 21
166.201645
 31
0.0
  0
LINE
  8
LC-003-005-----0
  6
CONTINUOUS
  5
1C4
 10
-5.690954
 20
162.883303
 30
0.0
 11
-2.372612
 21
166.201645
 31
0.0
  0
LINE
  8
LC-003-005-----0
  6
CONTINUOUS
  5
1C5
 10
-5.690954
 20
163.448988
 30
0.0
 11
-2.938297
 21
166.201645
 31
0.0
  0
LINE
  8
LC-003-005-----0
  6
CONTINUOUS
  5
1C6
 10
-5.690954
 20
164.014674
 30
0.0
 11
-3.503983
 21
166.201645
 31
0.0
  0
LINE
  8
LC-003-005-----0
  6
CONTINUOUS
  5
1C7
 10
-5.690954
 20
164.580359
 30
0.0
 11
-4.069668
 21
166.201645
 31
0.0
  0
LINE
  8
LC-003-005-----0
  6
CONTINUOUS
  5
1C8
 10
-5.690954
 20
165.146045
 30
0.0
 11
-4.635353
 21
166.201645
 31
0.0
  0
LINE
  8
LC-003-005-----0
  6
CONTINUOUS
  5
1C9
 10
-5.690954
 20
165.71173
 30
0.0
 11
-5.201039
 21
166.201645
 31
0.0
  0
ENDBLK
  8
0
  5
1CA
  0
BLOCK
  8
0
  5
1CC
  2
*X16
 70
    65
 10
14.309046
 20
161.501645
 30
0.0
  3
*X16
  0
LINE
  8
LC-003-005-----0
  6
CONTINUOUS
  5
1CD
 10
24.040087
 20
161.501645
 30
0.0
 11
24.309046
 21
161.770605
 31
0.0
  0
LINE
  8
LC-003-005-----0
  6
CONTINUOUS
  5
1CE
 10
23.474401
 20
161.501645
 30
0.0
 11
24.309046
 21
162.33629
 31
0.0
  0
LINE
  8
LC-003-005-----0
  6
CONTINUOUS
  5
1CF
 10
22.908716
 20
161.501645
 30
0.0
 11
24.309046
 21
162.901975
 31
0.0
  0
LINE
  8
LC-003-005-----0
  6
CONTINUOUS
  5
1D0
 10
22.34303
 20
161.501645
 30
0.0
 11
24.309046
 21
163.467661
 31
0.0
  0
LINE
  8
LC-003-005-----0
  6
CONTINUOUS
  5
1D1
 10
21.777345
 20
161.501645
 30
0.0
 11
24.309046
 21
164.033346
 31
0.0
  0
LINE
  8
LC-003-005-----0
  6
CONTINUOUS
  5
1D2
 10
21.21166
 20
161.501645
 30
0.0
 11
24.309046
 21
164.599032
 31
0.0
  0
LINE
  8
LC-003-005-----0
  6
CONTINUOUS
  5
1D3
 10
20.645974
 20
161.501645
 30
0.0
 11
24.309046
 21
165.164717
 31
0.0
  0
LINE
  8
LC-003-005-----0
  6
CONTINUOUS
  5
1D4
 10
20.080289
 20
161.501645
 30
0.0
 11
24.309046
 21
165.730403
 31
0.0
  0
LINE
  8
LC-003-005-----0
  6
CONTINUOUS
  5
1D5
 10
19.514603
 20
161.501645
 30
0.0
 11
24.214603
 21
166.201645
 31
0.0
  0
LINE
  8
LC-003-005-----0
  6
CONTINUOUS
  5
1D6
 10
18.948918
 20
161.501645
 30
0.0
 11
23.648918
 21
166.201645
 31
0.0
  0
LINE
  8
LC-003-005-----0
  6
CONTINUOUS
  5
1D7
 10
18.383232
 20
161.501645
 30
0.0
 11
23.083232
 21
166.201645
 31
0.0
  0
LINE
  8
LC-003-005-----0
  6
CONTINUOUS
  5
1D8
 10
17.817547
 20
161.501645
 30
0.0
 11
22.517547
 21
166.201645
 31
0.0
  0
LINE
  8
LC-003-005-----0
  6
CONTINUOUS
  5
1D9
 10
17.251862
 20
161.501645
 30
0.0
 11
21.951862
 21
166.201645
 31
0.0
  0
LINE
  8
LC-003-005-----0
  6
CONTINUOUS
  5
1DA
 10
16.686176
 20
161.501645
 30
0.0
 11
21.386176
 21
166.201645
 31
0.0
  0
LINE
  8
LC-003-005-----0
  6
CONTINUOUS
  5
1DB
 10
16.120491
 20
161.501645
 30
0.0
 11
20.820491
 21
166.201645
 31
0.0
  0
LINE
  8
LC-003-005-----0
  6
CONTINUOUS
  5
1DC
 10
15.554805
 20
161.501645
 30
0.0
 11
20.254805
 21
166.201645
 31
0.0
  0
LINE
  8
LC-003-005-----0
  6
CONTINUOUS
  5
1DD
 10
14.98912
 20
161.501645
 30
0.0
 11
19.68912
 21
166.201645
 31
0.0
  0
LINE
  8
LC-003-005-----0
  6
CONTINUOUS
  5
1DE
 10
14.423434
 20
161.501645
 30
0.0
 11
19.123434
 21
166.201645
 31
0.0
  0
LINE
  8
LC-003-005-----0
  6
CONTINUOUS
  5
1DF
 10
14.309046
 20
161.952942
 30
0.0
 11
18.557749
 21
166.201645
 31
0.0
  0
LINE
  8
LC-003-005-----0
  6
CONTINUOUS
  5
1E0
 10
14.309046
 20
162.518628
 30
0.0
 11
17.992064
 21
166.201645
 31
0.0
  0
LINE
  8
LC-003-005-----0
  6
CONTINUOUS
  5
1E1
 10
14.309046
 20
163.084313
 30
0.0
 11
17.426378
 21
166.201645
 31
0.0
  0
LINE
  8
LC-003-005-----0
  6
CONTINUOUS
  5
1E2
 10
14.309046
 20
163.649999
 30
0.0
 11
16.860693
 21
166.201645
 31
0.0
  0
LINE
  8
LC-003-005-----0
  6
CONTINUOUS
  5
1E3
 10
14.309046
 20
164.215684
 30
0.0
 11
16.295007
 21
166.201645
 31
0.0
  0
LINE
  8
LC-003-005-----0
  6
CONTINUOUS
  5
1E4
 10
14.309046
 20
164.781369
 30
0.0
 11
15.729322
 21
166.201645
 31
0.0
  0
LINE
  8
LC-003-005-----0
  6
CONTINUOUS
  5
1E5
 10
14.309046
 20
165.347055
 30
0.0
 11
15.163636
 21
166.201645
 31
0.0
  0
LINE
  8
LC-003-005-----0
  6
CONTINUOUS
  5
1E6
 10
14.309046
 20
165.91274
 30
0.0
 11
14.597951
 21
166.201645
 31
0.0
  0
ENDBLK
  8
0
  5
1E7
  0
BLOCK
  8
0
  5
1E9
  2
*X17
 70
    65
 10
34.309046
 20
161.501645
 30
0.0
  3
*X17
  0
LINE
  8
LC-003-005-----0
  6
CONTINUOUS
  5
1EA
 10
43.839077
 20
161.501645
 30
0.0
 11
44.309046
 21
161.971615
 31
0.0
  0
LINE
  8
LC-003-005-----0
  6
CONTINUOUS
  5
1EB
 10
43.273391
 20
161.501645
 30
0.0
 11
44.309046
 21
162.5373
 31
0.0
  0
LINE
  8
LC-003-005-----0
  6
CONTINUOUS
  5
1EC
 10
42.707706
 20
161.501645
 30
0.0
 11
44.309046
 21
163.102986
 31
0.0
  0
LINE
  8
LC-003-005-----0
  6
CONTINUOUS
  5
1ED
 10
42.14202
 20
161.501645
 30
0.0
 11
44.309046
 21
163.668671
 31
0.0
  0
LINE
  8
LC-003-005-----0
  6
CONTINUOUS
  5
1EE
 10
41.576335
 20
161.501645
 30
0.0
 11
44.309046
 21
164.234356
 31
0.0
  0
LINE
  8
LC-003-005-----0
  6
CONTINUOUS
  5
1EF
 10
41.010649
 20
161.501645
 30
0.0
 11
44.309046
 21
164.800042
 31
0.0
  0
LINE
  8
LC-003-005-----0
  6
CONTINUOUS
  5
1F0
 10
40.444964
 20
161.501645
 30
0.0
 11
44.309046
 21
165.365727
 31
0.0
  0
LINE
  8
LC-003-005-----0
  6
CONTINUOUS
  5
1F1
 10
39.879279
 20
161.501645
 30
0.0
 11
44.309046
 21
165.931413
 31
0.0
  0
LINE
  8
LC-003-005-----0
  6
CONTINUOUS
  5
1F2
 10
39.313593
 20
161.501645
 30
0.0
 11
44.013593
 21
166.201645
 31
0.0
  0
LINE
  8
LC-003-005-----0
  6
CONTINUOUS
  5
1F3
 10
38.747908
 20
161.501645
 30
0.0
 11
43.447908
 21
166.201645
 31
0.0
  0
LINE
  8
LC-003-005-----0
  6
CONTINUOUS
  5
1F4
 10
38.182222
 20
161.501645
 30
0.0
 11
42.882222
 21
166.201645
 31
0.0
  0
LINE
  8
LC-003-005-----0
  6
CONTINUOUS
  5
1F5
 10
37.616537
 20
161.501645
 30
0.0
 11
42.316537
 21
166.201645
 31
0.0
  0
LINE
  8
LC-003-005-----0
  6
CONTINUOUS
  5
1F6
 10
37.050851
 20
161.501645
 30
0.0
 11
41.750851
 21
166.201645
 31
0.0
  0
LINE
  8
LC-003-005-----0
  6
CONTINUOUS
  5
1F7
 10
36.485166
 20
161.501645
 30
0.0
 11
41.185166
 21
166.201645
 31
0.0
  0
LINE
  8
LC-003-005-----0
  6
CONTINUOUS
  5
1F8
 10
35.919481
 20
161.501645
 30
0.0
 11
40.619481
 21
166.201645
 31
0.0
  0
LINE
  8
LC-003-005-----0
  6
CONTINUOUS
  5
1F9
 10
35.353795
 20
161.501645
 30
0.0
 11
40.053795
 21
166.201645
 31
0.0
  0
LINE
  8
LC-003-005-----0
  6
CONTINUOUS
  5
1FA
 10
34.78811
 20
161.501645
 30
0.0
 11
39.48811
 21
166.201645
 31
0.0
  0
LINE
  8
LC-003-005-----0
  6
CONTINUOUS
  5
1FB
 10
34.309046
 20
161.588267
 30
0.0
 11
38.922424
 21
166.201645
 31
0.0
  0
LINE
  8
LC-003-005-----0
  6
CONTINUOUS
  5
1FC
 10
34.309046
 20
162.153952
 30
0.0
 11
38.356739
 21
166.201645
 31
0.0
  0
LINE
  8
LC-003-005-----0
  6
CONTINUOUS
  5
1FD
 10
34.309046
 20
162.719638
 30
0.0
 11
37.791053
 21
166.201645
 31
0.0
  0
LINE
  8
LC-003-005-----0
  6
CONTINUOUS
  5
1FE
 10
34.309046
 20
163.285323
 30
0.0
 11
37.225368
 21
166.201645
 31
0.0
  0
LINE
  8
LC-003-005-----0
  6
CONTINUOUS
  5
1FF
 10
34.309046
 20
163.851009
 30
0.0
 11
36.659683
 21
166.201645
 31
0.0
  0
LINE
  8
LC-003-005-----0
  6
CONTINUOUS
  5
200
 10
34.309046
 20
164.416694
 30
0.0
 11
36.093997
 21
166.201645
 31
0.0
  0
LINE
  8
LC-003-005-----0
  6
CONTINUOUS
  5
201
 10
34.309046
 20
164.98238
 30
0.0
 11
35.528312
 21
166.201645
 31
0.0
  0
LINE
  8
LC-003-005-----0
  6
CONTINUOUS
  5
202
 10
34.309046
 20
165.548065
 30
0.0
 11
34.962626
 21
166.201645
 31
0.0
  0
LINE
  8
LC-003-005-----0
  6
CONTINUOUS
  5
203
 10
34.309046
 20
166.11375
 30
0.0
 11
34.396941
 21
166.201645
 31
0.0
  0
ENDBLK
  8
0
  5
204
  0
BLOCK
  8
0
  5
206
  2
*X18
 70
    65
 10
54.309046
 20
160.726133
 30
0.0
  3
*X18
  0
LINE
  8
LC-003-005-----0
  6
CONTINUOUS
  5
207
 10
64.014215
 20
160.746422
 30
0.0
 11
64.309046
 21
161.041254
 31
0.0
  0
LINE
  8
LC-003-005-----0
  6
CONTINUOUS
  5
208
 10
63.485198
 20
160.783091
 30
0.0
 11
64.309046
 21
161.606939
 31
0.0
  0
LINE
  8
LC-003-005-----0
  6
CONTINUOUS
  5
209
 10
62.956181
 20
160.81976
 30
0.0
 11
64.309046
 21
162.172625
 31
0.0
  0
LINE
  8
LC-003-005-----0
  6
CONTINUOUS
  5
20A
 10
62.427164
 20
160.856428
 30
0.0
 11
64.309046
 21
162.73831
 31
0.0
  0
LINE
  8
LC-003-005-----0
  6
CONTINUOUS
  5
20B
 10
61.898148
 20
160.893097
 30
0.0
 11
64.309046
 21
163.303996
 31
0.0
  0
LINE
  8
LC-003-005-----0
  6
CONTINUOUS
  5
20C
 10
61.369131
 20
160.929766
 30
0.0
 11
64.309046
 21
163.869681
 31
0.0
  0
LINE
  8
LC-003-005-----0
  6
CONTINUOUS
  5
20D
 10
60.840114
 20
160.966434
 30
0.0
 11
64.309046
 21
164.435367
 31
0.0
  0
LINE
  8
LC-003-005-----0
  6
CONTINUOUS
  5
20E
 10
60.311097
 20
161.003103
 30
0.0
 11
64.309046
 21
165.001052
 31
0.0
  0
LINE
  8
LC-003-005-----0
  6
CONTINUOUS
  5
20F
 10
59.78208
 20
161.039771
 30
0.0
 11
64.187965
 21
165.445656
 31
0.0
  0
LINE
  8
LC-003-005-----0
  6
CONTINUOUS
  5
210
 10
59.253064
 20
161.07644
 30
0.0
 11
63.658948
 21
165.482325
 31
0.0
  0
LINE
  8
LC-003-005-----0
  6
CONTINUOUS
  5
211
 10
58.724047
 20
161.113109
 30
0.0
 11
63.129931
 21
165.518993
 31
0.0
  0
LINE
  8
LC-003-005-----0
  6
CONTINUOUS
  5
212
 10
58.19503
 20
161.149777
 30
0.0
 11
62.600915
 21
165.555662
 31
0.0
  0
LINE
  8
LC-003-005-----0
  6
CONTINUOUS
  5
213
 10
57.666013
 20
161.186446
 30
0.0
 11
62.071898
 21
165.592331
 31
0.0
  0
LINE
  8
LC-003-005-----0
  6
CONTINUOUS
  5
214
 10
57.136997
 20
161.223115
 30
0.0
 11
61.542881
 21
165.628999
 31
0.0
  0
LINE
  8
LC-003-005-----0
  6
CONTINUOUS
  5
215
 10
56.60798
 20
161.259783
 30
0.0
 11
61.013864
 21
165.665668
 31
0.0
  0
LINE
  8
LC-003-005-----0
  6
CONTINUOUS
  5
216
 10
56.078963
 20
161.296452
 30
0.0
 11
60.484847
 21
165.702337
 31
0.0
  0
LINE
  8
LC-003-005-----0
  6
CONTINUOUS
  5
217
 10
55.549946
 20
161.333121
 30
0.0
 11
59.955831
 21
165.739005
 31
0.0
  0
LINE
  8
LC-003-005-----0
  6
CONTINUOUS
  5
218
 10
55.020929
 20
161.369789
 30
0.0
 11
59.426814
 21
165.775674
 31
0.0
  0
LINE
  8
LC-003-005-----0
  6
CONTINUOUS
  5
219
 10
54.491913
 20
161.406458
 30
0.0
 11
58.897797
 21
165.812342
 31
0.0
  0
LINE
  8
LC-003-005-----0
  6
CONTINUOUS
  5
21A
 10
54.309046
 20
161.789277
 30
0.0
 11
58.36878
 21
165.849011
 31
0.0
  0
LINE
  8
LC-003-005-----0
  6
CONTINUOUS
  5
21B
 10
54.309046
 20
162.354963
 30
0.0
 11
57.839764
 21
165.88568
 31
0.0
  0
LINE
  8
LC-003-005-----0
  6
CONTINUOUS
  5
21C
 10
54.309046
 20
162.920648
 30
0.0
 11
57.310747
 21
165.922348
 31
0.0
  0
LINE
  8
LC-003-005-----0
  6
CONTINUOUS
  5
21D
 10
54.309046
 20
163.486333
 30
0.0
 11
56.78173
 21
165.959017
 31
0.0
  0
LINE
  8
LC-003-005-----0
  6
CONTINUOUS
  5
21E
 10
54.309046
 20
164.052019
 30
0.0
 11
56.252713
 21
165.995686
 31
0.0
  0
LINE
  8
LC-003-005-----0
  6
CONTINUOUS
  5
21F
 10
54.309046
 20
164.617704
 30
0.0
 11
55.723696
 21
166.032354
 31
0.0
  0
LINE
  8
LC-003-005-----0
  6
CONTINUOUS
  5
220
 10
54.309046
 20
165.18339
 30
0.0
 11
55.19468
 21
166.069023
 31
0.0
  0
LINE
  8
LC-003-005-----0
  6
CONTINUOUS
  5
221
 10
54.309046
 20
165.749075
 30
0.0
 11
54.665663
 21
166.105692
 31
0.0
  0
ENDBLK
  8
0
  5
222
  0
BLOCK
  8
0
  5
224
  2
*X19
 70
    65
 10
74.309046
 20
159.339839
 30
0.0
  3
*X19
  0
LINE
  8
LC-003-005-----0
  6
CONTINUOUS
  5
225
 10
84.116852
 20
159.353014
 30
0.0
 11
84.309046
 21
159.545208
 31
0.0
  0
LINE
  8
LC-003-005-----0
  6
CONTINUOUS
  5
226
 10
83.587836
 20
159.389683
 30
0.0
 11
84.309046
 21
160.110893
 31
0.0
  0
LINE
  8
LC-003-005-----0
  6
CONTINUOUS
  5
227
 10
83.058819
 20
159.426351
 30
0.0
 11
84.309046
 21
160.676579
 31
0.0
  0
LINE
  8
LC-003-005-----0
  6
CONTINUOUS
  5
228
 10
82.529802
 20
159.46302
 30
0.0
 11
84.309046
 21
161.242264
 31
0.0
  0
LINE
  8
LC-003-005-----0
  6
CONTINUOUS
  5
229
 10
82.000785
 20
159.499689
 30
0.0
 11
84.309046
 21
161.80795
 31
0.0
  0
LINE
  8
LC-003-005-----0
  6
CONTINUOUS
  5
22A
 10
81.471769
 20
159.536357
 30
0.0
 11
84.309046
 21
162.373635
 31
0.0
  0
LINE
  8
LC-003-005-----0
  6
CONTINUOUS
  5
22B
 10
80.942752
 20
159.573026
 30
0.0
 11
84.309046
 21
162.93932
 31
0.0
  0
LINE
  8
LC-003-005-----0
  6
CONTINUOUS
  5
22C
 10
80.413735
 20
159.609694
 30
0.0
 11
84.309046
 21
163.505006
 31
0.0
  0
LINE
  8
LC-003-005-----0
  6
CONTINUOUS
  5
22D
 10
79.884718
 20
159.646363
 30
0.0
 11
84.290603
 21
164.052248
 31
0.0
  0
LINE
  8
LC-003-005-----0
  6
CONTINUOUS
  5
22E
 10
79.355701
 20
159.683032
 30
0.0
 11
83.761586
 21
164.088916
 31
0.0
  0
LINE
  8
LC-003-005-----0
  6
CONTINUOUS
  5
22F
 10
78.826685
 20
159.7197
 30
0.0
 11
83.232569
 21
164.125585
 31
0.0
  0
LINE
  8
LC-003-005-----0
  6
CONTINUOUS
  5
230
 10
78.297668
 20
159.756369
 30
0.0
 11
82.703552
 21
164.162254
 31
0.0
  0
LINE
  8
LC-003-005-----0
  6
CONTINUOUS
  5
231
 10
77.768651
 20
159.793038
 30
0.0
 11
82.174536
 21
164.198922
 31
0.0
  0
LINE
  8
LC-003-005-----0
  6
CONTINUOUS
  5
232
 10
77.239634
 20
159.829706
 30
0.0
 11
81.645519
 21
164.235591
 31
0.0
  0
LINE
  8
LC-003-005-----0
  6
CONTINUOUS
  5
233
 10
76.710617
 20
159.866375
 30
0.0
 11
81.116502
 21
164.272259
 31
0.0
  0
LINE
  8
LC-003-005-----0
  6
CONTINUOUS
  5
234
 10
76.181601
 20
159.903044
 30
0.0
 11
80.587485
 21
164.308928
 31
0.0
  0
LINE
  8
LC-003-005-----0
  6
CONTINUOUS
  5
235
 10
75.652584
 20
159.939712
 30
0.0
 11
80.058468
 21
164.345597
 31
0.0
  0
LINE
  8
LC-003-005-----0
  6
CONTINUOUS
  5
236
 10
75.123567
 20
159.976381
 30
0.0
 11
79.529452
 21
164.382265
 31
0.0
  0
LINE
  8
LC-003-005-----0
  6
CONTINUOUS
  5
237
 10
74.59455
 20
160.013049
 30
0.0
 11
79.000435
 21
164.418934
 31
0.0
  0
LINE
  8
LC-003-005-----0
  6
CONTINUOUS
  5
238
 10
74.309046
 20
160.293231
 30
0.0
 11
78.471418
 21
164.455603
 31
0.0
  0
LINE
  8
LC-003-005-----0
  6
CONTINUOUS
  5
239
 10
74.309046
 20
160.858916
 30
0.0
 11
77.942401
 21
164.492271
 31
0.0
  0
LINE
  8
LC-003-005-----0
  6
CONTINUOUS
  5
23A
 10
74.309046
 20
161.424602
 30
0.0
 11
77.413385
 21
164.52894
 31
0.0
  0
LINE
  8
LC-003-005-----0
  6
CONTINUOUS
  5
23B
 10
74.309046
 20
161.990287
 30
0.0
 11
76.884368
 21
164.565609
 31
0.0
  0
LINE
  8
LC-003-005-----0
  6
CONTINUOUS
  5
23C
 10
74.309046
 20
162.555973
 30
0.0
 11
76.355351
 21
164.602277
 31
0.0
  0
LINE
  8
LC-003-005-----0
  6
CONTINUOUS
  5
23D
 10
74.309046
 20
163.121658
 30
0.0
 11
75.826334
 21
164.638946
 31
0.0
  0
LINE
  8
LC-003-005-----0
  6
CONTINUOUS
  5
23E
 10
74.309046
 20
163.687343
 30
0.0
 11
75.297317
 21
164.675615
 31
0.0
  0
LINE
  8
LC-003-005-----0
  6
CONTINUOUS
  5
23F
 10
74.309046
 20
164.253029
 30
0.0
 11
74.768301
 21
164.712283
 31
0.0
  0
ENDBLK
  8
0
  5
240
  0
BLOCK
  8
0
  5
242
  2
*X20
 70
    65
 10
80.496825
 20
155.88219
 30
0.0
  3
*X20
  0
LINE
  8
LC-003-005-----0
  6
CONTINUOUS
  5
243
 10
103.916795
 20
155.959854
 30
0.0
 11
104.309046
 21
156.352105
 31
0.0
  0
LINE
  8
LC-003-005-----0
  6
CONTINUOUS
  5
244
 10
103.389433
 20
155.998177
 30
0.0
 11
104.309046
 21
156.917791
 31
0.0
  0
LINE
  8
LC-003-005-----0
  6
CONTINUOUS
  5
245
 10
102.862071
 20
156.036501
 30
0.0
 11
104.309046
 21
157.483476
 31
0.0
  0
LINE
  8
LC-003-005-----0
  6
CONTINUOUS
  5
246
 10
102.334708
 20
156.074824
 30
0.0
 11
104.309046
 21
158.049162
 31
0.0
  0
LINE
  8
LC-003-005-----0
  6
CONTINUOUS
  5
247
 10
101.807346
 20
156.113147
 30
0.0
 11
104.309046
 21
158.614847
 31
0.0
  0
LINE
  8
LC-003-005-----0
  6
CONTINUOUS
  5
248
 10
101.279984
 20
156.15147
 30
0.0
 11
104.309046
 21
159.180533
 31
0.0
  0
LINE
  8
LC-003-005-----0
  6
CONTINUOUS
  5
249
 10
100.752621
 20
156.189793
 30
0.0
 11
104.309046
 21
159.746218
 31
0.0
  0
LINE
  8
LC-003-005-----0
  6
CONTINUOUS
  5
24A
 10
100.225259
 20
156.228116
 30
0.0
 11
104.309046
 21
160.311903
 31
0.0
  0
LINE
  8
LC-003-005-----0
  6
CONTINUOUS
  5
24B
 10
99.697897
 20
156.266439
 30
0.0
 11
104.089322
 21
160.657865
 31
0.0
  0
LINE
  8
LC-003-005-----0
  6
CONTINUOUS
  5
24C
 10
99.214223
 20
156.348451
 30
0.0
 11
103.56196
 21
160.696188
 31
0.0
  0
LINE
  8
LC-003-005-----0
  6
CONTINUOUS
  5
24D
 10
98.748057
 20
156.447971
 30
0.0
 11
103.034598
 21
160.734511
 31
0.0
  0
LINE
  8
LC-003-005-----0
  6
CONTINUOUS
  5
24E
 10
98.289931
 20
156.555529
 30
0.0
 11
102.507235
 21
160.772834
 31
0.0
  0
LINE
  8
LC-003-005-----0
  6
CONTINUOUS
  5
24F
 10
97.839547
 20
156.670831
 30
0.0
 11
101.979873
 21
160.811157
 31
0.0
  0
LINE
  8
LC-003-005-----0
  6
CONTINUOUS
  5
250
 10
97.396637
 20
156.793607
 30
0.0
 11
101.45251
 21
160.84948
 31
0.0
  0
LINE
  8
LC-003-005-----0
  6
CONTINUOUS
  5
251
 10
96.960956
 20
156.923611
 30
0.0
 11
100.925148
 21
160.887803
 31
0.0
  0
LINE
  8
LC-003-005-----0
  6
CONTINUOUS
  5
252
 10
96.532278
 20
157.060618
 30
0.0
 11
100.397786
 21
160.926126
 31
0.0
  0
LINE
  8
LC-003-005-----0
  6
CONTINUOUS
  5
253
 10
96.110398
 20
157.204424
 30
0.0
 11
99.911785
 21
161.00581
 31
0.0
  0
LINE
  8
LC-003-005-----0
  6
CONTINUOUS
  5
254
 10
95.695127
 20
157.354838
 30
0.0
 11
99.451754
 21
161.111466
 31
0.0
  0
LINE
  8
LC-003-005-----0
  6
CONTINUOUS
  5
255
 10
95.286292
 20
157.511689
 30
0.0
 11
99.00146
 21
161.226857
 31
0.0
  0
LINE
  8
LC-003-005-----0
  6
CONTINUOUS
  5
256
 10
94.883734
 20
157.674816
 30
0.0
 11
98.560479
 21
161.351562
 31
0.0
  0
LINE
  8
LC-003-005-----0
  6
CONTINUOUS
  5
257
 10
94.487305
 20
157.844073
 30
0.0
 11
98.128437
 21
161.485204
 31
0.0
  0
LINE
  8
LC-003-005-----0
  6
CONTINUOUS
  5
258
 10
94.309046
 20
158.231499
 30
0.0
 11
97.704996
 21
161.627449
 31
0.0
  0
LINE
  8
LC-003-005-----0
  6
CONTINUOUS
  5
259
 10
94.309046
 20
158.797185
 30
0.0
 11
97.289854
 21
161.777992
 31
0.0
  0
LINE
  8
LC-003-005-----0
  6
CONTINUOUS
  5
25A
 10
94.309046
 20
159.36287
 30
0.0
 11
96.88274
 21
161.936563
 31
0.0
  0
LINE
  8
LC-003-005-----0
  6
CONTINUOUS
  5
25B
 10
94.309046
 20
159.928556
 30
0.0
 11
96.483409
 21
162.102919
 31
0.0
  0
LINE
  8
LC-003-005-----0
  6
CONTINUOUS
  5
25C
 10
94.309046
 20
160.494241
 30
0.0
 11
96.091643
 21
162.276838
 31
0.0
  0
LINE
  8
LC-003-005-----0
  6
CONTINUOUS
  5
25D
 10
94.309046
 20
161.059926
 30
0.0
 11
95.707243
 21
162.458123
 31
0.0
  0
LINE
  8
LC-003-005-----0
  6
CONTINUOUS
  5
25E
 10
94.309046
 20
161.625612
 30
0.0
 11
95.330029
 21
162.646594
 31
0.0
  0
LINE
  8
LC-003-005-----0
  6
CONTINUOUS
  5
25F
 10
94.309046
 20
162.191297
 30
0.0
 11
94.959841
 21
162.842092
 31
0.0
  0
LINE
  8
LC-003-005-----0
  6
CONTINUOUS
  5
260
 10
94.309046
 20
162.756983
 30
0.0
 11
94.596535
 21
163.044472
 31
0.0
  0
ENDBLK
  8
0
  5
261
  0
BLOCK
  8
0
  5
263
  2
*X21
 70
    65
 10
272.618654
 20
136.891828
 30
0.0
  3
*X21
  0
LINE
  8
LC-003-005-----0
  6
CONTINUOUS
  5
264
 10
278.313185
 20
136.891828
 30
0.0
 11
282.618654
 21
141.197297
 31
0.0
  0
LINE
  8
LC-003-005-----0
  6
CONTINUOUS
  5
265
 10
275.484758
 20
136.891828
 30
0.0
 11
277.984758
 21
139.391828
 31
0.0
  0
LINE
  8
LC-003-005-----0
  6
CONTINUOUS
  5
266
 10
280.118654
 20
141.525725
 30
0.0
 11
282.618654
 21
144.025725
 31
0.0
  0
LINE
  8
LC-003-005-----0
  6
CONTINUOUS
  5
267
 10
272.65633
 20
136.891828
 30
0.0
 11
275.15633
 21
139.391828
 31
0.0
  0
LINE
  8
LC-003-005-----0
  6
CONTINUOUS
  5
268
 10
280.118654
 20
144.354152
 30
0.0
 11
282.618654
 21
146.854152
 31
0.0
  0
LINE
  8
LC-003-005-----0
  6
CONTINUOUS
  5
269
 10
280.118654
 20
147.182579
 30
0.0
 11
282.618654
 21
149.682579
 31
0.0
  0
LINE
  8
LC-003-005-----0
  6
CONTINUOUS
  5
26A
 10
280.118654
 20
150.011006
 30
0.0
 11
282.618654
 21
152.511006
 31
0.0
  0
LINE
  8
LC-003-005-----0
  6
CONTINUOUS
  5
26B
 10
280.118654
 20
152.839433
 30
0.0
 11
282.618654
 21
155.339433
 31
0.0
  0
LINE
  8
LC-003-005-----0
  6
CONTINUOUS
  5
26C
 10
280.118654
 20
155.66786
 30
0.0
 11
281.342266
 21
156.891473
 31
0.0
  0
ENDBLK
  8
0
  5
26D
  0
BLOCK
  8
0
  5
26F
  2
*X22
 70
    65
 10
125.618654
 20
136.891828
 30
0.0
  3
*X22
  0
LINE
  8
LC-003-005-----0
  6
CONTINUOUS
  5
270
 10
134.063401
 20
136.891828
 30
0.0
 11
135.618654
 21
138.447081
 31
0.0
  0
LINE
  8
LC-003-005-----0
  6
CONTINUOUS
  5
271
 10
131.234974
 20
136.891828
 30
0.0
 11
133.734974
 21
139.391828
 31
0.0
  0
LINE
  8
LC-003-005-----0
  6
CONTINUOUS
  5
272
 10
128.5126
 20
136.997882
 30
0.0
 11
130.906547
 21
139.391828
 31
0.0
  0
LINE
  8
LC-003-005-----0
  6
CONTINUOUS
  5
273
 10
127.098387
 20
138.412095
 30
0.0
 11
128.118654
 21
139.432362
 31
0.0
  0
LINE
  8
LC-003-005-----0
  6
CONTINUOUS
  5
274
 10
125.684173
 20
139.826309
 30
0.0
 11
128.118654
 21
142.260789
 31
0.0
  0
LINE
  8
LC-003-005-----0
  6
CONTINUOUS
  5
275
 10
125.618654
 20
142.589216
 30
0.0
 11
128.118654
 21
145.089216
 31
0.0
  0
LINE
  8
LC-003-005-----0
  6
CONTINUOUS
  5
276
 10
125.618654
 20
145.417644
 30
0.0
 11
128.118654
 21
147.917644
 31
0.0
  0
LINE
  8
LC-003-005-----0
  6
CONTINUOUS
  5
277
 10
125.618654
 20
148.246071
 30
0.0
 11
128.118654
 21
150.746071
 31
0.0
  0
LINE
  8
LC-003-005-----0
  6
CONTINUOUS
  5
278
 10
125.618654
 20
151.074498
 30
0.0
 11
128.118654
 21
153.574498
 31
0.0
  0
LINE
  8
LC-003-005-----0
  6
CONTINUOUS
  5
279
 10
125.618654
 20
153.902925
 30
0.0
 11
128.118654
 21
156.402925
 31
0.0
  0
LINE
  8
LC-003-005-----0
  6
CONTINUOUS
  5
27A
 10
125.618654
 20
156.731352
 30
0.0
 11
125.778774
 21
156.891473
 31
0.0
  0
ENDBLK
  8
0
  5
27B
  0
BLOCK
  8
0
  5
27D
  2
*X23
 70
    65
 10
443.928261
 20
161.501645
 30
0.0
  3
*X23
  0
LINE
  8
LC-003-005-----0
  6
CONTINUOUS
  5
27E
 10
453.395324
 20
161.501645
 30
0.0
 11
453.928261
 21
162.034582
 31
0.0
  0
LINE
  8
LC-003-005-----0
  6
CONTINUOUS
  5
27F
 10
452.829639
 20
161.501645
 30
0.0
 11
453.928261
 21
162.600267
 31
0.0
  0
LINE
  8
LC-003-005-----0
  6
CONTINUOUS
  5
280
 10
452.263953
 20
161.501645
 30
0.0
 11
453.928261
 21
163.165953
 31
0.0
  0
LINE
  8
LC-003-005-----0
  6
CONTINUOUS
  5
281
 10
451.698268
 20
161.501645
 30
0.0
 11
453.928261
 21
163.731638
 31
0.0
  0
LINE
  8
LC-003-005-----0
  6
CONTINUOUS
  5
282
 10
451.132583
 20
161.501645
 30
0.0
 11
453.928261
 21
164.297323
 31
0.0
  0
LINE
  8
LC-003-005-----0
  6
CONTINUOUS
  5
283
 10
450.566897
 20
161.501645
 30
0.0
 11
453.928261
 21
164.863009
 31
0.0
  0
LINE
  8
LC-003-005-----0
  6
CONTINUOUS
  5
284
 10
450.001212
 20
161.501645
 30
0.0
 11
453.928261
 21
165.428694
 31
0.0
  0
LINE
  8
LC-003-005-----0
  6
CONTINUOUS
  5
285
 10
449.435526
 20
161.501645
 30
0.0
 11
453.928261
 21
165.99438
 31
0.0
  0
LINE
  8
LC-003-005-----0
  6
CONTINUOUS
  5
286
 10
448.869841
 20
161.501645
 30
0.0
 11
453.569841
 21
166.201645
 31
0.0
  0
LINE
  8
LC-003-005-----0
  6
CONTINUOUS
  5
287
 10
448.304155
 20
161.501645
 30
0.0
 11
453.004155
 21
166.201645
 31
0.0
  0
LINE
  8
LC-003-005-----0
  6
CONTINUOUS
  5
288
 10
447.73847
 20
161.501645
 30
0.0
 11
452.43847
 21
166.201645
 31
0.0
  0
LINE
  8
LC-003-005-----0
  6
CONTINUOUS
  5
289
 10
447.172785
 20
161.501645
 30
0.0
 11
451.872785
 21
166.201645
 31
0.0
  0
LINE
  8
LC-003-005-----0
  6
CONTINUOUS
  5
28A
 10
446.607099
 20
161.501645
 30
0.0
 11
451.307099
 21
166.201645
 31
0.0
  0
LINE
  8
LC-003-005-----0
  6
CONTINUOUS
  5
28B
 10
446.041414
 20
161.501645
 30
0.0
 11
450.741414
 21
166.201645
 31
0.0
  0
LINE
  8
LC-003-005-----0
  6
CONTINUOUS
  5
28C
 10
445.475728
 20
161.501645
 30
0.0
 11
450.175728
 21
166.201645
 31
0.0
  0
LINE
  8
LC-003-005-----0
  6
CONTINUOUS
  5
28D
 10
444.910043
 20
161.501645
 30
0.0
 11
449.610043
 21
166.201645
 31
0.0
  0
LINE
  8
LC-003-005-----0
  6
CONTINUOUS
  5
28E
 10
444.344357
 20
161.501645
 30
0.0
 11
449.044357
 21
166.201645
 31
0.0
  0
LINE
  8
LC-003-005-----0
  6
CONTINUOUS
  5
28F
 10
443.928261
 20
161.651234
 30
0.0
 11
448.478672
 21
166.201645
 31
0.0
  0
LINE
  8
LC-003-005-----0
  6
CONTINUOUS
  5
290
 10
443.928261
 20
162.216919
 30
0.0
 11
447.912987
 21
166.201645
 31
0.0
  0
LINE
  8
LC-003-005-----0
  6
CONTINUOUS
  5
291
 10
443.928261
 20
162.782605
 30
0.0
 11
447.347301
 21
166.201645
 31
0.0
  0
LINE
  8
LC-003-005-----0
  6
CONTINUOUS
  5
292
 10
443.928261
 20
163.34829
 30
0.0
 11
446.781616
 21
166.201645
 31
0.0
  0
LINE
  8
LC-003-005-----0
  6
CONTINUOUS
  5
293
 10
443.928261
 20
163.913976
 30
0.0
 11
446.21593
 21
166.201645
 31
0.0
  0
LINE
  8
LC-003-005-----0
  6
CONTINUOUS
  5
294
 10
443.928261
 20
164.479661
 30
0.0
 11
445.650245
 21
166.201645
 31
0.0
  0
LINE
  8
LC-003-005-----0
  6
CONTINUOUS
  5
295
 10
443.928261
 20
165.045347
 30
0.0
 11
445.084559
 21
166.201645
 31
0.0
  0
LINE
  8
LC-003-005-----0
  6
CONTINUOUS
  5
296
 10
443.928261
 20
165.611032
 30
0.0
 11
444.518874
 21
166.201645
 31
0.0
  0
LINE
  8
LC-003-005-----0
  6
CONTINUOUS
  5
297
 10
443.928261
 20
166.176717
 30
0.0
 11
443.953189
 21
166.201645
 31
0.0
  0
ENDBLK
  8
0
  5
298
  0
BLOCK
  8
0
  5
29A
  2
*X24
 70
    65
 10
423.928261
 20
161.501645
 30
0.0
  3
*X24
  0
LINE
  8
LC-003-005-----0
  6
CONTINUOUS
  5
29B
 10
433.596334
 20
161.501645
 30
0.0
 11
433.928261
 21
161.833572
 31
0.0
  0
LINE
  8
LC-003-005-----0
  6
CONTINUOUS
  5
29C
 10
433.030649
 20
161.501645
 30
0.0
 11
433.928261
 21
162.399257
 31
0.0
  0
LINE
  8
LC-003-005-----0
  6
CONTINUOUS
  5
29D
 10
432.464963
 20
161.501645
 30
0.0
 11
433.928261
 21
162.964942
 31
0.0
  0
LINE
  8
LC-003-005-----0
  6
CONTINUOUS
  5
29E
 10
431.899278
 20
161.501645
 30
0.0
 11
433.928261
 21
163.530628
 31
0.0
  0
LINE
  8
LC-003-005-----0
  6
CONTINUOUS
  5
29F
 10
431.333593
 20
161.501645
 30
0.0
 11
433.928261
 21
164.096313
 31
0.0
  0
LINE
  8
LC-003-005-----0
  6
CONTINUOUS
  5
2A0
 10
430.767907
 20
161.501645
 30
0.0
 11
433.928261
 21
164.661999
 31
0.0
  0
LINE
  8
LC-003-005-----0
  6
CONTINUOUS
  5
2A1
 10
430.202222
 20
161.501645
 30
0.0
 11
433.928261
 21
165.227684
 31
0.0
  0
LINE
  8
LC-003-005-----0
  6
CONTINUOUS
  5
2A2
 10
429.636536
 20
161.501645
 30
0.0
 11
433.928261
 21
165.79337
 31
0.0
  0
LINE
  8
LC-003-005-----0
  6
CONTINUOUS
  5
2A3
 10
429.070851
 20
161.501645
 30
0.0
 11
433.770851
 21
166.201645
 31
0.0
  0
LINE
  8
LC-003-005-----0
  6
CONTINUOUS
  5
2A4
 10
428.505166
 20
161.501645
 30
0.0
 11
433.205166
 21
166.201645
 31
0.0
  0
LINE
  8
LC-003-005-----0
  6
CONTINUOUS
  5
2A5
 10
427.93948
 20
161.501645
 30
0.0
 11
432.63948
 21
166.201645
 31
0.0
  0
LINE
  8
LC-003-005-----0
  6
CONTINUOUS
  5
2A6
 10
427.373795
 20
161.501645
 30
0.0
 11
432.073795
 21
166.201645
 31
0.0
  0
LINE
  8
LC-003-005-----0
  6
CONTINUOUS
  5
2A7
 10
426.808109
 20
161.501645
 30
0.0
 11
431.508109
 21
166.201645
 31
0.0
  0
LINE
  8
LC-003-005-----0
  6
CONTINUOUS
  5
2A8
 10
426.242424
 20
161.501645
 30
0.0
 11
430.942424
 21
166.201645
 31
0.0
  0
LINE
  8
LC-003-005-----0
  6
CONTINUOUS
  5
2A9
 10
425.676738
 20
161.501645
 30
0.0
 11
430.376738
 21
166.201645
 31
0.0
  0
LINE
  8
LC-003-005-----0
  6
CONTINUOUS
  5
2AA
 10
425.111053
 20
161.501645
 30
0.0
 11
429.811053
 21
166.201645
 31
0.0
  0
LINE
  8
LC-003-005-----0
  6
CONTINUOUS
  5
2AB
 10
424.545368
 20
161.501645
 30
0.0
 11
429.245368
 21
166.201645
 31
0.0
  0
LINE
  8
LC-003-005-----0
  6
CONTINUOUS
  5
2AC
 10
423.979682
 20
161.501645
 30
0.0
 11
428.679682
 21
166.201645
 31
0.0
  0
LINE
  8
LC-003-005-----0
  6
CONTINUOUS
  5
2AD
 10
423.928261
 20
162.015909
 30
0.0
 11
428.113997
 21
166.201645
 31
0.0
  0
LINE
  8
LC-003-005-----0
  6
CONTINUOUS
  5
2AE
 10
423.928261
 20
162.581595
 30
0.0
 11
427.548311
 21
166.201645
 31
0.0
  0
LINE
  8
LC-003-005-----0
  6
CONTINUOUS
  5
2AF
 10
423.928261
 20
163.14728
 30
0.0
 11
426.982626
 21
166.201645
 31
0.0
  0
LINE
  8
LC-003-005-----0
  6
CONTINUOUS
  5
2B0
 10
423.928261
 20
163.712966
 30
0.0
 11
426.41694
 21
166.201645
 31
0.0
  0
LINE
  8
LC-003-005-----0
  6
CONTINUOUS
  5
2B1
 10
423.928261
 20
164.278651
 30
0.0
 11
425.851255
 21
166.201645
 31
0.0
  0
LINE
  8
LC-003-005-----0
  6
CONTINUOUS
  5
2B2
 10
423.928261
 20
164.844336
 30
0.0
 11
425.28557
 21
166.201645
 31
0.0
  0
LINE
  8
LC-003-005-----0
  6
CONTINUOUS
  5
2B3
 10
423.928261
 20
165.410022
 30
0.0
 11
424.719884
 21
166.201645
 31
0.0
  0
LINE
  8
LC-003-005-----0
  6
CONTINUOUS
  5
2B4
 10
423.928261
 20
165.975707
 30
0.0
 11
424.154199
 21
166.201645
 31
0.0
  0
ENDBLK
  8
0
  5
2B5
  0
BLOCK
  8
0
  5
2B7
  2
*X25
 70
    65
 10
403.928261
 20
161.501645
 30
0.0
  3
*X25
  0
LINE
  8
LC-003-005-----0
  6
CONTINUOUS
  5
2B8
 10
413.797344
 20
161.501645
 30
0.0
 11
413.928261
 21
161.632562
 31
0.0
  0
LINE
  8
LC-003-005-----0
  6
CONTINUOUS
  5
2B9
 10
413.231659
 20
161.501645
 30
0.0
 11
413.928261
 21
162.198247
 31
0.0
  0
LINE
  8
LC-003-005-----0
  6
CONTINUOUS
  5
2BA
 10
412.665974
 20
161.501645
 30
0.0
 11
413.928261
 21
162.763932
 31
0.0
  0
LINE
  8
LC-003-005-----0
  6
CONTINUOUS
  5
2BB
 10
412.100288
 20
161.501645
 30
0.0
 11
413.928261
 21
163.329618
 31
0.0
  0
LINE
  8
LC-003-005-----0
  6
CONTINUOUS
  5
2BC
 10
411.534603
 20
161.501645
 30
0.0
 11
413.928261
 21
163.895303
 31
0.0
  0
LINE
  8
LC-003-005-----0
  6
CONTINUOUS
  5
2BD
 10
410.968917
 20
161.501645
 30
0.0
 11
413.928261
 21
164.460989
 31
0.0
  0
LINE
  8
LC-003-005-----0
  6
CONTINUOUS
  5
2BE
 10
410.403232
 20
161.501645
 30
0.0
 11
413.928261
 21
165.026674
 31
0.0
  0
LINE
  8
LC-003-005-----0
  6
CONTINUOUS
  5
2BF
 10
409.837546
 20
161.501645
 30
0.0
 11
413.928261
 21
165.592359
 31
0.0
  0
LINE
  8
LC-003-005-----0
  6
CONTINUOUS
  5
2C0
 10
409.271861
 20
161.501645
 30
0.0
 11
413.928261
 21
166.158045
 31
0.0
  0
LINE
  8
LC-003-005-----0
  6
CONTINUOUS
  5
2C1
 10
408.706176
 20
161.501645
 30
0.0
 11
413.406176
 21
166.201645
 31
0.0
  0
LINE
  8
LC-003-005-----0
  6
CONTINUOUS
  5
2C2
 10
408.14049
 20
161.501645
 30
0.0
 11
412.84049
 21
166.201645
 31
0.0
  0
LINE
  8
LC-003-005-----0
  6
CONTINUOUS
  5
2C3
 10
407.574805
 20
161.501645
 30
0.0
 11
412.274805
 21
166.201645
 31
0.0
  0
LINE
  8
LC-003-005-----0
  6
CONTINUOUS
  5
2C4
 10
407.009119
 20
161.501645
 30
0.0
 11
411.709119
 21
166.201645
 31
0.0
  0
LINE
  8
LC-003-005-----0
  6
CONTINUOUS
  5
2C5
 10
406.443434
 20
161.501645
 30
0.0
 11
411.143434
 21
166.201645
 31
0.0
  0
LINE
  8
LC-003-005-----0
  6
CONTINUOUS
  5
2C6
 10
405.877749
 20
161.501645
 30
0.0
 11
410.577749
 21
166.201645
 31
0.0
  0
LINE
  8
LC-003-005-----0
  6
CONTINUOUS
  5
2C7
 10
405.312063
 20
161.501645
 30
0.0
 11
410.012063
 21
166.201645
 31
0.0
  0
LINE
  8
LC-003-005-----0
  6
CONTINUOUS
  5
2C8
 10
404.746378
 20
161.501645
 30
0.0
 11
409.446378
 21
166.201645
 31
0.0
  0
LINE
  8
LC-003-005-----0
  6
CONTINUOUS
  5
2C9
 10
404.180692
 20
161.501645
 30
0.0
 11
408.880692
 21
166.201645
 31
0.0
  0
LINE
  8
LC-003-005-----0
  6
CONTINUOUS
  5
2CA
 10
403.928261
 20
161.814899
 30
0.0
 11
408.315007
 21
166.201645
 31
0.0
  0
LINE
  8
LC-003-005-----0
  6
CONTINUOUS
  5
2CB
 10
403.928261
 20
162.380585
 30
0.0
 11
407.749321
 21
166.201645
 31
0.0
  0
LINE
  8
LC-003-005-----0
  6
CONTINUOUS
  5
2CC
 10
403.928261
 20
162.94627
 30
0.0
 11
407.183636
 21
166.201645
 31
0.0
  0
LINE
  8
LC-003-005-----0
  6
CONTINUOUS
  5
2CD
 10
403.928261
 20
163.511955
 30
0.0
 11
406.617951
 21
166.201645
 31
0.0
  0
LINE
  8
LC-003-005-----0
  6
CONTINUOUS
  5
2CE
 10
403.928261
 20
164.077641
 30
0.0
 11
406.052265
 21
166.201645
 31
0.0
  0
LINE
  8
LC-003-005-----0
  6
CONTINUOUS
  5
2CF
 10
403.928261
 20
164.643326
 30
0.0
 11
405.48658
 21
166.201645
 31
0.0
  0
LINE
  8
LC-003-005-----0
  6
CONTINUOUS
  5
2D0
 10
403.928261
 20
165.209012
 30
0.0
 11
404.920894
 21
166.201645
 31
0.0
  0
LINE
  8
LC-003-005-----0
  6
CONTINUOUS
  5
2D1
 10
403.928261
 20
165.774697
 30
0.0
 11
404.355209
 21
166.201645
 31
0.0
  0
ENDBLK
  8
0
  5
2D2
  0
BLOCK
  8
0
  5
2D4
  2
*X26
 70
    65
 10
383.928261
 20
161.501645
 30
0.0
  3
*X26
  0
LINE
  8
LC-003-005-----0
  6
CONTINUOUS
  5
2D5
 10
393.432669
 20
161.501645
 30
0.0
 11
393.928261
 21
161.997237
 31
0.0
  0
LINE
  8
LC-003-005-----0
  6
CONTINUOUS
  5
2D6
 10
392.866984
 20
161.501645
 30
0.0
 11
393.928261
 21
162.562922
 31
0.0
  0
LINE
  8
LC-003-005-----0
  6
CONTINUOUS
  5
2D7
 10
392.301298
 20
161.501645
 30
0.0
 11
393.928261
 21
163.128608
 31
0.0
  0
LINE
  8
LC-003-005-----0
  6
CONTINUOUS
  5
2D8
 10
391.735613
 20
161.501645
 30
0.0
 11
393.928261
 21
163.694293
 31
0.0
  0
LINE
  8
LC-003-005-----0
  6
CONTINUOUS
  5
2D9
 10
391.169927
 20
161.501645
 30
0.0
 11
393.928261
 21
164.259979
 31
0.0
  0
LINE
  8
LC-003-005-----0
  6
CONTINUOUS
  5
2DA
 10
390.604242
 20
161.501645
 30
0.0
 11
393.928261
 21
164.825664
 31
0.0
  0
LINE
  8
LC-003-005-----0
  6
CONTINUOUS
  5
2DB
 10
390.038557
 20
161.501645
 30
0.0
 11
393.928261
 21
165.391349
 31
0.0
  0
LINE
  8
LC-003-005-----0
  6
CONTINUOUS
  5
2DC
 10
389.472871
 20
161.501645
 30
0.0
 11
393.928261
 21
165.957035
 31
0.0
  0
LINE
  8
LC-003-005-----0
  6
CONTINUOUS
  5
2DD
 10
388.907186
 20
161.501645
 30
0.0
 11
393.607186
 21
166.201645
 31
0.0
  0
LINE
  8
LC-003-005-----0
  6
CONTINUOUS
  5
2DE
 10
388.3415
 20
161.501645
 30
0.0
 11
393.0415
 21
166.201645
 31
0.0
  0
LINE
  8
LC-003-005-----0
  6
CONTINUOUS
  5
2DF
 10
387.775815
 20
161.501645
 30
0.0
 11
392.475815
 21
166.201645
 31
0.0
  0
LINE
  8
LC-003-005-----0
  6
CONTINUOUS
  5
2E0
 10
387.21013
 20
161.501645
 30
0.0
 11
391.91013
 21
166.201645
 31
0.0
  0
LINE
  8
LC-003-005-----0
  6
CONTINUOUS
  5
2E1
 10
386.644444
 20
161.501645
 30
0.0
 11
391.344444
 21
166.201645
 31
0.0
  0
LINE
  8
LC-003-005-----0
  6
CONTINUOUS
  5
2E2
 10
386.078759
 20
161.501645
 30
0.0
 11
390.778759
 21
166.201645
 31
0.0
  0
LINE
  8
LC-003-005-----0
  6
CONTINUOUS
  5
2E3
 10
385.513073
 20
161.501645
 30
0.0
 11
390.213073
 21
166.201645
 31
0.0
  0
LINE
  8
LC-003-005-----0
  6
CONTINUOUS
  5
2E4
 10
384.947388
 20
161.501645
 30
0.0
 11
389.647388
 21
166.201645
 31
0.0
  0
LINE
  8
LC-003-005-----0
  6
CONTINUOUS
  5
2E5
 10
384.381702
 20
161.501645
 30
0.0
 11
389.081702
 21
166.201645
 31
0.0
  0
LINE
  8
LC-003-005-----0
  6
CONTINUOUS
  5
2E6
 10
383.928261
 20
161.613889
 30
0.0
 11
388.516017
 21
166.201645
 31
0.0
  0
LINE
  8
LC-003-005-----0
  6
CONTINUOUS
  5
2E7
 10
383.928261
 20
162.179574
 30
0.0
 11
387.950332
 21
166.201645
 31
0.0
  0
LINE
  8
LC-003-005-----0
  6
CONTINUOUS
  5
2E8
 10
383.928261
 20
162.74526
 30
0.0
 11
387.384646
 21
166.201645
 31
0.0
  0
LINE
  8
LC-003-005-----0
  6
CONTINUOUS
  5
2E9
 10
383.928261
 20
163.310945
 30
0.0
 11
386.818961
 21
166.201645
 31
0.0
  0
LINE
  8
LC-003-005-----0
  6
CONTINUOUS
  5
2EA
 10
383.928261
 20
163.876631
 30
0.0
 11
386.253275
 21
166.201645
 31
0.0
  0
LINE
  8
LC-003-005-----0
  6
CONTINUOUS
  5
2EB
 10
383.928261
 20
164.442316
 30
0.0
 11
385.68759
 21
166.201645
 31
0.0
  0
LINE
  8
LC-003-005-----0
  6
CONTINUOUS
  5
2EC
 10
383.928261
 20
165.008002
 30
0.0
 11
385.121904
 21
166.201645
 31
0.0
  0
LINE
  8
LC-003-005-----0
  6
CONTINUOUS
  5
2ED
 10
383.928261
 20
165.573687
 30
0.0
 11
384.556219
 21
166.201645
 31
0.0
  0
LINE
  8
LC-003-005-----0
  6
CONTINUOUS
  5
2EE
 10
383.928261
 20
166.139372
 30
0.0
 11
383.990534
 21
166.201645
 31
0.0
  0
ENDBLK
  8
0
  5
2EF
  0
BLOCK
  8
0
  5
2F1
  2
*X27
 70
    65
 10
363.928261
 20
161.501645
 30
0.0
  3
*X27
  0
LINE
  8
LC-003-005-----0
  6
CONTINUOUS
  5
2F2
 10
373.633679
 20
161.501645
 30
0.0
 11
373.928261
 21
161.796227
 31
0.0
  0
LINE
  8
LC-003-005-----0
  6
CONTINUOUS
  5
2F3
 10
373.067994
 20
161.501645
 30
0.0
 11
373.928261
 21
162.361912
 31
0.0
  0
LINE
  8
LC-003-005-----0
  6
CONTINUOUS
  5
2F4
 10
372.502308
 20
161.501645
 30
0.0
 11
373.928261
 21
162.927598
 31
0.0
  0
LINE
  8
LC-003-005-----0
  6
CONTINUOUS
  5
2F5
 10
371.936623
 20
161.501645
 30
0.0
 11
373.928261
 21
163.493283
 31
0.0
  0
LINE
  8
LC-003-005-----0
  6
CONTINUOUS
  5
2F6
 10
371.370938
 20
161.501645
 30
0.0
 11
373.928261
 21
164.058968
 31
0.0
  0
LINE
  8
LC-003-005-----0
  6
CONTINUOUS
  5
2F7
 10
370.805252
 20
161.501645
 30
0.0
 11
373.928261
 21
164.624654
 31
0.0
  0
LINE
  8
LC-003-005-----0
  6
CONTINUOUS
  5
2F8
 10
370.239567
 20
161.501645
 30
0.0
 11
373.928261
 21
165.190339
 31
0.0
  0
LINE
  8
LC-003-005-----0
  6
CONTINUOUS
  5
2F9
 10
369.673881
 20
161.501645
 30
0.0
 11
373.928261
 21
165.756025
 31
0.0
  0
LINE
  8
LC-003-005-----0
  6
CONTINUOUS
  5
2FA
 10
369.108196
 20
161.501645
 30
0.0
 11
373.808196
 21
166.201645
 31
0.0
  0
LINE
  8
LC-003-005-----0
  6
CONTINUOUS
  5
2FB
 10
368.54251
 20
161.501645
 30
0.0
 11
373.24251
 21
166.201645
 31
0.0
  0
LINE
  8
LC-003-005-----0
  6
CONTINUOUS
  5
2FC
 10
367.976825
 20
161.501645
 30
0.0
 11
372.676825
 21
166.201645
 31
0.0
  0
LINE
  8
LC-003-005-----0
  6
CONTINUOUS
  5
2FD
 10
367.41114
 20
161.501645
 30
0.0
 11
372.11114
 21
166.201645
 31
0.0
  0
LINE
  8
LC-003-005-----0
  6
CONTINUOUS
  5
2FE
 10
366.845454
 20
161.501645
 30
0.0
 11
371.545454
 21
166.201645
 31
0.0
  0
LINE
  8
LC-003-005-----0
  6
CONTINUOUS
  5
2FF
 10
366.279769
 20
161.501645
 30
0.0
 11
370.979769
 21
166.201645
 31
0.0
  0
LINE
  8
LC-003-005-----0
  6
CONTINUOUS
  5
300
 10
365.714083
 20
161.501645
 30
0.0
 11
370.414083
 21
166.201645
 31
0.0
  0
LINE
  8
LC-003-005-----0
  6
CONTINUOUS
  5
301
 10
365.148398
 20
161.501645
 30
0.0
 11
369.848398
 21
166.201645
 31
0.0
  0
LINE
  8
LC-003-005-----0
  6
CONTINUOUS
  5
302
 10
364.582713
 20
161.501645
 30
0.0
 11
369.282713
 21
166.201645
 31
0.0
  0
LINE
  8
LC-003-005-----0
  6
CONTINUOUS
  5
303
 10
364.017027
 20
161.501645
 30
0.0
 11
368.717027
 21
166.201645
 31
0.0
  0
LINE
  8
LC-003-005-----0
  6
CONTINUOUS
  5
304
 10
363.928261
 20
161.978564
 30
0.0
 11
368.151342
 21
166.201645
 31
0.0
  0
LINE
  8
LC-003-005-----0
  6
CONTINUOUS
  5
305
 10
363.928261
 20
162.54425
 30
0.0
 11
367.585656
 21
166.201645
 31
0.0
  0
LINE
  8
LC-003-005-----0
  6
CONTINUOUS
  5
306
 10
363.928261
 20
163.109935
 30
0.0
 11
367.019971
 21
166.201645
 31
0.0
  0
LINE
  8
LC-003-005-----0
  6
CONTINUOUS
  5
307
 10
363.928261
 20
163.675621
 30
0.0
 11
366.454285
 21
166.201645
 31
0.0
  0
LINE
  8
LC-003-005-----0
  6
CONTINUOUS
  5
308
 10
363.928261
 20
164.241306
 30
0.0
 11
365.8886
 21
166.201645
 31
0.0
  0
LINE
  8
LC-003-005-----0
  6
CONTINUOUS
  5
309
 10
363.928261
 20
164.806991
 30
0.0
 11
365.322915
 21
166.201645
 31
0.0
  0
LINE
  8
LC-003-005-----0
  6
CONTINUOUS
  5
30A
 10
363.928261
 20
165.372677
 30
0.0
 11
364.757229
 21
166.201645
 31
0.0
  0
LINE
  8
LC-003-005-----0
  6
CONTINUOUS
  5
30B
 10
363.928261
 20
165.938362
 30
0.0
 11
364.191544
 21
166.201645
 31
0.0
  0
ENDBLK
  8
0
  5
30C
  0
BLOCK
  8
0
  5
30E
  2
*X28
 70
    65
 10
343.928261
 20
160.726133
 30
0.0
  3
*X28
  0
LINE
  8
LC-003-005-----0
  6
CONTINUOUS
  5
30F
 10
353.739064
 20
161.406019
 30
0.0
 11
353.928261
 21
161.595217
 31
0.0
  0
LINE
  8
LC-003-005-----0
  6
CONTINUOUS
  5
310
 10
353.131248
 20
161.363888
 30
0.0
 11
353.928261
 21
162.160902
 31
0.0
  0
LINE
  8
LC-003-005-----0
  6
CONTINUOUS
  5
311
 10
352.523432
 20
161.321758
 30
0.0
 11
353.928261
 21
162.726587
 31
0.0
  0
LINE
  8
LC-003-005-----0
  6
CONTINUOUS
  5
312
 10
351.915616
 20
161.279627
 30
0.0
 11
353.928261
 21
163.292273
 31
0.0
  0
LINE
  8
LC-003-005-----0
  6
CONTINUOUS
  5
313
 10
351.307799
 20
161.237497
 30
0.0
 11
353.928261
 21
163.857958
 31
0.0
  0
LINE
  8
LC-003-005-----0
  6
CONTINUOUS
  5
314
 10
350.699983
 20
161.195366
 30
0.0
 11
353.928261
 21
164.423644
 31
0.0
  0
LINE
  8
LC-003-005-----0
  6
CONTINUOUS
  5
315
 10
350.092167
 20
161.153236
 30
0.0
 11
353.928261
 21
164.989329
 31
0.0
  0
LINE
  8
LC-003-005-----0
  6
CONTINUOUS
  5
316
 10
349.484351
 20
161.111105
 30
0.0
 11
353.928261
 21
165.555015
 31
0.0
  0
LINE
  8
LC-003-005-----0
  6
CONTINUOUS
  5
317
 10
348.876535
 20
161.068974
 30
0.0
 11
353.928261
 21
166.1207
 31
0.0
  0
LINE
  8
LC-003-005-----0
  6
CONTINUOUS
  5
318
 10
348.268719
 20
161.026844
 30
0.0
 11
353.330879
 21
166.089003
 31
0.0
  0
LINE
  8
LC-003-005-----0
  6
CONTINUOUS
  5
319
 10
347.660903
 20
160.984713
 30
0.0
 11
352.723063
 21
166.046872
 31
0.0
  0
LINE
  8
LC-003-005-----0
  6
CONTINUOUS
  5
31A
 10
347.053087
 20
160.942583
 30
0.0
 11
352.115247
 21
166.004742
 31
0.0
  0
LINE
  8
LC-003-005-----0
  6
CONTINUOUS
  5
31B
 10
346.445271
 20
160.900452
 30
0.0
 11
351.507431
 21
165.962611
 31
0.0
  0
LINE
  8
LC-003-005-----0
  6
CONTINUOUS
  5
31C
 10
345.837455
 20
160.858321
 30
0.0
 11
350.899615
 21
165.920481
 31
0.0
  0
LINE
  8
LC-003-005-----0
  6
CONTINUOUS
  5
31D
 10
345.229639
 20
160.816191
 30
0.0
 11
350.291799
 21
165.87835
 31
0.0
  0
LINE
  8
LC-003-005-----0
  6
CONTINUOUS
  5
31E
 10
344.621823
 20
160.77406
 30
0.0
 11
349.683983
 21
165.836219
 31
0.0
  0
LINE
  8
LC-003-005-----0
  6
CONTINUOUS
  5
31F
 10
344.014007
 20
160.73193
 30
0.0
 11
349.076167
 21
165.794089
 31
0.0
  0
LINE
  8
LC-003-005-----0
  6
CONTINUOUS
  5
320
 10
343.928261
 20
161.211869
 30
0.0
 11
348.468351
 21
165.751958
 31
0.0
  0
LINE
  8
LC-003-005-----0
  6
CONTINUOUS
  5
321
 10
343.928261
 20
161.777554
 30
0.0
 11
347.860534
 21
165.709828
 31
0.0
  0
LINE
  8
LC-003-005-----0
  6
CONTINUOUS
  5
322
 10
343.928261
 20
162.34324
 30
0.0
 11
347.252718
 21
165.667697
 31
0.0
  0
LINE
  8
LC-003-005-----0
  6
CONTINUOUS
  5
323
 10
343.928261
 20
162.908925
 30
0.0
 11
346.644902
 21
165.625566
 31
0.0
  0
LINE
  8
LC-003-005-----0
  6
CONTINUOUS
  5
324
 10
343.928261
 20
163.47461
 30
0.0
 11
346.037086
 21
165.583436
 31
0.0
  0
LINE
  8
LC-003-005-----0
  6
CONTINUOUS
  5
325
 10
343.928261
 20
164.040296
 30
0.0
 11
345.42927
 21
165.541305
 31
0.0
  0
LINE
  8
LC-003-005-----0
  6
CONTINUOUS
  5
326
 10
343.928261
 20
164.605981
 30
0.0
 11
344.821454
 21
165.499175
 31
0.0
  0
LINE
  8
LC-003-005-----0
  6
CONTINUOUS
  5
327
 10
343.928261
 20
165.171667
 30
0.0
 11
344.213638
 21
165.457044
 31
0.0
  0
ENDBLK
  8
0
  5
328
  0
BLOCK
  8
0
  5
32A
  2
*X29
 70
    65
 10
323.928261
 20
159.339839
 30
0.0
  3
*X29
  0
LINE
  8
LC-003-005-----0
  6
CONTINUOUS
  5
32B
 10
333.681135
 20
160.01571
 30
0.0
 11
333.928261
 21
160.262836
 31
0.0
  0
LINE
  8
LC-003-005-----0
  6
CONTINUOUS
  5
32C
 10
333.073319
 20
159.973579
 30
0.0
 11
333.928261
 21
160.828521
 31
0.0
  0
LINE
  8
LC-003-005-----0
  6
CONTINUOUS
  5
32D
 10
332.465503
 20
159.931448
 30
0.0
 11
333.928261
 21
161.394206
 31
0.0
  0
LINE
  8
LC-003-005-----0
  6
CONTINUOUS
  5
32E
 10
331.857687
 20
159.889318
 30
0.0
 11
333.928261
 21
161.959892
 31
0.0
  0
LINE
  8
LC-003-005-----0
  6
CONTINUOUS
  5
32F
 10
331.249871
 20
159.847187
 30
0.0
 11
333.928261
 21
162.525577
 31
0.0
  0
LINE
  8
LC-003-005-----0
  6
CONTINUOUS
  5
330
 10
330.642055
 20
159.805057
 30
0.0
 11
333.928261
 21
163.091263
 31
0.0
  0
LINE
  8
LC-003-005-----0
  6
CONTINUOUS
  5
331
 10
330.034239
 20
159.762926
 30
0.0
 11
333.928261
 21
163.656948
 31
0.0
  0
LINE
  8
LC-003-005-----0
  6
CONTINUOUS
  5
332
 10
329.426423
 20
159.720796
 30
0.0
 11
333.928261
 21
164.222634
 31
0.0
  0
LINE
  8
LC-003-005-----0
  6
CONTINUOUS
  5
333
 10
328.818607
 20
159.678665
 30
0.0
 11
333.880766
 21
164.740824
 31
0.0
  0
LINE
  8
LC-003-005-----0
  6
CONTINUOUS
  5
334
 10
328.210791
 20
159.636534
 30
0.0
 11
333.27295
 21
164.698694
 31
0.0
  0
LINE
  8
LC-003-005-----0
  6
CONTINUOUS
  5
335
 10
327.602975
 20
159.594404
 30
0.0
 11
332.665134
 21
164.656563
 31
0.0
  0
LINE
  8
LC-003-005-----0
  6
CONTINUOUS
  5
336
 10
326.995159
 20
159.552273
 30
0.0
 11
332.057318
 21
164.614432
 31
0.0
  0
LINE
  8
LC-003-005-----0
  6
CONTINUOUS
  5
337
 10
326.387343
 20
159.510143
 30
0.0
 11
331.449502
 21
164.572302
 31
0.0
  0
LINE
  8
LC-003-005-----0
  6
CONTINUOUS
  5
338
 10
325.779527
 20
159.468012
 30
0.0
 11
330.841686
 21
164.530171
 31
0.0
  0
LINE
  8
LC-003-005-----0
  6
CONTINUOUS
  5
339
 10
325.171711
 20
159.425881
 30
0.0
 11
330.23387
 21
164.488041
 31
0.0
  0
LINE
  8
LC-003-005-----0
  6
CONTINUOUS
  5
33A
 10
324.563895
 20
159.383751
 30
0.0
 11
329.626054
 21
164.44591
 31
0.0
  0
LINE
  8
LC-003-005-----0
  6
CONTINUOUS
  5
33B
 10
323.956079
 20
159.34162
 30
0.0
 11
329.018238
 21
164.403779
 31
0.0
  0
LINE
  8
LC-003-005-----0
  6
CONTINUOUS
  5
33C
 10
323.928261
 20
159.879488
 30
0.0
 11
328.410422
 21
164.361649
 31
0.0
  0
LINE
  8
LC-003-005-----0
  6
CONTINUOUS
  5
33D
 10
323.928261
 20
160.445173
 30
0.0
 11
327.802606
 21
164.319518
 31
0.0
  0
LINE
  8
LC-003-005-----0
  6
CONTINUOUS
  5
33E
 10
323.928261
 20
161.010859
 30
0.0
 11
327.19479
 21
164.277388
 31
0.0
  0
LINE
  8
LC-003-005-----0
  6
CONTINUOUS
  5
33F
 10
323.928261
 20
161.576544
 30
0.0
 11
326.586974
 21
164.235257
 31
0.0
  0
LINE
  8
LC-003-005-----0
  6
CONTINUOUS
  5
340
 10
323.928261
 20
162.14223
 30
0.0
 11
325.979158
 21
164.193127
 31
0.0
  0
LINE
  8
LC-003-005-----0
  6
CONTINUOUS
  5
341
 10
323.928261
 20
162.707915
 30
0.0
 11
325.371342
 21
164.150996
 31
0.0
  0
LINE
  8
LC-003-005-----0
  6
CONTINUOUS
  5
342
 10
323.928261
 20
163.2736
 30
0.0
 11
324.763526
 21
164.108865
 31
0.0
  0
LINE
  8
LC-003-005-----0
  6
CONTINUOUS
  5
343
 10
323.928261
 20
163.839286
 30
0.0
 11
324.15571
 21
164.066735
 31
0.0
  0
ENDBLK
  8
0
  5
344
  0
BLOCK
  8
0
  5
346
  2
*X30
 70
    65
 10
281.017475
 20
155.88219
 30
0.0
  3
*X30
  0
LINE
  8
LC-003-005-----0
  6
CONTINUOUS
  5
347
 10
313.157945
 20
157.594453
 30
0.0
 11
313.928261
 21
158.364769
 31
0.0
  0
LINE
  8
LC-003-005-----0
  6
CONTINUOUS
  5
348
 10
312.243601
 20
157.245794
 30
0.0
 11
313.928261
 21
158.930455
 31
0.0
  0
LINE
  8
LC-003-005-----0
  6
CONTINUOUS
  5
349
 10
311.391706
 20
156.959585
 30
0.0
 11
313.928261
 21
159.49614
 31
0.0
  0
LINE
  8
LC-003-005-----0
  6
CONTINUOUS
  5
34A
 10
310.589177
 20
156.722741
 30
0.0
 11
313.928261
 21
160.061825
 31
0.0
  0
LINE
  8
LC-003-005-----0
  6
CONTINUOUS
  5
34B
 10
309.827097
 20
156.526346
 30
0.0
 11
313.928261
 21
160.627511
 31
0.0
  0
LINE
  8
LC-003-005-----0
  6
CONTINUOUS
  5
34C
 10
309.099058
 20
156.363993
 30
0.0
 11
313.928261
 21
161.193196
 31
0.0
  0
LINE
  8
LC-003-005-----0
  6
CONTINUOUS
  5
34D
 10
308.4277
 20
156.258321
 30
0.0
 11
313.928261
 21
161.758882
 31
0.0
  0
LINE
  8
LC-003-005-----0
  6
CONTINUOUS
  5
34E
 10
307.817686
 20
156.213992
 30
0.0
 11
313.928261
 21
162.324567
 31
0.0
  0
LINE
  8
LC-003-005-----0
  6
CONTINUOUS
  5
34F
 10
307.207671
 20
156.169662
 30
0.0
 11
313.928261
 21
162.890253
 31
0.0
  0
LINE
  8
LC-003-005-----0
  6
CONTINUOUS
  5
350
 10
306.597656
 20
156.125333
 30
0.0
 11
313.358809
 21
162.886486
 31
0.0
  0
LINE
  8
LC-003-005-----0
  6
CONTINUOUS
  5
351
 10
305.987641
 20
156.081004
 30
0.0
 11
312.215719
 21
162.309081
 31
0.0
  0
LINE
  8
LC-003-005-----0
  6
CONTINUOUS
  5
352
 10
305.377626
 20
156.036674
 30
0.0
 11
311.226413
 21
161.885461
 31
0.0
  0
LINE
  8
LC-003-005-----0
  6
CONTINUOUS
  5
353
 10
304.767612
 20
155.992345
 30
0.0
 11
310.335045
 21
161.559778
 31
0.0
  0
LINE
  8
LC-003-005-----0
  6
CONTINUOUS
  5
354
 10
304.157597
 20
155.948015
 30
0.0
 11
309.513626
 21
161.304045
 31
0.0
  0
LINE
  8
LC-003-005-----0
  6
CONTINUOUS
  5
355
 10
303.928261
 20
156.284365
 30
0.0
 11
308.74573
 21
161.101834
 31
0.0
  0
LINE
  8
LC-003-005-----0
  6
CONTINUOUS
  5
356
 10
303.928261
 20
156.850051
 30
0.0
 11
308.020721
 21
160.94251
 31
0.0
  0
LINE
  8
LC-003-005-----0
  6
CONTINUOUS
  5
357
 10
303.928261
 20
157.415736
 30
0.0
 11
307.407238
 21
160.894712
 31
0.0
  0
LINE
  8
LC-003-005-----0
  6
CONTINUOUS
  5
358
 10
303.928261
 20
157.981421
 30
0.0
 11
306.797223
 21
160.850383
 31
0.0
  0
LINE
  8
LC-003-005-----0
  6
CONTINUOUS
  5
359
 10
303.928261
 20
158.547107
 30
0.0
 11
306.187208
 21
160.806054
 31
0.0
  0
LINE
  8
LC-003-005-----0
  6
CONTINUOUS
  5
35A
 10
303.928261
 20
159.112792
 30
0.0
 11
305.577193
 21
160.761724
 31
0.0
  0
LINE
  8
LC-003-005-----0
  6
CONTINUOUS
  5
35B
 10
303.928261
 20
159.678478
 30
0.0
 11
304.967178
 21
160.717395
 31
0.0
  0
LINE
  8
LC-003-005-----0
  6
CONTINUOUS
  5
35C
 10
303.928261
 20
160.244163
 30
0.0
 11
304.357163
 21
160.673066
 31
0.0
  0
ENDBLK
  8
0
  5
35D
  0
BLOCK
  8
0
  5
35F
  2
*X31
 70
    65
 10
276.381048
 20
130.291161
 30
0.0
  3
*X31
  0
LINE
  8
LC-003-005-----0
  6
CONTINUOUS
  5
360
 10
280.241834
 20
130.335197
 30
0.0
 11
281.337013
 21
131.430375
 31
0.0
  0
LINE
  8
LC-003-005-----0
  6
CONTINUOUS
  5
361
 10
277.369372
 20
130.291161
 30
0.0
 11
278.069372
 21
130.991161
 31
0.0
  0
LINE
  8
LC-003-005-----0
  6
CONTINUOUS
  5
362
 10
279.688153
 20
132.609942
 30
0.0
 11
280.30748
 21
133.22927
 31
0.0
  0
LINE
  8
LC-003-005-----0
  6
CONTINUOUS
  5
363
 10
308.17208
 20
161.093869
 30
0.0
 11
309.362407
 21
162.284197
 31
0.0
  0
LINE
  8
LC-003-005-----0
  6
CONTINUOUS
  5
364
 10
278.881048
 20
134.631265
 30
0.0
 11
279.581048
 21
135.331265
 31
0.0
  0
LINE
  8
LC-003-005-----0
  6
CONTINUOUS
  5
365
 10
280.49526
 20
136.245477
 30
0.0
 11
283.326733
 21
139.07695
 31
0.0
  0
LINE
  8
LC-003-005-----0
  6
CONTINUOUS
  5
366
 10
305.016749
 20
160.766966
 30
0.0
 11
305.75984
 21
161.510057
 31
0.0
  0
LINE
  8
LC-003-005-----0
  6
CONTINUOUS
  5
367
 10
282.681048
 20
141.259692
 30
0.0
 11
283.381048
 21
141.959692
 31
0.0
  0
LINE
  8
LC-003-005-----0
  6
CONTINUOUS
  5
368
 10
301.975669
 20
160.554313
 30
0.0
 11
302.71876
 21
161.297404
 31
0.0
  0
LINE
  8
LC-003-005-----0
  6
CONTINUOUS
  5
369
 10
282.681048
 20
144.088119
 30
0.0
 11
283.381048
 21
144.788119
 31
0.0
  0
LINE
  8
LC-003-005-----0
  6
CONTINUOUS
  5
36A
 10
298.934589
 20
160.34166
 30
0.0
 11
299.67768
 21
161.084751
 31
0.0
  0
LINE
  8
LC-003-005-----0
  6
CONTINUOUS
  5
36B
 10
282.681048
 20
146.916546
 30
0.0
 11
283.381048
 21
147.616546
 31
0.0
  0
LINE
  8
LC-003-005-----0
  6
CONTINUOUS
  5
36C
 10
295.893508
 20
160.129006
 30
0.0
 11
296.6366
 21
160.872098
 31
0.0
  0
LINE
  8
LC-003-005-----0
  6
CONTINUOUS
  5
36D
 10
282.681048
 20
149.744973
 30
0.0
 11
283.381048
 21
150.444973
 31
0.0
  0
LINE
  8
LC-003-005-----0
  6
CONTINUOUS
  5
36E
 10
292.852428
 20
159.916353
 30
0.0
 11
293.595519
 21
160.659445
 31
0.0
  0
LINE
  8
LC-003-005-----0
  6
CONTINUOUS
  5
36F
 10
282.681048
 20
152.5734
 30
0.0
 11
283.381048
 21
153.2734
 31
0.0
  0
LINE
  8
LC-003-005-----0
  6
CONTINUOUS
  5
370
 10
289.811348
 20
159.7037
 30
0.0
 11
290.554439
 21
160.446792
 31
0.0
  0
LINE
  8
LC-003-005-----0
  6
CONTINUOUS
  5
371
 10
283.139524
 20
155.860303
 30
0.0
 11
287.18937
 21
159.910149
 31
0.0
  0
ENDBLK
  8
0
  5
372
  0
BLOCK
  8
0
  5
374
  2
BLK4
 70
    64
 10
0.0
 20
0.0
 30
0.0
  3
BLK4
  0
ENDBLK
  8
0
  5
375
  0
BLOCK
  8
0
  5
377
  2
*D33
 70
    65
 10
0.0
 20
0.0
 30
0.0
  3
*D33
  0
LINE
  8
LC-008-003-MTH-0
  6
CONTINUOUS
  5
378
 10
-45.690954
 20
166.201645
 30
0.0
 11
-45.690954
 21
291.2
 31
0.0
  0
LINE
  8
LC-008-003-MTH-0
  6
CONTINUOUS
  5
379
 10
453.928261
 20
166.201645
 30
0.0
 11
453.928261
 21
291.2
 31
0.0
  0
LINE
  8
LC-009-003-MTG-0
  6
CONTINUOUS
  5
37A
 10
-45.690954
 20
274.4
 30
0.0
 11
453.928261
 21
274.4
 31
0.0
  0
LINE
  8
LC-007-003-----0
  6
CONTINUOUS
  5
37B
 10
-17.930498
 20
278.054733
 30
0.0
 11
-45.690954
 21
274.4
 31
0.0
  0
LINE
  8
LC-007-003-----0
  6
CONTINUOUS
  5
37C
 10
-45.690954
 20
274.4
 30
0.0
 11
-17.930498
 21
270.745267
 31
0.0
  0
LINE
  8
LC-007-003-----0
  6
CONTINUOUS
  5
37D
 10
-17.930498
 20
270.745267
 30
0.0
 11
-17.930498
 21
278.054733
 31
0.0
  0
LINE
  8
LC-007-003-----0
  6
CONTINUOUS
  5
37E
 10
-17.868216
 20
277.104503
 30
0.0
 11
-38.410954
 21
274.4
 31
0.0
  0
LINE
  8
LC-007-003-----0
  6
CONTINUOUS
  5
37F
 10
-38.410954
 20
274.4
 30
0.0
 11
-17.868216
 21
271.695497
 31
0.0
  0
LINE
  8
LC-007-003-----0
  6
CONTINUOUS
  5
380
 10
-17.805935
 20
276.154272
 30
0.0
 11
-31.130954
 21
274.4
 31
0.0
  0
LINE
  8
LC-007-003-----0
  6
CONTINUOUS
  5
381
 10
-31.130954
 20
274.4
 30
0.0
 11
-17.805935
 21
272.645728
 31
0.0
  0
LINE
  8
LC-007-003-----0
  6
CONTINUOUS
  5
382
 10
-17.743653
 20
275.204041
 30
0.0
 11
-23.850954
 21
274.4
 31
0.0
  0
LINE
  8
LC-007-003-----0
  6
CONTINUOUS
  5
383
 10
-23.850954
 20
274.4
 30
0.0
 11
-17.743653
 21
273.595959
 31
0.0
  0
LINE
  8
LC-007-003-----0
  6
CONTINUOUS
  5
384
 10
426.167805
 20
270.745267
 30
0.0
 11
453.928261
 21
274.4
 31
0.0
  0
LINE
  8
LC-007-003-----0
  6
CONTINUOUS
  5
385
 10
453.928261
 20
274.4
 30
0.0
 11
426.167805
 21
278.054733
 31
0.0
  0
LINE
  8
LC-007-003-----0
  6
CONTINUOUS
  5
386
 10
426.167805
 20
278.054733
 30
0.0
 11
426.167805
 21
270.745267
 31
0.0
  0
LINE
  8
LC-007-003-----0
  6
CONTINUOUS
  5
387
 10
426.105524
 20
271.695497
 30
0.0
 11
446.648261
 21
274.4
 31
0.0
  0
LINE
  8
LC-007-003-----0
  6
CONTINUOUS
  5
388
 10
446.648261
 20
274.4
 30
0.0
 11
426.105524
 21
277.104503
 31
0.0
  0
LINE
  8
LC-007-003-----0
  6
CONTINUOUS
  5
389
 10
426.043242
 20
272.645728
 30
0.0
 11
439.368261
 21
274.4
 31
0.0
  0
LINE
  8
LC-007-003-----0
  6
CONTINUOUS
  5
38A
 10
439.368261
 20
274.4
 30
0.0
 11
426.043242
 21
276.154272
 31
0.0
  0
LINE
  8
LC-007-003-----0
  6
CONTINUOUS
  5
38B
 10
425.980961
 20
273.595959
 30
0.0
 11
432.088261
 21
274.4
 31
0.0
  0
LINE
  8
LC-007-003-----0
  6
CONTINUOUS
  5
38C
 10
432.088261
 20
274.4
 30
0.0
 11
425.980961
 21
275.204041
 31
0.0
  0
TEXT
  8
LC-007-003-----0
  6
CONTINUOUS
 62
     8
  5
38D
 10
170.195364
 20
282.227554
 30
0.0
 40
28.0
  1
Ø500
 41
0.9
 51
15.0
  7
LC-TXTSTYLE-150-400-0-0-A0
 72
     1
 11
208.466814
 21
282.227554
 31
0.0
  0
ENDBLK
  8
0
  5
38E
  0
BLOCK
  8
0
  5
390
  2
*X34
 70
    65
 10
283.498192
 20
139.909264
 30
0.0
  3
*X34
  0
LINE
  8
LC-003-005-----0
  6
CONTINUOUS
  5
391
 10
289.815902
 20
139.909264
 30
0.0
 11
290.771295
 21
140.864657
 31
0.0
  0
LINE
  8
LC-003-005-----0
  6
CONTINUOUS
  5
392
 10
288.51468
 20
141.43647
 30
0.0
 11
290.771295
 21
143.693084
 31
0.0
  0
LINE
  8
LC-003-005-----0
  6
CONTINUOUS
  5
393
 10
293.96342
 20
146.885209
 30
0.0
 11
295.63062
 21
148.552409
 31
0.0
  0
LINE
  8
LC-003-005-----0
  6
CONTINUOUS
  5
394
 10
287.650323
 20
143.40054
 30
0.0
 11
290.771295
 21
146.521511
 31
0.0
  0
LINE
  8
LC-003-005-----0
  6
CONTINUOUS
  5
395
 10
292.489238
 20
148.239455
 30
0.0
 11
295.63062
 21
151.380836
 31
0.0
  0
LINE
  8
LC-003-005-----0
  6
CONTINUOUS
  5
396
 10
283.615622
 20
142.194265
 30
0.0
 11
290.771295
 21
149.349938
 31
0.0
  0
LINE
  8
LC-003-005-----0
  6
CONTINUOUS
  5
397
 10
292.489238
 20
151.067882
 30
0.0
 11
295.63062
 21
154.209264
 31
0.0
  0
LINE
  8
LC-003-005-----0
  6
CONTINUOUS
  5
398
 10
288.429868
 20
149.836939
 30
0.0
 11
290.771295
 21
152.178366
 31
0.0
  0
LINE
  8
LC-003-005-----0
  6
CONTINUOUS
  5
399
 10
291.354612
 20
152.761683
 30
0.0
 11
294.109096
 21
155.516167
 31
0.0
  0
LINE
  8
LC-003-005-----0
  6
CONTINUOUS
  5
39A
 10
285.522671
 20
149.758169
 30
0.0
 11
291.068087
 21
155.303585
 31
0.0
  0
ENDBLK
  8
0
  5
39B
  0
BLOCK
  8
0
  5
39D
  2
BLK5
 70
    64
 10
0.0
 20
0.0
 30
0.0
  3
BLK5
  0
ENDBLK
  8
0
  5
39E
  0
BLOCK
  8
0
  5
3A0
  2
*X36
 70
    65
 10
112.574765
 20
139.908818
 30
0.0
  3
*X36
  0
LINE
  8
LC-003-005-----0
  6
CONTINUOUS
  5
3A1
 10
122.873571
 20
142.672561
 30
0.0
 11
123.761217
 21
143.560206
 31
0.0
  0
LINE
  8
LC-003-005-----0
  6
CONTINUOUS
  5
3A2
 10
117.434171
 20
140.061588
 30
0.0
 11
119.690747
 21
142.318164
 31
0.0
  0
LINE
  8
LC-003-005-----0
  6
CONTINUOUS
  5
3A3
 10
120.775718
 20
143.403135
 30
0.0
 11
122.396352
 21
145.023769
 31
0.0
  0
LINE
  8
LC-003-005-----0
  6
CONTINUOUS
  5
3A4
 10
117.434156
 20
142.89
 30
0.0
 11
121.031488
 21
146.487332
 31
0.0
  0
LINE
  8
LC-003-005-----0
  6
CONTINUOUS
  5
3A5
 10
123.869864
 20
149.325708
 30
0.0
 11
124.416883
 21
149.872727
 31
0.0
  0
LINE
  8
LC-003-005-----0
  6
CONTINUOUS
  5
3A6
 10
117.434141
 20
145.718413
 30
0.0
 11
119.707476
 21
147.991747
 31
0.0
  0
LINE
  8
LC-003-005-----0
  6
CONTINUOUS
  5
3A7
 10
121.796148
 20
150.080419
 30
0.0
 11
123.052019
 21
151.33629
 31
0.0
  0
LINE
  8
LC-003-005-----0
  6
CONTINUOUS
  5
3A8
 10
115.672057
 20
146.784756
 30
0.0
 11
115.716192
 21
146.828891
 31
0.0
  0
LINE
  8
LC-003-005-----0
  6
CONTINUOUS
  5
3A9
 10
117.434127
 20
148.546825
 30
0.0
 11
121.687155
 21
152.799853
 31
0.0
  0
LINE
  8
LC-003-005-----0
  6
CONTINUOUS
  5
3AA
 10
113.125732
 20
147.066858
 30
0.0
 11
115.716178
 21
149.657303
 31
0.0
  0
LINE
  8
LC-003-005-----0
  6
CONTINUOUS
  5
3AB
 10
117.434112
 20
151.375238
 30
0.0
 11
120.322291
 21
154.263416
 31
0.0
  0
LINE
  8
LC-003-005-----0
  6
CONTINUOUS
  5
3AC
 10
112.574798
 20
149.34435
 30
0.0
 11
115.716163
 21
152.485716
 31
0.0
  0
LINE
  8
LC-003-005-----0
  6
CONTINUOUS
  5
3AD
 10
115.991677
 20
152.761229
 30
0.0
 11
118.442361
 21
155.211914
 31
0.0
  0
LINE
  8
LC-003-005-----0
  6
CONTINUOUS
  5
3AE
 10
112.574783
 20
152.172763
 30
0.0
 11
115.798724
 21
155.396704
 31
0.0
  0
LINE
  8
LC-003-005-----0
  6
CONTINUOUS
  5
3AF
 10
112.574769
 20
155.001175
 30
0.0
 11
113.155087
 21
155.581494
 31
0.0
  0
ENDBLK
  8
0
  5
3B0
  0
BLOCK
  8
0
  5
3B2
  2
BLK6
 70
    64
 10
0.0
 20
0.0
 30
0.0
  3
BLK6
  0
ENDBLK
  8
0
  5
3B3
  0
BLOCK
  8
0
  5
3B5
  2
*X38
 70
    65
 10
160.352802
 20
72.239418
 30
0.0
  3
*X38
  0
LINE
  8
LC-003-005-----0
  6
CONTINUOUS
  5
3B6
 10
245.964546
 20
138.701543
 30
0.0
 11
242.314965
 21
142.351124
 31
0.0
  0
LINE
  8
LC-003-005-----0
  6
CONTINUOUS
  5
3B7
 10
247.702319
 20
134.135343
 30
0.0
 11
244.389367
 21
137.448295
 31
0.0
  0
LINE
  8
LC-003-005-----0
  6
CONTINUOUS
  5
3B8
 10
241.061717
 20
140.775945
 30
0.0
 11
237.748764
 21
144.088898
 31
0.0
  0
LINE
  8
LC-003-005-----0
  6
CONTINUOUS
  5
3B9
 10
247.85301
 20
131.156225
 30
0.0
 11
245.806522
 21
133.202713
 31
0.0
  0
LINE
  8
LC-003-005-----0
  6
CONTINUOUS
  5
3BA
 10
236.816134
 20
142.1931
 30
0.0
 11
234.769645
 21
144.23959
 31
0.0
  0
LINE
  8
LC-003-005-----0
  6
CONTINUOUS
  5
3BB
 10
247.853008
 20
128.3278
 30
0.0
 11
245.853009
 21
130.327798
 31
0.0
  0
LINE
  8
LC-003-005-----0
  6
CONTINUOUS
  5
3BC
 10
233.941219
 20
142.239589
 30
0.0
 11
231.941216
 21
144.239591
 31
0.0
  0
LINE
  8
LC-003-005-----0
  6
CONTINUOUS
  5
3BD
 10
247.853006
 20
125.499374
 30
0.0
 11
245.853007
 21
127.499373
 31
0.0
  0
LINE
  8
LC-003-005-----0
  6
CONTINUOUS
  5
3BE
 10
231.112792
 20
142.239589
 30
0.0
 11
229.112787
 21
144.239593
 31
0.0
  0
LINE
  8
LC-003-005-----0
  6
CONTINUOUS
  5
3BF
 10
247.853004
 20
122.670949
 30
0.0
 11
245.853006
 21
124.670948
 31
0.0
  0
LINE
  8
LC-003-005-----0
  6
CONTINUOUS
  5
3C0
 10
228.284364
 20
142.239589
 30
0.0
 11
226.284358
 21
144.239595
 31
0.0
  0
LINE
  8
LC-003-005-----0
  6
CONTINUOUS
  5
3C1
 10
247.853002
 20
119.842524
 30
0.0
 11
245.853004
 21
121.842523
 31
0.0
  0
LINE
  8
LC-003-005-----0
  6
CONTINUOUS
  5
3C2
 10
225.455937
 20
142.239589
 30
0.0
 11
223.455929
 21
144.239597
 31
0.0
  0
LINE
  8
LC-003-005-----0
  6
CONTINUOUS
  5
3C3
 10
247.853001
 20
117.014099
 30
0.0
 11
245.853002
 21
119.014097
 31
0.0
  0
LINE
  8
LC-003-005-----0
  6
CONTINUOUS
  5
3C4
 10
222.62751
 20
142.239589
 30
0.0
 11
220.6275
 21
144.239599
 31
0.0
  0
LINE
  8
LC-003-005-----0
  6
CONTINUOUS
  5
3C5
 10
217.628135
 20
147.238964
 30
0.0
 11
210.852378
 21
154.014721
 31
0.0
  0
LINE
  8
LC-003-005-----0
  6
CONTINUOUS
  5
3C6
 10
247.852999
 20
114.185673
 30
0.0
 11
245.853
 21
116.185672
 31
0.0
  0
LINE
  8
LC-003-005-----0
  6
CONTINUOUS
  5
3C7
 10
219.799083
 20
142.239589
 30
0.0
 11
207.799062
 21
154.23961
 31
0.0
  0
LINE
  8
LC-003-005-----0
  6
CONTINUOUS
  5
3C8
 10
247.852997
 20
111.357248
 30
0.0
 11
245.852998
 21
113.357247
 31
0.0
  0
LINE
  8
LC-003-005-----0
  6
CONTINUOUS
  5
3C9
 10
216.970656
 20
142.239589
 30
0.0
 11
213.851606
 21
145.358639
 31
0.0
  0
LINE
  8
LC-003-005-----0
  6
CONTINUOUS
  5
3CA
 10
208.972052
 20
150.238193
 30
0.0
 11
204.970636
 21
154.239609
 31
0.0
  0
LINE
  8
LC-003-005-----0
  6
CONTINUOUS
  5
3CB
 10
247.852995
 20
108.528823
 30
0.0
 11
245.852996
 21
110.528821
 31
0.0
  0
LINE
  8
LC-003-005-----0
  6
CONTINUOUS
  5
3CC
 10
214.142229
 20
142.239589
 30
0.0
 11
212.142213
 21
144.239604
 31
0.0
  0
LINE
  8
LC-003-005-----0
  6
CONTINUOUS
  5
3CD
 10
206.142208
 20
150.239609
 30
0.0
 11
202.142209
 21
154.239609
 31
0.0
  0
LINE
  8
LC-003-005-----0
  6
CONTINUOUS
  5
3CE
 10
247.852993
 20
105.700397
 30
0.0
 11
245.852994
 21
107.700396
 31
0.0
  0
LINE
  8
LC-003-005-----0
  6
CONTINUOUS
  5
3CF
 10
211.313802
 20
142.239589
 30
0.0
 11
209.313784
 21
144.239606
 31
0.0
  0
LINE
  8
LC-003-005-----0
  6
CONTINUOUS
  5
3D0
 10
203.313781
 20
150.239609
 30
0.0
 11
199.313867
 21
154.239524
 31
0.0
  0
LINE
  8
LC-003-005-----0
  6
CONTINUOUS
  5
3D1
 10
247.852991
 20
102.871972
 30
0.0
 11
245.852993
 21
104.871971
 31
0.0
  0
LINE
  8
LC-003-005-----0
  6
CONTINUOUS
  5
3D2
 10
208.485375
 20
142.239589
 30
0.0
 11
206.485355
 21
144.239608
 31
0.0
  0
LINE
  8
LC-003-005-----0
  6
CONTINUOUS
  5
3D3
 10
200.485354
 20
150.239609
 30
0.0
 11
196.842575
 21
153.882388
 31
0.0
  0
LINE
  8
LC-003-005-----0
  6
CONTINUOUS
  5
3D4
 10
247.852989
 20
100.043547
 30
0.0
 11
245.852991
 21
102.043546
 31
0.0
  0
LINE
  8
LC-003-005-----0
  6
CONTINUOUS
  5
3D5
 10
205.656947
 20
142.239589
 30
0.0
 11
203.657119
 21
144.239418
 31
0.0
  0
LINE
  8
LC-003-005-----0
  6
CONTINUOUS
  5
3D6
 10
197.879107
 20
150.017429
 30
0.0
 11
194.85916
 21
153.037376
 31
0.0
  0
LINE
  8
LC-003-005-----0
  6
CONTINUOUS
  5
3D7
 10
247.852988
 20
97.215122
 30
0.0
 11
245.852989
 21
99.21512
 31
0.0
  0
LINE
  8
LC-003-005-----0
  6
CONTINUOUS
  5
3D8
 10
205.54465
 20
139.523459
 30
0.0
 11
200.828692
 21
144.239418
 31
0.0
  0
LINE
  8
LC-003-005-----0
  6
CONTINUOUS
  5
3D9
 10
196.063231
 20
149.004878
 30
0.0
 11
193.231244
 21
151.836865
 31
0.0
  0
LINE
  8
LC-003-005-----0
  6
CONTINUOUS
  5
3DA
 10
247.852986
 20
94.386696
 30
0.0
 11
245.852987
 21
96.386695
 31
0.0
  0
LINE
  8
LC-003-005-----0
  6
CONTINUOUS
  5
3DB
 10
205.543885
 20
136.695797
 30
0.0
 11
198.000265
 21
144.239418
 31
0.0
  0
LINE
  8
LC-003-005-----0
  6
CONTINUOUS
  5
3DC
 10
194.842498
 20
147.397184
 30
0.0
 11
191.922279
 21
150.317403
 31
0.0
  0
LINE
  8
LC-003-005-----0
  6
CONTINUOUS
  5
3DD
 10
247.852984
 20
91.558271
 30
0.0
 11
245.852985
 21
93.55827
 31
0.0
  0
LINE
  8
LC-003-005-----0
  6
CONTINUOUS
  5
3DE
 10
205.543119
 20
133.868136
 30
0.0
 11
195.171837
 21
144.239418
 31
0.0
  0
LINE
  8
LC-003-005-----0
  6
CONTINUOUS
  5
3DF
 10
194.353026
 20
145.058229
 30
0.0
 11
190.949564
 21
148.461691
 31
0.0
  0
LINE
  8
LC-003-005-----0
  6
CONTINUOUS
  5
3E0
 10
247.852982
 20
88.729846
 30
0.0
 11
245.852983
 21
90.729845
 31
0.0
  0
LINE
  8
LC-003-005-----0
  6
CONTINUOUS
  5
3E1
 10
205.542354
 20
131.040474
 30
0.0
 11
190.402342
 21
146.180486
 31
0.0
  0
LINE
  8
LC-003-005-----0
  6
CONTINUOUS
  5
3E2
 10
247.85298
 20
85.901421
 30
0.0
 11
245.852981
 21
87.901419
 31
0.0
  0
LINE
  8
LC-003-005-----0
  6
CONTINUOUS
  5
3E3
 10
205.541589
 20
128.212812
 30
0.0
 11
189.514983
 21
144.239418
 31
0.0
  0
LINE
  8
LC-003-005-----0
  6
CONTINUOUS
  5
3E4
 10
247.852978
 20
83.072995
 30
0.0
 11
245.85298
 21
85.072994
 31
0.0
  0
LINE
  8
LC-003-005-----0
  6
CONTINUOUS
  5
3E5
 10
205.540823
 20
125.38515
 30
0.0
 11
186.686556
 21
144.239418
 31
0.0
  0
LINE
  8
LC-003-005-----0
  6
CONTINUOUS
  5
3E6
 10
247.852976
 20
80.24457
 30
0.0
 11
245.852978
 21
82.244569
 31
0.0
  0
LINE
  8
LC-003-005-----0
  6
CONTINUOUS
  5
3E7
 10
205.540058
 20
122.557489
 30
0.0
 11
183.858129
 21
144.239418
 31
0.0
  0
LINE
  8
LC-003-005-----0
  6
CONTINUOUS
  5
3E8
 10
247.852975
 20
77.416145
 30
0.0
 11
245.852976
 21
79.416143
 31
0.0
  0
LINE
  8
LC-003-005-----0
  6
CONTINUOUS
  5
3E9
 10
205.539293
 20
119.729827
 30
0.0
 11
181.029702
 21
144.239418
 31
0.0
  0
LINE
  8
LC-003-005-----0
  6
CONTINUOUS
  5
3EA
 10
247.852973
 20
74.587719
 30
0.0
 11
245.852974
 21
76.587718
 31
0.0
  0
LINE
  8
LC-003-005-----0
  6
CONTINUOUS
  5
3EB
 10
205.538527
 20
116.902165
 30
0.0
 11
178.201275
 21
144.239418
 31
0.0
  0
LINE
  8
LC-003-005-----0
  6
CONTINUOUS
  5
3EC
 10
246.612827
 20
72.999438
 30
0.0
 11
245.852972
 21
73.759293
 31
0.0
  0
LINE
  8
LC-003-005-----0
  6
CONTINUOUS
  5
3ED
 10
205.537762
 20
114.074503
 30
0.0
 11
175.372848
 21
144.239418
 31
0.0
  0
LINE
  8
LC-003-005-----0
  6
CONTINUOUS
  5
3EE
 10
203.54442
 20
113.239418
 30
0.0
 11
172.54442
 21
144.239418
 31
0.0
  0
LINE
  8
LC-003-005-----0
  6
CONTINUOUS
  5
3EF
 10
200.715993
 20
113.239418
 30
0.0
 11
172.352802
 21
141.602609
 31
0.0
  0
LINE
  8
LC-003-005-----0
  6
CONTINUOUS
  5
3F0
 10
171.73509
 20
142.220321
 30
0.0
 11
169.957487
 21
143.997924
 31
0.0
  0
LINE
  8
LC-003-005-----0
  6
CONTINUOUS
  5
3F1
 10
197.887566
 20
113.239418
 30
0.0
 11
172.352802
 21
138.774182
 31
0.0
  0
LINE
  8
LC-003-005-----0
  6
CONTINUOUS
  5
3F2
 10
169.349282
 20
141.777702
 30
0.0
 11
167.789206
 21
143.337778
 31
0.0
  0
LINE
  8
LC-003-005-----0
  6
CONTINUOUS
  5
3F3
 10
195.059139
 20
113.239418
 30
0.0
 11
172.352802
 21
135.945755
 31
0.0
  0
LINE
  8
LC-003-005-----0
  6
CONTINUOUS
  5
3F4
 10
167.382059
 20
140.916498
 30
0.0
 11
165.925526
 21
142.373031
 31
0.0
  0
LINE
  8
LC-003-005-----0
  6
CONTINUOUS
  5
3F5
 10
192.230712
 20
113.239418
 30
0.0
 11
172.352802
 21
133.117328
 31
0.0
  0
LINE
  8
LC-003-005-----0
  6
CONTINUOUS
  5
3F6
 10
165.734327
 20
139.735803
 30
0.0
 11
164.317837
 21
141.152293
 31
0.0
  0
LINE
  8
LC-003-005-----0
  6
CONTINUOUS
  5
3F7
 10
189.402285
 20
113.239418
 30
0.0
 11
172.352802
 21
130.288901
 31
0.0
  0
LINE
  8
LC-003-005-----0
  6
CONTINUOUS
  5
3F8
 10
164.374053
 20
138.267649
 30
0.0
 11
162.948494
 21
139.693208
 31
0.0
  0
LINE
  8
LC-003-005-----0
  6
CONTINUOUS
  5
3F9
 10
186.573858
 20
113.239418
 30
0.0
 11
172.352802
 21
127.460474
 31
0.0
  0
LINE
  8
LC-003-005-----0
  6
CONTINUOUS
  5
3FA
 10
163.308225
 20
136.505051
 30
0.0
 11
161.821437
 21
137.991839
 31
0.0
  0
LINE
  8
LC-003-005-----0
  6
CONTINUOUS
  5
3FB
 10
183.745431
 20
113.239418
 30
0.0
 11
175.852802
 21
121.132046
 31
0.0
  0
LINE
  8
LC-003-005-----0
  6
CONTINUOUS
  5
3FC
 10
174.745431
 20
122.239418
 30
0.0
 11
172.352802
 21
124.632046
 31
0.0
  0
LINE
  8
LC-003-005-----0
  6
CONTINUOUS
  5
3FD
 10
162.588246
 20
134.396602
 30
0.0
 11
160.964132
 21
136.020716
 31
0.0
  0
LINE
  8
LC-003-005-----0
  6
CONTINUOUS
  5
3FE
 10
180.917003
 20
113.239418
 30
0.0
 11
175.973583
 21
118.182838
 31
0.0
  0
LINE
  8
LC-003-005-----0
  6
CONTINUOUS
  5
3FF
 10
162.352802
 20
131.803619
 30
0.0
 11
160.4436
 21
133.712821
 31
0.0
  0
LINE
  8
LC-003-005-----0
  6
CONTINUOUS
  5
400
 10
162.352802
 20
128.975192
 30
0.0
 11
160.352802
 21
130.975192
 31
0.0
  0
LINE
  8
LC-003-005-----0
  6
CONTINUOUS
  5
401
 10
162.352802
 20
126.146765
 30
0.0
 11
160.352802
 21
128.146765
 31
0.0
  0
LINE
  8
LC-003-005-----0
  6
CONTINUOUS
  5
402
 10
162.352802
 20
123.318338
 30
0.0
 11
160.352802
 21
125.318338
 31
0.0
  0
LINE
  8
LC-003-005-----0
  6
CONTINUOUS
  5
403
 10
162.352802
 20
120.489911
 30
0.0
 11
160.352802
 21
122.489911
 31
0.0
  0
LINE
  8
LC-003-005-----0
  6
CONTINUOUS
  5
404
 10
162.352802
 20
117.661484
 30
0.0
 11
160.352802
 21
119.661484
 31
0.0
  0
LINE
  8
LC-003-005-----0
  6
CONTINUOUS
  5
405
 10
162.352802
 20
114.833057
 30
0.0
 11
160.352802
 21
116.833057
 31
0.0
  0
LINE
  8
LC-003-005-----0
  6
CONTINUOUS
  5
406
 10
162.352802
 20
112.004629
 30
0.0
 11
160.352802
 21
114.004629
 31
0.0
  0
LINE
  8
LC-003-005-----0
  6
CONTINUOUS
  5
407
 10
162.352802
 20
109.176202
 30
0.0
 11
160.352802
 21
111.176202
 31
0.0
  0
LINE
  8
LC-003-005-----0
  6
CONTINUOUS
  5
408
 10
162.352802
 20
106.347775
 30
0.0
 11
160.352802
 21
108.347775
 31
0.0
  0
LINE
  8
LC-003-005-----0
  6
CONTINUOUS
  5
409
 10
162.352802
 20
103.519348
 30
0.0
 11
160.352802
 21
105.519348
 31
0.0
  0
LINE
  8
LC-003-005-----0
  6
CONTINUOUS
  5
40A
 10
162.352802
 20
100.690921
 30
0.0
 11
160.352802
 21
102.690921
 31
0.0
  0
LINE
  8
LC-003-005-----0
  6
CONTINUOUS
  5
40B
 10
162.352802
 20
97.862494
 30
0.0
 11
160.352802
 21
99.862494
 31
0.0
  0
LINE
  8
LC-003-005-----0
  6
CONTINUOUS
  5
40C
 10
162.352802
 20
95.034067
 30
0.0
 11
160.352802
 21
97.034067
 31
0.0
  0
LINE
  8
LC-003-005-----0
  6
CONTINUOUS
  5
40D
 10
162.352802
 20
92.20564
 30
0.0
 11
160.352802
 21
94.20564
 31
0.0
  0
LINE
  8
LC-003-005-----0
  6
CONTINUOUS
  5
40E
 10
162.352802
 20
89.377212
 30
0.0
 11
160.352802
 21
91.377212
 31
0.0
  0
LINE
  8
LC-003-005-----0
  6
CONTINUOUS
  5
40F
 10
162.352802
 20
86.548785
 30
0.0
 11
160.352802
 21
88.548785
 31
0.0
  0
LINE
  8
LC-003-005-----0
  6
CONTINUOUS
  5
410
 10
162.352802
 20
83.720358
 30
0.0
 11
160.352802
 21
85.720358
 31
0.0
  0
LINE
  8
LC-003-005-----0
  6
CONTINUOUS
  5
411
 10
162.352802
 20
80.891931
 30
0.0
 11
160.352802
 21
82.891931
 31
0.0
  0
LINE
  8
LC-003-005-----0
  6
CONTINUOUS
  5
412
 10
162.352802
 20
78.063504
 30
0.0
 11
160.352802
 21
80.063504
 31
0.0
  0
LINE
  8
LC-003-005-----0
  6
CONTINUOUS
  5
413
 10
162.352802
 20
75.235077
 30
0.0
 11
160.352802
 21
77.235077
 31
0.0
  0
LINE
  8
LC-003-005-----0
  6
CONTINUOUS
  5
414
 10
162.352802
 20
72.40665
 30
0.0
 11
160.352802
 21
74.40665
 31
0.0
  0
ENDBLK
  8
0
  5
415
  0
BLOCK
  8
0
  5
417
  2
BLK7
 70
    64
 10
0.0
 20
0.0
 30
0.0
  3
BLK7
  0
ENDBLK
  8
0
  5
418
  0
BLOCK
  8
0
  5
41A
  2
*D40
 70
    65
 10
0.0
 20
0.0
 30
0.0
  3
*D40
  0
LINE
  8
LC-008-003-MTH-0
  6
CONTINUOUS
  5
41B
 10
162.356691
 20
70.739418
 30
0.0
 11
61.6
 21
70.739418
 31
0.0
  0
LINE
  8
LC-008-003-MTH-0
  6
CONTINUOUS
  5
41C
 10
172.356691
 20
122.239418
 30
0.0
 11
61.6
 21
122.239418
 31
0.0
  0
LINE
  8
LC-007-003-----0
  6
CONTINUOUS
  5
41D
 10
82.054733
 20
42.978961
 30
0.0
 11
78.4
 21
70.739418
 31
0.0
  0
LINE
  8
LC-007-003-----0
  6
CONTINUOUS
  5
41E
 10
78.4
 20
70.739418
 30
0.0
 11
74.745267
 21
42.978961
 31
0.0
  0
LINE
  8
LC-007-003-----0
  6
CONTINUOUS
  5
41F
 10
74.745267
 20
42.978961
 30
0.0
 11
82.054733
 21
42.978961
 31
0.0
  0
LINE
  8
LC-007-003-----0
  6
CONTINUOUS
  5
420
 10
81.104503
 20
42.91668
 30
0.0
 11
78.4
 21
63.459418
 31
0.0
  0
LINE
  8
LC-007-003-----0
  6
CONTINUOUS
  5
421
 10
78.4
 20
63.459418
 30
0.0
 11
75.695497
 21
42.91668
 31
0.0
  0
LINE
  8
LC-007-003-----0
  6
CONTINUOUS
  5
422
 10
80.154272
 20
42.854399
 30
0.0
 11
78.4
 21
56.179418
 31
0.0
  0
LINE
  8
LC-007-003-----0
  6
CONTINUOUS
  5
423
 10
78.4
 20
56.179418
 30
0.0
 11
76.645728
 21
42.854399
 31
0.0
  0
LINE
  8
LC-007-003-----0
  6
CONTINUOUS
  5
424
 10
79.204041
 20
42.792117
 30
0.0
 11
78.4
 21
48.899418
 31
0.0
  0
LINE
  8
LC-007-003-----0
  6
CONTINUOUS
  5
425
 10
78.4
 20
48.899418
 30
0.0
 11
77.595959
 21
42.792117
 31
0.0
  0
LINE
  8
LC-007-003-----0
  6
CONTINUOUS
  5
426
 10
74.745267
 20
149.999874
 30
0.0
 11
78.4
 21
122.239418
 31
0.0
  0
LINE
  8
LC-007-003-----0
  6
CONTINUOUS
  5
427
 10
78.4
 20
122.239418
 30
0.0
 11
82.054733
 21
149.999874
 31
0.0
  0
LINE
  8
LC-007-003-----0
  6
CONTINUOUS
  5
428
 10
82.054733
 20
149.999874
 30
0.0
 11
74.745267
 21
149.999874
 31
0.0
  0
LINE
  8
LC-007-003-----0
  6
CONTINUOUS
  5
429
 10
75.695497
 20
150.062155
 30
0.0
 11
78.4
 21
129.519418
 31
0.0
  0
LINE
  8
LC-007-003-----0
  6
CONTINUOUS
  5
42A
 10
78.4
 20
129.519418
 30
0.0
 11
81.104503
 21
150.062155
 31
0.0
  0
LINE
  8
LC-007-003-----0
  6
CONTINUOUS
  5
42B
 10
76.645728
 20
150.124437
 30
0.0
 11
78.4
 21
136.799418
 31
0.0
  0
LINE
  8
LC-007-003-----0
  6
CONTINUOUS
  5
42C
 10
78.4
 20
136.799418
 30
0.0
 11
80.154272
 21
150.124437
 31
0.0
  0
LINE
  8
LC-007-003-----0
  6
CONTINUOUS
  5
42D
 10
77.595959
 20
150.186718
 30
0.0
 11
78.4
 21
144.079418
 31
0.0
  0
LINE
  8
LC-007-003-----0
  6
CONTINUOUS
  5
42E
 10
78.4
 20
144.079418
 30
0.0
 11
79.204041
 21
150.186718
 31
0.0
  0
LINE
  8
LC-009-003-MTG-0
  6
CONTINUOUS
  5
42F
 10
78.4
 20
31.539418
 30
0.0
 11
78.4
 21
161.439418
 31
0.0
  0
TEXT
  8
LC-007-003-----0
  6
CONTINUOUS
 62
     8
  5
430
 10
70.572446
 20
85.191178
 30
0.0
 40
28.0
  1
50
 50
90.0
 41
0.8
 51
15.0
  7
LC-TXTSTYLE-150-400-0-0-A0
 72
     1
 11
70.572446
 21
100.837578
 31
0.0
  0
ENDBLK
  8
0
  5
431
  0
BLOCK
  8
0
  5
433
  2
BLK8
 70
    64
 10
0.0
 20
0.0
 30
0.0
  3
BLK8
  0
ENDBLK
  8
0
  5
434
  0
BLOCK
  8
0
  5
436
  2
*D42
 70
    65
 10
0.0
 20
0.0
 30
0.0
  3
*D42
  0
LINE
  8
LC-008-003-MTH-0
  6
CONTINUOUS
  5
437
 10
149.625991
 20
-17.480633
 30
0.0
 11
149.625991
 21
-95.2
 31
0.0
  0
LINE
  8
LC-008-003-MTH-0
  6
CONTINUOUS
  5
438
 10
259.625991
 20
-17.480705
 30
0.0
 11
259.625991
 21
-95.2
 31
0.0
  0
LINE
  8
LC-009-003-MTG-0
  6
CONTINUOUS
  5
439
 10
149.625991
 20
-78.4
 30
0.0
 11
259.625991
 21
-78.4
 31
0.0
  0
LINE
  8
LC-007-003-----0
  6
CONTINUOUS
  5
43A
 10
177.386448
 20
-74.745267
 30
0.0
 11
149.625991
 21
-78.4
 31
0.0
  0
LINE
  8
LC-007-003-----0
  6
CONTINUOUS
  5
43B
 10
149.625991
 20
-78.4
 30
0.0
 11
177.386448
 21
-82.054733
 31
0.0
  0
LINE
  8
LC-007-003-----0
  6
CONTINUOUS
  5
43C
 10
177.386448
 20
-82.054733
 30
0.0
 11
177.386448
 21
-74.745267
 31
0.0
  0
LINE
  8
LC-007-003-----0
  6
CONTINUOUS
  5
43D
 10
177.448729
 20
-75.695497
 30
0.0
 11
156.905991
 21
-78.4
 31
0.0
  0
LINE
  8
LC-007-003-----0
  6
CONTINUOUS
  5
43E
 10
156.905991
 20
-78.4
 30
0.0
 11
177.448729
 21
-81.104503
 31
0.0
  0
LINE
  8
LC-007-003-----0
  6
CONTINUOUS
  5
43F
 10
177.51101
 20
-76.645728
 30
0.0
 11
164.185991
 21
-78.4
 31
0.0
  0
LINE
  8
LC-007-003-----0
  6
CONTINUOUS
  5
440
 10
164.185991
 20
-78.4
 30
0.0
 11
177.51101
 21
-80.154272
 31
0.0
  0
LINE
  8
LC-007-003-----0
  6
CONTINUOUS
  5
441
 10
177.573292
 20
-77.595959
 30
0.0
 11
171.465991
 21
-78.4
 31
0.0
  0
LINE
  8
LC-007-003-----0
  6
CONTINUOUS
  5
442
 10
171.465991
 20
-78.4
 30
0.0
 11
177.573292
 21
-79.204041
 31
0.0
  0
LINE
  8
LC-007-003-----0
  6
CONTINUOUS
  5
443
 10
231.865535
 20
-82.054733
 30
0.0
 11
259.625991
 21
-78.4
 31
0.0
  0
LINE
  8
LC-007-003-----0
  6
CONTINUOUS
  5
444
 10
259.625991
 20
-78.4
 30
0.0
 11
231.865535
 21
-74.745267
 31
0.0
  0
LINE
  8
LC-007-003-----0
  6
CONTINUOUS
  5
445
 10
231.865535
 20
-74.745267
 30
0.0
 11
231.865535
 21
-82.054733
 31
0.0
  0
LINE
  8
LC-007-003-----0
  6
CONTINUOUS
  5
446
 10
231.803254
 20
-81.104503
 30
0.0
 11
252.345991
 21
-78.4
 31
0.0
  0
LINE
  8
LC-007-003-----0
  6
CONTINUOUS
  5
447
 10
252.345991
 20
-78.4
 30
0.0
 11
231.803254
 21
-75.695497
 31
0.0
  0
LINE
  8
LC-007-003-----0
  6
CONTINUOUS
  5
448
 10
231.740973
 20
-80.154272
 30
0.0
 11
245.065991
 21
-78.4
 31
0.0
  0
LINE
  8
LC-007-003-----0
  6
CONTINUOUS
  5
449
 10
245.065991
 20
-78.4
 30
0.0
 11
231.740973
 21
-76.645728
 31
0.0
  0
LINE
  8
LC-007-003-----0
  6
CONTINUOUS
  5
44A
 10
231.678691
 20
-79.204041
 30
0.0
 11
237.785991
 21
-78.4
 31
0.0
  0
LINE
  8
LC-007-003-----0
  6
CONTINUOUS
  5
44B
 10
237.785991
 20
-78.4
 30
0.0
 11
231.678691
 21
-77.595959
 31
0.0
  0
TEXT
  8
LC-007-003-----0
  6
CONTINUOUS
 62
     8
  5
44C
 10
165.235351
 20
-70.572446
 30
0.0
 40
28.0
  1
DN100
 41
0.8
 51
15.0
  7
LC-TXTSTYLE-150-400-0-0-A0
 72
     1
 11
208.974151
 21
-70.572446
 31
0.0
  0
ENDBLK
  8
0
  5
44D
  0
BLOCK
  8
0
  5
44F
  2
*X43
 70
    65
 10
149.625991
 20
-22.480635
 30
0.0
  3
*X43
  0
LINE
  8
LC-003-005-----0
  6
CONTINUOUS
  5
450
 10
150.772942
 20
-21.761112
 30
0.0
 11
152.625991
 21
-19.908063
 31
0.0
  0
LINE
  8
LC-003-005-----0
  6
CONTINUOUS
  5
451
 10
150.175225
 20
-19.530402
 30
0.0
 11
152.625991
 21
-17.079636
 31
0.0
  0
LINE
  8
LC-003-005-----0
  6
CONTINUOUS
  5
452
 10
149.625991
 20
-17.251209
 30
0.0
 11
152.625991
 21
-14.251209
 31
0.0
  0
LINE
  8
LC-003-005-----0
  6
CONTINUOUS
  5
453
 10
149.625991
 20
-14.422782
 30
0.0
 11
152.625991
 21
-11.422782
 31
0.0
  0
LINE
  8
LC-003-005-----0
  6
CONTINUOUS
  5
454
 10
149.625991
 20
-11.594355
 30
0.0
 11
152.625991
 21
-8.594355
 31
0.0
  0
LINE
  8
LC-003-005-----0
  6
CONTINUOUS
  5
455
 10
149.625991
 20
-8.765928
 30
0.0
 11
152.625991
 21
-5.765928
 31
0.0
  0
LINE
  8
LC-003-005-----0
  6
CONTINUOUS
  5
456
 10
149.625991
 20
-5.9375
 30
0.0
 11
152.625991
 21
-2.9375
 31
0.0
  0
LINE
  8
LC-003-005-----0
  6
CONTINUOUS
  5
457
 10
149.625991
 20
-3.109073
 30
0.0
 11
152.625991
 21
-0.109073
 31
0.0
  0
LINE
  8
LC-003-005-----0
  6
CONTINUOUS
  5
458
 10
149.625991
 20
-0.280646
 30
0.0
 11
152.625991
 21
2.719354
 31
0.0
  0
LINE
  8
LC-003-005-----0
  6
CONTINUOUS
  5
459
 10
149.625991
 20
2.547781
 30
0.0
 11
152.625991
 21
5.547781
 31
0.0
  0
LINE
  8
LC-003-005-----0
  6
CONTINUOUS
  5
45A
 10
149.625991
 20
5.376208
 30
0.0
 11
152.625991
 21
8.376208
 31
0.0
  0
LINE
  8
LC-003-005-----0
  6
CONTINUOUS
  5
45B
 10
149.625991
 20
8.204635
 30
0.0
 11
152.625991
 21
11.204635
 31
0.0
  0
LINE
  8
LC-003-005-----0
  6
CONTINUOUS
  5
45C
 10
149.625991
 20
11.033062
 30
0.0
 11
152.625991
 21
14.033062
 31
0.0
  0
LINE
  8
LC-003-005-----0
  6
CONTINUOUS
  5
45D
 10
149.625991
 20
13.861489
 30
0.0
 11
152.625991
 21
16.861489
 31
0.0
  0
LINE
  8
LC-003-005-----0
  6
CONTINUOUS
  5
45E
 10
149.625991
 20
16.689917
 30
0.0
 11
152.625991
 21
19.689917
 31
0.0
  0
LINE
  8
LC-003-005-----0
  6
CONTINUOUS
  5
45F
 10
149.625991
 20
19.518344
 30
0.0
 11
152.625991
 21
22.518344
 31
0.0
  0
LINE
  8
LC-003-005-----0
  6
CONTINUOUS
  5
460
 10
149.625991
 20
22.346771
 30
0.0
 11
152.625991
 21
25.346771
 31
0.0
  0
LINE
  8
LC-003-005-----0
  6
CONTINUOUS
  5
461
 10
149.625991
 20
25.175198
 30
0.0
 11
152.625991
 21
28.175198
 31
0.0
  0
LINE
  8
LC-003-005-----0
  6
CONTINUOUS
  5
462
 10
149.625991
 20
28.003625
 30
0.0
 11
152.625991
 21
31.003625
 31
0.0
  0
LINE
  8
LC-003-005-----0
  6
CONTINUOUS
  5
463
 10
149.625991
 20
30.832052
 30
0.0
 11
152.625991
 21
33.832052
 31
0.0
  0
LINE
  8
LC-003-005-----0
  6
CONTINUOUS
  5
464
 10
149.625991
 20
33.660479
 30
0.0
 11
152.625991
 21
36.660479
 31
0.0
  0
LINE
  8
LC-003-005-----0
  6
CONTINUOUS
  5
465
 10
149.625991
 20
36.488906
 30
0.0
 11
152.625991
 21
39.488906
 31
0.0
  0
LINE
  8
LC-003-005-----0
  6
CONTINUOUS
  5
466
 10
149.625991
 20
39.317334
 30
0.0
 11
152.625991
 21
42.317334
 31
0.0
  0
LINE
  8
LC-003-005-----0
  6
CONTINUOUS
  5
467
 10
149.625991
 20
42.145761
 30
0.0
 11
152.625991
 21
45.145761
 31
0.0
  0
LINE
  8
LC-003-005-----0
  6
CONTINUOUS
  5
468
 10
149.625991
 20
44.974188
 30
0.0
 11
152.625991
 21
47.974188
 31
0.0
  0
LINE
  8
LC-003-005-----0
  6
CONTINUOUS
  5
469
 10
149.625991
 20
47.802615
 30
0.0
 11
152.625991
 21
50.802615
 31
0.0
  0
LINE
  8
LC-003-005-----0
  6
CONTINUOUS
  5
46A
 10
149.625991
 20
50.631042
 30
0.0
 11
150.014088
 21
51.019139
 31
0.0
  0
ENDBLK
  8
0
  5
46B
  0
BLOCK
  8
0
  5
46D
  2
*X44
 70
    65
 10
256.625991
 20
-22.480704
 30
0.0
  3
*X44
  0
LINE
  8
LC-003-005-----0
  6
CONTINUOUS
  5
46E
 10
257.533581
 20
-22.480704
 30
0.0
 11
258.56174
 21
-21.452545
 31
0.0
  0
LINE
  8
LC-003-005-----0
  6
CONTINUOUS
  5
46F
 10
256.625991
 20
-20.559867
 30
0.0
 11
259.597016
 21
-17.588842
 31
0.0
  0
LINE
  8
LC-003-005-----0
  6
CONTINUOUS
  5
470
 10
256.625991
 20
-17.73144
 30
0.0
 11
259.625991
 21
-14.73144
 31
0.0
  0
LINE
  8
LC-003-005-----0
  6
CONTINUOUS
  5
471
 10
256.625991
 20
-14.903013
 30
0.0
 11
259.625991
 21
-11.903013
 31
0.0
  0
LINE
  8
LC-003-005-----0
  6
CONTINUOUS
  5
472
 10
256.625991
 20
-12.074585
 30
0.0
 11
259.625991
 21
-9.074585
 31
0.0
  0
LINE
  8
LC-003-005-----0
  6
CONTINUOUS
  5
473
 10
256.625991
 20
-9.246158
 30
0.0
 11
259.625991
 21
-6.246158
 31
0.0
  0
LINE
  8
LC-003-005-----0
  6
CONTINUOUS
  5
474
 10
256.625991
 20
-6.417731
 30
0.0
 11
259.625991
 21
-3.417731
 31
0.0
  0
LINE
  8
LC-003-005-----0
  6
CONTINUOUS
  5
475
 10
256.625991
 20
-3.589304
 30
0.0
 11
259.625991
 21
-0.589304
 31
0.0
  0
LINE
  8
LC-003-005-----0
  6
CONTINUOUS
  5
476
 10
256.625991
 20
-0.760877
 30
0.0
 11
259.625991
 21
2.239123
 31
0.0
  0
LINE
  8
LC-003-005-----0
  6
CONTINUOUS
  5
477
 10
256.625991
 20
2.06755
 30
0.0
 11
259.625991
 21
5.06755
 31
0.0
  0
LINE
  8
LC-003-005-----0
  6
CONTINUOUS
  5
478
 10
256.625991
 20
4.895977
 30
0.0
 11
259.625991
 21
7.895977
 31
0.0
  0
LINE
  8
LC-003-005-----0
  6
CONTINUOUS
  5
479
 10
256.625991
 20
7.724404
 30
0.0
 11
259.625991
 21
10.724404
 31
0.0
  0
LINE
  8
LC-003-005-----0
  6
CONTINUOUS
  5
47A
 10
256.625991
 20
10.552832
 30
0.0
 11
259.625991
 21
13.552832
 31
0.0
  0
LINE
  8
LC-003-005-----0
  6
CONTINUOUS
  5
47B
 10
256.625991
 20
13.381259
 30
0.0
 11
259.625991
 21
16.381259
 31
0.0
  0
LINE
  8
LC-003-005-----0
  6
CONTINUOUS
  5
47C
 10
256.625991
 20
16.209686
 30
0.0
 11
259.625991
 21
19.209686
 31
0.0
  0
LINE
  8
LC-003-005-----0
  6
CONTINUOUS
  5
47D
 10
256.625991
 20
19.038113
 30
0.0
 11
259.625991
 21
22.038113
 31
0.0
  0
LINE
  8
LC-003-005-----0
  6
CONTINUOUS
  5
47E
 10
256.625991
 20
21.86654
 30
0.0
 11
259.625991
 21
24.86654
 31
0.0
  0
LINE
  8
LC-003-005-----0
  6
CONTINUOUS
  5
47F
 10
256.625991
 20
24.694967
 30
0.0
 11
259.625991
 21
27.694967
 31
0.0
  0
LINE
  8
LC-003-005-----0
  6
CONTINUOUS
  5
480
 10
256.625991
 20
27.523394
 30
0.0
 11
259.625991
 21
30.523394
 31
0.0
  0
LINE
  8
LC-003-005-----0
  6
CONTINUOUS
  5
481
 10
256.625991
 20
30.351821
 30
0.0
 11
259.625991
 21
33.351821
 31
0.0
  0
LINE
  8
LC-003-005-----0
  6
CONTINUOUS
  5
482
 10
256.625991
 20
33.180249
 30
0.0
 11
259.625991
 21
36.180249
 31
0.0
  0
LINE
  8
LC-003-005-----0
  6
CONTINUOUS
  5
483
 10
256.625991
 20
36.008676
 30
0.0
 11
259.625991
 21
39.008676
 31
0.0
  0
LINE
  8
LC-003-005-----0
  6
CONTINUOUS
  5
484
 10
256.625991
 20
38.837103
 30
0.0
 11
259.625991
 21
41.837103
 31
0.0
  0
LINE
  8
LC-003-005-----0
  6
CONTINUOUS
  5
485
 10
256.625991
 20
41.66553
 30
0.0
 11
259.625991
 21
44.66553
 31
0.0
  0
LINE
  8
LC-003-005-----0
  6
CONTINUOUS
  5
486
 10
256.625991
 20
44.493957
 30
0.0
 11
259.625991
 21
47.493957
 31
0.0
  0
LINE
  8
LC-003-005-----0
  6
CONTINUOUS
  5
487
 10
256.625991
 20
47.322384
 30
0.0
 11
259.625991
 21
50.322384
 31
0.0
  0
LINE
  8
LC-003-005-----0
  6
CONTINUOUS
  5
488
 10
256.625991
 20
50.150811
 30
0.0
 11
257.494479
 21
51.019299
 31
0.0
  0
ENDBLK
  8
0
  5
489
  0
BLOCK
  8
0
  5
48B
  2
BLK9
 70
    64
 10
0.0
 20
0.0
 30
0.0
  3
BLK9
  0
ENDBLK
  8
0
  5
48C
  0
BLOCK
  8
0
  5
48E
  2
BLK10
 70
    64
 10
0.0
 20
0.0
 30
0.0
  3
BLK10
  0
ENDBLK
  8
0
  5
48F
  0
ENDSEC
  0
SECTION
  2
ENTITIES
  0
VIEWPORT
  8
LC-000
  5
731
 67
     1
 68
     1
 10
420.0
 20
297.0
 30
0.0
 40
840.0
 41
594.0
 69
     1
1001
ACAD
1000
MVIEW
1002
{
1070
    16
1010
0.0
1020
0.0
1030
0.0
1010
0.0
1020
0.0
1030
1.0
1040
0.0
1040
594.0
1040
420.0
1040
297.0
1040
50.0
1040
0.0
1040
0.0
1070
     0
1070
   100
1070
     1
1070
     1
1070
     0
1070
     0
1070
     0
1070
     0
1040
0.0
1040
0.0
1040
0.0
1040
1.0
1040
1.0
1040
0.0
1040
0.0
1070
     0
1002
{
1002
}
1002
}
  0
VIEWPORT
  8
0
  5
732
 67
     1
 68
     1
 10
0.0
 20
0.0
 30
0.0
 40
0.0
 41
0.0
 69
     1
1001
ACAD
1000
MVIEW
1002
{
1070
    16
1010
0.0
1020
0.0
1030
0.0
1010
0.0
1020
0.0
1030
1.0
1040
0.0
1040
594.0
1040
0.0
1040
0.0
1040
50.0
1040
0.0
1040
0.0
1070
     0
1070
   100
1070
     0
1070
     1
1070
     0
1070
     0
1070
     0
1070
     0
1040
0.0
1040
0.0
1040
0.0
1040
0.5
1040
0.5
1040
0.5
1040
0.5
1070
     0
1002
{
1002
}
1002
}
  0
INSERT
  8
LC-003-005-----0
  6
CONTINUOUS
  5
490
  2
*X0
 10
144.680234
 20
20.742096
 30
0.0
  0
INSERT
  8
LC-003-005-----0
  6
CONTINUOUS
  5
491
  2
*X1
 10
223.956894
 20
20.742096
 30
0.0
  0
INSERT
  8
LC-003-005-----0
  6
CONTINUOUS
  5
492
  2
*X2
 10
124.856894
 20
24.007172
 30
0.0
  0
INSERT
  8
LC-006-000-----0
  5
494
  2
BLK1
 10
0.0
 20
0.0
 30
0.0
  0
INSERT
  8
LC-006-000-----0
  5
495
  2
BLK2
 10
0.0
 20
0.0
 30
0.0
  0
INSERT
  8
LC-003-005-----0
  6
CONTINUOUS
  5
496
  2
*X5
 10
180.261906
 20
42.744603
 30
0.0
  0
INSERT
  8
LC-003-005-----0
  6
CONTINUOUS
  5
497
  2
*X6
 10
226.156894
 20
42.744603
 30
0.0
  0
INSERT
  8
LC-006-000-----0
  5
498
  2
BLK3
 10
0.0
 20
0.0
 30
0.0
  0
DIMENSION
  8
LC-007-003-----0
  6
CONTINUOUS
  5
499
  2
*D8
 10
204.103051
 20
235.2
 30
0.0
 11
204.103051
 21
235.2
 31
0.0
  1
%%c300
 13
53.952627
 23
161.427662
 33
0.0
 14
354.253475
 24
161.427662
 34
0.0
  3
LC-DIM-L-0140-02-02
  0
DIMENSION
  8
LC-007-003-----0
  6
CONTINUOUS
  5
49A
  2
*D9
 10
204.103052
 20
196.0
 30
0.0
 11
204.103052
 21
196.0
 31
0.0
  1
%%c190
 13
109.70969
 23
147.127239
 33
0.0
 14
298.496413
 24
147.127239
 34
0.0
  3
LC-DIM-L-0140-02-02
  0
DIMENSION
  8
LC-007-003-----0
  6
CONTINUOUS
  5
49B
  2
*D10
 10
204.107059
 20
-117.599813
 30
0.0
 11
204.107059
 21
-117.599813
 31
0.0
 70
     1
  1
%%c160
 13
124.173857
 23
62.971273
 33
0.0
 14
284.03993
 24
62.97142
 34
0.0
  3
LC-DIM-L-0140-02-02
  0
DIMENSION
  8
LC-007-003-----0
  6
CONTINUOUS
  5
49C
  2
*D11
 10
40.0
 20
104.725735
 30
0.0
 11
40.0
 21
104.725735
 31
0.0
  1
110
 13
53.952627
 23
158.432332
 33
0.0
 14
136.125991
 24
51.019139
 34
0.0
 50
90.0
  3
LC-DIM-L-0140-02-02
  0
INSERT
  8
LC-003-005-----0
  6
CONTINUOUS
  5
49D
  2
*X12
 10
94.756761
 20
130.291161
 30
0.0
  0
INSERT
  8
LC-003-005-----0
  6
CONTINUOUS
  5
49E
  2
*X13
 10
-45.690954
 20
161.501645
 30
0.0
  0
INSERT
  8
LC-003-005-----0
  6
CONTINUOUS
  5
49F
  2
*X14
 10
-25.690954
 20
161.501645
 30
0.0
  0
INSERT
  8
LC-003-005-----0
  6
CONTINUOUS
  5
4A0
  2
*X15
 10
-5.690954
 20
161.501645
 30
0.0
  0
INSERT
  8
LC-003-005-----0
  6
CONTINUOUS
  5
4A1
  2
*X16
 10
14.309046
 20
161.501645
 30
0.0
  0
INSERT
  8
LC-003-005-----0
  6
CONTINUOUS
  5
4A2
  2
*X17
 10
34.309046
 20
161.501645
 30
0.0
  0
INSERT
  8
LC-003-005-----0
  6
CONTINUOUS
  5
4A3
  2
*X18
 10
54.309046
 20
160.726133
 30
0.0
  0
INSERT
  8
LC-003-005-----0
  6
CONTINUOUS
  5
4A4
  2
*X19
 10
74.309046
 20
159.339839
 30
0.0
  0
INSERT
  8
LC-003-005-----0
  6
CONTINUOUS
  5
4A5
  2
*X20
 10
80.496825
 20
155.88219
 30
0.0
  0
INSERT
  8
LC-003-005-----0
  6
CONTINUOUS
  5
4A6
  2
*X21
 10
272.618654
 20
136.891828
 30
0.0
  0
INSERT
  8
LC-003-005-----0
  6
CONTINUOUS
  5
4A7
  2
*X22
 10
125.618654
 20
136.891828
 30
0.0
  0
INSERT
  8
LC-003-005-----0
  6
CONTINUOUS
  5
4A8
  2
*X23
 10
443.928261
 20
161.501645
 30
0.0
  0
INSERT
  8
LC-003-005-----0
  6
CONTINUOUS
  5
4A9
  2
*X24
 10
423.928261
 20
161.501645
 30
0.0
  0
INSERT
  8
LC-003-005-----0
  6
CONTINUOUS
  5
4AA
  2
*X25
 10
403.928261
 20
161.501645
 30
0.0
  0
INSERT
  8
LC-003-005-----0
  6
CONTINUOUS
  5
4AB
  2
*X26
 10
383.928261
 20
161.501645
 30
0.0
  0
INSERT
  8
LC-003-005-----0
  6
CONTINUOUS
  5
4AC
  2
*X27
 10
363.928261
 20
161.501645
 30
0.0
  0
INSERT
  8
LC-003-005-----0
  6
CONTINUOUS
  5
4AD
  2
*X28
 10
343.928261
 20
160.726133
 30
0.0
  0
INSERT
  8
LC-003-005-----0
  6
CONTINUOUS
  5
4AE
  2
*X29
 10
323.928261
 20
159.339839
 30
0.0
  0
INSERT
  8
LC-003-005-----0
  6
CONTINUOUS
  5
4AF
  2
*X30
 10
281.017475
 20
155.88219
 30
0.0
  0
INSERT
  8
LC-003-005-----0
  6
CONTINUOUS
  5
4B0
  2
*X31
 10
276.381048
 20
130.291161
 30
0.0
  0
INSERT
  8
LC-006-000-----0
  5
4B1
  2
BLK4
 10
0.0
 20
0.0
 30
0.0
  0
DIMENSION
  8
LC-007-003-----0
  6
CONTINUOUS
  5
4B2
  2
*D33
 10
204.118654
 20
274.4
 30
0.0
 11
204.118654
 21
274.4
 31
0.0
  1
%%c500
 13
-45.690954
 23
166.201645
 33
0.0
 14
453.928261
 24
166.201645
 34
0.0
  3
LC-DIM-L-0140-02-02
  0
INSERT
  8
LC-003-005-----0
  6
CONTINUOUS
  5
4B3
  2
*X34
 10
283.498192
 20
139.909264
 30
0.0
  0
INSERT
  8
LC-006-000-----0
  5
4B4
  2
BLK5
 10
0.0
 20
0.0
 30
0.0
  0
INSERT
  8
LC-003-005-----0
  6
CONTINUOUS
  5
4B5
  2
*X36
 10
112.574765
 20
139.908818
 30
0.0
  0
INSERT
  8
LC-006-000-----0
  5
4B6
  2
BLK6
 10
0.0
 20
0.0
 30
0.0
  0
INSERT
  8
LC-003-005-----0
  6
CONTINUOUS
  5
4B7
  2
*X38
 10
160.352802
 20
72.239418
 30
0.0
  0
INSERT
  8
LC-006-000-----0
  5
4B8
  2
BLK7
 10
0.0
 20
0.0
 30
0.0
  0
DIMENSION
  8
LC-007-003-----0
  6
CONTINUOUS
  5
4B9
  2
*D40
 10
78.4
 20
96.489418
 30
0.0
 11
78.4
 21
96.489418
 31
0.0
  1
50
 13
162.356691
 23
70.739418
 33
0.0
 14
172.356691
 24
122.239418
 34
0.0
 50
90.0
  3
LC-DIM-L-0140-02-02
  0
INSERT
  8
LC-010-000-----0
  5
4BB
  2
BLK8
 10
0.0
 20
0.0
 30
0.0
  0
DIMENSION
  8
LC-007-003-----0
  6
CONTINUOUS
  5
4BC
  2
*D42
 10
204.625991
 20
-78.4
 30
0.0
 11
204.625991
 21
-78.4
 31
0.0
  1
DN100
 13
149.625991
 23
-17.480633
 33
0.0
 14
259.625991
 24
-17.480705
 34
0.0
  3
LC-DIM-L-0140-02-02
  0
INSERT
  8
LC-003-005-----0
  6
CONTINUOUS
  5
4BD
  2
*X43
 10
149.625991
 20
-22.480635
 30
0.0
  0
INSERT
  8
LC-003-005-----0
  6
CONTINUOUS
  5
4BE
  2
*X44
 10
256.625991
 20
-22.480704
 30
0.0
  0
INSERT
  8
LC-003-005-----0
  6
CONTINUOUS
  5
4BF
  2
BLK9
 10
0.0
 20
0.0
 30
0.0
  0
INSERT
  8
LC-003-005-----0
  6
CONTINUOUS
  5
4C0
  2
BLK10
 10
0.0
 20
0.0
 30
0.0
  0
LINE
  8
LC-001-002-----0
  6
CONTINUOUS
  5
4C2
 10
194.356859
 20
144.239602
 30
0.0
 11
194.356859
 21
145.239602
 31
0.0
  0
LINE
  8
LC-001-002-----0
  6
CONTINUOUS
  5
4C3
 10
190.356859
 20
144.239602
 30
0.0
 11
190.356859
 21
145.239602
 31
0.0
  0
ARC
  8
LC-002-002-RND-0
  6
CONTINUOUS
  5
4C5
 10
199.356859
 20
145.239602
 30
0.0
 40
9.0
 50
90.0
 51
180.000001
  0
ARC
  8
LC-001-002-----0
  6
CONTINUOUS
  5
4C6
 10
199.356859
 20
145.239602
 30
0.0
 40
5.0
 50
90.0
 51
180.000001
  0
LINE
  8
LC-001-002-----0
  6
CONTINUOUS
  5
4C7
 10
208.856856
 20
150.239603
 30
0.0
 11
199.199755
 21
150.239602
 31
0.0
  0
LINE
  8
LC-001-002-----0
  6
CONTINUOUS
  5
4C8
 10
208.856855
 20
154.239603
 30
0.0
 11
199.126532
 21
154.239602
 31
0.0
  0
ARC
  8
LC-002-002-RND-0
  6
CONTINUOUS
  5
4C9
 10
208.856856
 20
145.239603
 30
0.0
 40
9.0
 50
0.000006
 51
90.000006
  0
ARC
  8
LC-001-002-----0
  6
CONTINUOUS
  5
4CA
 10
208.856856
 20
145.239603
 30
0.0
 40
5.0
 50
0.000005
 51
90.000006
  0
LINE
  8
LC-001-002-----0
  6
CONTINUOUS
  5
4CB
 10
213.856856
 20
144.239603
 30
0.0
 11
213.856856
 21
145.239603
 31
0.0
  0
LINE
  8
LC-001-002-----0
  6
CONTINUOUS
  5
4CC
 10
217.856856
 20
144.239604
 30
0.0
 11
217.856856
 21
145.239604
 31
0.0
  0
LINE
  8
LC-001-002-----0
  6
CONTINUOUS
  5
4CD
 10
162.356691
 20
70.739418
 30
0.0
 11
173.606894
 21
70.739418
 31
0.0
  0
LINE
  8
LC-001-002-----0
  6
CONTINUOUS
  5
4CE
 10
172.356691
 20
144.239418
 30
0.0
 11
190.356859
 21
144.239418
 31
0.0
  0
ARC
  8
LC-001-002-----0
  6
CONTINUOUS
  5
4CF
 10
172.356691
 20
132.239418
 30
0.0
 40
12.0
 50
90.0
 51
179.999848
  0
LINE
  8
LC-001-002-----0
  6
CONTINUOUS
  5
4D0
 10
160.356691
 20
132.239418
 30
0.0
 11
160.356691
 21
72.739418
 31
0.0
  0
ARC
  8
LC-001-002-----0
  6
CONTINUOUS
  5
4D1
 10
172.356691
 20
132.239418
 30
0.0
 40
10.0
 50
90.0
 51
179.999848
  0
LINE
  8
LC-001-002-----0
  6
CONTINUOUS
  5
4D2
 10
162.356691
 20
132.239418
 30
0.0
 11
162.356691
 21
70.739418
 31
0.0
  0
LINE
  8
LC-001-002-----0
  6
CONTINUOUS
  5
4D3
 10
172.356691
 20
122.239418
 30
0.0
 11
175.356691
 21
122.239418
 31
0.0
  0
LINE
  8
LC-001-002-----0
  6
CONTINUOUS
  5
4D4
 10
172.356691
 20
122.239418
 30
0.0
 11
172.356691
 21
142.239418
 31
0.0
  0
LINE
  8
LC-001-002-----0
  6
CONTINUOUS
  5
4D5
 10
175.356691
 20
122.239418
 30
0.0
 11
175.856691
 21
122.239418
 31
0.0
  0
LINE
  8
LC-001-002-----0
  6
CONTINUOUS
  5
4D6
 10
218.594351
 20
113.239418
 30
0.0
 11
179.356695
 21
113.239418
 31
0.0
  0
LINE
  8
LC-001-002-----0
  6
CONTINUOUS
  5
4D7
 10
175.856691
 20
120.946524
 30
0.0
 11
175.856691
 21
122.239418
 31
0.0
  0
LINE
  8
LC-001-002-----0
  6
CONTINUOUS
  5
4D8
 10
175.856695
 20
119.532312
 30
0.0
 11
175.856695
 21
116.739418
 31
0.0
  0
LINE
  8
LC-001-002-----0
  6
CONTINUOUS
  5
4D9
 10
175.856695
 20
116.739418
 30
0.0
 11
179.356695
 21
113.239418
 31
0.0
  0
ARC
  8
LC-001-002-----0
  6
CONTINUOUS
  5
4DA
 10
175.606691
 20
120.239418
 30
0.0
 40
0.75
 50
289.471622
 51
70.528779
  0
LINE
  8
LC-001-002-----0
  6
CONTINUOUS
  5
4DB
 10
235.856914
 20
144.239589
 30
0.0
 11
217.856856
 21
144.239601
 31
0.0
  0
ARC
  8
LC-001-002-----0
  6
CONTINUOUS
  5
4DC
 10
235.856906
 20
132.239589
 30
0.0
 40
12.0
 50
0.000096
 51
89.999963
  0
ARC
  8
LC-001-002-----0
  6
CONTINUOUS
  5
4DD
 10
235.856906
 20
132.239589
 30
0.0
 40
10.0
 50
0.000096
 51
89.999963
  0
LINE
  8
LC-001-002-----0
  6
CONTINUOUS
  5
4DE
 10
247.856906
 20
132.239581
 30
0.0
 11
247.856867
 21
72.739589
 31
0.0
  0
LINE
  8
LC-001-002-----0
  6
CONTINUOUS
  5
4DF
 10
245.856906
 20
132.239582
 30
0.0
 11
245.856866
 21
70.739582
 31
0.0
  0
LINE
  8
LC-001-002-----0
  6
CONTINUOUS
  5
4E0
 10
245.856861
 20
70.739582
 30
0.0
 11
234.606894
 21
70.73959
 31
0.0
  0
LINE
  8
LC-001-002-----0
  6
CONTINUOUS
  5
4E1
 10
235.856913
 20
142.239589
 30
0.0
 11
205.541435
 21
142.239589
 31
0.0
  0
LINE
  8
LC-001-002-----0
  6
CONTINUOUS
  5
4E2
 10
162.356691
 20
70.739418
 30
0.0
 11
160.356691
 21
72.739418
 31
0.0
  0
LINE
  8
LC-001-002-----0
  6
CONTINUOUS
  5
4E3
 10
245.856861
 20
70.739582
 30
0.0
 11
247.856862
 21
72.739584
 31
0.0
  0
ARC
  8
LC-002-002-RND-0
  6
CONTINUOUS
  5
4E4
 10
179.206894
 20
21.742096
 30
0.0
 40
1.0
 50
180.0
 51
270.0
  0
LINE
  8
LC-001-002-----0
  6
CONTINUOUS
  5
4E5
 10
181.515713
 20
23.27107
 30
0.0
 11
178.206894
 21
22.384475
 31
0.0
  0
ARC
  8
LC-002-002-RND-0
  6
CONTINUOUS
  5
4E6
 10
181.256894
 20
24.236996
 30
0.0
 40
1.0
 50
285.0
 51
0.0
  0
LINE
  8
LC-001-002-----0
  6
CONTINUOUS
  5
4E7
 10
231.399787
 20
119.032484
 30
0.0
 11
232.357574
 21
118.074697
 31
0.0
  0
LINE
  8
LC-001-002-----0
  6
CONTINUOUS
  5
4E8
 10
226.698075
 20
23.27107
 30
0.0
 11
230.006894
 21
22.384475
 31
0.0
  0
ARC
  8
LC-002-002-RND-0
  6
CONTINUOUS
  5
4E9
 10
229.006894
 20
21.742096
 30
0.0
 40
1.0
 50
270.0
 51
0.0
  0
ARC
  8
LC-002-002-RND-0
  6
CONTINUOUS
  5
4EA
 10
226.956894
 20
24.236996
 30
0.0
 40
1.0
 50
180.0
 51
255.0
  0
LINE
  8
LC-001-002-----0
  6
CONTINUOUS
  5
4EB
 10
230.006894
 20
22.384475
 30
0.0
 11
230.006894
 21
21.742096
 31
0.0
  0
ARC
  8
LC-001-002-----0
  6
CONTINUOUS
  5
4EC
 10
232.106894
 20
119.739591
 30
0.0
 40
1.0
 50
90.0
 51
225.0
  0
ARC
  8
LC-001-002-----0
  6
CONTINUOUS
  5
4ED
 10
176.106894
 20
119.739591
 30
0.0
 40
1.0
 50
315.0
 51
90.0
  0
LINE
  8
LC-001-002-----0
  6
CONTINUOUS
  5
4EE
 10
182.256894
 20
38.739591
 30
0.0
 11
182.256894
 21
34.239591
 31
0.0
  0
LINE
  8
LC-001-002-----0
  6
CONTINUOUS
  5
4EF
 10
176.814
 20
119.032484
 30
0.0
 11
175.856213
 21
118.074697
 31
0.0
  0
LINE
  8
LC-001-002-----0
  6
CONTINUOUS
  5
4F0
 10
176.106894
 20
120.739591
 30
0.0
 11
173.606894
 21
120.739591
 31
0.0
  0
LINE
  8
LC-001-002-----0
  6
CONTINUOUS
  5
4F1
 10
184.256894
 20
20.742096
 30
0.0
 11
179.206894
 21
20.742096
 31
0.0
  0
LINE
  8
LC-001-002-----0
  6
CONTINUOUS
  5
4F2
 10
176.591175
 20
58.227582
 30
0.0
 11
175.856213
 21
118.074697
 31
0.0
  0
ARC
  8
LC-002-002-RND-0
  6
CONTINUOUS
  5
4F3
 10
176.606894
 20
56.243779
 30
0.0
 40
3.0
 50
180.0
 51
241.252115
  0
LINE
  8
LC-001-002-----0
  6
CONTINUOUS
  5
4F4
 10
225.956894
 20
38.739591
 30
0.0
 11
225.956894
 21
34.239591
 31
0.0
  0
LINE
  8
LC-001-002-----0
  6
CONTINUOUS
  5
4F5
 10
180.256894
 20
42.739591
 30
0.0
 11
181.056894
 21
42.739591
 31
0.0
  0
LINE
  8
LC-001-002-----0
  6
CONTINUOUS
  5
4F6
 10
173.606894
 20
56.243779
 30
0.0
 11
173.606894
 21
120.739591
 31
0.0
  0
LINE
  8
LC-001-002-----0
  6
CONTINUOUS
  5
4F7
 10
223.316852
 20
20.742096
 30
0.0
 11
223.956894
 21
20.742096
 31
0.0
  0
LINE
  8
LC-001-002-----0
  6
CONTINUOUS
  5
4F8
 10
232.106894
 20
120.739591
 30
0.0
 11
234.606894
 21
120.739591
 31
0.0
  0
LINE
  8
LC-001-002-----0
  6
CONTINUOUS
  5
4F9
 10
231.622612
 20
58.227582
 30
0.0
 11
232.357574
 21
118.074697
 31
0.0
  0
ARC
  8
LC-002-002-RND-0
  6
CONTINUOUS
  5
4FA
 10
231.606894
 20
56.243779
 30
0.0
 40
3.0
 50
298.747885
 51
0.0
  0
LINE
  8
LC-001-002-----0
  6
CONTINUOUS
  5
4FB
 10
226.156894
 20
43.739591
 30
0.0
 11
226.156894
 21
45.223904
 31
0.0
  0
ARC
  8
LC-002-002-RND-0
  6
CONTINUOUS
  5
4FC
 10
181.056894
 20
43.739591
 30
0.0
 40
1.0
 50
270.0
 51
0.0
  0
LINE
  8
LC-001-002-----0
  6
CONTINUOUS
  5
4FD
 10
227.956894
 20
46.239591
 30
0.0
 11
227.156894
 21
46.239591
 31
0.0
  0
LINE
  8
LC-001-002-----0
  6
CONTINUOUS
  5
4FE
 10
227.956894
 20
42.739591
 30
0.0
 11
227.156894
 21
42.739591
 31
0.0
  0
LINE
  8
LC-001-002-----0
  6
CONTINUOUS
  5
4FF
 10
234.606894
 20
56.243779
 30
0.0
 11
234.606894
 21
120.739591
 31
0.0
  0
LINE
  8
LC-001-002-----0
  6
CONTINUOUS
  5
500
 10
182.256894
 20
30.739591
 30
0.0
 11
180.256894
 21
30.739591
 31
0.0
  0
ARC
  8
LC-002-002-RND-0
  6
CONTINUOUS
  5
501
 10
178.591064
 20
58.248708
 30
0.0
 40
2.0
 50
180.605215
 51
229.596374
  0
LINE
  8
LC-001-002-----0
  6
CONTINUOUS
  5
502
 10
180.256894
 20
30.739591
 30
0.0
 11
180.256894
 21
33.239591
 31
0.0
  0
LINE
  8
LC-001-002-----0
  6
CONTINUOUS
  5
503
 10
227.956894
 20
39.739591
 30
0.0
 11
227.956894
 21
42.739591
 31
0.0
  0
ARC
  8
LC-001-002-----0
  6
CONTINUOUS
  5
504
 10
243.745224
 20
41.656954
 30
0.0
 40
19.78833
 50
130.403626
 51
180.0
  0
ARC
  8
LC-001-002-----0
  6
CONTINUOUS
  5
505
 10
237.859327
 20
44.846101
 30
0.0
 40
10.0
 50
118.747885
 51
171.989821
  0
LINE
  8
LC-001-002-----0
  6
CONTINUOUS
  5
506
 10
223.316852
 20
30.739591
 30
0.0
 11
184.896935
 21
30.739591
 31
0.0
  0
ARC
  8
LC-002-002-RND-0
  6
CONTINUOUS
  5
507
 10
227.156894
 20
43.739591
 30
0.0
 40
1.0
 50
180.0
 51
270.0
  0
ARC
  8
LC-002-002-RND-0
  6
CONTINUOUS
  5
508
 10
181.256894
 20
38.739591
 30
0.0
 40
1.0
 50
0.0
 51
90.0
  0
LINE
  8
LC-001-002-----0
  6
CONTINUOUS
  5
509
 10
234.606894
 20
120.739591
 30
0.0
 11
232.106894
 21
120.739591
 31
0.0
  0
LINE
  8
LC-001-002-----0
  6
CONTINUOUS
  5
50A
 10
184.896935
 20
20.742096
 30
0.0
 11
184.344836
 21
20.742096
 31
0.0
  0
LINE
  8
LC-001-002-----0
  6
CONTINUOUS
  5
50B
 10
226.956894
 20
39.739591
 30
0.0
 11
227.956894
 21
39.739591
 31
0.0
  0
LINE
  8
LC-001-002-----0
  6
CONTINUOUS
  5
50C
 10
223.956894
 20
41.656954
 30
0.0
 11
223.956894
 21
20.742096
 31
0.0
  0
LINE
  8
LC-001-002-----0
  6
CONTINUOUS
  5
50D
 10
225.956894
 20
30.739591
 30
0.0
 11
227.956894
 21
30.739591
 31
0.0
  0
LINE
  8
LC-001-002-----0
  6
CONTINUOUS
  5
50E
 10
218.821255
 20
120.739591
 30
0.0
 11
232.106894
 21
120.739591
 31
0.0
  0
LINE
  8
LC-001-002-----0
  6
CONTINUOUS
  5
50F
 10
178.206894
 20
22.384475
 30
0.0
 11
178.206894
 21
21.742096
 31
0.0
  0
ARC
  8
LC-002-002-RND-0
  6
CONTINUOUS
  5
510
 10
226.956894
 20
34.239591
 30
0.0
 40
1.0
 50
180.0
 51
270.0
  0
LINE
  8
LC-001-002-----0
  6
CONTINUOUS
  5
511
 10
226.956894
 20
33.239591
 30
0.0
 11
227.956894
 21
33.239591
 31
0.0
  0
ARC
  8
LC-002-002-RND-0
  6
CONTINUOUS
  5
512
 10
227.156894
 20
45.239591
 30
0.0
 40
1.0
 50
90.0
 51
180.0
  0
LINE
  8
LC-001-002-----0
  6
CONTINUOUS
  5
513
 10
184.256894
 20
41.656954
 30
0.0
 11
184.256894
 21
20.742096
 31
0.0
  0
LINE
  8
LC-001-002-----0
  6
CONTINUOUS
  5
514
 10
181.256894
 20
39.739591
 30
0.0
 11
180.256894
 21
39.739591
 31
0.0
  0
LINE
  8
LC-001-002-----0
  6
CONTINUOUS
  5
515
 10
181.256894
 20
33.239591
 30
0.0
 11
180.256894
 21
33.239591
 31
0.0
  0
LINE
  8
LC-001-002-----0
  6
CONTINUOUS
  5
516
 10
182.256894
 20
30.739591
 30
0.0
 11
182.256894
 21
24.236996
 31
0.0
  0
LINE
  8
LC-001-002-----0
  6
CONTINUOUS
  5
517
 10
180.256894
 20
39.739591
 30
0.0
 11
180.256894
 21
42.739591
 31
0.0
  0
ARC
  8
LC-002-002-RND-0
  6
CONTINUOUS
  5
518
 10
181.256894
 20
34.239591
 30
0.0
 40
1.0
 50
270.0
 51
0.0
  0
LINE
  8
LC-001-002-----0
  6
CONTINUOUS
  5
519
 10
182.056894
 20
43.739591
 30
0.0
 11
182.056894
 21
45.223904
 31
0.0
  0
LINE
  8
LC-001-002-----0
  6
CONTINUOUS
  5
51A
 10
180.256894
 20
46.239591
 30
0.0
 11
181.056894
 21
46.239591
 31
0.0
  0
ARC
  8
LC-002-002-RND-0
  6
CONTINUOUS
  5
51B
 10
181.056894
 20
45.239591
 30
0.0
 40
1.0
 50
0.0
 51
90.0
  0
ARC
  8
LC-001-002-----0
  6
CONTINUOUS
  5
51C
 10
170.35446
 20
44.846101
 30
0.0
 40
10.0
 50
8.010179
 51
61.252115
  0
LINE
  8
LC-001-002-----0
  6
CONTINUOUS
  5
51D
 10
227.956894
 20
30.739591
 30
0.0
 11
227.956894
 21
33.239591
 31
0.0
  0
LINE
  8
LC-001-002-----0
  6
CONTINUOUS
  5
51E
 10
225.956894
 20
30.739591
 30
0.0
 11
225.956894
 21
24.236996
 31
0.0
  0
ARC
  8
LC-002-002-RND-0
  6
CONTINUOUS
  5
51F
 10
229.622723
 20
58.248708
 30
0.0
 40
2.0
 50
310.403626
 51
359.394785
  0
ARC
  8
LC-002-002-RND-0
  6
CONTINUOUS
  5
520
 10
226.956894
 20
38.739591
 30
0.0
 40
1.0
 50
90.0
 51
180.0
  0
LINE
  8
LC-001-002-----0
  6
CONTINUOUS
  5
521
 10
173.606894
 20
120.739591
 30
0.0
 11
176.106894
 21
120.739591
 31
0.0
  0
LINE
  8
LC-001-002-----0
  6
CONTINUOUS
  5
522
 10
223.956894
 20
20.742096
 30
0.0
 11
229.006894
 21
20.742096
 31
0.0
  0
ARC
  8
LC-001-002-----0
  6
CONTINUOUS
  5
523
 10
164.468564
 20
41.656954
 30
0.0
 40
19.78833
 50
0.0
 51
49.596374
  0
LINE
  8
LC-001-002-----0
  6
CONTINUOUS
  5
524
 10
176.591175
 20
58.227582
 30
0.0
 11
231.622612
 21
58.227582
 31
0.0
  0
LINE
  8
LC-001-002-----0
  6
CONTINUOUS
  5
525
 10
184.896935
 20
30.739591
 30
0.0
 11
184.896935
 21
20.742096
 31
0.0
  0
LINE
  8
LC-001-002-----0
  6
CONTINUOUS
  5
526
 10
223.316852
 20
30.739591
 30
0.0
 11
223.316852
 21
20.742096
 31
0.0
  0
LINE
  8
LC-001-002-----0
  6
CONTINUOUS
  5
527
 10
232.357574
 20
118.074697
 30
0.0
 11
219.063262
 21
118.074697
 31
0.0
  0
ARC
  8
LC-002-002-RND-0
  6
CONTINUOUS
  5
528
 10
170.106894
 20
45.007172
 30
0.0
 40
9.0
 50
0.0
 51
90.0
  0
LINE
  8
LC-001-002-----0
  6
CONTINUOUS
  5
529
 10
284.03993
 20
62.97142
 30
0.0
 11
284.03993
 21
123.180796
 31
0.0
  0
ARC
  8
LC-001-002-----0
  6
CONTINUOUS
  5
52A
 10
272.087796
 20
62.97142
 30
0.0
 40
11.952134
 50
269.999963
 51
0.0
  0
LINE
  8
LC-001-002-----0
  6
CONTINUOUS
  5
52B
 10
180.106894
 20
24.007172
 30
0.0
 11
182.230126
 21
24.007172
 31
0.0
  0
LINE
  8
LC-001-002-----0
  6
CONTINUOUS
  5
52C
 10
169.690805
 20
54.007172
 30
0.0
 11
170.106894
 21
54.007172
 31
0.0
  0
LINE
  8
LC-001-002-----0
  6
CONTINUOUS
  5
52D
 10
117.70116
 20
146.291163
 30
0.0
 11
117.70116
 21
152.765236
 31
0.0
  0
LINE
  8
LC-001-002-----0
  6
CONTINUOUS
  5
52E
 10
115.709137
 20
152.765236
 30
0.0
 11
117.70116
 21
152.765236
 31
0.0
  0
LINE
  8
LC-001-002-----0
  6
CONTINUOUS
  5
52F
 10
290.504943
 20
146.291163
 30
0.0
 11
290.504943
 21
152.765236
 31
0.0
  0
LINE
  8
LC-001-002-----0
  6
CONTINUOUS
  5
530
 10
292.496965
 20
152.765236
 30
0.0
 11
290.504943
 21
152.765236
 31
0.0
  0
LINE
  8
LC-001-002-----0
  6
CONTINUOUS
  5
531
 10
292.496965
 20
146.789169
 30
0.0
 11
292.496965
 21
152.765236
 31
0.0
  0
LINE
  8
LC-001-002-----0
  6
CONTINUOUS
  5
532
 10
115.709137
 20
146.789169
 30
0.0
 11
115.709137
 21
152.765236
 31
0.0
  0
LINE
  8
LC-001-002-----0
  6
CONTINUOUS
  5
533
 10
113.717115
 20
146.789169
 30
0.0
 11
115.709137
 21
146.789169
 31
0.0
  0
LINE
  8
LC-001-002-----0
  6
CONTINUOUS
  5
534
 10
126.912888
 20
62.971273
 30
0.0
 11
126.912888
 21
126.118383
 31
0.0
  0
ARC
  8
LC-001-002-----0
  6
CONTINUOUS
  5
535
 10
136.125991
 20
62.971273
 30
0.0
 40
11.952134
 50
180.0
 51
270.0
  0
LINE
  8
LC-001-002-----0
  6
CONTINUOUS
  5
536
 10
126.365082
 20
134.534678
 30
0.0
 11
126.564284
 21
134.534678
 31
0.0
  0
LINE
  8
LC-001-002-----0
  6
CONTINUOUS
  5
537
 10
117.699784
 20
135.829492
 30
0.0
 11
117.699784
 21
152.761683
 31
0.0
  0
LINE
  8
LC-001-002-----0
  6
CONTINUOUS
  5
538
 10
294.488988
 20
146.789169
 30
0.0
 11
292.496965
 21
146.789169
 31
0.0
  0
LINE
  8
LC-001-002-----0
  6
CONTINUOUS
  5
539
 10
126.365082
 20
131.048638
 30
0.0
 11
126.365082
 21
132.542655
 31
0.0
  0
LINE
  8
LC-001-002-----0
  6
CONTINUOUS
  5
53A
 10
126.365082
 20
127.6124
 30
0.0
 11
126.365082
 21
128.110405
 31
0.0
  0
LINE
  8
LC-001-002-----0
  6
CONTINUOUS
  5
53B
 10
126.365082
 20
126.118383
 30
0.0
 11
126.365082
 21
129.056616
 31
0.0
  0
LINE
  8
LC-001-002-----0
  6
CONTINUOUS
  5
53C
 10
126.365082
 20
126.118383
 30
0.0
 11
126.912888
 21
126.118383
 31
0.0
  0
LINE
  8
LC-001-002-----0
  6
CONTINUOUS
  5
53D
 10
126.365082
 20
129.056616
 30
0.0
 11
126.564284
 21
129.056616
 31
0.0
  0
LINE
  8
LC-001-002-----0
  6
CONTINUOUS
  5
53E
 10
127.361093
 20
129.853425
 30
0.0
 11
127.361093
 21
130.25183
 31
0.0
  0
LINE
  8
LC-001-002-----0
  6
CONTINUOUS
  5
53F
 10
127.361093
 20
133.339464
 30
0.0
 11
127.361093
 21
133.737869
 31
0.0
  0
LINE
  8
LC-001-002-----0
  6
CONTINUOUS
  5
540
 10
126.365082
 20
132.542655
 30
0.0
 11
126.564284
 21
132.542655
 31
0.0
  0
ARC
  8
LC-001-002-----0
  6
CONTINUOUS
  5
541
 10
126.564284
 20
133.737869
 30
0.0
 40
0.796809
 50
0.0
 51
90.0
  0
ARC
  8
LC-001-002-----0
  6
CONTINUOUS
  5
542
 10
126.564284
 20
130.25183
 30
0.0
 40
0.796809
 50
0.0
 51
90.0
  0
LINE
  8
LC-001-002-----0
  6
CONTINUOUS
  5
543
 10
97.324724
 20
156.397905
 30
0.0
 11
112.270742
 21
155.352778
 31
0.0
  0
LINE
  8
LC-001-002-----0
  6
CONTINUOUS
  5
544
 10
113.664908
 20
146.785615
 30
0.0
 11
115.707762
 21
146.785615
 31
0.0
  0
ARC
  8
LC-001-002-----0
  6
CONTINUOUS
  5
545
 10
126.564284
 20
129.853425
 30
0.0
 40
0.796809
 50
270.0
 51
0.0
  0
ARC
  8
LC-001-002-----0
  6
CONTINUOUS
  5
546
 10
126.564284
 20
133.339464
 30
0.0
 40
0.796809
 50
270.0
 51
0.0
  0
LINE
  8
LC-001-002-----0
  6
CONTINUOUS
  5
547
 10
281.293215
 20
62.971273
 30
0.0
 11
281.293215
 21
126.118383
 31
0.0
  0
ARC
  8
LC-001-002-----0
  6
CONTINUOUS
  5
548
 10
118.19779
 20
135.829492
 30
0.0
 40
0.498006
 50
180.0
 51
270.0
  0
LINE
  8
LC-001-002-----0
  6
CONTINUOUS
  5
549
 10
115.707762
 20
146.785615
 30
0.0
 11
115.707762
 21
152.761683
 31
0.0
  0
LINE
  8
LC-001-002-----0
  6
CONTINUOUS
  5
54A
 10
53.952627
 20
161.427662
 30
0.0
 11
94.445439
 21
158.596131
 31
0.0
  0
ARC
  8
LC-001-002-----0
  6
CONTINUOUS
  5
54B
 10
113.664908
 20
147.781627
 30
0.0
 40
0.996011
 50
183.0
 51
270.0
  0
LINE
  8
LC-001-002-----0
  6
CONTINUOUS
  5
54C
 10
53.952627
 20
158.432332
 30
0.0
 11
93.29507
 21
155.681243
 31
0.0
  0
LINE
  8
LC-001-002-----0
  6
CONTINUOUS
  5
54D
 10
112.270742
 20
155.352778
 30
0.0
 11
112.670261
 21
147.729499
 31
0.0
  0
LINE
  8
LC-001-002-----0
  6
CONTINUOUS
  5
54E
 10
53.952627
 20
161.427662
 30
0.0
 11
53.952627
 21
158.432332
 31
0.0
  0
LINE
  8
LC-001-002-----0
  6
CONTINUOUS
  5
54F
 10
281.841021
 20
134.534678
 30
0.0
 11
281.641819
 21
134.534678
 31
0.0
  0
LINE
  8
LC-001-002-----0
  6
CONTINUOUS
  5
550
 10
109.494336
 20
151.236448
 30
0.0
 11
109.70969
 21
147.127239
 31
0.0
  0
LINE
  8
LC-001-002-----0
  6
CONTINUOUS
  5
551
 10
93.29507
 20
155.681243
 30
0.0
 11
95.44209
 21
153.534221
 31
0.0
  0
ARC
  8
LC-001-002-----0
  6
CONTINUOUS
  5
552
 10
97.46368
 20
158.385075
 30
0.0
 40
1.992022
 50
225.0
 51
266.000003
  0
LINE
  8
LC-001-002-----0
  6
CONTINUOUS
  5
553
 10
126.365082
 20
131.048638
 30
0.0
 11
126.564284
 21
131.048638
 31
0.0
  0
LINE
  8
LC-001-002-----0
  6
CONTINUOUS
  5
554
 10
124.173857
 20
62.971273
 30
0.0
 11
124.173857
 21
123.169823
 31
0.0
  0
LINE
  8
LC-001-002-----0
  6
CONTINUOUS
  5
555
 10
290.506319
 20
135.829492
 30
0.0
 11
290.506319
 21
152.761683
 31
0.0
  0
LINE
  8
LC-001-002-----0
  6
CONTINUOUS
  5
556
 10
281.841021
 20
131.048638
 30
0.0
 11
281.841021
 21
132.542655
 31
0.0
  0
LINE
  8
LC-001-002-----0
  6
CONTINUOUS
  5
557
 10
281.841021
 20
127.6124
 30
0.0
 11
281.841021
 21
128.110405
 31
0.0
  0
LINE
  8
LC-001-002-----0
  6
CONTINUOUS
  5
558
 10
281.841021
 20
126.118383
 30
0.0
 11
281.841021
 21
129.056616
 31
0.0
  0
ARC
  8
LC-001-002-----0
  6
CONTINUOUS
  5
559
 10
135.876989
 20
62.971273
 30
0.0
 40
8.964101
 50
180.0
 51
270.0
  0
ARC
  8
LC-004-001-RND-0
  6
CONTINUOUS
  5
55B
 10
108.002366
 20
151.158257
 30
0.0
 40
1.494017
 50
3.0
 51
86.000003
  0
LINE
  8
LC-001-002-----0
  6
CONTINUOUS
  5
55C
 10
281.841021
 20
126.118383
 30
0.0
 11
281.293215
 21
126.118383
 31
0.0
  0
LINE
  8
LC-001-002-----0
  6
CONTINUOUS
  5
55D
 10
281.841021
 20
129.056616
 30
0.0
 11
281.641819
 21
129.056616
 31
0.0
  0
LINE
  8
LC-001-002-----0
  6
CONTINUOUS
  5
55E
 10
280.84501
 20
129.853425
 30
0.0
 11
280.84501
 21
130.25183
 31
0.0
  0
LINE
  8
LC-001-002-----0
  6
CONTINUOUS
  5
55F
 10
280.84501
 20
133.339464
 30
0.0
 11
280.84501
 21
133.737869
 31
0.0
  0
LINE
  8
LC-001-002-----0
  6
CONTINUOUS
  5
560
 10
281.841021
 20
132.542655
 30
0.0
 11
281.641819
 21
132.542655
 31
0.0
  0
LINE
  8
LC-001-002-----0
  6
CONTINUOUS
  5
561
 10
310.88138
 20
156.397905
 30
0.0
 11
295.935361
 21
155.352778
 31
0.0
  0
ARC
  8
LC-001-002-----0
  6
CONTINUOUS
  5
562
 10
281.641819
 20
133.737869
 30
0.0
 40
0.796809
 50
90.0
 51
180.0
  0
ARC
  8
LC-001-002-----0
  6
CONTINUOUS
  5
563
 10
281.641819
 20
130.25183
 30
0.0
 40
0.796809
 50
90.0
 51
180.0
  0
LINE
  8
LC-001-002-----0
  6
CONTINUOUS
  5
564
 10
294.541196
 20
146.785615
 30
0.0
 11
292.498341
 21
146.785615
 31
0.0
  0
LINE
  8
LC-001-002-----0
  6
CONTINUOUS
  5
565
 10
292.498341
 20
146.785615
 30
0.0
 11
292.498341
 21
152.761683
 31
0.0
  0
ARC
  8
LC-001-002-----0
  6
CONTINUOUS
  5
566
 10
281.641819
 20
129.853425
 30
0.0
 40
0.796809
 50
180.0
 51
270.0
  0
ARC
  8
LC-001-002-----0
  6
CONTINUOUS
  5
567
 10
281.641819
 20
133.339464
 30
0.0
 40
0.796809
 50
180.0
 51
270.0
  0
LINE
  8
LC-001-002-----0
  6
CONTINUOUS
  5
568
 10
354.253475
 20
161.427662
 30
0.0
 11
313.760664
 21
158.596131
 31
0.0
  0
ARC
  8
LC-001-002-----0
  6
CONTINUOUS
  5
569
 10
290.008313
 20
135.829492
 30
0.0
 40
0.498006
 50
270.0
 51
0.0
  0
LINE
  8
LC-001-002-----0
  6
CONTINUOUS
  5
56A
 10
354.253475
 20
158.432332
 30
0.0
 11
314.911033
 21
155.681243
 31
0.0
  0
LINE
  8
LC-001-002-----0
  6
CONTINUOUS
  5
56B
 10
295.935361
 20
155.352778
 30
0.0
 11
295.535841
 21
147.729499
 31
0.0
  0
ARC
  8
LC-001-002-----0
  6
CONTINUOUS
  5
56C
 10
294.541196
 20
147.781627
 30
0.0
 40
0.996011
 50
270.0
 51
357.0
  0
LINE
  8
LC-001-002-----0
  6
CONTINUOUS
  5
56D
 10
354.253475
 20
161.427662
 30
0.0
 11
354.253475
 21
158.432332
 31
0.0
  0
LINE
  8
LC-001-002-----0
  6
CONTINUOUS
  5
56E
 10
298.711767
 20
151.236448
 30
0.0
 11
298.496413
 21
147.127239
 31
0.0
  0
LINE
  8
LC-001-002-----0
  6
CONTINUOUS
  5
56F
 10
314.911033
 20
155.681243
 30
0.0
 11
312.764013
 21
153.534221
 31
0.0
  0
LINE
  8
LC-001-002-----0
  6
CONTINUOUS
  5
570
 10
281.841021
 20
131.048638
 30
0.0
 11
281.641819
 21
131.048638
 31
0.0
  0
LINE
  8
LC-001-002-----0
  6
CONTINUOUS
  5
571
 10
293.245349
 20
136.327498
 30
0.0
 11
284.03993
 21
123.180796
 31
0.0
  0
ARC
  8
LC-001-002-----0
  6
CONTINUOUS
  5
572
 10
310.742423
 20
158.385075
 30
0.0
 40
1.992022
 50
273.999997
 51
315.0
  0
LINE
  8
LC-001-002-----0
  6
CONTINUOUS
  5
573
 10
295.512474
 20
144.295587
 30
0.0
 11
295.237372
 21
144.295587
 31
0.0
  0
LINE
  8
LC-001-002-----0
  6
CONTINUOUS
  5
574
 10
114.960753
 20
136.327498
 30
0.0
 11
124.173857
 21
123.169823
 31
0.0
  0
LINE
  8
LC-005-001-----0
  6
CONTINUOUS
  5
576
 10
312.764013
 20
153.534221
 30
0.0
 11
300.09952
 21
152.648634
 31
0.0
  0
ARC
  8
LC-001-002-----0
  6
CONTINUOUS
  5
577
 10
272.329114
 20
62.971273
 30
0.0
 40
8.964101
 50
270.0
 51
0.0
  0
ARC
  8
LC-004-001-RND-0
  6
CONTINUOUS
  5
578
 10
300.203737
 20
151.158257
 30
0.0
 40
1.494017
 50
93.999997
 51
177.0
  0
LINE
  8
LC-001-002-----0
  6
CONTINUOUS
  5
579
 10
112.693628
 20
144.295587
 30
0.0
 11
112.968731
 21
144.295587
 31
0.0
  0
LINE
  8
LC-005-001-----0
  6
CONTINUOUS
  5
57A
 10
95.44209
 20
153.534221
 30
0.0
 11
108.106584
 21
152.648634
 31
0.0
  0
LINE
  8
LC-001-002-----0
  6
CONTINUOUS
  5
57B
 10
114.960753
 20
136.327498
 30
0.0
 11
114.960753
 21
142.303565
 31
0.0
  0
LINE
  8
LC-001-002-----0
  6
CONTINUOUS
  5
57C
 10
118.19779
 20
135.331487
 30
0.0
 11
125.568273
 21
135.331487
 31
0.0
  0
LINE
  8
LC-001-002-----0
  6
CONTINUOUS
  5
57D
 10
117.699784
 20
136.825503
 30
0.0
 11
117.699784
 21
138.119703
 31
0.0
  0
LINE
  8
LC-001-002-----0
  6
CONTINUOUS
  5
57E
 10
293.245349
 20
136.327498
 30
0.0
 11
293.245349
 21
142.303565
 31
0.0
  0
ARC
  8
LC-001-002-----0
  6
CONTINUOUS
  5
57F
 10
112.693628
 20
147.283621
 30
0.0
 40
2.988034
 50
183.0
 51
270.0
  0
ARC
  8
LC-001-002-----0
  6
CONTINUOUS
  5
580
 10
112.968731
 20
142.303565
 30
0.0
 40
1.992022
 50
0.0
 51
90.0
  0
LINE
  8
LC-001-002-----0
  6
CONTINUOUS
  5
581
 10
115.707762
 20
152.761683
 30
0.0
 11
117.699784
 21
152.761683
 31
0.0
  0
LINE
  8
LC-001-002-----0
  6
CONTINUOUS
  5
582
 10
126.365082
 20
127.363397
 30
0.0
 11
126.365082
 21
127.861403
 31
0.0
  0
LINE
  8
LC-001-002-----0
  6
CONTINUOUS
  5
583
 10
117.699784
 20
136.825503
 30
0.0
 11
117.699784
 21
138.119703
 31
0.0
  0
ARC
  8
LC-001-002-----0
  6
CONTINUOUS
  5
584
 10
295.512474
 20
147.283621
 30
0.0
 40
2.988034
 50
270.0
 51
357.0
  0
LINE
  8
LC-001-002-----0
  6
CONTINUOUS
  5
585
 10
290.008313
 20
135.331487
 30
0.0
 11
282.63783
 21
135.331487
 31
0.0
  0
ARC
  8
LC-001-002-----0
  6
CONTINUOUS
  5
586
 10
295.237372
 20
142.303565
 30
0.0
 40
1.992022
 50
90.0
 51
180.0
  0
LINE
  8
LC-001-002-----0
  6
CONTINUOUS
  5
587
 10
126.365082
 20
127.562599
 30
0.0
 11
126.365082
 21
128.060605
 31
0.0
  0
LINE
  8
LC-001-002-----0
  6
CONTINUOUS
  5
588
 10
290.506319
 20
136.825503
 30
0.0
 11
290.506319
 21
138.119703
 31
0.0
  0
LINE
  8
LC-001-002-----0
  6
CONTINUOUS
  5
589
 10
292.498341
 20
152.761683
 30
0.0
 11
290.506319
 21
152.761683
 31
0.0
  0
LINE
  8
LC-001-002-----0
  6
CONTINUOUS
  5
58A
 10
281.841021
 20
127.363397
 30
0.0
 11
281.841021
 21
127.861403
 31
0.0
  0
LINE
  8
LC-001-002-----0
  6
CONTINUOUS
  5
58B
 10
94.445439
 20
158.596131
 30
0.0
 11
96.055107
 21
156.986463
 31
0.0
  0
LINE
  8
LC-001-002-----0
  6
CONTINUOUS
  5
58C
 10
290.506319
 20
136.825503
 30
0.0
 11
290.506319
 21
138.119703
 31
0.0
  0
LINE
  8
LC-001-002-----0
  6
CONTINUOUS
  5
58D
 10
281.841021
 20
127.562599
 30
0.0
 11
281.841021
 21
128.060605
 31
0.0
  0
LINE
  8
LC-001-002-----0
  6
CONTINUOUS
  5
58E
 10
313.760664
 20
158.596131
 30
0.0
 11
312.150996
 21
156.986463
 31
0.0
  0
LINE
  8
LC-001-002-----0
  6
CONTINUOUS
  5
58F
 10
272.087788
 20
51.019285
 30
0.0
 11
259.625991
 21
51.019297
 31
0.0
  0
ARC
  8
LC-001-002-----0
  6
CONTINUOUS
  5
590
 10
125.568273
 20
134.534678
 30
0.0
 40
0.796809
 50
0.0
 51
90.0
  0
LINE
  8
LC-001-002-----0
  6
CONTINUOUS
  5
591
 10
135.876989
 20
54.007172
 30
0.0
 11
169.690805
 21
54.007172
 31
0.0
  0
ARC
  8
LC-001-002-----0
  6
CONTINUOUS
  5
592
 10
282.63783
 20
134.534678
 30
0.0
 40
0.796809
 50
90.0
 51
180.0
  0
LINE
  8
LC-001-002-----0
  6
CONTINUOUS
  5
593
 10
272.329114
 20
54.007172
 30
0.0
 11
238.515458
 21
54.007172
 31
0.0
  0
LINE
  8
LC-001-002-----0
  6
CONTINUOUS
  5
594
 10
247.379826
 20
135.331487
 30
0.0
 11
247.45174
 21
135.331487
 31
0.0
  0
ARC
  8
LC-002-002-RND-0
  6
CONTINUOUS
  5
595
 10
238.106894
 20
45.007172
 30
0.0
 40
9.0
 50
90.0
 51
180.0
  0
ARC
  8
LC-002-002-RND-0
  6
CONTINUOUS
  5
596
 10
238.106894
 20
45.007172
 30
0.0
 40
10.0
 50
90.0
 51
180.0
  0
LINE
  8
LC-001-002-----0
  6
CONTINUOUS
  5
597
 10
229.106894
 20
24.007172
 30
0.0
 11
229.106894
 21
45.007172
 31
0.0
  0
ARC
  8
LC-002-002-RND-0
  6
CONTINUOUS
  5
598
 10
170.106894
 20
45.007172
 30
0.0
 40
10.0
 50
0.0
 51
90.0
  0
LINE
  8
LC-001-002-----0
  6
CONTINUOUS
  5
599
 10
228.106894
 20
24.007172
 30
0.0
 11
228.106894
 21
45.007172
 31
0.0
  0
LINE
  8
LC-001-002-----0
  6
CONTINUOUS
  5
59A
 10
179.106894
 20
24.007172
 30
0.0
 11
179.106894
 21
45.007172
 31
0.0
  0
LINE
  8
LC-001-002-----0
  6
CONTINUOUS
  5
59B
 10
180.106894
 20
24.007172
 30
0.0
 11
180.106894
 21
45.007172
 31
0.0
  0
LINE
  8
LC-001-002-----0
  6
CONTINUOUS
  5
59C
 10
136.856894
 20
54.007172
 30
0.0
 11
170.106894
 21
54.007172
 31
0.0
  0
LINE
  8
LC-001-002-----0
  6
CONTINUOUS
  5
59D
 10
271.356894
 20
54.007172
 30
0.0
 11
238.106894
 21
54.007172
 31
0.0
  0
ARC
  8
LC-002-002-RND-0
  6
CONTINUOUS
  5
59E
 10
271.356894
 20
61.007172
 30
0.0
 40
7.0
 50
270.0
 51
0.0
  0
ARC
  8
LC-002-002-RND-0
  6
CONTINUOUS
  5
59F
 10
136.856894
 20
61.007172
 30
0.0
 40
7.0
 50
180.0
 51
270.0
  0
LINE
  8
LC-001-002-----0
  6
CONTINUOUS
  5
5A0
 10
136.856894
 20
55.007172
 30
0.0
 11
170.106894
 21
55.007172
 31
0.0
  0
ARC
  8
LC-002-002-RND-0
  6
CONTINUOUS
  5
5A1
 10
136.856894
 20
61.007172
 30
0.0
 40
6.0
 50
180.0
 51
270.0
  0
ARC
  8
LC-002-002-RND-0
  6
CONTINUOUS
  5
5A2
 10
127.856894
 20
117.007172
 30
0.0
 40
2.0
 50
0.0
 51
76.899095
  0
ARC
  8
LC-001-002-----0
  6
CONTINUOUS
  5
5A3
 10
128.536894
 20
119.929089
 30
0.0
 40
1.0
 50
184.023529
 51
256.899095
  0
LINE
  8
LC-001-002-----0
  6
CONTINUOUS
  5
5A4
 10
271.356894
 20
55.007172
 30
0.0
 11
238.106894
 21
55.007172
 31
0.0
  0
ARC
  8
LC-002-002-RND-0
  6
CONTINUOUS
  5
5A5
 10
271.356894
 20
61.007172
 30
0.0
 40
6.0
 50
270.0
 51
0.0
  0
ARC
  8
LC-002-002-RND-0
  6
CONTINUOUS
  5
5A6
 10
280.356894
 20
117.007172
 30
0.0
 40
2.0
 50
103.100905
 51
180.0
  0
ARC
  8
LC-001-002-----0
  6
CONTINUOUS
  5
5A7
 10
279.676894
 20
119.929089
 30
0.0
 40
1.0
 50
283.100905
 51
355.976471
  0
LINE
  8
LC-001-002-----0
  6
CONTINUOUS
  5
5A8
 10
277.356894
 20
117.007172
 30
0.0
 11
277.356894
 21
61.007172
 31
0.0
  0
LINE
  8
LC-001-002-----0
  6
CONTINUOUS
  5
5A9
 10
281.606894
 20
128.007172
 30
0.0
 11
281.606894
 21
127.005845
 31
0.0
  0
LINE
  8
LC-001-002-----0
  6
CONTINUOUS
  5
5AA
 10
130.856894
 20
117.007172
 30
0.0
 11
130.856894
 21
61.007172
 31
0.0
  0
LINE
  8
LC-001-002-----0
  6
CONTINUOUS
  5
5AB
 10
126.606894
 20
128.007172
 30
0.0
 11
126.606894
 21
127.005845
 31
0.0
  0
LINE
  8
LC-001-002-----0
  6
CONTINUOUS
  5
5AC
 10
128.536894
 20
119.929089
 30
0.0
 11
128.066791
 21
126.612421
 31
0.0
  0
LINE
  8
LC-001-002-----0
  6
CONTINUOUS
  5
5AD
 10
129.856894
 20
117.007172
 30
0.0
 11
129.856894
 21
61.007172
 31
0.0
  0
LINE
  8
LC-001-002-----0
  6
CONTINUOUS
  5
5AE
 10
127.539358
 20
119.858923
 30
0.0
 11
127.069256
 21
126.542255
 31
0.0
  0
ARC
  8
LC-002-002-RND-0
  6
CONTINUOUS
  5
5AF
 10
126.570488
 20
126.507172
 30
0.0
 40
0.5
 50
4.023529
 51
85.824584
  0
ARC
  8
LC-002-002-RND-0
  6
CONTINUOUS
  5
5B0
 10
127.856894
 20
117.007172
 30
0.0
 40
3.0
 50
0.0
 51
76.899095
  0
LINE
  8
LC-001-002-----0
  6
CONTINUOUS
  5
5B1
 10
180.106894
 20
24.007172
 30
0.0
 11
179.106894
 21
24.007172
 31
0.0
  0
LINE
  8
LC-001-002-----0
  6
CONTINUOUS
  5
5B2
 10
279.676894
 20
119.929089
 30
0.0
 11
280.146996
 21
126.612421
 31
0.0
  0
LINE
  8
LC-001-002-----0
  6
CONTINUOUS
  5
5B3
 10
278.356894
 20
117.007172
 30
0.0
 11
278.356894
 21
61.007172
 31
0.0
  0
LINE
  8
LC-001-002-----0
  6
CONTINUOUS
  5
5B4
 10
280.674429
 20
119.858923
 30
0.0
 11
281.144531
 21
126.542255
 31
0.0
  0
ARC
  8
LC-002-002-RND-0
  6
CONTINUOUS
  5
5B5
 10
281.643299
 20
126.507172
 30
0.0
 40
0.5
 50
94.175416
 51
175.976471
  0
ARC
  8
LC-002-002-RND-0
  6
CONTINUOUS
  5
5B6
 10
280.356894
 20
117.007172
 30
0.0
 40
3.0
 50
103.100905
 51
180.0
  0
ARC
  8
LC-001-002-----0
  6
CONTINUOUS
  5
5B7
 10
126.570488
 20
126.507172
 30
0.0
 40
1.5
 50
4.023529
 51
88.609699
  0
LINE
  8
LC-001-002-----0
  6
CONTINUOUS
  5
5B8
 10
228.106894
 20
24.007172
 30
0.0
 11
229.106894
 21
24.007172
 31
0.0
  0
LINE
  8
LC-001-002-----0
  6
CONTINUOUS
  5
5B9
 10
128.536894
 20
119.929089
 30
0.0
 11
160.356691
 21
119.929089
 31
0.0
  0
LINE
  8
LC-001-002-----0
  6
CONTINUOUS
  5
5BA
 10
126.606894
 20
128.007172
 30
0.0
 11
160.356691
 21
128.007172
 31
0.0
  0
ARC
  8
LC-001-002-----0
  6
CONTINUOUS
  5
5BB
 10
281.643299
 20
126.507172
 30
0.0
 40
1.5
 50
91.390301
 51
175.976471
  0
LINE
  8
LC-001-002-----0
  6
CONTINUOUS
  5
5BC
 10
238.106894
 20
54.007172
 30
0.0
 11
238.515458
 21
54.007172
 31
0.0
  0
LINE
  8
LC-001-002-----0
  6
CONTINUOUS
  5
5BD
 10
247.856904
 20
128.007172
 30
0.0
 11
281.606894
 21
128.007172
 31
0.0
  0
LINE
  8
LC-001-002-----0
  6
CONTINUOUS
  5
5BE
 10
247.856898
 20
119.929089
 30
0.0
 11
279.676894
 21
119.929089
 31
0.0
  0
ARC
  8
LC-001-002-----0
  6
CONTINUOUS
  5
5BF
 10
181.156894
 20
43.639591
 30
0.0
 40
0.894987
 50
180.0
 51
0.0
  0
ARC
  8
LC-001-002-----0
  6
CONTINUOUS
  5
5C0
 10
181.156894
 20
45.339591
 30
0.0
 40
0.894987
 50
0.0
 51
180.0
  0
LINE
  8
LC-001-002-----0
  6
CONTINUOUS
  5
5C1
 10
180.261906
 20
43.639591
 30
0.0
 11
180.261906
 21
45.339591
 31
0.0
  0
LINE
  8
LC-001-002-----0
  6
CONTINUOUS
  5
5C2
 10
182.056894
 20
43.739591
 30
0.0
 11
182.056894
 21
45.239591
 31
0.0
  0
ARC
  8
LC-001-002-----0
  6
CONTINUOUS
  5
5C3
 10
227.056894
 20
45.339591
 30
0.0
 40
0.894987
 50
360.0
 51
180.0
  0
LINE
  8
LC-001-002-----0
  6
CONTINUOUS
  5
5C4
 10
227.951881
 20
43.639591
 30
0.0
 11
227.951881
 21
45.339591
 31
0.0
  0
ARC
  8
LC-001-002-----0
  6
CONTINUOUS
  5
5C5
 10
227.056894
 20
43.639591
 30
0.0
 40
0.894987
 50
180.0
 51
360.0
  0
LINE
  8
LC-001-002-----0
  6
CONTINUOUS
  5
5C6
 10
226.156894
 20
43.739591
 30
0.0
 11
226.156894
 21
45.223904
 31
0.0
  0
LINE
  8
LC-001-002-----0
  6
DASHDOT
 62
     2
  5
5C8
 10
204.102678
 20
161.427662
 30
0.0
 11
204.103151
 21
-22.480669
 31
0.0
  0
LINE
  8
LC-001-002-----0
  6
CONTINUOUS
  5
5C9
 10
225.983661
 20
24.007172
 30
0.0
 11
228.106894
 21
24.007172
 31
0.0
  0
LINE
  8
LC-001-002-----0
  6
CONTINUOUS
  5
5CA
 10
53.652214
 20
161.464661
 30
0.0
 11
64.306933
 21
160.726133
 31
0.0
  0
LINE
  8
LC-001-002-----0
  6
CONTINUOUS
  5
5CB
 10
112.270742
 20
155.352778
 30
0.0
 11
104.309046
 21
155.93135
 31
0.0
  0
LINE
  8
LC-001-002-----0
  6
CONTINUOUS
  5
5CC
 10
355.118654
 20
161.501645
 30
0.0
 11
319.910236
 21
159.061184
 31
0.0
  0
LINE
  8
LC-001-002-----0
  6
CONTINUOUS
  5
5CD
 10
295.966565
 20
155.352778
 30
0.0
 11
308.63714
 21
156.273541
 31
0.0
  0
LINE
  8
LC-003-005-----0
  6
CONTINUOUS
  5
5CE
 10
126.931751
 20
132.050754
 30
0.0
 11
127.109776
 21
132.228779
 31
0.0
  0
LINE
  8
LC-001-002-----0
  6
CONTINUOUS
  5
5CF
 10
-45.690954
 20
166.201645
 30
0.0
 11
-45.690954
 21
161.501645
 31
0.0
  0
LINE
  8
LC-001-002-----0
  6
CONTINUOUS
  5
5D0
 10
-35.690954
 20
166.201645
 30
0.0
 11
-35.690954
 21
161.501645
 31
0.0
  0
LINE
  8
LC-001-002-----0
  6
CONTINUOUS
  5
5D1
 10
-25.690954
 20
166.201645
 30
0.0
 11
-25.690954
 21
161.501645
 31
0.0
  0
LINE
  8
LC-001-002-----0
  6
CONTINUOUS
  5
5D2
 10
-15.690954
 20
166.201645
 30
0.0
 11
-15.690954
 21
161.501645
 31
0.0
  0
LINE
  8
LC-001-002-----0
  6
CONTINUOUS
  5
5D3
 10
-5.690954
 20
166.201645
 30
0.0
 11
-5.690954
 21
161.501645
 31
0.0
  0
LINE
  8
LC-001-002-----0
  6
CONTINUOUS
  5
5D4
 10
4.309046
 20
166.201645
 30
0.0
 11
4.309046
 21
161.501645
 31
0.0
  0
LINE
  8
LC-001-002-----0
  6
CONTINUOUS
  5
5D5
 10
14.309046
 20
166.201645
 30
0.0
 11
14.309046
 21
161.501645
 31
0.0
  0
LINE
  8
LC-001-002-----0
  6
CONTINUOUS
  5
5D6
 10
24.309046
 20
166.201645
 30
0.0
 11
24.309046
 21
161.501645
 31
0.0
  0
LINE
  8
LC-001-002-----0
  6
CONTINUOUS
  5
5D7
 10
34.309046
 20
166.201645
 30
0.0
 11
34.309046
 21
161.501645
 31
0.0
  0
LINE
  8
LC-001-002-----0
  6
CONTINUOUS
  5
5D8
 10
44.309046
 20
166.201645
 30
0.0
 11
44.309046
 21
161.501645
 31
0.0
  0
LINE
  8
LC-001-002-----0
  6
CONTINUOUS
  5
5D9
 10
53.654778
 20
161.501645
 30
0.0
 11
-45.690954
 21
161.501645
 31
0.0
  0
LINE
  8
LC-001-002-----0
  6
CONTINUOUS
  5
5DA
 10
54.309046
 20
166.13041
 30
0.0
 11
54.309046
 21
161.455894
 31
0.0
  0
LINE
  8
LC-001-002-----0
  6
CONTINUOUS
  5
5DB
 10
64.309046
 20
165.437263
 30
0.0
 11
64.309046
 21
160.756627
 31
0.0
  0
LINE
  8
LC-001-002-----0
  6
CONTINUOUS
  5
5DC
 10
74.309046
 20
164.744116
 30
0.0
 11
74.309046
 21
160.057359
 31
0.0
  0
LINE
  8
LC-001-002-----0
  6
CONTINUOUS
  5
5DD
 10
84.309046
 20
164.050969
 30
0.0
 11
84.309046
 21
159.358091
 31
0.0
  0
LINE
  8
LC-001-002-----0
  6
CONTINUOUS
  5
5DE
 10
104.309046
 20
160.641897
 30
0.0
 11
104.309046
 21
155.93135
 31
0.0
  0
LINE
  8
LC-001-002-----0
  6
CONTINUOUS
  5
5DF
 10
96.31727
 20
163.480519
 30
0.0
 11
311.920037
 21
163.480519
 31
0.0
  0
ARC
  8
LC-001-002-----0
  6
CONTINUOUS
  5
5E0
 10
101.756761
 20
167.886418
 30
0.0
 40
7.0
 50
219.006904
 51
266.0
  0
ARC
  8
LC-001-002-----0
  6
CONTINUOUS
  5
5E1
 10
101.756761
 20
167.886418
 30
0.0
 40
6.3
 50
224.378071
 51
266.0
  0
LINE
  8
LC-001-002-----0
  6
CONTINUOUS
  5
5E2
 10
101.268466
 20
160.903469
 30
0.0
 11
118.995725
 21
159.663858
 31
0.0
  0
LINE
  8
LC-001-002-----0
  6
CONTINUOUS
  5
5E3
 10
101.315079
 20
161.591339
 30
0.0
 11
119.044555
 21
160.351573
 31
0.0
  0
ARC
  8
LC-002-002-RND-0
  6
CONTINUOUS
  5
5E4
 10
118.556259
 20
153.368625
 30
0.0
 40
7.0
 50
0.0
 51
86.0
  0
ARC
  8
LC-002-002-RND-0
  6
CONTINUOUS
  5
5E5
 10
118.556259
 20
153.379205
 30
0.0
 40
6.3
 50
0.0
 51
86.0
  0
LINE
  8
LC-001-002-----0
  6
CONTINUOUS
  5
5E6
 10
124.856259
 20
153.379205
 30
0.0
 11
124.856259
 21
139.691161
 31
0.0
  0
ARC
  8
LC-001-002-----0
  6
CONTINUOUS
  5
5E7
 10
128.356259
 20
139.691161
 30
0.0
 40
3.5
 50
180.0
 51
270.0
  0
ARC
  8
LC-001-002-----0
  6
CONTINUOUS
  5
5E8
 10
128.356259
 20
139.691161
 30
0.0
 40
2.8
 50
180.0
 51
270.0
  0
ARC
  8
LC-001-002-----0
  6
CONTINUOUS
  5
5E9
 10
128.356539
 20
135.891529
 30
0.0
 40
1.0
 50
359.99972
 51
89.99972
  0
ARC
  8
LC-001-002-----0
  6
CONTINUOUS
  5
5EA
 10
128.356539
 20
135.891529
 30
0.0
 40
0.3
 50
359.99972
 51
89.99972
  0
LINE
  8
LC-001-002-----0
  6
CONTINUOUS
  5
5EB
 10
128.656259
 20
135.891161
 30
0.0
 11
128.656259
 21
133.591161
 31
0.0
  0
LINE
  8
LC-001-002-----0
  6
CONTINUOUS
  5
5EC
 10
129.356259
 20
135.891161
 30
0.0
 11
129.356259
 21
133.591161
 31
0.0
  0
ARC
  8
LC-001-002-----0
  6
CONTINUOUS
  5
5ED
 10
128.356782
 20
133.591161
 30
0.0
 40
0.3
 50
270.0
 51
0.0
  0
ARC
  8
LC-001-002-----0
  6
CONTINUOUS
  5
5EE
 10
128.356259
 20
133.591161
 30
0.0
 40
1.0
 50
270.0
 51
0.0
  0
ARC
  8
LC-001-002-----0
  6
CONTINUOUS
  5
5EF
 10
128.356259
 20
131.791161
 30
0.0
 40
1.5
 50
90.0
 51
180.0
  0
ARC
  8
LC-001-002-----0
  6
CONTINUOUS
  5
5F0
 10
128.356259
 20
131.791161
 30
0.0
 40
0.8
 50
90.0
 51
180.0
  0
ARC
  8
LC-001-002-----0
  6
CONTINUOUS
  5
5F1
 10
128.356259
 20
131.791161
 30
0.0
 40
1.5
 50
180.0
 51
270.0
  0
ARC
  8
LC-001-002-----0
  6
CONTINUOUS
  5
5F2
 10
128.356259
 20
131.791161
 30
0.0
 40
0.8
 50
180.0
 51
270.0
  0
LINE
  8
LC-001-002-----0
  6
CONTINUOUS
  5
5F3
 10
128.356259
 20
130.991161
 30
0.0
 11
131.156259
 21
130.991161
 31
0.0
  0
LINE
  8
LC-001-002-----0
  6
CONTINUOUS
  5
5F4
 10
128.356259
 20
130.291161
 30
0.0
 11
131.156259
 21
130.291161
 31
0.0
  0
LINE
  8
LC-001-002-----0
  6
CONTINUOUS
  5
5F5
 10
131.156259
 20
130.291161
 30
0.0
 11
131.156259
 21
130.991161
 31
0.0
  0
LINE
  8
LC-001-002-----0
  6
CONTINUOUS
  5
5F6
 10
112.271239
 20
160.06329
 30
0.0
 11
104.309046
 21
160.641897
 31
0.0
  0
LINE
  8
LC-001-002-----0
  6
CONTINUOUS
  5
5F7
 10
94.309046
 20
163.212262
 30
0.0
 11
94.309046
 21
158.605669
 31
0.0
  0
LINE
  8
LC-001-002-----0
  6
CONTINUOUS
  5
5F8
 10
104.309046
 20
160.641897
 30
0.0
 11
100.242197
 21
160.937433
 31
0.0
  0
LINE
  8
LC-001-002-----0
  6
CONTINUOUS
  5
5F9
 10
104.309046
 20
155.93135
 30
0.0
 11
99.600168
 21
156.273541
 31
0.0
  0
LINE
  8
LC-001-002-----0
  6
CONTINUOUS
  5
5FA
 10
53.281348
 20
166.201645
 30
0.0
 11
-45.690954
 21
166.201645
 31
0.0
  0
LINE
  8
LC-001-002-----0
  6
CONTINUOUS
  5
5FB
 10
53.281348
 20
166.201645
 30
0.0
 11
64.309046
 21
165.437263
 31
0.0
  0
ARC
  8
LC-001-002-----0
  6
CONTINUOUS
  5
5FC
 10
103.858328
 20
179.243694
 30
0.0
 40
18.66
 50
238.247327
 51
258.82592
  0
LINE
  8
LC-001-002-----0
  6
CONTINUOUS
  5
5FD
 10
64.309046
 20
165.437263
 30
0.0
 11
94.038436
 21
163.376579
 31
0.0
  0
LINE
  8
LC-001-002-----0
  6
CONTINUOUS
  5
5FE
 10
64.306933
 20
160.726133
 30
0.0
 11
87.572396
 21
159.113494
 31
0.0
  0
LINE
  8
LC-001-002-----0
  6
CONTINUOUS
  5
5FF
 10
282.618654
 20
139.891828
 30
0.0
 11
279.618654
 21
136.891828
 31
0.0
  0
LINE
  8
LC-001-002-----0
  6
CONTINUOUS
  5
600
 10
272.618654
 20
136.891828
 30
0.0
 11
272.618654
 21
139.391828
 31
0.0
  0
LINE
  8
LC-001-002-----0
  6
CONTINUOUS
  5
601
 10
280.118654
 20
155.891473
 30
0.0
 11
278.618654
 21
155.891473
 31
0.0
  0
LINE
  8
LC-001-002-----0
  6
CONTINUOUS
  5
602
 10
280.118654
 20
139.391828
 30
0.0
 11
280.118654
 21
156.891473
 31
0.0
  0
ARC
  8
LC-002-002-RND-0
  6
CONTINUOUS
  5
603
 10
278.618654
 20
153.891473
 30
0.0
 40
2.0
 50
90.0
 51
180.0
  0
LINE
  8
LC-001-002-----0
  6
CONTINUOUS
  5
604
 10
267.191394
 20
136.891828
 30
0.0
 11
267.191394
 21
139.391828
 31
0.0
  0
LINE
  8
LC-001-002-----0
  6
CONTINUOUS
  5
605
 10
259.691437
 20
139.391828
 30
0.0
 11
280.118654
 21
139.391828
 31
0.0
  0
LINE
  8
LC-001-002-----0
  6
CONTINUOUS
  5
606
 10
125.618654
 20
139.891828
 30
0.0
 11
128.618654
 21
136.891828
 31
0.0
  0
LINE
  8
LC-001-002-----0
  6
CONTINUOUS
  5
607
 10
135.618654
 20
136.891828
 30
0.0
 11
135.618654
 21
139.391828
 31
0.0
  0
LINE
  8
LC-001-002-----0
  6
CONTINUOUS
  5
608
 10
128.118654
 20
155.891473
 30
0.0
 11
129.618654
 21
155.891473
 31
0.0
  0
LINE
  8
LC-001-002-----0
  6
CONTINUOUS
  5
609
 10
128.118654
 20
155.891473
 30
0.0
 11
128.118654
 21
156.891473
 31
0.0
  0
ARC
  8
LC-002-002-RND-0
  6
CONTINUOUS
  5
60A
 10
129.618654
 20
153.891473
 30
0.0
 40
2.0
 50
0.0
 51
90.0
  0
LINE
  8
LC-001-002-----0
  6
CONTINUOUS
  5
60B
 10
141.045914
 20
136.891828
 30
0.0
 11
141.045914
 21
139.391828
 31
0.0
  0
LINE
  8
LC-001-002-----0
  6
CONTINUOUS
  5
60C
 10
148.545914
 20
136.891828
 30
0.0
 11
148.545914
 21
139.391828
 31
0.0
  0
LINE
  8
LC-001-002-----0
  6
CONTINUOUS
  5
60D
 10
159.808949
 20
136.891828
 30
0.0
 11
159.808949
 21
139.391828
 31
0.0
  0
LINE
  8
LC-001-002-----0
  6
CONTINUOUS
  5
60E
 10
162.721183
 20
139.391828
 30
0.0
 11
159.808949
 21
139.391828
 31
0.0
  0
LINE
  8
LC-001-002-----0
  6
CONTINUOUS
  5
60F
 10
148.545914
 20
139.391828
 30
0.0
 11
128.356259
 21
139.391828
 31
0.0
  0
LINE
  8
LC-001-002-----0
  6
CONTINUOUS
  5
610
 10
131.618654
 20
153.891473
 30
0.0
 11
131.618654
 21
139.391828
 31
0.0
  0
LINE
  8
LC-001-002-----0
  6
CONTINUOUS
  5
611
 10
125.618654
 20
156.891473
 30
0.0
 11
125.618654
 21
139.891828
 31
0.0
  0
LINE
  8
LC-001-002-----0
  6
CONTINUOUS
  5
612
 10
133.868654
 20
136.891828
 30
0.0
 11
161.295268
 21
136.891828
 31
0.0
  0
LINE
  8
LC-001-002-----0
  6
CONTINUOUS
  5
613
 10
125.618654
 20
156.891473
 30
0.0
 11
204.118654
 21
156.891473
 31
0.0
  0
LINE
  8
LC-001-002-----0
  6
CONTINUOUS
  5
614
 10
133.868654
 20
136.891828
 30
0.0
 11
128.618654
 21
136.891828
 31
0.0
  0
LINE
  8
LC-001-002-----0
  6
CONTINUOUS
  5
615
 10
276.618654
 20
153.891473
 30
0.0
 11
276.618654
 21
139.391828
 31
0.0
  0
LINE
  8
LC-001-002-----0
  6
CONTINUOUS
  5
616
 10
282.618654
 20
156.891473
 30
0.0
 11
282.618654
 21
139.891828
 31
0.0
  0
LINE
  8
LC-001-002-----0
  6
CONTINUOUS
  5
617
 10
274.368654
 20
136.891828
 30
0.0
 11
246.918401
 21
136.891828
 31
0.0
  0
LINE
  8
LC-001-002-----0
  6
CONTINUOUS
  5
618
 10
282.618654
 20
156.891473
 30
0.0
 11
204.118654
 21
156.891473
 31
0.0
  0
LINE
  8
LC-001-002-----0
  6
CONTINUOUS
  5
619
 10
274.368654
 20
136.891828
 30
0.0
 11
279.618654
 21
136.891828
 31
0.0
  0
LINE
  8
LC-001-002-----0
  6
CONTINUOUS
  5
61A
 10
125.556259
 20
153.368625
 30
0.0
 11
125.556259
 21
139.691161
 31
0.0
  0
LINE
  8
LC-001-002-----0
  6
CONTINUOUS
  5
61B
 10
128.118654
 20
139.391828
 30
0.0
 11
128.118654
 21
156.891473
 31
0.0
  0
LINE
  8
LC-001-002-----0
  6
CONTINUOUS
  5
61C
 10
453.928261
 20
166.201645
 30
0.0
 11
453.928261
 21
161.501645
 31
0.0
  0
LINE
  8
LC-001-002-----0
  6
CONTINUOUS
  5
61D
 10
443.928261
 20
166.201645
 30
0.0
 11
443.928261
 21
161.501645
 31
0.0
  0
LINE
  8
LC-001-002-----0
  6
CONTINUOUS
  5
61E
 10
433.928261
 20
166.201645
 30
0.0
 11
433.928261
 21
161.501645
 31
0.0
  0
LINE
  8
LC-001-002-----0
  6
CONTINUOUS
  5
61F
 10
423.928261
 20
166.201645
 30
0.0
 11
423.928261
 21
161.501645
 31
0.0
  0
LINE
  8
LC-001-002-----0
  6
CONTINUOUS
  5
620
 10
413.928261
 20
166.201645
 30
0.0
 11
413.928261
 21
161.501645
 31
0.0
  0
LINE
  8
LC-001-002-----0
  6
CONTINUOUS
  5
621
 10
403.928261
 20
166.201645
 30
0.0
 11
403.928261
 21
161.501645
 31
0.0
  0
LINE
  8
LC-001-002-----0
  6
CONTINUOUS
  5
622
 10
393.928261
 20
166.201645
 30
0.0
 11
393.928261
 21
161.501645
 31
0.0
  0
LINE
  8
LC-001-002-----0
  6
CONTINUOUS
  5
623
 10
383.928261
 20
166.201645
 30
0.0
 11
383.928261
 21
161.501645
 31
0.0
  0
LINE
  8
LC-001-002-----0
  6
CONTINUOUS
  5
624
 10
373.928261
 20
166.201645
 30
0.0
 11
373.928261
 21
161.501645
 31
0.0
  0
LINE
  8
LC-001-002-----0
  6
CONTINUOUS
  5
625
 10
363.928261
 20
166.201645
 30
0.0
 11
363.928261
 21
161.501645
 31
0.0
  0
LINE
  8
LC-001-002-----0
  6
CONTINUOUS
  5
626
 10
354.58253
 20
161.501645
 30
0.0
 11
453.928261
 21
161.501645
 31
0.0
  0
LINE
  8
LC-001-002-----0
  6
CONTINUOUS
  5
627
 10
354.955959
 20
166.201645
 30
0.0
 11
453.928261
 21
166.201645
 31
0.0
  0
LINE
  8
LC-001-002-----0
  6
CONTINUOUS
  5
628
 10
353.928261
 20
166.13041
 30
0.0
 11
353.928261
 21
161.455894
 31
0.0
  0
LINE
  8
LC-001-002-----0
  6
CONTINUOUS
  5
629
 10
343.928261
 20
165.437263
 30
0.0
 11
343.928261
 21
160.756627
 31
0.0
  0
LINE
  8
LC-001-002-----0
  6
CONTINUOUS
  5
62A
 10
333.928261
 20
164.744116
 30
0.0
 11
333.928261
 21
160.057359
 31
0.0
  0
LINE
  8
LC-001-002-----0
  6
CONTINUOUS
  5
62B
 10
354.955959
 20
166.201645
 30
0.0
 11
314.198871
 21
163.376579
 31
0.0
  0
LINE
  8
LC-001-002-----0
  6
CONTINUOUS
  5
62C
 10
323.928261
 20
164.050969
 30
0.0
 11
323.928261
 21
159.358091
 31
0.0
  0
LINE
  8
LC-001-002-----0
  6
CONTINUOUS
  5
62D
 10
313.928261
 20
163.212262
 30
0.0
 11
313.928261
 21
158.607851
 31
0.0
  0
LINE
  8
LC-001-002-----0
  6
CONTINUOUS
  5
62E
 10
303.928261
 20
160.641897
 30
0.0
 11
303.928261
 21
155.93135
 31
0.0
  0
ARC
  8
LC-001-002-----0
  6
CONTINUOUS
  5
62F
 10
304.378979
 20
179.243694
 30
0.0
 40
18.66
 50
281.17408
 51
301.752673
  0
LINE
  8
LC-001-002-----0
  6
CONTINUOUS
  5
630
 10
295.862515
 20
160.055765
 30
0.0
 11
307.995111
 21
160.937433
 31
0.0
  0
ARC
  8
LC-001-002-----0
  6
CONTINUOUS
  5
631
 10
306.480546
 20
167.886418
 30
0.0
 40
6.3
 50
274.0
 51
315.621929
  0
ARC
  8
LC-001-002-----0
  6
CONTINUOUS
  5
632
 10
306.480546
 20
167.886418
 30
0.0
 40
7.0
 50
274.0
 51
320.993096
  0
LINE
  8
LC-001-002-----0
  6
CONTINUOUS
  5
633
 10
306.922228
 20
161.591339
 30
0.0
 11
289.192753
 21
160.351573
 31
0.0
  0
LINE
  8
LC-001-002-----0
  6
CONTINUOUS
  5
634
 10
306.968842
 20
160.903469
 30
0.0
 11
289.241582
 21
159.663858
 31
0.0
  0
ARC
  8
LC-002-002-RND-0
  6
CONTINUOUS
  5
635
 10
289.681048
 20
153.368625
 30
0.0
 40
7.0
 50
94.0
 51
180.0
  0
ARC
  8
LC-002-002-RND-0
  6
CONTINUOUS
  5
636
 10
289.681048
 20
153.379205
 30
0.0
 40
6.3
 50
94.0
 51
180.0
  0
LINE
  8
LC-001-002-----0
  6
CONTINUOUS
  5
637
 10
283.381048
 20
153.379205
 30
0.0
 11
283.381048
 21
139.691161
 31
0.0
  0
LINE
  8
LC-001-002-----0
  6
CONTINUOUS
  5
638
 10
282.681048
 20
153.368625
 30
0.0
 11
282.681048
 21
139.691161
 31
0.0
  0
ARC
  8
LC-001-002-----0
  6
CONTINUOUS
  5
639
 10
279.881048
 20
139.691161
 30
0.0
 40
2.8
 50
270.0
 51
0.0
  0
ARC
  8
LC-001-002-----0
  6
CONTINUOUS
  5
63A
 10
279.881048
 20
139.691161
 30
0.0
 40
3.5
 50
270.0
 51
0.0
  0
ARC
  8
LC-001-002-----0
  6
CONTINUOUS
  5
63B
 10
279.880768
 20
135.891529
 30
0.0
 40
1.0
 50
90.00028
 51
180.00028
  0
ARC
  8
LC-001-002-----0
  6
CONTINUOUS
  5
63C
 10
279.880768
 20
135.891529
 30
0.0
 40
0.3
 50
90.00028
 51
180.00028
  0
LINE
  8
LC-001-002-----0
  6
CONTINUOUS
  5
63D
 10
278.881048
 20
135.891161
 30
0.0
 11
278.881048
 21
133.591161
 31
0.0
  0
LINE
  8
LC-001-002-----0
  6
CONTINUOUS
  5
63E
 10
279.581048
 20
135.891161
 30
0.0
 11
279.581048
 21
133.591161
 31
0.0
  0
ARC
  8
LC-001-002-----0
  6
CONTINUOUS
  5
63F
 10
279.881048
 20
133.591161
 30
0.0
 40
1.0
 50
180.0
 51
270.0
  0
ARC
  8
LC-001-002-----0
  6
CONTINUOUS
  5
640
 10
279.880526
 20
133.591161
 30
0.0
 40
0.3
 50
180.0
 51
270.0
  0
ARC
  8
LC-001-002-----0
  6
CONTINUOUS
  5
641
 10
279.881048
 20
131.791161
 30
0.0
 40
1.5
 50
0.0
 51
90.0
  0
ARC
  8
LC-001-002-----0
  6
CONTINUOUS
  5
642
 10
279.881048
 20
131.791161
 30
0.0
 40
1.5
 50
270.0
 51
0.0
  0
ARC
  8
LC-001-002-----0
  6
CONTINUOUS
  5
643
 10
279.881048
 20
131.791161
 30
0.0
 40
0.8
 50
0.0
 51
90.0
  0
ARC
  8
LC-001-002-----0
  6
CONTINUOUS
  5
644
 10
279.881048
 20
131.791161
 30
0.0
 40
0.8
 50
270.0
 51
0.0
  0
LINE
  8
LC-001-002-----0
  6
CONTINUOUS
  5
645
 10
279.881048
 20
130.991161
 30
0.0
 11
277.081048
 21
130.991161
 31
0.0
  0
LINE
  8
LC-001-002-----0
  6
CONTINUOUS
  5
646
 10
279.881048
 20
130.291161
 30
0.0
 11
277.081048
 21
130.291161
 31
0.0
  0
LINE
  8
LC-001-002-----0
  6
CONTINUOUS
  5
647
 10
277.081048
 20
130.291161
 30
0.0
 11
277.081048
 21
130.991161
 31
0.0
  0
LINE
  8
LC-001-002-----0
  6
CONTINUOUS
  5
648
 10
206.618654
 20
155.891473
 30
0.0
 11
204.118654
 21
155.891473
 31
0.0
  0
ARC
  8
LC-001-002-----0
  6
CONTINUOUS
  5
649
 10
267.618156
 20
153.891473
 30
0.0
 40
2.0
 50
90.0
 51
180.0
  0
LINE
  8
LC-001-002-----0
  6
CONTINUOUS
  5
64A
 10
271.150965
 20
155.891473
 30
0.0
 11
267.618156
 21
155.891473
 31
0.0
  0
LINE
  8
LC-001-002-----0
  6
CONTINUOUS
  5
64B
 10
271.150965
 20
139.391828
 30
0.0
 11
271.150965
 21
155.891473
 31
0.0
  0
LINE
  8
LC-001-002-----0
  6
CONTINUOUS
  5
64C
 10
206.618654
 20
154.239602
 30
0.0
 11
206.618654
 21
155.891473
 31
0.0
  0
LINE
  8
LC-001-002-----0
  6
CONTINUOUS
  5
64D
 10
268.118156
 20
139.391828
 30
0.0
 11
268.118156
 21
153.891473
 31
0.0
  0
LINE
  8
LC-001-002-----0
  6
CONTINUOUS
  5
64E
 10
265.618156
 20
139.391828
 30
0.0
 11
265.618156
 21
153.891473
 31
0.0
  0
ARC
  8
LC-001-002-----0
  6
CONTINUOUS
  5
64F
 10
270.118156
 20
153.891473
 30
0.0
 40
2.0
 50
90.0
 51
180.0
  0
LINE
  8
LC-001-002-----0
  6
CONTINUOUS
  5
650
 10
242.512159
 20
142.224959
 30
0.0
 11
242.512159
 21
153.891473
 31
0.0
  0
LINE
  8
LC-001-002-----0
  6
CONTINUOUS
  5
651
 10
238.182032
 20
144.012175
 30
0.0
 11
238.182032
 21
153.891473
 31
0.0
  0
LINE
  8
LC-001-002-----0
  6
CONTINUOUS
  5
652
 10
244.263152
 20
155.891473
 30
0.0
 11
240.182032
 21
155.891473
 31
0.0
  0
ARC
  8
LC-001-002-----0
  6
CONTINUOUS
  5
653
 10
240.182032
 20
153.891473
 30
0.0
 40
2.0
 50
90.0
 51
180.0
  0
ARC
  8
LC-001-002-----0
  6
CONTINUOUS
  5
654
 10
244.512159
 20
153.891473
 30
0.0
 40
2.0
 50
97.096995
 51
180.0
  0
LINE
  8
LC-001-002-----0
  6
CONTINUOUS
  5
655
 10
244.263152
 20
140.803176
 30
0.0
 11
244.263152
 21
155.891473
 31
0.0
  0
LINE
  8
LC-001-002-----0
  6
CONTINUOUS
  5
656
 10
201.618654
 20
155.891473
 30
0.0
 11
204.118654
 21
155.891473
 31
0.0
  0
ARC
  8
LC-001-002-----0
  6
CONTINUOUS
  5
657
 10
140.619152
 20
153.891473
 30
0.0
 40
2.0
 50
0.0
 51
90.0
  0
LINE
  8
LC-001-002-----0
  6
CONTINUOUS
  5
658
 10
137.086342
 20
155.891473
 30
0.0
 11
140.619152
 21
155.891473
 31
0.0
  0
LINE
  8
LC-001-002-----0
  6
CONTINUOUS
  5
659
 10
137.086342
 20
139.391828
 30
0.0
 11
137.086342
 21
155.891473
 31
0.0
  0
LINE
  8
LC-001-002-----0
  6
CONTINUOUS
  5
65A
 10
201.618654
 20
154.239602
 30
0.0
 11
201.618654
 21
155.891473
 31
0.0
  0
LINE
  8
LC-001-002-----0
  6
CONTINUOUS
  5
65B
 10
140.119152
 20
139.391828
 30
0.0
 11
140.119152
 21
153.891473
 31
0.0
  0
LINE
  8
LC-001-002-----0
  6
CONTINUOUS
  5
65C
 10
142.619152
 20
139.391828
 30
0.0
 11
142.619152
 21
153.891473
 31
0.0
  0
ARC
  8
LC-001-002-----0
  6
CONTINUOUS
  5
65D
 10
138.119152
 20
153.891473
 30
0.0
 40
2.0
 50
0.0
 51
90.0
  0
LINE
  8
LC-001-002-----0
  6
CONTINUOUS
  5
65E
 10
165.725148
 20
142.24055
 30
0.0
 11
165.725148
 21
153.891473
 31
0.0
  0
LINE
  8
LC-001-002-----0
  6
CONTINUOUS
  5
65F
 10
170.055275
 20
144.239418
 30
0.0
 11
170.055275
 21
153.891473
 31
0.0
  0
LINE
  8
LC-001-002-----0
  6
CONTINUOUS
  5
660
 10
163.974155
 20
155.891473
 30
0.0
 11
168.055275
 21
155.891473
 31
0.0
  0
ARC
  8
LC-001-002-----0
  6
CONTINUOUS
  5
661
 10
168.055275
 20
153.891473
 30
0.0
 40
2.0
 50
0.0
 51
90.0
  0
ARC
  8
LC-001-002-----0
  6
CONTINUOUS
  5
662
 10
163.725148
 20
153.891473
 30
0.0
 40
2.0
 50
0.0
 51
82.903005
  0
LINE
  8
LC-001-002-----0
  6
CONTINUOUS
  5
663
 10
163.974155
 20
140.826215
 30
0.0
 11
163.974155
 21
155.891473
 31
0.0
  0
LINE
  8
LC-001-002-----0
  6
CONTINUOUS
  5
664
 10
112.270742
 20
155.352778
 30
0.0
 11
112.270742
 21
160.063326
 31
0.0
  0
LINE
  8
LC-001-002-----0
  6
CONTINUOUS
  5
665
 10
295.966565
 20
155.352778
 30
0.0
 11
295.966565
 21
160.055765
 31
0.0
  0
LINE
  8
LC-001-002-----0
  6
CONTINUOUS
  5
666
 10
259.659568
 20
136.892114
 30
0.0
 11
259.659555
 21
139.392114
 31
0.0
  0
LINE
  8
LC-001-002-----0
  6
CONTINUOUS
  5
667
 10
248.396533
 20
136.892056
 30
0.0
 11
248.39652
 21
139.392056
 31
0.0
  0
LINE
  8
LC-001-002-----0
  6
CONTINUOUS
  5
668
 10
245.484286
 20
139.392041
 30
0.0
 11
248.39652
 21
139.392056
 31
0.0
  0
LINE
  8
LC-001-002-----0
  6
CONTINUOUS
  5
669
 10
295.630368
 20
155.622512
 30
0.0
 11
289.694715
 21
155.207451
 31
0.0
  0
LINE
  8
LC-001-002-----0
  6
CONTINUOUS
  5
66A
 10
290.771295
 20
152.761683
 30
0.0
 11
290.771295
 21
139.909264
 31
0.0
  0
LINE
  8
LC-001-002-----0
  6
CONTINUOUS
  5
66B
 10
290.771295
 20
152.761683
 30
0.0
 11
292.489238
 21
152.761683
 31
0.0
  0
LINE
  8
LC-001-002-----0
  6
CONTINUOUS
  5
66C
 10
295.63062
 20
155.618907
 30
0.0
 11
295.63062
 21
147.995934
 31
0.0
  0
ARC
  8
LC-002-002-RND-0
  6
CONTINUOUS
  5
66D
 10
294.55077
 20
148.008768
 30
0.0
 40
1.07985
 50
273.999997
 51
0.0
  0
LINE
  8
LC-001-002-----0
  6
CONTINUOUS
  5
66E
 10
294.626096
 20
146.931548
 30
0.0
 11
292.489238
 21
146.782125
 31
0.0
  0
LINE
  8
LC-001-002-----0
  6
CONTINUOUS
  5
66F
 10
292.489238
 20
146.782125
 30
0.0
 11
292.489238
 21
152.761683
 31
0.0
  0
ARC
  8
LC-001-002-----0
  6
CONTINUOUS
  5
670
 10
289.975386
 20
151.193665
 30
0.0
 40
4.023715
 50
93.998836
 51
111.246312
  0
LINE
  8
LC-001-002-----0
  6
CONTINUOUS
  5
671
 10
283.577406
 20
149.646742
 30
0.0
 11
288.51728
 21
154.943893
 31
0.0
  0
ARC
  8
LC-001-002-----0
  6
CONTINUOUS
  5
672
 10
283.794635
 20
149.446365
 30
0.0
 40
0.296443
 50
137.000136
 51
290.000136
  0
LINE
  8
LC-001-002-----0
  6
CONTINUOUS
  5
673
 10
283.89559
 20
149.165997
 30
0.0
 11
287.188781
 21
150.364545
 31
0.0
  0
ARC
  8
LC-001-002-----0
  6
CONTINUOUS
  5
674
 10
287.526727
 20
149.435988
 30
0.0
 40
0.988142
 50
359.998586
 51
109.998839
  0
LINE
  8
LC-001-002-----0
  6
CONTINUOUS
  5
675
 10
288.514868
 20
149.435988
 30
0.0
 11
288.514839
 21
148.120249
 31
0.0
  0
ARC
  8
LC-001-002-----0
  6
CONTINUOUS
  5
676
 10
288.020767
 20
148.120261
 30
0.0
 40
0.494071
 50
316.998839
 51
359.998703
  0
LINE
  8
LC-001-002-----0
  6
CONTINUOUS
  5
677
 10
283.577247
 20
142.630932
 30
0.0
 11
288.382101
 21
147.783298
 31
0.0
  0
ARC
  8
LC-001-002-----0
  6
CONTINUOUS
  5
678
 10
283.794635
 20
142.430555
 30
0.0
 40
0.296443
 50
137.000136
 51
290.000136
  0
LINE
  8
LC-001-002-----0
  6
CONTINUOUS
  5
679
 10
283.895431
 20
142.150187
 30
0.0
 11
287.188622
 21
143.348735
 31
0.0
  0
ARC
  8
LC-001-002-----0
  6
CONTINUOUS
  5
67A
 10
287.526568
 20
142.420178
 30
0.0
 40
0.988142
 50
359.998586
 51
109.998839
  0
LINE
  8
LC-001-002-----0
  6
CONTINUOUS
  5
67B
 10
288.514696
 20
142.420155
 30
0.0
 11
288.514634
 21
139.907356
 31
0.0
  0
LINE
  8
LC-001-002-----0
  6
CONTINUOUS
  5
67C
 10
290.770766
 20
139.909264
 30
0.0
 11
288.514634
 21
139.909264
 31
0.0
  0
LINE
  8
LC-001-002-----0
  6
CONTINUOUS
  5
67D
 10
112.575017
 20
155.622041
 30
0.0
 11
118.510672
 21
155.207011
 31
0.0
  0
LINE
  8
LC-001-002-----0
  6
CONTINUOUS
  5
67E
 10
117.434105
 20
152.761237
 30
0.0
 11
117.434171
 21
139.908818
 31
0.0
  0
LINE
  8
LC-001-002-----0
  6
CONTINUOUS
  5
67F
 10
117.434105
 20
152.761237
 30
0.0
 11
115.716162
 21
152.761228
 31
0.0
  0
LINE
  8
LC-001-002-----0
  6
CONTINUOUS
  5
680
 10
112.574765
 20
155.618436
 30
0.0
 11
112.574805
 21
147.995463
 31
0.0
  0
ARC
  8
LC-002-002-RND-0
  6
CONTINUOUS
  5
681
 10
113.654655
 20
148.008302
 30
0.0
 40
1.07985
 50
180.000295
 51
266.000298
  0
LINE
  8
LC-001-002-----0
  6
CONTINUOUS
  5
682
 10
113.579334
 20
146.931082
 30
0.0
 11
115.716193
 21
146.78167
 31
0.0
  0
LINE
  8
LC-001-002-----0
  6
CONTINUOUS
  5
683
 10
115.716193
 20
146.78167
 30
0.0
 11
115.716162
 21
152.761228
 31
0.0
  0
ARC
  8
LC-001-002-----0
  6
CONTINUOUS
  5
684
 10
118.230021
 20
151.193223
 30
0.0
 40
4.023715
 50
68.753983
 51
86.001459
  0
LINE
  8
LC-001-002-----0
  6
CONTINUOUS
  5
685
 10
124.62801
 20
149.646333
 30
0.0
 11
119.688108
 21
154.943459
 31
0.0
  0
ARC
  8
LC-001-002-----0
  6
CONTINUOUS
  5
686
 10
124.410782
 20
149.445955
 30
0.0
 40
0.296443
 50
250.000159
 51
43.000159
  0
LINE
  8
LC-001-002-----0
  6
CONTINUOUS
  5
687
 10
124.309828
 20
149.165586
 30
0.0
 11
121.016631
 21
150.364117
 31
0.0
  0
ARC
  8
LC-001-002-----0
  6
CONTINUOUS
  5
688
 10
120.67869
 20
149.435559
 30
0.0
 40
0.988142
 50
70.001456
 51
180.001708
  0
LINE
  8
LC-001-002-----0
  6
CONTINUOUS
  5
689
 10
119.690549
 20
149.435554
 30
0.0
 11
119.690585
 21
148.119815
 31
0.0
  0
ARC
  8
LC-001-002-----0
  6
CONTINUOUS
  5
68A
 10
120.184656
 20
148.119829
 30
0.0
 40
0.494071
 50
180.001592
 51
223.001456
  0
LINE
  8
LC-001-002-----0
  6
CONTINUOUS
  5
68B
 10
124.628205
 20
142.630523
 30
0.0
 11
119.823324
 21
147.782864
 31
0.0
  0
ARC
  8
LC-001-002-----0
  6
CONTINUOUS
  5
68C
 10
124.410818
 20
142.430144
 30
0.0
 40
0.296443
 50
250.000159
 51
43.000159
  0
LINE
  8
LC-001-002-----0
  6
CONTINUOUS
  5
68D
 10
124.310023
 20
142.149776
 30
0.0
 11
121.016826
 21
143.348307
 31
0.0
  0
ARC
  8
LC-001-002-----0
  6
CONTINUOUS
  5
68E
 10
120.678885
 20
142.419748
 30
0.0
 40
0.988142
 50
70.001456
 51
180.001708
  0
LINE
  8
LC-001-002-----0
  6
CONTINUOUS
  5
68F
 10
119.690757
 20
142.419721
 30
0.0
 11
119.690832
 21
139.906922
 31
0.0
  0
LINE
  8
LC-001-002-----0
  6
CONTINUOUS
  5
690
 10
117.4347
 20
139.908818
 30
0.0
 11
119.690832
 21
139.90883
 31
0.0
  0
LINE
  8
LC-001-002-----0
  6
CONTINUOUS
  5
691
 10
194.356859
 20
144.239418
 30
0.0
 11
204.106691
 21
144.239418
 31
0.0
  0
LINE
  8
LC-001-002-----0
  6
CONTINUOUS
  5
692
 10
213.856856
 20
144.239603
 30
0.0
 11
204.106914
 21
144.23961
 31
0.0
  0
LINE
  8
LC-001-002-----0
  6
CONTINUOUS
  5
693
 10
205.533585
 20
113.239418
 30
0.0
 11
205.541435
 21
142.239589
 31
0.0
  0
LINE
  8
LC-001-002-----0
  6
CONTINUOUS
  5
694
 10
218.594351
 20
113.239418
 30
0.0
 11
219.063262
 21
116.739418
 31
0.0
  0
LINE
  8
LC-001-002-----0
  6
CONTINUOUS
  5
695
 10
219.063262
 20
116.739418
 30
0.0
 11
219.063262
 21
119.825205
 31
0.0
  0
LINE
  8
LC-001-002-----0
  6
CONTINUOUS
  5
696
 10
219.063262
 20
121.239418
 30
0.0
 11
220.813263
 21
121.239418
 31
0.0
  0
ARC
  8
LC-001-002-----0
  6
CONTINUOUS
  5
697
 10
219.361955
 20
120.532311
 30
0.0
 40
0.767605
 50
112.900021
 51
247.099979
  0
LINE
  8
LC-001-002-----0
  6
CONTINUOUS
  5
698
 10
220.813263
 20
121.239418
 30
0.0
 11
220.813263
 21
142.239589
 31
0.0
  0
LINE
  8
LC-001-002-----0
  6
CONTINUOUS
  5
699
 10
150.965738
 20
-22.480634
 30
0.0
 11
152.625991
 21
-22.480635
 31
0.0
  0
LINE
  8
LC-001-002-----0
  6
CONTINUOUS
  5
69A
 10
259.625991
 20
-17.480705
 30
0.0
 11
258.286246
 21
-22.480704
 31
0.0
  0
LINE
  8
LC-001-002-----0
  6
CONTINUOUS
  5
69B
 10
149.625991
 20
-17.480633
 30
0.0
 11
150.965738
 21
-22.480634
 31
0.0
  0
LINE
  8
LC-001-002-----0
  6
CONTINUOUS
  5
69C
 10
256.625991
 20
-22.480703
 30
0.0
 11
258.286246
 21
-22.480704
 31
0.0
  0
LINE
  8
LC-001-002-----0
  6
CONTINUOUS
  5
69D
 10
152.625991
 20
-22.480635
 30
0.0
 11
256.625991
 21
-22.480703
 31
0.0
  0
LINE
  8
LC-001-002-----0
  6
CONTINUOUS
  5
69E
 10
149.625991
 20
51.019295
 30
0.0
 11
149.625991
 21
-17.480633
 31
0.0
  0
LINE
  8
LC-001-002-----0
  6
CONTINUOUS
  5
69F
 10
152.625991
 20
54.007172
 30
0.0
 11
152.625991
 21
-22.480705
 31
0.0
  0
LINE
  8
LC-001-002-----0
  6
CONTINUOUS
  5
6A0
 10
256.625991
 20
54.007172
 30
0.0
 11
256.625991
 21
-22.480705
 31
0.0
  0
LINE
  8
LC-001-002-----0
  6
CONTINUOUS
  5
6A1
 10
259.625991
 20
51.019295
 30
0.0
 11
259.625991
 21
-17.480705
 31
0.0
  0
LINE
  8
LC-001-002-----0
  6
CONTINUOUS
  5
6A2
 10
149.625991
 20
51.019139
 30
0.0
 11
136.125991
 21
51.019139
 31
0.0
  0
LINE
  8
LC-003-005-----0
  6
CONTINUOUS
  5
6A3
 10
150.014088
 20
51.019139
 30
0.0
 11
152.625991
 21
53.631042
 31
0.0
  0
LINE
  8
LC-003-005-----0
  6
CONTINUOUS
  5
6A4
 10
147.185661
 20
51.019139
 30
0.0
 11
150.173694
 21
54.007172
 31
0.0
  0
LINE
  8
LC-003-005-----0
  6
CONTINUOUS
  5
6A5
 10
144.357234
 20
51.019139
 30
0.0
 11
147.345267
 21
54.007172
 31
0.0
  0
LINE
  8
LC-003-005-----0
  6
CONTINUOUS
  5
6A6
 10
141.528807
 20
51.019139
 30
0.0
 11
144.51684
 21
54.007172
 31
0.0
  0
LINE
  8
LC-003-005-----0
  6
CONTINUOUS
  5
6A7
 10
138.700379
 20
51.019139
 30
0.0
 11
141.688413
 21
54.007172
 31
0.0
  0
LINE
  8
LC-003-005-----0
  6
CONTINUOUS
  5
6A8
 10
135.874596
 20
51.021783
 30
0.0
 11
138.859986
 21
54.007172
 31
0.0
  0
LINE
  8
LC-003-005-----0
  6
CONTINUOUS
  5
6A9
 10
133.366452
 20
51.342066
 30
0.0
 11
136.031559
 21
54.007172
 31
0.0
  0
LINE
  8
LC-003-005-----0
  6
CONTINUOUS
  5
6AA
 10
131.253412
 20
52.057452
 30
0.0
 11
133.518861
 21
54.322901
 31
0.0
  0
LINE
  8
LC-003-005-----0
  6
CONTINUOUS
  5
6AB
 10
129.435036
 20
53.067504
 30
0.0
 11
131.510233
 21
55.1427
 31
0.0
  0
LINE
  8
LC-003-005-----0
  6
CONTINUOUS
  5
6AC
 10
127.868935
 20
54.32983
 30
0.0
 11
129.863023
 21
56.323918
 31
0.0
  0
LINE
  8
LC-003-005-----0
  6
CONTINUOUS
  5
6AD
 10
126.541351
 20
55.830672
 30
0.0
 11
128.536634
 21
57.825956
 31
0.0
  0
LINE
  8
LC-003-005-----0
  6
CONTINUOUS
  5
6AE
 10
125.459999
 20
57.577748
 30
0.0
 11
127.54557
 21
59.663319
 31
0.0
  0
LINE
  8
LC-003-005-----0
  6
CONTINUOUS
  5
6AF
 10
124.657955
 20
59.604131
 30
0.0
 11
126.974648
 21
61.920825
 31
0.0
  0
LINE
  8
LC-003-005-----0
  6
CONTINUOUS
  5
6B0
 10
124.214297
 20
61.9889
 30
0.0
 11
126.912888
 21
64.687491
 31
0.0
  0
LINE
  8
LC-003-005-----0
  6
CONTINUOUS
  5
6B1
 10
124.173857
 20
64.776887
 30
0.0
 11
126.912888
 21
67.515918
 31
0.0
  0
LINE
  8
LC-003-005-----0
  6
CONTINUOUS
  5
6B2
 10
124.173857
 20
67.605315
 30
0.0
 11
126.912888
 21
70.344345
 31
0.0
  0
LINE
  8
LC-003-005-----0
  6
CONTINUOUS
  5
6B3
 10
124.173857
 20
70.433742
 30
0.0
 11
126.912888
 21
73.172772
 31
0.0
  0
LINE
  8
LC-003-005-----0
  6
CONTINUOUS
  5
6B4
 10
124.173857
 20
73.262169
 30
0.0
 11
126.912888
 21
76.0012
 31
0.0
  0
LINE
  8
LC-003-005-----0
  6
CONTINUOUS
  5
6B5
 10
124.173857
 20
76.090596
 30
0.0
 11
126.912888
 21
78.829627
 31
0.0
  0
LINE
  8
LC-003-005-----0
  6
CONTINUOUS
  5
6B6
 10
124.173857
 20
78.919023
 30
0.0
 11
126.912888
 21
81.658054
 31
0.0
  0
LINE
  8
LC-003-005-----0
  6
CONTINUOUS
  5
6B7
 10
124.173857
 20
81.74745
 30
0.0
 11
126.912888
 21
84.486481
 31
0.0
  0
LINE
  8
LC-003-005-----0
  6
CONTINUOUS
  5
6B8
 10
124.173857
 20
84.575877
 30
0.0
 11
126.912888
 21
87.314908
 31
0.0
  0
LINE
  8
LC-003-005-----0
  6
CONTINUOUS
  5
6B9
 10
124.173857
 20
87.404304
 30
0.0
 11
126.912888
 21
90.143335
 31
0.0
  0
LINE
  8
LC-003-005-----0
  6
CONTINUOUS
  5
6BA
 10
124.173857
 20
90.232732
 30
0.0
 11
126.912888
 21
92.971762
 31
0.0
  0
LINE
  8
LC-003-005-----0
  6
CONTINUOUS
  5
6BB
 10
124.173857
 20
93.061159
 30
0.0
 11
126.912888
 21
95.800189
 31
0.0
  0
LINE
  8
LC-003-005-----0
  6
CONTINUOUS
  5
6BC
 10
124.173857
 20
95.889586
 30
0.0
 11
126.912888
 21
98.628617
 31
0.0
  0
LINE
  8
LC-003-005-----0
  6
CONTINUOUS
  5
6BD
 10
124.173857
 20
98.718013
 30
0.0
 11
126.912888
 21
101.457044
 31
0.0
  0
LINE
  8
LC-003-005-----0
  6
CONTINUOUS
  5
6BE
 10
124.173857
 20
101.54644
 30
0.0
 11
126.912888
 21
104.285471
 31
0.0
  0
LINE
  8
LC-003-005-----0
  6
CONTINUOUS
  5
6BF
 10
124.173857
 20
104.374867
 30
0.0
 11
126.912888
 21
107.113898
 31
0.0
  0
LINE
  8
LC-003-005-----0
  6
CONTINUOUS
  5
6C0
 10
124.173857
 20
107.203294
 30
0.0
 11
126.912888
 21
109.942325
 31
0.0
  0
LINE
  8
LC-003-005-----0
  6
CONTINUOUS
  5
6C1
 10
124.173857
 20
110.031721
 30
0.0
 11
126.912888
 21
112.770752
 31
0.0
  0
LINE
  8
LC-003-005-----0
  6
CONTINUOUS
  5
6C2
 10
124.173857
 20
112.860149
 30
0.0
 11
126.912888
 21
115.599179
 31
0.0
  0
LINE
  8
LC-003-005-----0
  6
CONTINUOUS
  5
6C3
 10
124.173857
 20
115.688576
 30
0.0
 11
126.912888
 21
118.427606
 31
0.0
  0
LINE
  8
LC-003-005-----0
  6
CONTINUOUS
  5
6C4
 10
124.173857
 20
118.517003
 30
0.0
 11
126.912888
 21
121.256034
 31
0.0
  0
LINE
  8
LC-003-005-----0
  6
CONTINUOUS
  5
6C5
 10
124.173857
 20
121.34543
 30
0.0
 11
126.912888
 21
124.084461
 31
0.0
  0
LINE
  8
LC-003-005-----0
  6
CONTINUOUS
  5
6C6
 10
123.760359
 20
123.760359
 30
0.0
 11
126.365082
 21
126.365082
 31
0.0
  0
LINE
  8
LC-003-005-----0
  6
CONTINUOUS
  5
6C7
 10
122.59551
 20
125.423937
 30
0.0
 11
127.361093
 21
130.18952
 31
0.0
  0
LINE
  8
LC-003-005-----0
  6
CONTINUOUS
  5
6C8
 10
121.43066
 20
127.087514
 30
0.0
 11
126.365082
 21
132.021936
 31
0.0
  0
LINE
  8
LC-003-005-----0
  6
CONTINUOUS
  5
6C9
 10
127.054245
 20
132.711099
 30
0.0
 11
127.192649
 21
132.849504
 31
0.0
  0
LINE
  8
LC-003-005-----0
  6
CONTINUOUS
  5
6CA
 10
120.26581
 20
128.751092
 30
0.0
 11
126.318327
 21
134.803608
 31
0.0
  0
LINE
  8
LC-003-005-----0
  6
CONTINUOUS
  5
6CB
 10
119.100961
 20
130.414669
 30
0.0
 11
124.017778
 21
135.331487
 31
0.0
  0
LINE
  8
LC-003-005-----0
  6
CONTINUOUS
  5
6CC
 10
117.936111
 20
132.078247
 30
0.0
 11
121.189351
 21
135.331487
 31
0.0
  0
LINE
  8
LC-003-005-----0
  6
CONTINUOUS
  5
6CD
 10
116.771262
 20
133.741824
 30
0.0
 11
118.360924
 21
135.331487
 31
0.0
  0
LINE
  8
LC-003-005-----0
  6
CONTINUOUS
  5
6CE
 10
115.606412
 20
135.405402
 30
0.0
 11
117.699784
 21
137.498774
 31
0.0
  0
LINE
  8
LC-003-005-----0
  6
CONTINUOUS
  5
6CF
 10
114.960753
 20
137.58817
 30
0.0
 11
117.699784
 21
140.327201
 31
0.0
  0
LINE
  8
LC-003-005-----0
  6
CONTINUOUS
  5
6D0
 10
114.960753
 20
140.416598
 30
0.0
 11
117.699784
 21
143.155628
 31
0.0
  0
LINE
  8
LC-003-005-----0
  6
CONTINUOUS
  5
6D1
 10
114.800977
 20
143.085248
 30
0.0
 11
117.699784
 21
145.984056
 31
0.0
  0
LINE
  8
LC-003-005-----0
  6
CONTINUOUS
  5
6D2
 10
113.172445
 20
144.285144
 30
0.0
 11
115.672917
 21
146.785615
 31
0.0
  0
LINE
  8
LC-003-005-----0
  6
CONTINUOUS
  5
6D3
 10
115.709137
 20
146.821836
 30
0.0
 11
117.699784
 21
148.812483
 31
0.0
  0
LINE
  8
LC-003-005-----0
  6
CONTINUOUS
  5
6D4
 10
110.93026
 20
144.871386
 30
0.0
 11
113.053912
 21
146.995037
 31
0.0
  0
LINE
  8
LC-003-005-----0
  6
CONTINUOUS
  5
6D5
 10
115.709137
 20
149.650263
 30
0.0
 11
117.699784
 21
151.64091
 31
0.0
  0
LINE
  8
LC-003-005-----0
  6
CONTINUOUS
  5
6D6
 10
109.793724
 20
146.563276
 30
0.0
 11
112.585091
 21
149.354644
 31
0.0
  0
LINE
  8
LC-003-005-----0
  6
CONTINUOUS
  5
6D7
 10
115.709137
 20
152.47869
 30
0.0
 11
115.99213
 21
152.761683
 31
0.0
  0
LINE
  8
LC-003-005-----0
  6
CONTINUOUS
  5
6D8
 10
109.601109
 20
149.199088
 30
0.0
 11
112.444241
 21
152.042221
 31
0.0
  0
LINE
  8
LC-003-005-----0
  6
CONTINUOUS
  5
6D9
 10
109.358575
 20
151.784982
 30
0.0
 11
112.303391
 21
154.729798
 31
0.0
  0
LINE
  8
LC-003-005-----0
  6
CONTINUOUS
  5
6DA
 10
107.440386
 20
152.69522
 30
0.0
 11
110.239951
 21
155.494785
 31
0.0
  0
LINE
  8
LC-003-005-----0
  6
CONTINUOUS
  5
6DB
 10
104.796815
 20
152.880076
 30
0.0
 11
107.59638
 21
155.679641
 31
0.0
  0
LINE
  8
LC-003-005-----0
  6
CONTINUOUS
  5
6DC
 10
102.153244
 20
153.064932
 30
0.0
 11
104.952809
 21
155.864498
 31
0.0
  0
LINE
  8
LC-003-005-----0
  6
CONTINUOUS
  5
6DD
 10
99.509673
 20
153.249789
 30
0.0
 11
102.309239
 21
156.049354
 31
0.0
  0
LINE
  8
LC-003-005-----0
  6
CONTINUOUS
  5
6DE
 10
96.866102
 20
153.434645
 30
0.0
 11
99.665668
 21
156.23421
 31
0.0
  0
LINE
  8
LC-003-005-----0
  6
CONTINUOUS
  5
6DF
 10
94.789671
 20
154.186641
 30
0.0
 11
97.041364
 21
156.438333
 31
0.0
  0
LINE
  8
LC-003-005-----0
  6
CONTINUOUS
  5
6E0
 10
93.375458
 20
155.600855
 30
0.0
 11
95.408087
 21
157.633483
 31
0.0
  0
LINE
  8
LC-003-005-----0
  6
CONTINUOUS
  5
6E1
 10
90.801768
 20
155.855591
 30
0.0
 11
93.601333
 21
158.655157
 31
0.0
  0
LINE
  8
LC-003-005-----0
  6
CONTINUOUS
  5
6E2
 10
88.158197
 20
156.040448
 30
0.0
 11
90.957762
 21
158.840013
 31
0.0
  0
LINE
  8
LC-003-005-----0
  6
CONTINUOUS
  5
6E3
 10
85.514626
 20
156.225304
 30
0.0
 11
88.314191
 21
159.02487
 31
0.0
  0
LINE
  8
LC-003-005-----0
  6
CONTINUOUS
  5
6E4
 10
82.871055
 20
156.41016
 30
0.0
 11
85.670621
 21
159.209726
 31
0.0
  0
LINE
  8
LC-003-005-----0
  6
CONTINUOUS
  5
6E5
 10
80.227484
 20
156.595017
 30
0.0
 11
83.02705
 21
159.394582
 31
0.0
  0
LINE
  8
LC-003-005-----0
  6
CONTINUOUS
  5
6E6
 10
77.583913
 20
156.779873
 30
0.0
 11
80.383479
 21
159.579438
 31
0.0
  0
LINE
  8
LC-003-005-----0
  6
CONTINUOUS
  5
6E7
 10
74.940342
 20
156.964729
 30
0.0
 11
77.739908
 21
159.764295
 31
0.0
  0
LINE
  8
LC-003-005-----0
  6
CONTINUOUS
  5
6E8
 10
72.296772
 20
157.149585
 30
0.0
 11
75.096337
 21
159.949151
 31
0.0
  0
LINE
  8
LC-003-005-----0
  6
CONTINUOUS
  5
6E9
 10
69.653201
 20
157.334442
 30
0.0
 11
72.452767
 21
160.134007
 31
0.0
  0
LINE
  8
LC-003-005-----0
  6
CONTINUOUS
  5
6EA
 10
67.00963
 20
157.519298
 30
0.0
 11
69.809196
 21
160.318864
 31
0.0
  0
LINE
  8
LC-003-005-----0
  6
CONTINUOUS
  5
6EB
 10
64.366059
 20
157.704154
 30
0.0
 11
67.165625
 21
160.50372
 31
0.0
  0
LINE
  8
LC-003-005-----0
  6
CONTINUOUS
  5
6EC
 10
61.722488
 20
157.88901
 30
0.0
 11
64.522054
 21
160.688576
 31
0.0
  0
LINE
  8
LC-003-005-----0
  6
CONTINUOUS
  5
6ED
 10
59.078917
 20
158.073867
 30
0.0
 11
61.878483
 21
160.873433
 31
0.0
  0
LINE
  8
LC-003-005-----0
  6
CONTINUOUS
  5
6EE
 10
56.435347
 20
158.258723
 30
0.0
 11
59.234912
 21
161.058289
 31
0.0
  0
LINE
  8
LC-003-005-----0
  6
CONTINUOUS
  5
6EF
 10
53.952627
 20
158.604431
 30
0.0
 11
56.591342
 21
161.243145
 31
0.0
  0
LINE
  8
LC-003-005-----0
  6
CONTINUOUS
  5
6F0
 10
274.766967
 20
51.321224
 30
0.0
 11
283.730265
 21
60.284522
 31
0.0
  0
LINE
  8
LC-003-005-----0
  6
CONTINUOUS
  5
6F1
 10
271.633371
 20
51.016055
 30
0.0
 11
275.040147
 21
54.422831
 31
0.0
  0
LINE
  8
LC-003-005-----0
  6
CONTINUOUS
  5
6F2
 10
280.87765
 20
60.260334
 30
0.0
 11
284.035467
 21
63.418151
 31
0.0
  0
LINE
  8
LC-003-005-----0
  6
CONTINUOUS
  5
6F3
 10
268.805019
 20
51.016131
 30
0.0
 11
271.792978
 21
54.00409
 31
0.0
  0
LINE
  8
LC-003-005-----0
  6
CONTINUOUS
  5
6F4
 10
281.29644
 20
63.507552
 30
0.0
 11
284.035596
 21
66.246707
 31
0.0
  0
LINE
  8
LC-003-005-----0
  6
CONTINUOUS
  5
6F5
 10
265.976668
 20
51.016207
 30
0.0
 11
268.96468
 21
54.004218
 31
0.0
  0
LINE
  8
LC-003-005-----0
  6
CONTINUOUS
  5
6F6
 10
281.296569
 20
66.336107
 30
0.0
 11
284.035725
 21
69.075263
 31
0.0
  0
LINE
  8
LC-003-005-----0
  6
CONTINUOUS
  5
6F7
 10
263.148317
 20
51.016283
 30
0.0
 11
266.136382
 21
54.004347
 31
0.0
  0
LINE
  8
LC-003-005-----0
  6
CONTINUOUS
  5
6F8
 10
281.296698
 20
69.164663
 30
0.0
 11
284.035853
 21
71.903819
 31
0.0
  0
LINE
  8
LC-003-005-----0
  6
CONTINUOUS
  5
6F9
 10
260.319966
 20
51.016359
 30
0.0
 11
263.308083
 21
54.004476
 31
0.0
  0
LINE
  8
LC-003-005-----0
  6
CONTINUOUS
  5
6FA
 10
281.296827
 20
71.993219
 30
0.0
 11
284.035982
 21
74.732375
 31
0.0
  0
LINE
  8
LC-003-005-----0
  6
CONTINUOUS
  5
6FB
 10
257.491615
 20
51.016435
 30
0.0
 11
260.479785
 21
54.004605
 31
0.0
  0
LINE
  8
LC-003-005-----0
  6
CONTINUOUS
  5
6FC
 10
281.296955
 20
74.821775
 30
0.0
 11
284.036111
 21
77.560931
 31
0.0
  0
LINE
  8
LC-003-005-----0
  6
CONTINUOUS
  5
6FD
 10
256.625991
 20
52.979238
 30
0.0
 11
257.651487
 21
54.004734
 31
0.0
  0
LINE
  8
LC-003-005-----0
  6
CONTINUOUS
  5
6FE
 10
281.297084
 20
77.650331
 30
0.0
 11
284.03624
 21
80.389487
 31
0.0
  0
LINE
  8
LC-003-005-----0
  6
CONTINUOUS
  5
6FF
 10
281.297213
 20
80.478887
 30
0.0
 11
284.036369
 21
83.218043
 31
0.0
  0
LINE
  8
LC-003-005-----0
  6
CONTINUOUS
  5
700
 10
281.297342
 20
83.307443
 30
0.0
 11
284.036497
 21
86.046599
 31
0.0
  0
LINE
  8
LC-003-005-----0
  6
CONTINUOUS
  5
701
 10
281.297471
 20
86.135999
 30
0.0
 11
284.036626
 21
88.875155
 31
0.0
  0
LINE
  8
LC-003-005-----0
  6
CONTINUOUS
  5
702
 10
353.536322
 20
158.374851
 30
0.0
 11
354.261054
 21
159.099582
 31
0.0
  0
LINE
  8
LC-003-005-----0
  6
CONTINUOUS
  5
703
 10
281.297599
 20
88.964555
 30
0.0
 11
284.036755
 21
91.703711
 31
0.0
  0
LINE
  8
LC-003-005-----0
  6
CONTINUOUS
  5
704
 10
350.495392
 20
158.162348
 30
0.0
 11
353.715755
 21
161.382711
 31
0.0
  0
LINE
  8
LC-003-005-----0
  6
CONTINUOUS
  5
705
 10
281.297728
 20
91.793111
 30
0.0
 11
284.036884
 21
94.532266
 31
0.0
  0
LINE
  8
LC-003-005-----0
  6
CONTINUOUS
  5
706
 10
347.454462
 20
157.949844
 30
0.0
 11
350.674825
 21
161.170207
 31
0.0
  0
LINE
  8
LC-003-005-----0
  6
CONTINUOUS
  5
707
 10
281.297857
 20
94.621667
 30
0.0
 11
284.037013
 21
97.360822
 31
0.0
  0
LINE
  8
LC-003-005-----0
  6
CONTINUOUS
  5
708
 10
344.413531
 20
157.737341
 30
0.0
 11
347.633894
 21
160.957704
 31
0.0
  0
LINE
  8
LC-003-005-----0
  6
CONTINUOUS
  5
709
 10
281.297986
 20
97.450223
 30
0.0
 11
284.037141
 21
100.189378
 31
0.0
  0
LINE
  8
LC-003-005-----0
  6
CONTINUOUS
  5
70A
 10
341.372601
 20
157.524838
 30
0.0
 11
344.592964
 21
160.745201
 31
0.0
  0
LINE
  8
LC-003-005-----0
  6
CONTINUOUS
  5
70B
 10
281.298115
 20
100.278779
 30
0.0
 11
284.03727
 21
103.017934
 31
0.0
  0
LINE
  8
LC-003-005-----0
  6
CONTINUOUS
  5
70C
 10
338.331671
 20
157.312335
 30
0.0
 11
341.552034
 21
160.532698
 31
0.0
  0
LINE
  8
LC-003-005-----0
  6
CONTINUOUS
  5
70D
 10
281.298244
 20
103.107335
 30
0.0
 11
284.037399
 21
105.84649
 31
0.0
  0
LINE
  8
LC-003-005-----0
  6
CONTINUOUS
  5
70E
 10
335.290741
 20
157.099832
 30
0.0
 11
338.511103
 21
160.320195
 31
0.0
  0
LINE
  8
LC-003-005-----0
  6
CONTINUOUS
  5
70F
 10
281.298372
 20
105.935891
 30
0.0
 11
284.037528
 21
108.675046
 31
0.0
  0
LINE
  8
LC-003-005-----0
  6
CONTINUOUS
  5
710
 10
332.24981
 20
156.887329
 30
0.0
 11
335.470173
 21
160.107691
 31
0.0
  0
LINE
  8
LC-003-005-----0
  6
CONTINUOUS
  5
711
 10
281.298501
 20
108.764447
 30
0.0
 11
284.037657
 21
111.503602
 31
0.0
  0
LINE
  8
LC-003-005-----0
  6
CONTINUOUS
  5
712
 10
329.20888
 20
156.674825
 30
0.0
 11
332.429243
 21
159.895188
 31
0.0
  0
LINE
  8
LC-003-005-----0
  6
CONTINUOUS
  5
713
 10
281.29863
 20
111.593002
 30
0.0
 11
284.037785
 21
114.332158
 31
0.0
  0
LINE
  8
LC-003-005-----0
  6
CONTINUOUS
  5
714
 10
326.16795
 20
156.462322
 30
0.0
 11
329.388312
 21
159.682685
 31
0.0
  0
LINE
  8
LC-003-005-----0
  6
CONTINUOUS
  5
715
 10
281.298759
 20
114.421558
 30
0.0
 11
284.037914
 21
117.160714
 31
0.0
  0
LINE
  8
LC-003-005-----0
  6
CONTINUOUS
  5
716
 10
323.127019
 20
156.249819
 30
0.0
 11
326.347382
 21
159.470182
 31
0.0
  0
LINE
  8
LC-003-005-----0
  6
CONTINUOUS
  5
717
 10
281.298888
 20
117.250114
 30
0.0
 11
284.038043
 21
119.98927
 31
0.0
  0
LINE
  8
LC-003-005-----0
  6
CONTINUOUS
  5
718
 10
320.086089
 20
156.037316
 30
0.0
 11
323.306452
 21
159.257679
 31
0.0
  0
LINE
  8
LC-003-005-----0
  6
CONTINUOUS
  5
719
 10
281.299016
 20
120.07867
 30
0.0
 11
284.038172
 21
122.817826
 31
0.0
  0
LINE
  8
LC-003-005-----0
  6
CONTINUOUS
  5
71A
 10
317.045159
 20
155.824813
 30
0.0
 11
320.265521
 21
159.045175
 31
0.0
  0
LINE
  8
LC-003-005-----0
  6
CONTINUOUS
  5
71B
 10
281.299145
 20
122.907226
 30
0.0
 11
289.832652
 21
131.440733
 31
0.0
  0
LINE
  8
LC-003-005-----0
  6
CONTINUOUS
  5
71C
 10
311.857319
 20
153.4654
 30
0.0
 11
317.224591
 21
158.832672
 31
0.0
  0
LINE
  8
LC-003-005-----0
  6
CONTINUOUS
  5
71D
 10
281.299274
 20
125.735782
 30
0.0
 11
281.678342
 21
126.11485
 31
0.0
  0
LINE
  8
LC-003-005-----0
  6
CONTINUOUS
  5
71E
 10
281.847105
 20
126.283613
 30
0.0
 11
293.251953
 21
137.688461
 31
0.0
  0
LINE
  8
LC-003-005-----0
  6
CONTINUOUS
  5
71F
 10
308.816389
 20
153.252897
 30
0.0
 11
314.183661
 21
158.620169
 31
0.0
  0
LINE
  8
LC-003-005-----0
  6
CONTINUOUS
  5
720
 10
281.788143
 20
129.053078
 30
0.0
 11
288.062728
 21
135.327663
 31
0.0
  0
LINE
  8
LC-003-005-----0
  6
CONTINUOUS
  5
721
 10
290.512926
 20
137.777861
 30
0.0
 11
293.252082
 21
140.517017
 31
0.0
  0
LINE
  8
LC-003-005-----0
  6
CONTINUOUS
  5
722
 10
305.775459
 20
153.040394
 30
0.0
 11
308.995821
 21
156.260756
 31
0.0
  0
LINE
  8
LC-003-005-----0
  6
CONTINUOUS
  5
723
 10
281.847363
 20
131.940725
 30
0.0
 11
285.23443
 21
135.327792
 31
0.0
  0
LINE
  8
LC-003-005-----0
  6
CONTINUOUS
  5
724
 10
290.513055
 20
140.606417
 30
0.0
 11
298.585035
 21
148.678398
 31
0.0
  0
LINE
  8
LC-003-005-----0
  6
CONTINUOUS
  5
725
 10
302.734528
 20
152.827891
 30
0.0
 11
305.954891
 21
156.048253
 31
0.0
  0
LINE
  8
LC-003-005-----0
  6
CONTINUOUS
  5
726
 10
280.852432
 20
133.774222
 30
0.0
 11
281.608358
 21
134.530148
 31
0.0
  0
LINE
  8
LC-003-005-----0
  6
CONTINUOUS
  5
727
 10
281.903961
 20
134.825751
 30
0.0
 11
282.34964
 21
135.271429
 31
0.0
  0
LINE
  8
LC-003-005-----0
  6
CONTINUOUS
  5
728
 10
290.513184
 20
143.434973
 30
0.0
 11
293.859739
 21
146.781528
 31
0.0
  0
LINE
  8
LC-003-005-----0
  6
CONTINUOUS
  5
729
 10
295.58383
 20
148.50562
 30
0.0
 11
298.851294
 21
151.773084
 31
0.0
  0
LINE
  8
LC-003-005-----0
  6
CONTINUOUS
  5
72A
 10
299.591751
 20
152.51354
 30
0.0
 11
302.91396
 21
155.83575
 31
0.0
  0
LINE
  8
LC-003-005-----0
  6
CONTINUOUS
  5
72B
 10
290.513312
 20
146.263529
 30
0.0
 11
292.50405
 21
148.254267
 31
0.0
  0
LINE
  8
LC-003-005-----0
  6
CONTINUOUS
  5
72C
 10
295.740404
 20
151.490621
 30
0.0
 11
299.87303
 21
155.623247
 31
0.0
  0
LINE
  8
LC-003-005-----0
  6
CONTINUOUS
  5
72D
 10
290.513441
 20
149.092085
 30
0.0
 11
292.504179
 21
151.082822
 31
0.0
  0
LINE
  8
LC-003-005-----0
  6
CONTINUOUS
  5
72E
 10
295.896977
 20
154.475621
 30
0.0
 11
296.8321
 21
155.410744
 31
0.0
  0
LINE
  8
LC-003-005-----0
  6
CONTINUOUS
  5
72F
 10
290.51357
 20
151.920641
 30
0.0
 11
291.350639
 21
152.75771
 31
0.0
  0
ENDSEC
  0
EOF
