  0
SECTION
  2
HEADER
  9
$ACADVER
  1
AC1015
  9
$ACADMAINTVER
 70
     6
  9
$DWGCODEPAGE
  3
DOS850
  9
$INSBASE
 10
0.0
 20
0.0
 30
0.0
  9
$EXTMIN
 10
0.0
 20
0.0
 30
0.0
  9
$EXTMAX
 10
840.0
 20
594.0
 30
0.0
  9
$LIMMIN
 10
0.0
 20
0.0
  9
$LIMMAX
 10
840.0
 20
594.0
  9
$ORTHOMODE
 70
     0
  9
$REGENMODE
 70
     1
  9
$FILLMODE
 70
     1
  9
$QTEXTMODE
 70
     0
  9
$MIRRTEXT
 70
     1
  9
$LTSCALE
 40
2.0
  9
$ATTMODE
 70
     1
  9
$TEXTSIZE
 40
2.5
  9
$TRACEWID
 40
1.0
  9
$TEXTSTYLE
  7
Standard
  9
$CLAYER
  8
0
  9
$CELTYPE
  6
ByLayer
  9
$CECOLOR
 62
     7
  9
$CELTSCALE
 40
1.0
  9
$DISPSILH
 70
     0
  9
$DIMSCALE
 40
2.0
  9
$DIMASZ
 40
3.5
  9
$DIMEXO
 40
0.625
  9
$DIMDLI
 40
3.75
  9
$DIMRND
 40
0.0
  9
$DIMDLE
 40
0.0
  9
$DIMEXE
 40
1.25
  9
$DIMTP
 40
0.0
  9
$DIMTM
 40
0.0
  9
$DIMTXT
 40
3.5
  9
$DIMCEN
 40
2.5
  9
$DIMTSZ
 40
0.0
  9
$DIMTOL
 70
     0
  9
$DIMLIM
 70
     0
  9
$DIMTIH
 70
     0
  9
$DIMTOH
 70
     0
  9
$DIMSE1
 70
     0
  9
$DIMSE2
 70
     0
  9
$DIMTAD
 70
     1
  9
$DIMZIN
 70
     8
  9
$DIMBLK
  1

  9
$DIMASO
 70
     1
  9
$DIMSHO
 70
     1
  9
$DIMPOST
  1

  9
$DIMAPOST
  1

  9
$DIMALT
 70
     0
  9
$DIMALTD
 70
     3
  9
$DIMALTF
 40
0.03937
  9
$DIMLFAC
 40
1.0
  9
$DIMTOFL
 70
     1
  9
$DIMTVP
 40
0.0
  9
$DIMTIX
 70
     0
  9
$DIMSOXD
 70
     0
  9
$DIMSAH
 70
     0
  9
$DIMBLK1
  1

  9
$DIMBLK2
  1

  9
$DIMSTYLE
  2
ISO-25
  9
$DIMCLRD
 70
     0
  9
$DIMCLRE
 70
     0
  9
$DIMCLRT
 70
     0
  9
$DIMTFAC
 40
1.0
  9
$DIMGAP
 40
0.625
  9
$DIMJUST
 70
     0
  9
$DIMSD1
 70
     0
  9
$DIMSD2
 70
     0
  9
$DIMTOLJ
 70
     0
  9
$DIMTZIN
 70
     8
  9
$DIMALTZ
 70
     0
  9
$DIMALTTZ
 70
     0
  9
$DIMUPT
 70
     0
  9
$DIMDEC
 70
     2
  9
$DIMTDEC
 70
     2
  9
$DIMALTU
 70
     2
  9
$DIMALTTD
 70
     3
  9
$DIMTXSTY
  7
Standard
  9
$DIMAUNIT
 70
     0
  9
$DIMADEC
 70
     0
  9
$DIMALTRND
 40
0.0
  9
$DIMAZIN
 70
     0
  9
$DIMDSEP
 70
    44
  9
$DIMATFIT
 70
     3
  9
$DIMFRAC
 70
     0
  9
$DIMLDRBLK
  1

  9
$DIMLUNIT
 70
     2
  9
$DIMLWD
 70
    -2
  9
$DIMLWE
 70
    -2
  9
$DIMTMOVE
 70
     0
  9
$LUNITS
 70
     2
  9
$LUPREC
 70
     4
  9
$SKETCHINC
 40
1.0
  9
$FILLETRAD
 40
10.0
  9
$AUNITS
 70
     0
  9
$AUPREC
 70
     0
  9
$MENU
  1
.
  9
$ELEVATION
 40
0.0
  9
$PELEVATION
 40
0.0
  9
$THICKNESS
 40
0.0
  9
$LIMCHECK
 70
     0
  9
$CHAMFERA
 40
10.0
  9
$CHAMFERB
 40
10.0
  9
$CHAMFERC
 40
20.0
  9
$CHAMFERD
 40
0.0
  9
$SKPOLY
 70
     0
  9
$TDCREATE
 40
2453854.511642731
  9
$TDUCREATE
 40
2453854.428309398
  9
$TDUPDATE
 40
2453854.511642743
  9
$TDUUPDATE
 40
2453854.42830941
  9
$TDINDWG
 40
0.0000000116
  9
$TDUSRTIMER
 40
0.0000000116
  9
$USRTIMER
 70
     1
  9
$ANGBASE
 50
0.0
  9
$ANGDIR
 70
     0
  9
$PDMODE
 70
     0
  9
$PDSIZE
 40
0.0
  9
$PLINEWID
 40
0.0
  9
$SPLFRAME
 70
     0
  9
$SPLINETYPE
 70
     6
  9
$SPLINESEGS
 70
     8
  9
$HANDSEED
  5
5B8
  9
$SURFTAB1
 70
     6
  9
$SURFTAB2
 70
     6
  9
$SURFTYPE
 70
     6
  9
$SURFU
 70
     6
  9
$SURFV
 70
     6
  9
$UCSBASE
  2

  9
$UCSNAME
  2

  9
$UCSORG
 10
0.0
 20
0.0
 30
0.0
  9
$UCSXDIR
 10
1.0
 20
0.0
 30
0.0
  9
$UCSYDIR
 10
0.0
 20
1.0
 30
0.0
  9
$UCSORTHOREF
  2

  9
$UCSORTHOVIEW
 70
     0
  9
$UCSORGTOP
 10
0.0
 20
0.0
 30
0.0
  9
$UCSORGBOTTOM
 10
0.0
 20
0.0
 30
0.0
  9
$UCSORGLEFT
 10
0.0
 20
0.0
 30
0.0
  9
$UCSORGRIGHT
 10
0.0
 20
0.0
 30
0.0
  9
$UCSORGFRONT
 10
0.0
 20
0.0
 30
0.0
  9
$UCSORGBACK
 10
0.0
 20
0.0
 30
0.0
  9
$PUCSBASE
  2

  9
$PUCSNAME
  2

  9
$PUCSORG
 10
0.0
 20
0.0
 30
0.0
  9
$PUCSXDIR
 10
1.0
 20
0.0
 30
0.0
  9
$PUCSYDIR
 10
0.0
 20
1.0
 30
0.0
  9
$PUCSORTHOREF
  2

  9
$PUCSORTHOVIEW
 70
     0
  9
$PUCSORGTOP
 10
0.0
 20
0.0
 30
0.0
  9
$PUCSORGBOTTOM
 10
0.0
 20
0.0
 30
0.0
  9
$PUCSORGLEFT
 10
0.0
 20
0.0
 30
0.0
  9
$PUCSORGRIGHT
 10
0.0
 20
0.0
 30
0.0
  9
$PUCSORGFRONT
 10
0.0
 20
0.0
 30
0.0
  9
$PUCSORGBACK
 10
0.0
 20
0.0
 30
0.0
  9
$USERI1
 70
     0
  9
$USERI2
 70
     0
  9
$USERI3
 70
     0
  9
$USERI4
 70
     0
  9
$USERI5
 70
     0
  9
$USERR1
 40
0.0
  9
$USERR2
 40
0.0
  9
$USERR3
 40
0.0
  9
$USERR4
 40
0.0
  9
$USERR5
 40
0.0
  9
$WORLDVIEW
 70
     1
  9
$SHADEDGE
 70
     3
  9
$SHADEDIF
 70
    70
  9
$TILEMODE
 70
     1
  9
$MAXACTVP
 70
    64
  9
$PINSBASE
 10
0.0
 20
0.0
 30
0.0
  9
$PLIMCHECK
 70
     0
  9
$PEXTMIN
 10
0.0
 20
0.0
 30
0.0
  9
$PEXTMAX
 10
840.0
 20
594.0
 30
0.0
  9
$PLIMMIN
 10
0.0
 20
0.0
  9
$PLIMMAX
 10
840.0
 20
594.0
  9
$UNITMODE
 70
     0
  9
$VISRETAIN
 70
     1
  9
$PLINEGEN
 70
     0
  9
$PSLTSCALE
 70
     1
  9
$TREEDEPTH
 70
  3020
  9
$CMLSTYLE
  2
Standard
  9
$CMLJUST
 70
     0
  9
$CMLSCALE
 40
20.0
  9
$PROXYGRAPHICS
 70
     1
  9
$MEASUREMENT
 70
     1
  9
$CELWEIGHT
370
    -1
  9
$ENDCAPS
280
     0
  9
$JOINSTYLE
280
     0
  9
$LWDISPLAY
290
     0
  9
$INSUNITS
 70
     4
  9
$HYPERLINKBASE
  1

  9
$STYLESHEET
  1

  9
$XEDIT
290
     1
  9
$CEPSNTYPE
380
     0
  9
$PSTYLEMODE
290
     1
  9
$FINGERPRINTGUID
  2
{FAEB1C30-E019-11D5-929B-00C0DF256EC4}
  9
$VERSIONGUID
  2
{FAEB1C32-E019-11D5-929B-00C0DF256EC4}
  9
$EXTNAMES
290
     1
  9
$PSVPSCALE
 40
0.0
  9
$OLESTARTUP
290
     0
  0
ENDSEC
  0
SECTION
  2
CLASSES
  0
CLASS
  1
ACDBDICTIONARYWDFLT
  2
AcDbDictionaryWithDefault
  3
ObjectDBX Classes
 90
        0
280
     0
281
     0
  0
CLASS
  1
ACDBPLACEHOLDER
  2
AcDbPlaceHolder
  3
ObjectDBX Classes
 90
        0
280
     0
281
     0
  0
CLASS
  1
LAYOUT
  2
AcDbLayout
  3
ObjectDBX Classes
 90
        0
280
     0
281
     0
  0
ENDSEC
  0
SECTION
  2
TABLES
  0
TABLE
  2
VPORT
  5
8
330
0
100
AcDbSymbolTable
 70
     2
  0
VPORT
  5
29
330
8
100
AcDbSymbolTableRecord
100
AcDbViewportTableRecord
  2
*ACTIVE
 70
     0
 10
0.0
 20
0.0
 11
1.0
 21
1.0
 12
420.0
 22
297.0
 13
0.0
 23
0.0
 14
1.0
 24
1.0
 15
0.0
 25
0.0
 16
0.0
 26
0.0
 36
1.0
 17
0.0
 27
0.0
 37
0.0
 40
594.0
 41
1.414141
 42
50.0
 43
0.0
 44
0.0
 50
0.0
 51
0.0
 71
    16
 72
   100
 73
     1
 74
     0
 75
     0
 76
     0
 77
     0
 78
     0
281
     0
 65
     0
110
0.0
120
0.0
130
0.0
111
1.0
121
0.0
131
0.0
112
0.0
122
1.0
132
0.0
 79
     0
146
0.0
  0
ENDTAB
  0
TABLE
  2
LTYPE
  5
5
330
0
100
AcDbSymbolTable
 70
     3
  0
LTYPE
  5
14
330
5
100
AcDbSymbolTableRecord
100
AcDbLinetypeTableRecord
  2
ByBlock
 70
     0
  3

 72
    65
 73
     0
 40
0.0
  0
LTYPE
  5
15
330
5
100
AcDbSymbolTableRecord
100
AcDbLinetypeTableRecord
  2
ByLayer
 70
     0
  3

 72
    65
 73
     0
 40
0.0
  0
LTYPE
  5
16
330
5
100
AcDbSymbolTableRecord
100
AcDbLinetypeTableRecord
  2
Continuous
 70
     0
  3
Solid line
 72
    65
 73
     0
 40
0.0
  0
LTYPE
  5
2A
330
5
100
AcDbSymbolTableRecord
100
AcDbLinetypeTableRecord
  2
DASHED
 70
     0
  3
__ __ __ __ __
 72
    65
 73
     2
 40
6.25
 49
5.0
 74
     4
 75
     0
340
0
 46
1.0
 50
0.0
 44
0.0
 45
0.0
 49
-1.25
 74
     4
 75
     0
340
0
 46
1.0
 50
0.0
 44
0.0
 45
0.0
  0
LTYPE
  5
30
330
5
100
AcDbSymbolTableRecord
100
AcDbLinetypeTableRecord
  2
DASHDOT
 70
     0
  3
__ . __ . __ . __ . __
 72
    65
 73
     4
 40
7.5
 49
5.0
 74
     4
 75
     0
340
0
 46
1.0
 50
0.0
 44
0.0
 45
0.0
 49
-1.25
 74
     4
 75
     0
340
0
 46
1.0
 50
0.0
 44
0.0
 45
0.0
 49
0.0
 74
     4
 75
     0
340
0
 46
1.0
 50
0.0
 44
0.0
 45
0.0
 49
-1.25
 74
     4
 75
     0
340
0
 46
1.0
 50
0.0
 44
0.0
 45
0.0
  0
ENDTAB
  0
TABLE
  2
LAYER
  5
2
330
0
100
AcDbSymbolTable
 70
    17
  0
LAYER
  5
10
330
2
100
AcDbSymbolTableRecord
100
AcDbLayerTableRecord
  2
0
 70
     0
 62
     7
  6
Continuous
370
    -3
390
F
  0
LAYER
  5
2B
330
2
100
AcDbSymbolTableRecord
100
AcDbLayerTableRecord
  2
LC-INFO-1-2-mm-A3-0
 70
     1
 62
     7
  6
ByBlock
370
    -3
390
F
  0
LAYER
  5
2C
330
2
100
AcDbSymbolTableRecord
100
AcDbLayerTableRecord
  2
LC-CUT-HIDDEN
 70
     0
 62
     7
  6
DASHED
370
    -3
390
F
  0
LAYER
  5
2D
330
2
100
AcDbSymbolTableRecord
100
AcDbLayerTableRecord
  2
LC-VIEWPORT
 70
     0
 62
     7
  6
ByBlock
370
    -3
390
F
  0
LAYER
  5
2E
330
2
100
AcDbSymbolTableRecord
100
AcDbLayerTableRecord
  2
LC-3D-HIDDEN
 70
     0
 62
     9
  6
DASHED
370
    -3
390
F
  0
LAYER
  5
31
330
2
100
AcDbSymbolTableRecord
100
AcDbLayerTableRecord
  2
LC-001-002-----0
 70
     0
 62
     2
  6
DASHDOT
370
    -3
390
F
  0
LAYER
  5
36
330
2
100
AcDbSymbolTableRecord
100
AcDbLayerTableRecord
  2
LC-002-101-D00-0
 70
     0
 62
     2
  6
ByBlock
370
    -3
390
F
  0
LAYER
  5
11C
330
2
100
AcDbSymbolTableRecord
100
AcDbLayerTableRecord
  2
LC-003-005-----0
 70
     0
 62
     2
  6
ByBlock
370
    -3
390
F
  0
LAYER
  5
141
330
2
100
AcDbSymbolTableRecord
100
AcDbLayerTableRecord
  2
LC-004-002-RND-0
 70
     0
 62
     1
  6
ByBlock
370
    -3
390
F
  0
LAYER
  5
21C
330
2
100
AcDbSymbolTableRecord
100
AcDbLayerTableRecord
  2
LC-005-003-----0
 70
     0
 62
     2
  6
ByBlock
370
    -3
390
F
  0
LAYER
  5
21E
330
2
100
AcDbSymbolTableRecord
100
AcDbLayerTableRecord
  2
Defpoints
 70
     0
 62
     7
  6
Continuous
290
     0
370
    -3
390
F
  0
LAYER
  5
241
330
2
100
AcDbSymbolTableRecord
100
AcDbLayerTableRecord
  2
LC-006-205-RND-0
 70
     0
 62
     1
  6
ByBlock
370
    -3
390
F
  0
LAYER
  5
24F
330
2
100
AcDbSymbolTableRecord
100
AcDbLayerTableRecord
  2
LC-007-205-----0
 70
     0
 62
     1
  6
ByBlock
370
    -3
390
F
  0
LAYER
  5
2EF
330
2
100
AcDbSymbolTableRecord
100
AcDbLayerTableRecord
  2
LC-008-207-----0
 70
     0
 62
     1
  6
ByBlock
370
    -3
390
F
  0
LAYER
  5
301
330
2
100
AcDbSymbolTableRecord
100
AcDbLayerTableRecord
  2
LC-009-207-RND-0
 70
     0
 62
     1
  6
ByBlock
370
    -3
390
F
  0
LAYER
  5
59C
330
2
100
AcDbSymbolTableRecord
100
AcDbLayerTableRecord
  2
LC-010-003-MTG-0
 70
     0
 62
     2
  6
ByBlock
370
    -3
390
F
  0
LAYER
  5
5A0
330
2
100
AcDbSymbolTableRecord
100
AcDbLayerTableRecord
  2
LC-011-003-MTH-0
 70
     0
 62
     2
  6
ByBlock
370
    -3
390
F
  0
ENDTAB
  0
TABLE
  2
STYLE
  5
3
330
0
100
AcDbSymbolTable
 70
     3
  0
STYLE
  5
11
330
3
100
AcDbSymbolTableRecord
100
AcDbTextStyleTableRecord
  2
Standard
 70
     0
 40
0.0
 41
1.0
 50
0.0
 71
     0
 42
2.5
  3
txt
  4

  0
STYLE
  5
2F
330
3
100
AcDbSymbolTableRecord
100
AcDbTextStyleTableRecord
  2
LCTX15-400-0-0-Arial
 70
     0
 40
0.0
 41
0.9
 50
0.0
 71
     0
 42
3.5
  3
ARIAL.TTF
  4

1001
ACAD
1000
Arial
1071
 16777218
  0
STYLE
  5
21A
330
3
100
AcDbSymbolTableRecord
100
AcDbTextStyleTableRecord
  2
LCTX15-400-0-0pDIN-Schrift
 70
     0
 40
2.5
 41
0.8
 50
15.0
 71
     0
 42
3.5
  3
STANDARD
  4

  0
ENDTAB
  0
TABLE
  2
VIEW
  5
6
330
0
100
AcDbSymbolTable
 70
     0
  0
ENDTAB
  0
TABLE
  2
UCS
  5
7
330
0
100
AcDbSymbolTable
 70
     0
  0
ENDTAB
  0
TABLE
  2
APPID
  5
9
330
0
100
AcDbSymbolTable
 70
     1
  0
APPID
  5
12
330
9
100
AcDbSymbolTableRecord
100
AcDbRegAppTableRecord
  2
ACAD
 70
     0
  0
ENDTAB
  0
TABLE
  2
DIMSTYLE
  5
A
330
0
100
AcDbSymbolTable
 70
     3
100
AcDbDimStyleTable
  0
DIMSTYLE
105
27
330
A
100
AcDbSymbolTableRecord
100
AcDbDimStyleTableRecord
  2
ISO-25
 70
     0
 41
2.5
 42
0.625
 43
3.75
 44
1.25
 73
     0
 74
     0
 77
     1
 78
     8
140
2.5
141
2.5
143
0.03937
147
0.625
171
     3
172
     1
271
     2
272
     2
274
     3
278
    44
283
     0
284
     8
340
11
  0
DIMSTYLE
105
21B
102
{ACAD_REACTORS
330
21D
330
22B
330
2C1
330
2DD
330
3B2
330
4B6
330
4C4
330
553
330
560
102
}
330
A
100
AcDbSymbolTableRecord
100
AcDbDimStyleTableRecord
  2
LC-DIM-L-0140-02-02
 70
     0
 40
2.0
 41
14.0
 42
0.0
 43
7.5
 44
1.8
 73
     0
 74
     0
 77
     1
 78
     8
 79
     2
140
14.0
141
0.0
146
0.71
147
1.5
176
     2
177
     2
178
     2
179
     2
271
     2
278
    44
289
     1
340
21A
  0
DIMSTYLE
105
585
330
A
100
AcDbSymbolTableRecord
100
AcDbDimStyleTableRecord
  2
LC-DIM-W-0140-02-02
 70
     0
 40
2.0
 41
14.0
 42
0.0
 43
7.5
 44
1.8
 73
     0
 74
     0
 77
     1
 78
     8
 79
     2
140
14.0
141
0.0
146
0.71
147
1.5
176
     2
177
     2
178
     2
179
     2
271
     2
278
    44
289
     1
340
21A
  0
ENDTAB
  0
TABLE
  2
BLOCK_RECORD
  5
1
330
0
100
AcDbSymbolTable
 70
    27
  0
BLOCK_RECORD
  5
1F
330
1
100
AcDbSymbolTableRecord
100
AcDbBlockTableRecord
  2
*Model_Space
340
22
  0
BLOCK_RECORD
  5
1B
330
1
100
AcDbSymbolTableRecord
100
AcDbBlockTableRecord
  2
*Paper_Space
340
1E
  0
BLOCK_RECORD
  5
23
330
1
100
AcDbSymbolTableRecord
100
AcDbBlockTableRecord
  2
*Paper_Space0
340
26
  0
BLOCK_RECORD
  5
47
330
1
100
AcDbSymbolTableRecord
100
AcDbBlockTableRecord
  2
POLY1
340
0
102
{BLKREFS
331
4E
102
}
  0
BLOCK_RECORD
  5
4F
330
1
100
AcDbSymbolTableRecord
100
AcDbBlockTableRecord
  2
POLY2
340
0
102
{BLKREFS
331
56
102
}
  0
BLOCK_RECORD
  5
119
330
1
100
AcDbSymbolTableRecord
100
AcDbBlockTableRecord
  2
*X13
340
0
102
{BLKREFS
331
140
102
}
  0
BLOCK_RECORD
  5
148
330
1
100
AcDbSymbolTableRecord
100
AcDbBlockTableRecord
  2
*X24
340
0
102
{BLKREFS
331
156
102
}
  0
BLOCK_RECORD
  5
159
330
1
100
AcDbSymbolTableRecord
100
AcDbBlockTableRecord
  2
*X35
340
0
102
{BLKREFS
331
183
102
}
  0
BLOCK_RECORD
  5
186
330
1
100
AcDbSymbolTableRecord
100
AcDbBlockTableRecord
  2
*X46
340
0
102
{BLKREFS
331
1B0
102
}
  0
BLOCK_RECORD
  5
1FD
330
1
100
AcDbSymbolTableRecord
100
AcDbBlockTableRecord
  2
*X57
340
0
102
{BLKREFS
331
208
102
}
  0
BLOCK_RECORD
  5
21F
330
1
100
AcDbSymbolTableRecord
100
AcDbBlockTableRecord
  2
*D8
340
0
  0
BLOCK_RECORD
  5
22C
330
1
100
AcDbSymbolTableRecord
100
AcDbBlockTableRecord
  2
*D9
340
0
  0
BLOCK_RECORD
  5
25E
330
1
100
AcDbSymbolTableRecord
100
AcDbBlockTableRecord
  2
*X610
340
0
102
{BLKREFS
331
2B2
102
}
  0
BLOCK_RECORD
  5
2C2
330
1
100
AcDbSymbolTableRecord
100
AcDbBlockTableRecord
  2
*D11
340
0
  0
BLOCK_RECORD
  5
2DE
330
1
100
AcDbSymbolTableRecord
100
AcDbBlockTableRecord
  2
*D12
340
0
  0
BLOCK_RECORD
  5
2F1
330
1
100
AcDbSymbolTableRecord
100
AcDbBlockTableRecord
  2
*X713
340
0
102
{BLKREFS
331
2FD
102
}
  0
BLOCK_RECORD
  5
313
330
1
100
AcDbSymbolTableRecord
100
AcDbBlockTableRecord
  2
*X814
340
0
102
{BLKREFS
331
342
102
}
  0
BLOCK_RECORD
  5
343
330
1
100
AcDbSymbolTableRecord
100
AcDbBlockTableRecord
  2
*X915
340
0
102
{BLKREFS
331
36C
102
}
  0
BLOCK_RECORD
  5
372
330
1
100
AcDbSymbolTableRecord
100
AcDbBlockTableRecord
  2
*X1016
340
0
102
{BLKREFS
331
37E
102
}
  0
BLOCK_RECORD
  5
398
330
1
100
AcDbSymbolTableRecord
100
AcDbBlockTableRecord
  2
*X1117
340
0
102
{BLKREFS
331
3A8
102
}
  0
BLOCK_RECORD
  5
3B3
330
1
100
AcDbSymbolTableRecord
100
AcDbBlockTableRecord
  2
*D18
340
0
  0
BLOCK_RECORD
  5
44B
330
1
100
AcDbSymbolTableRecord
100
AcDbBlockTableRecord
  2
*X1219
340
0
102
{BLKREFS
331
462
102
}
  0
BLOCK_RECORD
  5
4B7
330
1
100
AcDbSymbolTableRecord
100
AcDbBlockTableRecord
  2
*D20
340
0
  0
BLOCK_RECORD
  5
4C5
330
1
100
AcDbSymbolTableRecord
100
AcDbBlockTableRecord
  2
*D21
340
0
  0
BLOCK_RECORD
  5
4EA
330
1
100
AcDbSymbolTableRecord
100
AcDbBlockTableRecord
  2
*X1322
340
0
102
{BLKREFS
331
511
102
}
  0
BLOCK_RECORD
  5
52C
330
1
100
AcDbSymbolTableRecord
100
AcDbBlockTableRecord
  2
*X1423
340
0
102
{BLKREFS
331
53E
102
}
  0
BLOCK_RECORD
  5
554
330
1
100
AcDbSymbolTableRecord
100
AcDbBlockTableRecord
  2
*D24
340
0
  0
BLOCK_RECORD
  5
561
330
1
100
AcDbSymbolTableRecord
100
AcDbBlockTableRecord
  2
*D25
340
0
  0
BLOCK_RECORD
  5
586
330
1
100
AcDbSymbolTableRecord
100
AcDbBlockTableRecord
  2
LCDIM1
340
0
102
{BLKREFS
331
5A4
102
}
  0
ENDTAB
  0
ENDSEC
  0
SECTION
  2
BLOCKS
  0
BLOCK
  5
20
330
1F
100
AcDbEntity
  8
0
100
AcDbBlockBegin
  2
*Model_Space
 70
     0
 71
     0
 10
0.0
 20
0.0
 30
0.0
  3
*Model_Space
  1

  0
ENDBLK
  5
21
330
1F
100
AcDbEntity
  8
0
100
AcDbBlockEnd
  0
BLOCK
  5
1C
330
1B
100
AcDbEntity
 67
     1
  8
0
100
AcDbBlockBegin
  2
*Paper_Space
 70
     0
 71
     0
 10
0.0
 20
0.0
 30
0.0
  3
*Paper_Space
  1

  0
ENDBLK
  5
1D
330
1B
100
AcDbEntity
 67
     1
  8
0
100
AcDbBlockEnd
  0
BLOCK
  5
24
330
23
100
AcDbEntity
  8
0
100
AcDbBlockBegin
  2
*Paper_Space0
 70
     0
 71
     0
 10
0.0
 20
0.0
 30
0.0
  3
*Paper_Space0
  1

  0
ENDBLK
  5
25
330
23
100
AcDbEntity
  8
0
100
AcDbBlockEnd
  0
BLOCK
  5
48
330
47
100
AcDbEntity
  8
0
100
AcDbBlockBegin
  2
POLY1
 70
     0
 71
     0
 10
0.0
 20
0.0
 30
0.0
  3
POLY1
  1

  4
POLY1
  0
LINE
  5
4A
330
47
100
AcDbEntity
  8
LC-002-101-D00-0
 62
     7
370
    50
100
AcDbLine
 10
348.339374
 20
457.751785
 30
0.0
 11
348.339374
 21
457.751785
 31
0.0
  0
LINE
  5
4B
330
47
100
AcDbEntity
  8
LC-002-101-D00-0
 62
     7
370
    50
100
AcDbLine
 10
348.339374
 20
457.751785
 30
0.0
 11
348.676133
 21
457.146219
 31
0.0
  0
LINE
  5
4C
330
47
100
AcDbEntity
  8
LC-002-101-D00-0
 62
     7
370
    50
100
AcDbLine
 10
348.676133
 20
457.146219
 30
0.0
 11
348.676133
 21
457.146219
 31
0.0
  0
LINE
  5
4D
330
47
100
AcDbEntity
  8
LC-002-101-D00-0
 62
     7
370
    50
100
AcDbLine
 10
348.676133
 20
457.146219
 30
0.0
 11
349.127176
 21
456.546014
 31
0.0
  0
ENDBLK
  5
49
330
47
100
AcDbEntity
  8
0
100
AcDbBlockEnd
  0
BLOCK
  5
50
330
4F
100
AcDbEntity
  8
0
100
AcDbBlockBegin
  2
POLY2
 70
     0
 71
     0
 10
0.0
 20
0.0
 30
0.0
  3
POLY2
  1

  4
POLY2
  0
LINE
  5
52
330
4F
100
AcDbEntity
  8
LC-002-101-D00-0
 62
     7
370
    50
100
AcDbLine
 10
437.664623
 20
457.751785
 30
0.0
 11
437.664623
 21
457.751785
 31
0.0
  0
LINE
  5
53
330
4F
100
AcDbEntity
  8
LC-002-101-D00-0
 62
     7
370
    50
100
AcDbLine
 10
437.664623
 20
457.751785
 30
0.0
 11
437.327864
 21
457.146219
 31
0.0
  0
LINE
  5
54
330
4F
100
AcDbEntity
  8
LC-002-101-D00-0
 62
     7
370
    50
100
AcDbLine
 10
437.327864
 20
457.146219
 30
0.0
 11
437.327864
 21
457.146219
 31
0.0
  0
LINE
  5
55
330
4F
100
AcDbEntity
  8
LC-002-101-D00-0
 62
     7
370
    50
100
AcDbLine
 10
437.327864
 20
457.146219
 30
0.0
 11
436.87682
 21
456.546014
 31
0.0
  0
ENDBLK
  5
51
330
4F
100
AcDbEntity
  8
0
100
AcDbBlockEnd
  0
BLOCK
  5
11A
330
119
100
AcDbEntity
  8
0
100
AcDbBlockBegin
  2
*X13
 70
     1
 71
     0
 10
0.0
 20
0.0
 30
0.0
  3
*X13
  1

  4
*X1
  0
LINE
  5
11D
330
119
100
AcDbEntity
  8
LC-003-005-----0
 62
     7
370
    25
100
AcDbLine
 10
450.501998
 20
460.251536
 30
0.0
 11
449.001998
 21
461.751536
 31
0.0
  0
LINE
  5
11E
330
119
100
AcDbEntity
  8
LC-003-005-----0
 62
     7
370
    25
100
AcDbLine
 10
448.257363
 20
462.496171
 30
0.0
 11
446.757363
 21
463.996171
 31
0.0
  0
LINE
  5
11F
330
119
100
AcDbEntity
  8
LC-003-005-----0
 62
     7
370
    25
100
AcDbLine
 10
445.433632
 20
462.491475
 30
0.0
 11
444.317457
 21
463.60765
 31
0.0
  0
LINE
  5
120
330
119
100
AcDbEntity
  8
LC-003-005-----0
 62
     7
370
    25
100
AcDbLine
 10
443.600508
 20
461.496171
 30
0.0
 11
443.501998
 21
461.594682
 31
0.0
  0
LINE
  5
121
330
119
100
AcDbEntity
  8
LC-003-005-----0
 62
     7
370
    25
100
AcDbLine
 10
437.501998
 20
461.937827
 30
0.0
 11
435.443654
 21
463.996171
 31
0.0
  0
LINE
  5
122
330
119
100
AcDbEntity
  8
LC-003-005-----0
 62
     7
370
    25
100
AcDbLine
 10
434.115227
 20
462.496171
 30
0.0
 11
432.615227
 21
463.996171
 31
0.0
  0
LINE
  5
123
330
119
100
AcDbEntity
  8
LC-003-005-----0
 62
     7
370
    25
100
AcDbLine
 10
432.001998
 20
461.780973
 30
0.0
 11
430.776144
 21
463.006828
 31
0.0
  0
LINE
  5
124
330
119
100
AcDbEntity
  8
LC-003-005-----0
 62
     7
370
    25
100
AcDbLine
 10
423.801519
 20
461.496171
 30
0.0
 11
421.301519
 21
463.996171
 31
0.0
  0
LINE
  5
125
330
119
100
AcDbEntity
  8
LC-003-005-----0
 62
     7
370
    25
100
AcDbLine
 10
419.973091
 20
462.496171
 30
0.0
 11
418.659296
 21
463.809967
 31
0.0
  0
LINE
  5
126
330
119
100
AcDbEntity
  8
LC-003-005-----0
 62
     7
370
    25
100
AcDbLine
 10
418.144664
 20
461.496171
 30
0.0
 11
417.506759
 21
462.134077
 31
0.0
  0
LINE
  5
127
330
119
100
AcDbEntity
  8
LC-003-005-----0
 62
     7
370
    25
100
AcDbLine
 10
411.419578
 20
462.564403
 30
0.0
 11
410.07023
 21
463.913751
 31
0.0
  0
LINE
  5
128
330
119
100
AcDbEntity
  8
LC-003-005-----0
 62
     7
370
    25
100
AcDbLine
 10
408.659383
 20
462.496171
 30
0.0
 11
407.159383
 21
463.996171
 31
0.0
  0
LINE
  5
129
330
119
100
AcDbEntity
  8
LC-003-005-----0
 62
     7
370
    25
100
AcDbLine
 10
405.830956
 20
462.496171
 30
0.0
 11
404.530956
 21
463.796171
 31
0.0
  0
LINE
  5
12A
330
119
100
AcDbEntity
  8
LC-003-005-----0
 62
     7
370
    25
100
AcDbLine
 10
403.002529
 20
462.496171
 30
0.0
 11
401.702529
 21
463.796171
 31
0.0
  0
LINE
  5
12B
330
119
100
AcDbEntity
  8
LC-003-005-----0
 62
     7
370
    25
100
AcDbLine
 10
400.174102
 20
462.496171
 30
0.0
 11
398.874102
 21
463.796171
 31
0.0
  0
LINE
  5
12C
330
119
100
AcDbEntity
  8
LC-003-005-----0
 62
     7
370
    25
100
AcDbLine
 10
397.345674
 20
462.496171
 30
0.0
 11
396.045674
 21
463.796171
 31
0.0
  0
LINE
  5
12D
330
119
100
AcDbEntity
  8
LC-003-005-----0
 62
     7
370
    25
100
AcDbLine
 10
394.517247
 20
462.496171
 30
0.0
 11
393.217247
 21
463.796171
 31
0.0
  0
LINE
  5
12E
330
119
100
AcDbEntity
  8
LC-003-005-----0
 62
     7
370
    25
100
AcDbLine
 10
391.68882
 20
462.496171
 30
0.0
 11
390.38882
 21
463.796171
 31
0.0
  0
LINE
  5
12F
330
119
100
AcDbEntity
  8
LC-003-005-----0
 62
     7
370
    25
100
AcDbLine
 10
388.860393
 20
462.496171
 30
0.0
 11
387.560393
 21
463.796171
 31
0.0
  0
LINE
  5
130
330
119
100
AcDbEntity
  8
LC-003-005-----0
 62
     7
370
    25
100
AcDbLine
 10
386.031966
 20
462.496171
 30
0.0
 11
384.731966
 21
463.796171
 31
0.0
  0
LINE
  5
131
330
119
100
AcDbEntity
  8
LC-003-005-----0
 62
     7
370
    25
100
AcDbLine
 10
383.203539
 20
462.496171
 30
0.0
 11
381.903539
 21
463.796171
 31
0.0
  0
LINE
  5
132
330
119
100
AcDbEntity
  8
LC-003-005-----0
 62
     7
370
    25
100
AcDbLine
 10
380.375112
 20
462.496171
 30
0.0
 11
379.075112
 21
463.796171
 31
0.0
  0
LINE
  5
133
330
119
100
AcDbEntity
  8
LC-003-005-----0
 62
     7
370
    25
100
AcDbLine
 10
377.546685
 20
462.496171
 30
0.0
 11
376.089653
 21
463.953203
 31
0.0
  0
LINE
  5
134
330
119
100
AcDbEntity
  8
LC-003-005-----0
 62
     7
370
    25
100
AcDbLine
 10
375.718257
 20
461.496171
 30
0.0
 11
374.599968
 21
462.614461
 31
0.0
  0
LINE
  5
135
330
119
100
AcDbEntity
  8
LC-003-005-----0
 62
     7
370
    25
100
AcDbLine
 10
367.232976
 20
461.496171
 30
0.0
 11
367.001998
 21
461.727149
 31
0.0
  0
LINE
  5
136
330
119
100
AcDbEntity
  8
LC-003-005-----0
 62
     7
370
    25
100
AcDbLine
 10
366.232976
 20
462.496171
 30
0.0
 11
364.732976
 21
463.996171
 31
0.0
  0
LINE
  5
137
330
119
100
AcDbEntity
  8
LC-003-005-----0
 62
     7
370
    25
100
AcDbLine
 10
363.412605
 20
462.488115
 30
0.0
 11
362.303456
 21
463.597264
 31
0.0
  0
LINE
  5
138
330
119
100
AcDbEntity
  8
LC-003-005-----0
 62
     7
370
    25
100
AcDbLine
 10
361.576122
 20
461.496171
 30
0.0
 11
361.501998
 21
461.570295
 31
0.0
  0
LINE
  5
139
330
119
100
AcDbEntity
  8
LC-003-005-----0
 62
     7
370
    25
100
AcDbLine
 10
355.501998
 20
461.913441
 30
0.0
 11
353.419268
 21
463.996171
 31
0.0
  0
LINE
  5
13A
330
119
100
AcDbEntity
  8
LC-003-005-----0
 62
     7
370
    25
100
AcDbLine
 10
352.09084
 20
462.496171
 30
0.0
 11
350.59084
 21
463.996171
 31
0.0
  0
LINE
  5
13B
330
119
100
AcDbEntity
  8
LC-003-005-----0
 62
     7
370
    25
100
AcDbLine
 10
350.001998
 20
461.756586
 30
0.0
 11
348.767195
 21
462.991389
 31
0.0
  0
LINE
  5
13C
330
119
100
AcDbEntity
  8
LC-003-005-----0
 62
     7
370
    25
100
AcDbLine
 10
341.777132
 20
461.496171
 30
0.0
 11
339.277132
 21
463.996171
 31
0.0
  0
LINE
  5
13D
330
119
100
AcDbEntity
  8
LC-003-005-----0
 62
     7
370
    25
100
AcDbLine
 10
337.948705
 20
462.496171
 30
0.0
 11
336.642709
 21
463.802167
 31
0.0
  0
LINE
  5
13E
330
119
100
AcDbEntity
  8
LC-003-005-----0
 62
     7
370
    25
100
AcDbLine
 10
337.001998
 20
460.614451
 30
0.0
 11
335.505306
 21
462.111143
 31
0.0
  0
LINE
  5
13F
330
119
100
AcDbEntity
  8
LC-003-005-----0
 62
     7
370
    25
100
AcDbLine
 10
335.791851
 20
458.996171
 30
0.0
 11
335.501998
 21
459.286024
 31
0.0
  0
ENDBLK
  5
11B
330
119
100
AcDbEntity
  8
0
100
AcDbBlockEnd
  0
BLOCK
  5
149
330
148
100
AcDbEntity
  8
0
100
AcDbBlockBegin
  2
*X24
 70
     1
 71
     0
 10
0.0
 20
0.0
 30
0.0
  3
*X24
  1

  4
*X2
  0
LINE
  5
14B
330
148
100
AcDbEntity
  8
LC-003-005-----0
 62
     7
370
    25
100
AcDbLine
 10
341.858761
 20
446.510564
 30
0.0
 11
342.408401
 21
447.060204
 31
0.0
  0
LINE
  5
14C
330
148
100
AcDbEntity
  8
LC-003-005-----0
 62
     7
370
    25
100
AcDbLine
 10
341.104006
 20
448.584237
 30
0.0
 11
341.653729
 21
449.13396
 31
0.0
  0
LINE
  5
14D
330
148
100
AcDbEntity
  8
LC-003-005-----0
 62
     7
370
    25
100
AcDbLine
 10
342.048766
 20
449.528996
 30
0.0
 11
342.301998
 21
449.782229
 31
0.0
  0
LINE
  5
14E
330
148
100
AcDbEntity
  8
LC-003-005-----0
 62
     7
370
    25
100
AcDbLine
 10
341.601998
 20
451.910656
 30
0.0
 11
342.301998
 21
452.610656
 31
0.0
  0
LINE
  5
14F
330
148
100
AcDbEntity
  8
LC-003-005-----0
 62
     7
370
    25
100
AcDbLine
 10
341.575452
 20
454.712537
 30
0.0
 11
342.092348
 21
455.229433
 31
0.0
  0
LINE
  5
150
330
148
100
AcDbEntity
  8
LC-003-005-----0
 62
     7
370
    25
100
AcDbLine
 10
339.091383
 20
455.056895
 30
0.0
 11
339.786273
 21
455.751785
 31
0.0
  0
LINE
  5
151
330
148
100
AcDbEntity
  8
LC-003-005-----0
 62
     7
370
    25
100
AcDbLine
 10
338.001998
 20
456.795938
 30
0.0
 11
338.687829
 21
457.481768
 31
0.0
  0
LINE
  5
152
330
148
100
AcDbEntity
  8
LC-003-005-----0
 62
     7
370
    25
100
AcDbLine
 10
336.585211
 20
458.207577
 30
0.0
 11
337.122932
 21
458.745298
 31
0.0
  0
LINE
  5
153
330
148
100
AcDbEntity
  8
LC-003-005-----0
 62
     7
370
    25
100
AcDbLine
 10
334.456452
 20
458.907246
 30
0.0
 11
335.003736
 21
459.454529
 31
0.0
  0
LINE
  5
154
330
148
100
AcDbEntity
  8
LC-003-005-----0
 62
     7
370
    25
100
AcDbLine
 10
334.301998
 20
461.581219
 30
0.0
 11
335.001998
 21
462.281219
 31
0.0
  0
LINE
  5
155
330
148
100
AcDbEntity
  8
LC-003-005-----0
 62
     7
370
    25
100
AcDbLine
 10
333.601998
 20
463.709646
 30
0.0
 11
334.383735
 21
464.491383
 31
0.0
  0
ENDBLK
  5
14A
330
148
100
AcDbEntity
  8
0
100
AcDbBlockEnd
  0
BLOCK
  5
15A
330
159
100
AcDbEntity
  8
0
100
AcDbBlockBegin
  2
*X35
 70
     1
 71
     0
 10
0.0
 20
0.0
 30
0.0
  3
*X35
  1

  4
*X3
  0
LINE
  5
15C
330
159
100
AcDbEntity
  8
LC-003-005-----0
 62
     7
370
    25
100
AcDbLine
 10
448.001998
 20
454.266254
 30
0.0
 11
447.216467
 21
455.051785
 31
0.0
  0
LINE
  5
15D
330
159
100
AcDbEntity
  8
LC-003-005-----0
 62
     7
370
    25
100
AcDbLine
 10
448.001998
 20
451.437827
 30
0.0
 11
446.320019
 21
453.119806
 31
0.0
  0
LINE
  5
15E
330
159
100
AcDbEntity
  8
LC-003-005-----0
 62
     7
370
    25
100
AcDbLine
 10
448.001998
 20
448.6094
 30
0.0
 11
444.651998
 21
451.9594
 31
0.0
  0
LINE
  5
15F
330
159
100
AcDbEntity
  8
LC-003-005-----0
 62
     7
370
    25
100
AcDbLine
 10
448.001998
 20
445.780973
 30
0.0
 11
445.501998
 21
448.280973
 31
0.0
  0
LINE
  5
160
330
159
100
AcDbEntity
  8
LC-003-005-----0
 62
     7
370
    25
100
AcDbLine
 10
448.001998
 20
442.952546
 30
0.0
 11
445.501998
 21
445.452546
 31
0.0
  0
LINE
  5
161
330
159
100
AcDbEntity
  8
LC-003-005-----0
 62
     7
370
    25
100
AcDbLine
 10
448.001998
 20
440.124119
 30
0.0
 11
445.501998
 21
442.624119
 31
0.0
  0
LINE
  5
162
330
159
100
AcDbEntity
  8
LC-003-005-----0
 62
     7
370
    25
100
AcDbLine
 10
448.001998
 20
437.295692
 30
0.0
 11
445.501998
 21
439.795692
 31
0.0
  0
LINE
  5
163
330
159
100
AcDbEntity
  8
LC-003-005-----0
 62
     7
370
    25
100
AcDbLine
 10
448.001998
 20
434.467265
 30
0.0
 11
445.501998
 21
436.967265
 31
0.0
  0
LINE
  5
164
330
159
100
AcDbEntity
  8
LC-003-005-----0
 62
     7
370
    25
100
AcDbLine
 10
448.001998
 20
431.638837
 30
0.0
 11
445.501998
 21
434.138837
 31
0.0
  0
LINE
  5
165
330
159
100
AcDbEntity
  8
LC-003-005-----0
 62
     7
370
    25
100
AcDbLine
 10
448.001998
 20
428.81041
 30
0.0
 11
445.501998
 21
431.31041
 31
0.0
  0
LINE
  5
166
330
159
100
AcDbEntity
  8
LC-003-005-----0
 62
     7
370
    25
100
AcDbLine
 10
448.001998
 20
425.981983
 30
0.0
 11
445.501998
 21
428.481983
 31
0.0
  0
LINE
  5
167
330
159
100
AcDbEntity
  8
LC-003-005-----0
 62
     7
370
    25
100
AcDbLine
 10
448.001998
 20
423.153556
 30
0.0
 11
445.501998
 21
425.653556
 31
0.0
  0
LINE
  5
168
330
159
100
AcDbEntity
  8
LC-003-005-----0
 62
     7
370
    25
100
AcDbLine
 10
448.001998
 20
420.325129
 30
0.0
 11
445.501998
 21
422.825129
 31
0.0
  0
LINE
  5
169
330
159
100
AcDbEntity
  8
LC-003-005-----0
 62
     7
370
    25
100
AcDbLine
 10
448.001998
 20
417.496702
 30
0.0
 11
445.501998
 21
419.996702
 31
0.0
  0
LINE
  5
16A
330
159
100
AcDbEntity
  8
LC-003-005-----0
 62
     7
370
    25
100
AcDbLine
 10
448.001998
 20
414.668275
 30
0.0
 11
445.501998
 21
417.168275
 31
0.0
  0
LINE
  5
16B
330
159
100
AcDbEntity
  8
LC-003-005-----0
 62
     7
370
    25
100
AcDbLine
 10
448.001998
 20
411.839848
 30
0.0
 11
445.501998
 21
414.339848
 31
0.0
  0
LINE
  5
16C
330
159
100
AcDbEntity
  8
LC-003-005-----0
 62
     7
370
    25
100
AcDbLine
 10
448.001998
 20
409.01142
 30
0.0
 11
445.501998
 21
411.51142
 31
0.0
  0
LINE
  5
16D
330
159
100
AcDbEntity
  8
LC-003-005-----0
 62
     7
370
    25
100
AcDbLine
 10
448.001998
 20
406.182993
 30
0.0
 11
445.501998
 21
408.682993
 31
0.0
  0
LINE
  5
16E
330
159
100
AcDbEntity
  8
LC-003-005-----0
 62
     7
370
    25
100
AcDbLine
 10
448.001998
 20
403.354566
 30
0.0
 11
445.501998
 21
405.854566
 31
0.0
  0
LINE
  5
16F
330
159
100
AcDbEntity
  8
LC-003-005-----0
 62
     7
370
    25
100
AcDbLine
 10
448.001998
 20
400.526139
 30
0.0
 11
445.501998
 21
403.026139
 31
0.0
  0
LINE
  5
170
330
159
100
AcDbEntity
  8
LC-003-005-----0
 62
     7
370
    25
100
AcDbLine
 10
448.001998
 20
397.697712
 30
0.0
 11
445.501998
 21
400.197712
 31
0.0
  0
LINE
  5
171
330
159
100
AcDbEntity
  8
LC-003-005-----0
 62
     7
370
    25
100
AcDbLine
 10
448.001998
 20
394.869285
 30
0.0
 11
445.501998
 21
397.369285
 31
0.0
  0
LINE
  5
172
330
159
100
AcDbEntity
  8
LC-003-005-----0
 62
     7
370
    25
100
AcDbLine
 10
448.001998
 20
392.040858
 30
0.0
 11
445.501998
 21
394.540858
 31
0.0
  0
LINE
  5
173
330
159
100
AcDbEntity
  8
LC-003-005-----0
 62
     7
370
    25
100
AcDbLine
 10
448.001998
 20
389.212431
 30
0.0
 11
445.501998
 21
391.712431
 31
0.0
  0
LINE
  5
174
330
159
100
AcDbEntity
  8
LC-003-005-----0
 62
     7
370
    25
100
AcDbLine
 10
448.001998
 20
386.384003
 30
0.0
 11
445.501998
 21
388.884003
 31
0.0
  0
LINE
  5
175
330
159
100
AcDbEntity
  8
LC-003-005-----0
 62
     7
370
    25
100
AcDbLine
 10
448.001998
 20
383.555576
 30
0.0
 11
445.501998
 21
386.055576
 31
0.0
  0
LINE
  5
176
330
159
100
AcDbEntity
  8
LC-003-005-----0
 62
     7
370
    25
100
AcDbLine
 10
448.001998
 20
380.727149
 30
0.0
 11
445.501998
 21
383.227149
 31
0.0
  0
LINE
  5
177
330
159
100
AcDbEntity
  8
LC-003-005-----0
 62
     7
370
    25
100
AcDbLine
 10
448.001998
 20
377.898722
 30
0.0
 11
445.501998
 21
380.398722
 31
0.0
  0
LINE
  5
178
330
159
100
AcDbEntity
  8
LC-003-005-----0
 62
     7
370
    25
100
AcDbLine
 10
448.001998
 20
375.070295
 30
0.0
 11
445.501998
 21
377.570295
 31
0.0
  0
LINE
  5
179
330
159
100
AcDbEntity
  8
LC-003-005-----0
 62
     7
370
    25
100
AcDbLine
 10
448.001998
 20
372.241868
 30
0.0
 11
445.501998
 21
374.741868
 31
0.0
  0
LINE
  5
17A
330
159
100
AcDbEntity
  8
LC-003-005-----0
 62
     7
370
    25
100
AcDbLine
 10
448.001998
 20
369.413441
 30
0.0
 11
445.501998
 21
371.913441
 31
0.0
  0
LINE
  5
17B
330
159
100
AcDbEntity
  8
LC-003-005-----0
 62
     7
370
    25
100
AcDbLine
 10
448.001998
 20
366.585014
 30
0.0
 11
445.501998
 21
369.085014
 31
0.0
  0
LINE
  5
17C
330
159
100
AcDbEntity
  8
LC-003-005-----0
 62
     7
370
    25
100
AcDbLine
 10
448.001998
 20
363.756586
 30
0.0
 11
445.501998
 21
366.256586
 31
0.0
  0
LINE
  5
17D
330
159
100
AcDbEntity
  8
LC-003-005-----0
 62
     7
370
    25
100
AcDbLine
 10
448.001998
 20
360.928159
 30
0.0
 11
445.501998
 21
363.428159
 31
0.0
  0
LINE
  5
17E
330
159
100
AcDbEntity
  8
LC-003-005-----0
 62
     7
370
    25
100
AcDbLine
 10
448.001998
 20
358.099732
 30
0.0
 11
445.501998
 21
360.599732
 31
0.0
  0
LINE
  5
17F
330
159
100
AcDbEntity
  8
LC-003-005-----0
 62
     7
370
    25
100
AcDbLine
 10
448.001998
 20
355.271305
 30
0.0
 11
445.501998
 21
357.771305
 31
0.0
  0
LINE
  5
180
330
159
100
AcDbEntity
  8
LC-003-005-----0
 62
     7
370
    25
100
AcDbLine
 10
448.001998
 20
352.442878
 30
0.0
 11
445.501998
 21
354.942878
 31
0.0
  0
LINE
  5
181
330
159
100
AcDbEntity
  8
LC-003-005-----0
 62
     7
370
    25
100
AcDbLine
 10
448.001998
 20
349.614451
 30
0.0
 11
445.501998
 21
352.114451
 31
0.0
  0
LINE
  5
182
330
159
100
AcDbEntity
  8
LC-003-005-----0
 62
     7
370
    25
100
AcDbLine
 10
448.001998
 20
346.786024
 30
0.0
 11
445.501998
 21
349.286024
 31
0.0
  0
ENDBLK
  5
15B
330
159
100
AcDbEntity
  8
0
100
AcDbBlockEnd
  0
BLOCK
  5
187
330
186
100
AcDbEntity
  8
0
100
AcDbBlockBegin
  2
*X46
 70
     1
 71
     0
 10
0.0
 20
0.0
 30
0.0
  3
*X46
  1

  4
*X4
  0
LINE
  5
189
330
186
100
AcDbEntity
  8
LC-003-005-----0
 62
     7
370
    25
100
AcDbLine
 10
341.351998
 20
450.607597
 30
0.0
 11
338.001998
 21
453.957597
 31
0.0
  0
LINE
  5
18A
330
186
100
AcDbEntity
  8
LC-003-005-----0
 62
     7
370
    25
100
AcDbLine
 10
340.501998
 20
448.629169
 30
0.0
 11
338.001998
 21
451.129169
 31
0.0
  0
LINE
  5
18B
330
186
100
AcDbEntity
  8
LC-003-005-----0
 62
     7
370
    25
100
AcDbLine
 10
340.501998
 20
445.800742
 30
0.0
 11
338.001998
 21
448.300742
 31
0.0
  0
LINE
  5
18C
330
186
100
AcDbEntity
  8
LC-003-005-----0
 62
     7
370
    25
100
AcDbLine
 10
340.501998
 20
442.972315
 30
0.0
 11
338.001998
 21
445.472315
 31
0.0
  0
LINE
  5
18D
330
186
100
AcDbEntity
  8
LC-003-005-----0
 62
     7
370
    25
100
AcDbLine
 10
340.501998
 20
440.143888
 30
0.0
 11
338.001998
 21
442.643888
 31
0.0
  0
LINE
  5
18E
330
186
100
AcDbEntity
  8
LC-003-005-----0
 62
     7
370
    25
100
AcDbLine
 10
340.501998
 20
437.315461
 30
0.0
 11
338.001998
 21
439.815461
 31
0.0
  0
LINE
  5
18F
330
186
100
AcDbEntity
  8
LC-003-005-----0
 62
     7
370
    25
100
AcDbLine
 10
340.501998
 20
434.487034
 30
0.0
 11
338.001998
 21
436.987034
 31
0.0
  0
LINE
  5
190
330
186
100
AcDbEntity
  8
LC-003-005-----0
 62
     7
370
    25
100
AcDbLine
 10
340.501998
 20
431.658607
 30
0.0
 11
338.001998
 21
434.158607
 31
0.0
  0
LINE
  5
191
330
186
100
AcDbEntity
  8
LC-003-005-----0
 62
     7
370
    25
100
AcDbLine
 10
340.501998
 20
428.83018
 30
0.0
 11
338.001998
 21
431.33018
 31
0.0
  0
LINE
  5
192
330
186
100
AcDbEntity
  8
LC-003-005-----0
 62
     7
370
    25
100
AcDbLine
 10
340.501998
 20
426.001752
 30
0.0
 11
338.001998
 21
428.501752
 31
0.0
  0
LINE
  5
193
330
186
100
AcDbEntity
  8
LC-003-005-----0
 62
     7
370
    25
100
AcDbLine
 10
340.501998
 20
423.173325
 30
0.0
 11
338.001998
 21
425.673325
 31
0.0
  0
LINE
  5
194
330
186
100
AcDbEntity
  8
LC-003-005-----0
 62
     7
370
    25
100
AcDbLine
 10
340.501998
 20
420.344898
 30
0.0
 11
338.001998
 21
422.844898
 31
0.0
  0
LINE
  5
195
330
186
100
AcDbEntity
  8
LC-003-005-----0
 62
     7
370
    25
100
AcDbLine
 10
340.501998
 20
417.516471
 30
0.0
 11
338.001998
 21
420.016471
 31
0.0
  0
LINE
  5
196
330
186
100
AcDbEntity
  8
LC-003-005-----0
 62
     7
370
    25
100
AcDbLine
 10
340.501998
 20
414.688044
 30
0.0
 11
338.001998
 21
417.188044
 31
0.0
  0
LINE
  5
197
330
186
100
AcDbEntity
  8
LC-003-005-----0
 62
     7
370
    25
100
AcDbLine
 10
340.501998
 20
411.859617
 30
0.0
 11
338.001998
 21
414.359617
 31
0.0
  0
LINE
  5
198
330
186
100
AcDbEntity
  8
LC-003-005-----0
 62
     7
370
    25
100
AcDbLine
 10
340.501998
 20
409.03119
 30
0.0
 11
338.001998
 21
411.53119
 31
0.0
  0
LINE
  5
199
330
186
100
AcDbEntity
  8
LC-003-005-----0
 62
     7
370
    25
100
AcDbLine
 10
340.501998
 20
406.202763
 30
0.0
 11
338.001998
 21
408.702763
 31
0.0
  0
LINE
  5
19A
330
186
100
AcDbEntity
  8
LC-003-005-----0
 62
     7
370
    25
100
AcDbLine
 10
340.501998
 20
403.374335
 30
0.0
 11
338.001998
 21
405.874335
 31
0.0
  0
LINE
  5
19B
330
186
100
AcDbEntity
  8
LC-003-005-----0
 62
     7
370
    25
100
AcDbLine
 10
340.501998
 20
400.545908
 30
0.0
 11
338.001998
 21
403.045908
 31
0.0
  0
LINE
  5
19C
330
186
100
AcDbEntity
  8
LC-003-005-----0
 62
     7
370
    25
100
AcDbLine
 10
340.501998
 20
397.717481
 30
0.0
 11
338.001998
 21
400.217481
 31
0.0
  0
LINE
  5
19D
330
186
100
AcDbEntity
  8
LC-003-005-----0
 62
     7
370
    25
100
AcDbLine
 10
340.501998
 20
394.889054
 30
0.0
 11
338.001998
 21
397.389054
 31
0.0
  0
LINE
  5
19E
330
186
100
AcDbEntity
  8
LC-003-005-----0
 62
     7
370
    25
100
AcDbLine
 10
340.501998
 20
392.060627
 30
0.0
 11
338.001998
 21
394.560627
 31
0.0
  0
LINE
  5
19F
330
186
100
AcDbEntity
  8
LC-003-005-----0
 62
     7
370
    25
100
AcDbLine
 10
340.501998
 20
389.2322
 30
0.0
 11
338.001998
 21
391.7322
 31
0.0
  0
LINE
  5
1A0
330
186
100
AcDbEntity
  8
LC-003-005-----0
 62
     7
370
    25
100
AcDbLine
 10
340.501998
 20
386.403773
 30
0.0
 11
338.001998
 21
388.903773
 31
0.0
  0
LINE
  5
1A1
330
186
100
AcDbEntity
  8
LC-003-005-----0
 62
     7
370
    25
100
AcDbLine
 10
340.501998
 20
383.575346
 30
0.0
 11
338.001998
 21
386.075346
 31
0.0
  0
LINE
  5
1A2
330
186
100
AcDbEntity
  8
LC-003-005-----0
 62
     7
370
    25
100
AcDbLine
 10
340.501998
 20
380.746918
 30
0.0
 11
338.001998
 21
383.246918
 31
0.0
  0
LINE
  5
1A3
330
186
100
AcDbEntity
  8
LC-003-005-----0
 62
     7
370
    25
100
AcDbLine
 10
340.501998
 20
377.918491
 30
0.0
 11
338.001998
 21
380.418491
 31
0.0
  0
LINE
  5
1A4
330
186
100
AcDbEntity
  8
LC-003-005-----0
 62
     7
370
    25
100
AcDbLine
 10
340.501998
 20
375.090064
 30
0.0
 11
338.001998
 21
377.590064
 31
0.0
  0
LINE
  5
1A5
330
186
100
AcDbEntity
  8
LC-003-005-----0
 62
     7
370
    25
100
AcDbLine
 10
340.501998
 20
372.261637
 30
0.0
 11
338.001998
 21
374.761637
 31
0.0
  0
LINE
  5
1A6
330
186
100
AcDbEntity
  8
LC-003-005-----0
 62
     7
370
    25
100
AcDbLine
 10
340.501998
 20
369.43321
 30
0.0
 11
338.001998
 21
371.93321
 31
0.0
  0
LINE
  5
1A7
330
186
100
AcDbEntity
  8
LC-003-005-----0
 62
     7
370
    25
100
AcDbLine
 10
340.501998
 20
366.604783
 30
0.0
 11
338.001998
 21
369.104783
 31
0.0
  0
LINE
  5
1A8
330
186
100
AcDbEntity
  8
LC-003-005-----0
 62
     7
370
    25
100
AcDbLine
 10
340.501998
 20
363.776356
 30
0.0
 11
338.001998
 21
366.276356
 31
0.0
  0
LINE
  5
1A9
330
186
100
AcDbEntity
  8
LC-003-005-----0
 62
     7
370
    25
100
AcDbLine
 10
340.501998
 20
360.947929
 30
0.0
 11
338.001998
 21
363.447929
 31
0.0
  0
LINE
  5
1AA
330
186
100
AcDbEntity
  8
LC-003-005-----0
 62
     7
370
    25
100
AcDbLine
 10
340.501998
 20
358.119501
 30
0.0
 11
338.001998
 21
360.619501
 31
0.0
  0
LINE
  5
1AB
330
186
100
AcDbEntity
  8
LC-003-005-----0
 62
     7
370
    25
100
AcDbLine
 10
340.501998
 20
355.291074
 30
0.0
 11
338.001998
 21
357.791074
 31
0.0
  0
LINE
  5
1AC
330
186
100
AcDbEntity
  8
LC-003-005-----0
 62
     7
370
    25
100
AcDbLine
 10
340.501998
 20
352.462647
 30
0.0
 11
338.001998
 21
354.962647
 31
0.0
  0
LINE
  5
1AD
330
186
100
AcDbEntity
  8
LC-003-005-----0
 62
     7
370
    25
100
AcDbLine
 10
340.501998
 20
349.63422
 30
0.0
 11
338.001998
 21
352.13422
 31
0.0
  0
LINE
  5
1AE
330
186
100
AcDbEntity
  8
LC-003-005-----0
 62
     7
370
    25
100
AcDbLine
 10
340.501998
 20
346.805793
 30
0.0
 11
338.001998
 21
349.305793
 31
0.0
  0
LINE
  5
1AF
330
186
100
AcDbEntity
  8
LC-003-005-----0
 62
     7
370
    25
100
AcDbLine
 10
339.427579
 20
345.051785
 30
0.0
 11
338.001998
 21
346.477366
 31
0.0
  0
ENDBLK
  5
188
330
186
100
AcDbEntity
  8
0
100
AcDbBlockEnd
  0
BLOCK
  5
1FE
330
1FD
100
AcDbEntity
  8
0
100
AcDbBlockBegin
  2
*X57
 70
     1
 71
     0
 10
0.0
 20
0.0
 30
0.0
  3
*X57
  1

  4
*X5
  0
LINE
  5
200
330
1FD
100
AcDbEntity
  8
LC-003-005-----0
 62
     7
370
    25
100
AcDbLine
 10
443.504767
 20
446.333194
 30
0.0
 11
444.410246
 21
447.238673
 31
0.0
  0
LINE
  5
201
330
1FD
100
AcDbEntity
  8
LC-003-005-----0
 62
     7
370
    25
100
AcDbLine
 10
443.872142
 20
449.528996
 30
0.0
 11
444.515077
 21
450.171931
 31
0.0
  0
LINE
  5
202
330
1FD
100
AcDbEntity
  8
LC-003-005-----0
 62
     7
370
    25
100
AcDbLine
 10
443.701998
 20
452.18728
 30
0.0
 11
444.401998
 21
452.88728
 31
0.0
  0
LINE
  5
203
330
1FD
100
AcDbEntity
  8
LC-003-005-----0
 62
     7
370
    25
100
AcDbLine
 10
446.566504
 20
455.051785
 30
0.0
 11
448.001998
 21
456.48728
 31
0.0
  0
LINE
  5
204
330
1FD
100
AcDbEntity
  8
LC-003-005-----0
 62
     7
370
    25
100
AcDbLine
 10
449.81089
 20
458.296171
 30
0.0
 11
450.510971
 21
458.996252
 31
0.0
  0
LINE
  5
205
330
1FD
100
AcDbEntity
  8
LC-003-005-----0
 62
     7
370
    25
100
AcDbLine
 10
451.001918
 20
459.487199
 30
0.0
 11
451.701998
 21
460.18728
 31
0.0
  0
LINE
  5
206
330
1FD
100
AcDbEntity
  8
LC-003-005-----0
 62
     7
370
    25
100
AcDbLine
 10
443.90318
 20
455.216889
 30
0.0
 11
444.236895
 21
455.550604
 31
0.0
  0
LINE
  5
207
330
1FD
100
AcDbEntity
  8
LC-003-005-----0
 62
     7
370
    25
100
AcDbLine
 10
451.001998
 20
462.315707
 30
0.0
 11
452.401998
 21
463.715707
 31
0.0
  0
ENDBLK
  5
1FF
330
1FD
100
AcDbEntity
  8
0
100
AcDbBlockEnd
  0
BLOCK
  5
229
330
21F
100
AcDbEntity
  8
0
100
AcDbBlockBegin
  2
*D8
 70
     1
 71
     0
 10
0.0
 20
0.0
 30
0.0
  3
*D8
  1

  0
LINE
  5
220
330
21F
100
AcDbEntity
  8
LC-005-003-----0
 62
     2
370
    -2
100
AcDbLine
 10
333.601998
 20
463.796171
 30
0.0
 11
333.601998
 21
484.92731
 31
0.0
  0
LINE
  5
221
330
21F
100
AcDbEntity
  8
LC-005-003-----0
 62
     2
370
    -2
100
AcDbLine
 10
452.401998
 20
463.796171
 30
0.0
 11
452.401998
 21
484.92731
 31
0.0
  0
LINE
  5
222
330
21F
100
AcDbEntity
  8
LC-005-003-----0
 62
     2
370
    -2
100
AcDbLine
 10
361.601998
 20
481.32731
 30
0.0
 11
424.401998
 21
481.32731
 31
0.0
  0
SOLID
  5
223
330
21F
100
AcDbEntity
  8
LC-005-003-----0
 62
     2
100
AcDbTrace
 10
361.601998
 20
485.993976
 30
0.0
 11
361.601998
 21
476.660643
 31
0.0
 12
333.601998
 22
481.32731
 32
0.0
 13
333.601998
 23
481.32731
 33
0.0
  0
SOLID
  5
224
330
21F
100
AcDbEntity
  8
LC-005-003-----0
 62
     2
100
AcDbTrace
 10
424.401998
 20
476.660643
 30
0.0
 11
424.401998
 21
485.993976
 31
0.0
 12
452.401998
 22
481.32731
 32
0.0
 13
452.401998
 23
481.32731
 33
0.0
  0
MTEXT
  5
225
330
21F
100
AcDbEntity
  8
LC-005-003-----0
 62
     2
100
AcDbMText
 10
393.001998
 20
512.12731
 30
0.0
 40
28.0
 41
0.0
 71
     5
 72
     1
  1
\A1;120
  7
LCTX15-400-0-0pDIN-Schrift
 73
     1
 44
1.0
  0
POINT
  5
226
330
21F
100
AcDbEntity
  8
Defpoints
 62
     0
100
AcDbPoint
 10
333.601998
 20
463.796171
 30
0.0
  0
POINT
  5
227
330
21F
100
AcDbEntity
  8
Defpoints
 62
     0
100
AcDbPoint
 10
452.401998
 20
463.796171
 30
0.0
  0
POINT
  5
228
330
21F
100
AcDbEntity
  8
Defpoints
 62
     0
100
AcDbPoint
 10
452.401998
 20
481.32731
 30
0.0
  0
ENDBLK
  5
22A
330
21F
100
AcDbEntity
  8
0
100
AcDbBlockEnd
  0
BLOCK
  5
236
330
22C
100
AcDbEntity
  8
0
100
AcDbBlockBegin
  2
*D9
 70
     1
 71
     0
 10
0.0
 20
0.0
 30
0.0
  3
*D9
  1

  0
LINE
  5
22D
330
22C
100
AcDbEntity
  8
LC-005-003-----0
 62
     2
370
    -2
100
AcDbLine
 10
506.057404
 20
363.00805
 30
0.0
 11
567.135595
 21
363.00805
 31
0.0
  0
LINE
  5
22E
330
22C
100
AcDbEntity
  8
LC-005-003-----0
 62
     2
370
    -2
100
AcDbLine
 10
451.701998
 20
465.496862
 30
0.0
 11
567.135595
 21
465.496862
 31
0.0
  0
LINE
  5
22F
330
22C
100
AcDbEntity
  8
LC-005-003-----0
 62
     2
370
    -2
100
AcDbLine
 10
563.535595
 20
391.00805
 30
0.0
 11
563.535595
 21
437.496862
 31
0.0
  0
SOLID
  5
230
330
22C
100
AcDbEntity
  8
LC-005-003-----0
 62
     2
100
AcDbTrace
 10
558.868928
 20
391.00805
 30
0.0
 11
568.202262
 21
391.00805
 31
0.0
 12
563.535595
 22
363.00805
 32
0.0
 13
563.535595
 23
363.00805
 33
0.0
  0
SOLID
  5
231
330
22C
100
AcDbEntity
  8
LC-005-003-----0
 62
     2
100
AcDbTrace
 10
568.202262
 20
437.496862
 30
0.0
 11
558.868928
 21
437.496862
 31
0.0
 12
563.535595
 22
465.496862
 32
0.0
 13
563.535595
 23
465.496862
 33
0.0
  0
MTEXT
  5
232
330
22C
100
AcDbEntity
  8
LC-005-003-----0
 62
     2
100
AcDbMText
 10
532.735595
 20
412.236
 30
0.0
 40
28.0
 41
0.0
 71
     5
 72
     1
  1
\A1;14-105,5
  7
LCTX15-400-0-0pDIN-Schrift
 11
6.123031769111886E-17
 21
1.0
 31
0.0
 73
     1
 44
1.0
  0
POINT
  5
233
330
22C
100
AcDbEntity
  8
Defpoints
 62
     0
100
AcDbPoint
 10
506.057404
 20
363.00805
 30
0.0
  0
POINT
  5
234
330
22C
100
AcDbEntity
  8
Defpoints
 62
     0
100
AcDbPoint
 10
451.701998
 20
465.496862
 30
0.0
  0
POINT
  5
235
330
22C
100
AcDbEntity
  8
Defpoints
 62
     0
100
AcDbPoint
 10
563.535595
 20
465.496862
 30
0.0
  0
ENDBLK
  5
237
330
22C
100
AcDbEntity
  8
0
100
AcDbBlockEnd
  0
BLOCK
  5
25F
330
25E
100
AcDbEntity
  8
0
100
AcDbBlockBegin
  2
*X610
 70
     1
 71
     0
 10
0.0
 20
0.0
 30
0.0
  3
*X610
  1

  4
*X6
  0
LINE
  5
261
330
25E
100
AcDbEntity
  8
LC-003-005-----0
 62
     7
370
    25
100
AcDbLine
 10
491.836389
 20
285.361208
 30
0.0
 11
495.101306
 21
288.626126
 31
0.0
  0
LINE
  5
262
330
25E
100
AcDbEntity
  8
LC-003-005-----0
 62
     7
370
    25
100
AcDbLine
 10
488.101306
 20
284.454553
 30
0.0
 11
492.717303
 21
289.07055
 31
0.0
  0
LINE
  5
263
330
25E
100
AcDbEntity
  8
LC-003-005-----0
 62
     7
370
    25
100
AcDbLine
 10
482.990604
 20
282.172278
 30
0.0
 11
483.601306
 21
282.78298
 31
0.0
  0
LINE
  5
264
330
25E
100
AcDbEntity
  8
LC-003-005-----0
 62
     7
370
    25
100
AcDbLine
 10
487.077372
 20
286.259046
 30
0.0
 11
489.888876
 21
289.07055
 31
0.0
  0
LINE
  5
265
330
25E
100
AcDbEntity
  8
LC-003-005-----0
 62
     7
370
    25
100
AcDbLine
 10
479.733117
 20
281.743218
 30
0.0
 11
483.601306
 21
285.611407
 31
0.0
  0
LINE
  5
266
330
25E
100
AcDbEntity
  8
LC-003-005-----0
 62
     7
370
    25
100
AcDbLine
 10
484.248945
 20
286.259046
 30
0.0
 11
487.060449
 21
289.07055
 31
0.0
  0
LINE
  5
267
330
25E
100
AcDbEntity
  8
LC-003-005-----0
 62
     7
370
    25
100
AcDbLine
 10
476.828198
 20
281.666726
 30
0.0
 11
484.232022
 21
289.07055
 31
0.0
  0
LINE
  5
268
330
25E
100
AcDbEntity
  8
LC-003-005-----0
 62
     7
370
    25
100
AcDbLine
 10
474.179232
 20
281.846187
 30
0.0
 11
481.403595
 21
289.07055
 31
0.0
  0
LINE
  5
269
330
25E
100
AcDbEntity
  8
LC-003-005-----0
 62
     7
370
    25
100
AcDbLine
 10
471.731648
 20
282.22703
 30
0.0
 11
478.575168
 21
289.07055
 31
0.0
  0
LINE
  5
26A
330
25E
100
AcDbEntity
  8
LC-003-005-----0
 62
     7
370
    25
100
AcDbLine
 10
469.451239
 20
282.775048
 30
0.0
 11
475.746741
 21
289.07055
 31
0.0
  0
LINE
  5
26B
330
25E
100
AcDbEntity
  8
LC-003-005-----0
 62
     7
370
    25
100
AcDbLine
 10
467.315114
 20
283.467351
 30
0.0
 11
472.918313
 21
289.07055
 31
0.0
  0
LINE
  5
26C
330
25E
100
AcDbEntity
  8
LC-003-005-----0
 62
     7
370
    25
100
AcDbLine
 10
465.30731
 20
284.287974
 30
0.0
 11
470.089886
 21
289.07055
 31
0.0
  0
LINE
  5
26D
330
25E
100
AcDbEntity
  8
LC-003-005-----0
 62
     7
370
    25
100
AcDbLine
 10
461.949955
 20
283.759046
 30
0.0
 11
462.101306
 21
283.910397
 31
0.0
  0
LINE
  5
26E
330
25E
100
AcDbEntity
  8
LC-003-005-----0
 62
     7
370
    25
100
AcDbLine
 10
463.416432
 20
285.225523
 30
0.0
 11
467.261459
 21
289.07055
 31
0.0
  0
LINE
  5
26F
330
25E
100
AcDbEntity
  8
LC-003-005-----0
 62
     7
370
    25
100
AcDbLine
 10
459.601306
 20
284.238824
 30
0.0
 11
464.433032
 21
289.07055
 31
0.0
  0
LINE
  5
270
330
25E
100
AcDbEntity
  8
LC-003-005-----0
 62
     7
370
    25
100
AcDbLine
 10
458.604605
 20
286.07055
 30
0.0
 11
461.604605
 21
289.07055
 31
0.0
  0
LINE
  5
271
330
25E
100
AcDbEntity
  8
LC-003-005-----0
 62
     7
370
    25
100
AcDbLine
 10
455.776178
 20
286.07055
 30
0.0
 11
458.776178
 21
289.07055
 31
0.0
  0
LINE
  5
272
330
25E
100
AcDbEntity
  8
LC-003-005-----0
 62
     7
370
    25
100
AcDbLine
 10
452.947751
 20
286.07055
 30
0.0
 11
455.947751
 21
289.07055
 31
0.0
  0
LINE
  5
273
330
25E
100
AcDbEntity
  8
LC-003-005-----0
 62
     7
370
    25
100
AcDbLine
 10
445.201425
 20
281.152652
 30
0.0
 11
447.931401
 21
283.882628
 31
0.0
  0
LINE
  5
274
330
25E
100
AcDbEntity
  8
LC-003-005-----0
 62
     7
370
    25
100
AcDbLine
 10
450.119324
 20
286.07055
 30
0.0
 11
453.119324
 21
289.07055
 31
0.0
  0
LINE
  5
275
330
25E
100
AcDbEntity
  8
LC-003-005-----0
 62
     7
370
    25
100
AcDbLine
 10
442.302401
 20
281.082055
 30
0.0
 11
450.290896
 21
289.07055
 31
0.0
  0
LINE
  5
276
330
25E
100
AcDbEntity
  8
LC-003-005-----0
 62
     7
370
    25
100
AcDbLine
 10
439.473974
 20
281.082055
 30
0.0
 11
442.473974
 21
284.082055
 31
0.0
  0
LINE
  5
277
330
25E
100
AcDbEntity
  8
LC-003-005-----0
 62
     7
370
    25
100
AcDbLine
 10
445.001998
 20
286.610079
 30
0.0
 11
447.462469
 21
289.07055
 31
0.0
  0
LINE
  5
278
330
25E
100
AcDbEntity
  8
LC-003-005-----0
 62
     7
370
    25
100
AcDbLine
 10
436.645547
 20
281.082055
 30
0.0
 11
439.645547
 21
284.082055
 31
0.0
  0
LINE
  5
279
330
25E
100
AcDbEntity
  8
LC-003-005-----0
 62
     7
370
    25
100
AcDbLine
 10
433.817119
 20
281.082055
 30
0.0
 11
436.817119
 21
284.082055
 31
0.0
  0
LINE
  5
27A
330
25E
100
AcDbEntity
  8
LC-003-005-----0
 62
     7
370
    25
100
AcDbLine
 10
430.988692
 20
281.082055
 30
0.0
 11
433.988692
 21
284.082055
 31
0.0
  0
LINE
  5
27B
330
25E
100
AcDbEntity
  8
LC-003-005-----0
 62
     7
370
    25
100
AcDbLine
 10
428.160265
 20
281.082055
 30
0.0
 11
431.160265
 21
284.082055
 31
0.0
  0
LINE
  5
27C
330
25E
100
AcDbEntity
  8
LC-003-005-----0
 62
     7
370
    25
100
AcDbLine
 10
425.331838
 20
281.082055
 30
0.0
 11
428.331838
 21
284.082055
 31
0.0
  0
LINE
  5
27D
330
25E
100
AcDbEntity
  8
LC-003-005-----0
 62
     7
370
    25
100
AcDbLine
 10
422.503411
 20
281.082055
 30
0.0
 11
425.503411
 21
284.082055
 31
0.0
  0
LINE
  5
27E
330
25E
100
AcDbEntity
  8
LC-003-005-----0
 62
     7
370
    25
100
AcDbLine
 10
419.674984
 20
281.082055
 30
0.0
 11
422.674984
 21
284.082055
 31
0.0
  0
LINE
  5
27F
330
25E
100
AcDbEntity
  8
LC-003-005-----0
 62
     7
370
    25
100
AcDbLine
 10
416.846557
 20
281.082055
 30
0.0
 11
419.846557
 21
284.082055
 31
0.0
  0
LINE
  5
280
330
25E
100
AcDbEntity
  8
LC-003-005-----0
 62
     7
370
    25
100
AcDbLine
 10
414.01813
 20
281.082055
 30
0.0
 11
417.01813
 21
284.082055
 31
0.0
  0
LINE
  5
281
330
25E
100
AcDbEntity
  8
LC-003-005-----0
 62
     7
370
    25
100
AcDbLine
 10
411.189702
 20
281.082055
 30
0.0
 11
414.189702
 21
284.082055
 31
0.0
  0
LINE
  5
282
330
25E
100
AcDbEntity
  8
LC-003-005-----0
 62
     7
370
    25
100
AcDbLine
 10
408.361275
 20
281.082055
 30
0.0
 11
411.361275
 21
284.082055
 31
0.0
  0
LINE
  5
283
330
25E
100
AcDbEntity
  8
LC-003-005-----0
 62
     7
370
    25
100
AcDbLine
 10
405.532848
 20
281.082055
 30
0.0
 11
408.532848
 21
284.082055
 31
0.0
  0
LINE
  5
284
330
25E
100
AcDbEntity
  8
LC-003-005-----0
 62
     7
370
    25
100
AcDbLine
 10
402.704421
 20
281.082055
 30
0.0
 11
405.704421
 21
284.082055
 31
0.0
  0
LINE
  5
285
330
25E
100
AcDbEntity
  8
LC-003-005-----0
 62
     7
370
    25
100
AcDbLine
 10
399.875994
 20
281.082055
 30
0.0
 11
402.875994
 21
284.082055
 31
0.0
  0
LINE
  5
286
330
25E
100
AcDbEntity
  8
LC-003-005-----0
 62
     7
370
    25
100
AcDbLine
 10
397.047567
 20
281.082055
 30
0.0
 11
400.047567
 21
284.082055
 31
0.0
  0
LINE
  5
287
330
25E
100
AcDbEntity
  8
LC-003-005-----0
 62
     7
370
    25
100
AcDbLine
 10
394.21914
 20
281.082055
 30
0.0
 11
397.21914
 21
284.082055
 31
0.0
  0
LINE
  5
288
330
25E
100
AcDbEntity
  8
LC-003-005-----0
 62
     7
370
    25
100
AcDbLine
 10
391.390713
 20
281.082055
 30
0.0
 11
394.390713
 21
284.082055
 31
0.0
  0
LINE
  5
289
330
25E
100
AcDbEntity
  8
LC-003-005-----0
 62
     7
370
    25
100
AcDbLine
 10
388.562285
 20
281.082055
 30
0.0
 11
391.562285
 21
284.082055
 31
0.0
  0
LINE
  5
28A
330
25E
100
AcDbEntity
  8
LC-003-005-----0
 62
     7
370
    25
100
AcDbLine
 10
385.733858
 20
281.082055
 30
0.0
 11
388.733858
 21
284.082055
 31
0.0
  0
LINE
  5
28B
330
25E
100
AcDbEntity
  8
LC-003-005-----0
 62
     7
370
    25
100
AcDbLine
 10
382.905431
 20
281.082055
 30
0.0
 11
385.905431
 21
284.082055
 31
0.0
  0
LINE
  5
28C
330
25E
100
AcDbEntity
  8
LC-003-005-----0
 62
     7
370
    25
100
AcDbLine
 10
380.077004
 20
281.082055
 30
0.0
 11
383.077004
 21
284.082055
 31
0.0
  0
LINE
  5
28D
330
25E
100
AcDbEntity
  8
LC-003-005-----0
 62
     7
370
    25
100
AcDbLine
 10
377.248577
 20
281.082055
 30
0.0
 11
380.248577
 21
284.082055
 31
0.0
  0
LINE
  5
28E
330
25E
100
AcDbEntity
  8
LC-003-005-----0
 62
     7
370
    25
100
AcDbLine
 10
374.42015
 20
281.082055
 30
0.0
 11
377.42015
 21
284.082055
 31
0.0
  0
LINE
  5
28F
330
25E
100
AcDbEntity
  8
LC-003-005-----0
 62
     7
370
    25
100
AcDbLine
 10
371.591723
 20
281.082055
 30
0.0
 11
374.591723
 21
284.082055
 31
0.0
  0
LINE
  5
290
330
25E
100
AcDbEntity
  8
LC-003-005-----0
 62
     7
370
    25
100
AcDbLine
 10
368.763296
 20
281.082055
 30
0.0
 11
371.763296
 21
284.082055
 31
0.0
  0
LINE
  5
291
330
25E
100
AcDbEntity
  8
LC-003-005-----0
 62
     7
370
    25
100
AcDbLine
 10
365.934868
 20
281.082055
 30
0.0
 11
368.934868
 21
284.082055
 31
0.0
  0
LINE
  5
292
330
25E
100
AcDbEntity
  8
LC-003-005-----0
 62
     7
370
    25
100
AcDbLine
 10
363.106441
 20
281.082055
 30
0.0
 11
366.106441
 21
284.082055
 31
0.0
  0
LINE
  5
293
330
25E
100
AcDbEntity
  8
LC-003-005-----0
 62
     7
370
    25
100
AcDbLine
 10
360.278014
 20
281.082055
 30
0.0
 11
363.278014
 21
284.082055
 31
0.0
  0
LINE
  5
294
330
25E
100
AcDbEntity
  8
LC-003-005-----0
 62
     7
370
    25
100
AcDbLine
 10
357.449587
 20
281.082055
 30
0.0
 11
360.449587
 21
284.082055
 31
0.0
  0
LINE
  5
295
330
25E
100
AcDbEntity
  8
LC-003-005-----0
 62
     7
370
    25
100
AcDbLine
 10
354.62116
 20
281.082055
 30
0.0
 11
357.62116
 21
284.082055
 31
0.0
  0
LINE
  5
296
330
25E
100
AcDbEntity
  8
LC-003-005-----0
 62
     7
370
    25
100
AcDbLine
 10
351.792733
 20
281.082055
 30
0.0
 11
354.792733
 21
284.082055
 31
0.0
  0
LINE
  5
297
330
25E
100
AcDbEntity
  8
LC-003-005-----0
 62
     7
370
    25
100
AcDbLine
 10
348.964306
 20
281.082055
 30
0.0
 11
351.964306
 21
284.082055
 31
0.0
  0
LINE
  5
298
330
25E
100
AcDbEntity
  8
LC-003-005-----0
 62
     7
370
    25
100
AcDbLine
 10
346.135879
 20
281.082055
 30
0.0
 11
349.135879
 21
284.082055
 31
0.0
  0
LINE
  5
299
330
25E
100
AcDbEntity
  8
LC-003-005-----0
 62
     7
370
    25
100
AcDbLine
 10
343.307451
 20
281.082055
 30
0.0
 11
346.307451
 21
284.082055
 31
0.0
  0
LINE
  5
29A
330
25E
100
AcDbEntity
  8
LC-003-005-----0
 62
     7
370
    25
100
AcDbLine
 10
340.597829
 20
281.20086
 30
0.0
 11
343.479024
 21
284.082055
 31
0.0
  0
LINE
  5
29B
330
25E
100
AcDbEntity
  8
LC-003-005-----0
 62
     7
370
    25
100
AcDbLine
 10
338.857669
 20
282.289126
 30
0.0
 11
341.019493
 21
284.45095
 31
0.0
  0
LINE
  5
29C
330
25E
100
AcDbEntity
  8
LC-003-005-----0
 62
     7
370
    25
100
AcDbLine
 10
338.015463
 20
284.275347
 30
0.0
 11
341.001998
 21
287.261883
 31
0.0
  0
LINE
  5
29D
330
25E
100
AcDbEntity
  8
LC-003-005-----0
 62
     7
370
    25
100
AcDbLine
 10
338.001998
 20
287.09031
 30
0.0
 11
341.001998
 21
290.09031
 31
0.0
  0
LINE
  5
29E
330
25E
100
AcDbEntity
  8
LC-003-005-----0
 62
     7
370
    25
100
AcDbLine
 10
337.203811
 20
289.12055
 30
0.0
 11
338.753811
 21
290.67055
 31
0.0
  0
LINE
  5
29F
330
25E
100
AcDbEntity
  8
LC-003-005-----0
 62
     7
370
    25
100
AcDbLine
 10
334.375384
 20
289.12055
 30
0.0
 11
335.925384
 21
290.67055
 31
0.0
  0
LINE
  5
2A0
330
25E
100
AcDbEntity
  8
LC-003-005-----0
 62
     7
370
    25
100
AcDbLine
 10
331.546957
 20
289.12055
 30
0.0
 11
333.096957
 21
290.67055
 31
0.0
  0
LINE
  5
2A1
330
25E
100
AcDbEntity
  8
LC-003-005-----0
 62
     7
370
    25
100
AcDbLine
 10
328.71853
 20
289.12055
 30
0.0
 11
330.26853
 21
290.67055
 31
0.0
  0
LINE
  5
2A2
330
25E
100
AcDbEntity
  8
LC-003-005-----0
 62
     7
370
    25
100
AcDbLine
 10
325.890103
 20
289.12055
 30
0.0
 11
327.440103
 21
290.67055
 31
0.0
  0
LINE
  5
2A3
330
25E
100
AcDbEntity
  8
LC-003-005-----0
 62
     7
370
    25
100
AcDbLine
 10
323.061676
 20
289.12055
 30
0.0
 11
324.611676
 21
290.67055
 31
0.0
  0
LINE
  5
2A4
330
25E
100
AcDbEntity
  8
LC-003-005-----0
 62
     7
370
    25
100
AcDbLine
 10
320.233249
 20
289.12055
 30
0.0
 11
321.783249
 21
290.67055
 31
0.0
  0
LINE
  5
2A5
330
25E
100
AcDbEntity
  8
LC-003-005-----0
 62
     7
370
    25
100
AcDbLine
 10
317.404822
 20
289.12055
 30
0.0
 11
318.954822
 21
290.67055
 31
0.0
  0
LINE
  5
2A6
330
25E
100
AcDbEntity
  8
LC-003-005-----0
 62
     7
370
    25
100
AcDbLine
 10
314.576394
 20
289.12055
 30
0.0
 11
316.126394
 21
290.67055
 31
0.0
  0
LINE
  5
2A7
330
25E
100
AcDbEntity
  8
LC-003-005-----0
 62
     7
370
    25
100
AcDbLine
 10
311.747967
 20
289.12055
 30
0.0
 11
313.297967
 21
290.67055
 31
0.0
  0
LINE
  5
2A8
330
25E
100
AcDbEntity
  8
LC-003-005-----0
 62
     7
370
    25
100
AcDbLine
 10
308.91954
 20
289.12055
 30
0.0
 11
310.46954
 21
290.67055
 31
0.0
  0
LINE
  5
2A9
330
25E
100
AcDbEntity
  8
LC-003-005-----0
 62
     7
370
    25
100
AcDbLine
 10
306.091113
 20
289.12055
 30
0.0
 11
307.641113
 21
290.67055
 31
0.0
  0
LINE
  5
2AA
330
25E
100
AcDbEntity
  8
LC-003-005-----0
 62
     7
370
    25
100
AcDbLine
 10
303.262686
 20
289.12055
 30
0.0
 11
304.812686
 21
290.67055
 31
0.0
  0
LINE
  5
2AB
330
25E
100
AcDbEntity
  8
LC-003-005-----0
 62
     7
370
    25
100
AcDbLine
 10
295.384259
 20
284.07055
 30
0.0
 11
301.984259
 21
290.67055
 31
0.0
  0
LINE
  5
2AC
330
25E
100
AcDbEntity
  8
LC-003-005-----0
 62
     7
370
    25
100
AcDbLine
 10
292.555832
 20
284.07055
 30
0.0
 11
294.705832
 21
286.22055
 31
0.0
  0
LINE
  5
2AD
330
25E
100
AcDbEntity
  8
LC-003-005-----0
 62
     7
370
    25
100
AcDbLine
 10
297.494165
 20
289.008883
 30
0.0
 11
299.155832
 21
290.67055
 31
0.0
  0
LINE
  5
2AE
330
25E
100
AcDbEntity
  8
LC-003-005-----0
 62
     7
370
    25
100
AcDbLine
 10
289.738333
 20
284.081479
 30
0.0
 11
291.877405
 21
286.22055
 31
0.0
  0
LINE
  5
2AF
330
25E
100
AcDbEntity
  8
LC-003-005-----0
 62
     7
370
    25
100
AcDbLine
 10
287.825785
 20
284.997358
 30
0.0
 11
289.696571
 21
286.868144
 31
0.0
  0
LINE
  5
2B0
330
25E
100
AcDbEntity
  8
LC-003-005-----0
 62
     7
370
    25
100
AcDbLine
 10
286.995113
 20
286.995113
 30
0.0
 11
288.282358
 21
288.282358
 31
0.0
  0
LINE
  5
2B1
330
25E
100
AcDbEntity
  8
LC-003-005-----0
 62
     7
370
    25
100
AcDbLine
 10
284.242123
 20
287.07055
 30
0.0
 11
285.742123
 21
288.57055
 31
0.0
  0
ENDBLK
  5
260
330
25E
100
AcDbEntity
  8
0
100
AcDbBlockEnd
  0
BLOCK
  5
2CC
330
2C2
100
AcDbEntity
  8
0
100
AcDbBlockBegin
  2
*D11
 70
     1
 71
     0
 10
0.0
 20
0.0
 30
0.0
  3
*D11
  1

  0
LINE
  5
2C3
330
2C2
100
AcDbEntity
  8
LC-005-003-----0
 62
     2
370
    -2
100
AcDbLine
 10
278.001998
 20
361.008818
 30
0.0
 11
278.001998
 21
540.576
 31
0.0
  0
LINE
  5
2C4
330
2C2
100
AcDbEntity
  8
LC-005-003-----0
 62
     2
370
    -2
100
AcDbLine
 10
508.001998
 20
361.008818
 30
0.0
 11
508.001998
 21
540.576
 31
0.0
  0
LINE
  5
2C5
330
2C2
100
AcDbEntity
  8
LC-005-003-----0
 62
     2
370
    -2
100
AcDbLine
 10
306.001998
 20
536.976
 30
0.0
 11
480.001998
 21
536.976
 31
0.0
  0
SOLID
  5
2C6
330
2C2
100
AcDbEntity
  8
LC-005-003-----0
 62
     2
100
AcDbTrace
 10
306.001998
 20
541.642667
 30
0.0
 11
306.001998
 21
532.309333
 31
0.0
 12
278.001998
 22
536.976
 32
0.0
 13
278.001998
 23
536.976
 33
0.0
  0
SOLID
  5
2C7
330
2C2
100
AcDbEntity
  8
LC-005-003-----0
 62
     2
100
AcDbTrace
 10
480.001998
 20
532.309333
 30
0.0
 11
480.001998
 21
541.642667
 31
0.0
 12
508.001998
 22
536.976
 32
0.0
 13
508.001998
 23
536.976
 33
0.0
  0
MTEXT
  5
2C8
330
2C2
100
AcDbEntity
  8
LC-005-003-----0
 62
     2
100
AcDbMText
 10
392.708021
 20
567.776
 30
0.0
 40
28.0
 41
0.0
 71
     5
 72
     1
  1
%%c\A1;230
  7
LCTX15-400-0-0pDIN-Schrift
 73
     1
 44
1.0
  0
POINT
  5
2C9
330
2C2
100
AcDbEntity
  8
Defpoints
 62
     0
100
AcDbPoint
 10
278.001998
 20
361.008818
 30
0.0
  0
POINT
  5
2CA
330
2C2
100
AcDbEntity
  8
Defpoints
 62
     0
100
AcDbPoint
 10
508.001998
 20
361.008818
 30
0.0
  0
POINT
  5
2CB
330
2C2
100
AcDbEntity
  8
Defpoints
 62
     0
100
AcDbPoint
 10
508.001998
 20
536.976
 30
0.0
  0
ENDBLK
  5
2CD
330
2C2
100
AcDbEntity
  8
0
100
AcDbBlockEnd
  0
BLOCK
  5
2E8
330
2DE
100
AcDbEntity
  8
0
100
AcDbBlockBegin
  2
*D12
 70
     1
 71
     0
 10
0.0
 20
0.0
 30
0.0
  3
*D12
  1

  0
LINE
  5
2DF
330
2DE
100
AcDbEntity
  8
LC-005-003-----0
 62
     2
370
    -2
100
AcDbLine
 10
287.376348
 20
359.171062
 30
0.0
 11
171.783
 21
359.171062
 31
0.0
  0
LINE
  5
2E0
330
2DE
100
AcDbEntity
  8
LC-005-003-----0
 62
     2
370
    -2
100
AcDbLine
 10
341.501998
 20
281.082055
 30
0.0
 11
171.783
 21
281.082055
 31
0.0
  0
LINE
  5
2E1
330
2DE
100
AcDbEntity
  8
LC-005-003-----0
 62
     2
370
    -2
100
AcDbLine
 10
175.383
 20
331.171062
 30
0.0
 11
175.383
 21
309.082055
 31
0.0
  0
SOLID
  5
2E2
330
2DE
100
AcDbEntity
  8
LC-005-003-----0
 62
     2
100
AcDbTrace
 10
180.049667
 20
331.171062
 30
0.0
 11
170.716334
 21
331.171062
 31
0.0
 12
175.383
 22
359.171062
 32
0.0
 13
175.383
 23
359.171062
 33
0.0
  0
SOLID
  5
2E3
330
2DE
100
AcDbEntity
  8
LC-005-003-----0
 62
     2
100
AcDbTrace
 10
170.716334
 20
309.082055
 30
0.0
 11
180.049667
 21
309.082055
 31
0.0
 12
175.383
 22
281.082055
 32
0.0
 13
175.383
 23
281.082055
 33
0.0
  0
MTEXT
  5
2E4
330
2DE
100
AcDbEntity
  8
LC-005-003-----0
 62
     2
100
AcDbMText
 10
144.583
 20
315.414
 30
0.0
 40
28.0
 41
0.0
 71
     5
 72
     1
  1
\A1;78
  7
LCTX15-400-0-0pDIN-Schrift
 11
6.123031769111886E-17
 21
1.0
 31
0.0
 73
     1
 44
1.0
  0
POINT
  5
2E5
330
2DE
100
AcDbEntity
  8
Defpoints
 62
     0
100
AcDbPoint
 10
287.376348
 20
359.171062
 30
0.0
  0
POINT
  5
2E6
330
2DE
100
AcDbEntity
  8
Defpoints
 62
     0
100
AcDbPoint
 10
341.501998
 20
281.082055
 30
0.0
  0
POINT
  5
2E7
330
2DE
100
AcDbEntity
  8
Defpoints
 62
     0
100
AcDbPoint
 10
175.383
 20
281.082055
 30
0.0
  0
ENDBLK
  5
2E9
330
2DE
100
AcDbEntity
  8
0
100
AcDbBlockEnd
  0
BLOCK
  5
2F2
330
2F1
100
AcDbEntity
  8
0
100
AcDbBlockBegin
  2
*X713
 70
     1
 71
     0
 10
0.0
 20
0.0
 30
0.0
  3
*X713
  1

  4
*X7
  0
LINE
  5
2F4
330
2F1
100
AcDbEntity
  8
LC-003-005-----0
 62
     7
370
    25
100
AcDbLine
 10
486.86976
 20
336.397437
 30
0.0
 11
487.274419
 21
336.802096
 31
0.0
  0
LINE
  5
2F5
330
2F1
100
AcDbEntity
  8
LC-003-005-----0
 62
     7
370
    25
100
AcDbLine
 10
485.982081
 20
336.075443
 30
0.0
 11
487.596413
 21
337.689775
 31
0.0
  0
LINE
  5
2F6
330
2F1
100
AcDbEntity
  8
LC-003-005-----0
 62
     7
370
    25
100
AcDbLine
 10
485.456597
 20
336.115644
 30
0.0
 11
487.556212
 21
338.21526
 31
0.0
  0
LINE
  5
2F7
330
2F1
100
AcDbEntity
  8
LC-003-005-----0
 62
     7
370
    25
100
AcDbLine
 10
485.043445
 20
336.268178
 30
0.0
 11
487.403678
 21
338.628412
 31
0.0
  0
LINE
  5
2F8
330
2F1
100
AcDbEntity
  8
LC-003-005-----0
 62
     7
370
    25
100
AcDbLine
 10
484.706517
 20
336.496935
 30
0.0
 11
487.174921
 21
338.96534
 31
0.0
  0
LINE
  5
2F9
330
2F1
100
AcDbEntity
  8
LC-003-005-----0
 62
     7
370
    25
100
AcDbLine
 10
484.435651
 20
336.791755
 30
0.0
 11
486.880102
 21
339.236206
 31
0.0
  0
LINE
  5
2FA
330
2F1
100
AcDbEntity
  8
LC-003-005-----0
 62
     7
370
    25
100
AcDbLine
 10
484.232924
 20
337.154713
 30
0.0
 11
486.517143
 21
339.438933
 31
0.0
  0
LINE
  5
2FB
330
2F1
100
AcDbEntity
  8
LC-003-005-----0
 62
     7
370
    25
100
AcDbLine
 10
484.114953
 20
337.602428
 30
0.0
 11
486.069429
 21
339.556904
 31
0.0
  0
LINE
  5
2FC
330
2F1
100
AcDbEntity
  8
LC-003-005-----0
 62
     7
370
    25
100
AcDbLine
 10
484.141835
 20
338.194995
 30
0.0
 11
485.476861
 21
339.530021
 31
0.0
  0
ENDBLK
  5
2F3
330
2F1
100
AcDbEntity
  8
0
100
AcDbBlockEnd
  0
BLOCK
  5
314
330
313
100
AcDbEntity
  8
0
100
AcDbBlockBegin
  2
*X814
 70
     1
 71
     0
 10
0.0
 20
0.0
 30
0.0
  3
*X814
  1

  4
*X8
  0
LINE
  5
316
330
313
100
AcDbEntity
  8
LC-003-005-----0
 62
     7
370
    25
100
AcDbLine
 10
583.576983
 20
287.578572
 30
0.0
 11
582.835004
 21
288.32055
 31
0.0
  0
LINE
  5
317
330
313
100
AcDbEntity
  8
LC-003-005-----0
 62
     7
370
    25
100
AcDbLine
 10
581.795975
 20
286.531153
 30
0.0
 11
580.006577
 21
288.32055
 31
0.0
  0
LINE
  5
318
330
313
100
AcDbEntity
  8
LC-003-005-----0
 62
     7
370
    25
100
AcDbLine
 10
579.42815
 20
286.07055
 30
0.0
 11
577.17815
 21
288.32055
 31
0.0
  0
LINE
  5
319
330
313
100
AcDbEntity
  8
LC-003-005-----0
 62
     7
370
    25
100
AcDbLine
 10
576.599723
 20
286.07055
 30
0.0
 11
574.349723
 21
288.32055
 31
0.0
  0
LINE
  5
31A
330
313
100
AcDbEntity
  8
LC-003-005-----0
 62
     7
370
    25
100
AcDbLine
 10
573.771296
 20
286.07055
 30
0.0
 11
571.521296
 21
288.32055
 31
0.0
  0
LINE
  5
31B
330
313
100
AcDbEntity
  8
LC-003-005-----0
 62
     7
370
    25
100
AcDbLine
 10
570.942868
 20
286.07055
 30
0.0
 11
568.692868
 21
288.32055
 31
0.0
  0
LINE
  5
31C
330
313
100
AcDbEntity
  8
LC-003-005-----0
 62
     7
370
    25
100
AcDbLine
 10
568.114441
 20
286.07055
 30
0.0
 11
565.864441
 21
288.32055
 31
0.0
  0
LINE
  5
31D
330
313
100
AcDbEntity
  8
LC-003-005-----0
 62
     7
370
    25
100
AcDbLine
 10
565.286014
 20
286.07055
 30
0.0
 11
563.036014
 21
288.32055
 31
0.0
  0
LINE
  5
31E
330
313
100
AcDbEntity
  8
LC-003-005-----0
 62
     7
370
    25
100
AcDbLine
 10
562.457587
 20
286.07055
 30
0.0
 11
560.207587
 21
288.32055
 31
0.0
  0
LINE
  5
31F
330
313
100
AcDbEntity
  8
LC-003-005-----0
 62
     7
370
    25
100
AcDbLine
 10
559.62916
 20
286.07055
 30
0.0
 11
557.37916
 21
288.32055
 31
0.0
  0
LINE
  5
320
330
313
100
AcDbEntity
  8
LC-003-005-----0
 62
     7
370
    25
100
AcDbLine
 10
556.800733
 20
286.07055
 30
0.0
 11
554.550733
 21
288.32055
 31
0.0
  0
LINE
  5
321
330
313
100
AcDbEntity
  8
LC-003-005-----0
 62
     7
370
    25
100
AcDbLine
 10
553.972306
 20
286.07055
 30
0.0
 11
551.722306
 21
288.32055
 31
0.0
  0
LINE
  5
322
330
313
100
AcDbEntity
  8
LC-003-005-----0
 62
     7
370
    25
100
AcDbLine
 10
551.143879
 20
286.07055
 30
0.0
 11
548.893879
 21
288.32055
 31
0.0
  0
LINE
  5
323
330
313
100
AcDbEntity
  8
LC-003-005-----0
 62
     7
370
    25
100
AcDbLine
 10
548.315451
 20
286.07055
 30
0.0
 11
546.065451
 21
288.32055
 31
0.0
  0
LINE
  5
324
330
313
100
AcDbEntity
  8
LC-003-005-----0
 62
     7
370
    25
100
AcDbLine
 10
545.487024
 20
286.07055
 30
0.0
 11
543.237024
 21
288.32055
 31
0.0
  0
LINE
  5
325
330
313
100
AcDbEntity
  8
LC-003-005-----0
 62
     7
370
    25
100
AcDbLine
 10
542.658597
 20
286.07055
 30
0.0
 11
540.408597
 21
288.32055
 31
0.0
  0
LINE
  5
326
330
313
100
AcDbEntity
  8
LC-003-005-----0
 62
     7
370
    25
100
AcDbLine
 10
539.83017
 20
286.07055
 30
0.0
 11
537.58017
 21
288.32055
 31
0.0
  0
LINE
  5
327
330
313
100
AcDbEntity
  8
LC-003-005-----0
 62
     7
370
    25
100
AcDbLine
 10
537.001743
 20
286.07055
 30
0.0
 11
534.751743
 21
288.32055
 31
0.0
  0
LINE
  5
328
330
313
100
AcDbEntity
  8
LC-003-005-----0
 62
     7
370
    25
100
AcDbLine
 10
534.173316
 20
286.07055
 30
0.0
 11
531.923316
 21
288.32055
 31
0.0
  0
LINE
  5
329
330
313
100
AcDbEntity
  8
LC-003-005-----0
 62
     7
370
    25
100
AcDbLine
 10
531.344889
 20
286.07055
 30
0.0
 11
529.094889
 21
288.32055
 31
0.0
  0
LINE
  5
32A
330
313
100
AcDbEntity
  8
LC-003-005-----0
 62
     7
370
    25
100
AcDbLine
 10
528.516462
 20
286.07055
 30
0.0
 11
526.266462
 21
288.32055
 31
0.0
  0
LINE
  5
32B
330
313
100
AcDbEntity
  8
LC-003-005-----0
 62
     7
370
    25
100
AcDbLine
 10
525.688034
 20
286.07055
 30
0.0
 11
523.438034
 21
288.32055
 31
0.0
  0
LINE
  5
32C
330
313
100
AcDbEntity
  8
LC-003-005-----0
 62
     7
370
    25
100
AcDbLine
 10
522.859607
 20
286.07055
 30
0.0
 11
520.609607
 21
288.32055
 31
0.0
  0
LINE
  5
32D
330
313
100
AcDbEntity
  8
LC-003-005-----0
 62
     7
370
    25
100
AcDbLine
 10
520.03118
 20
286.07055
 30
0.0
 11
517.78118
 21
288.32055
 31
0.0
  0
LINE
  5
32E
330
313
100
AcDbEntity
  8
LC-003-005-----0
 62
     7
370
    25
100
AcDbLine
 10
517.202753
 20
286.07055
 30
0.0
 11
514.952753
 21
288.32055
 31
0.0
  0
LINE
  5
32F
330
313
100
AcDbEntity
  8
LC-003-005-----0
 62
     7
370
    25
100
AcDbLine
 10
514.374326
 20
286.07055
 30
0.0
 11
512.124326
 21
288.32055
 31
0.0
  0
LINE
  5
330
330
313
100
AcDbEntity
  8
LC-003-005-----0
 62
     7
370
    25
100
AcDbLine
 10
511.545899
 20
286.07055
 30
0.0
 11
509.295899
 21
288.32055
 31
0.0
  0
LINE
  5
331
330
313
100
AcDbEntity
  8
LC-003-005-----0
 62
     7
370
    25
100
AcDbLine
 10
508.717472
 20
286.07055
 30
0.0
 11
506.467472
 21
288.32055
 31
0.0
  0
LINE
  5
332
330
313
100
AcDbEntity
  8
LC-003-005-----0
 62
     7
370
    25
100
AcDbLine
 10
505.889045
 20
286.07055
 30
0.0
 11
503.639045
 21
288.32055
 31
0.0
  0
LINE
  5
333
330
313
100
AcDbEntity
  8
LC-003-005-----0
 62
     7
370
    25
100
AcDbLine
 10
503.060617
 20
286.07055
 30
0.0
 11
500.810617
 21
288.32055
 31
0.0
  0
LINE
  5
334
330
313
100
AcDbEntity
  8
LC-003-005-----0
 62
     7
370
    25
100
AcDbLine
 10
500.23219
 20
286.07055
 30
0.0
 11
497.98219
 21
288.32055
 31
0.0
  0
LINE
  5
335
330
313
100
AcDbEntity
  8
LC-003-005-----0
 62
     7
370
    25
100
AcDbLine
 10
497.480527
 20
285.993786
 30
0.0
 11
495.798867
 21
287.675447
 31
0.0
  0
LINE
  5
336
330
313
100
AcDbEntity
  8
LC-003-005-----0
 62
     7
370
    25
100
AcDbLine
 10
495.857326
 20
284.78856
 30
0.0
 11
494.162547
 21
286.48334
 31
0.0
  0
LINE
  5
337
330
313
100
AcDbEntity
  8
LC-003-005-----0
 62
     7
370
    25
100
AcDbLine
 10
494.141287
 20
283.676172
 30
0.0
 11
492.425529
 21
285.391931
 31
0.0
  0
LINE
  5
338
330
313
100
AcDbEntity
  8
LC-003-005-----0
 62
     7
370
    25
100
AcDbLine
 10
492.328512
 20
282.66052
 30
0.0
 11
490.582905
 21
284.406127
 31
0.0
  0
LINE
  5
339
330
313
100
AcDbEntity
  8
LC-003-005-----0
 62
     7
370
    25
100
AcDbLine
 10
490.413512
 20
281.747093
 30
0.0
 11
488.627658
 21
283.532947
 31
0.0
  0
LINE
  5
33A
330
313
100
AcDbEntity
  8
LC-003-005-----0
 62
     7
370
    25
100
AcDbLine
 10
488.38878
 20
280.943398
 30
0.0
 11
486.549996
 21
282.782182
 31
0.0
  0
LINE
  5
33B
330
313
100
AcDbEntity
  8
LC-003-005-----0
 62
     7
370
    25
100
AcDbLine
 10
486.244132
 20
280.259618
 30
0.0
 11
484.336289
 21
282.167462
 31
0.0
  0
LINE
  5
33C
330
313
100
AcDbEntity
  8
LC-003-005-----0
 62
     7
370
    25
100
AcDbLine
 10
483.965641
 20
279.709682
 30
0.0
 11
481.967257
 21
281.708067
 31
0.0
  0
LINE
  5
33D
330
313
100
AcDbEntity
  8
LC-003-005-----0
 62
     7
370
    25
100
AcDbLine
 10
481.533871
 20
279.313026
 30
0.0
 11
479.41472
 21
281.432177
 31
0.0
  0
LINE
  5
33E
330
313
100
AcDbEntity
  8
LC-003-005-----0
 62
     7
370
    25
100
AcDbLine
 10
478.920735
 20
279.097735
 30
0.0
 11
476.635256
 21
281.383213
 31
0.0
  0
LINE
  5
33F
330
313
100
AcDbEntity
  8
LC-003-005-----0
 62
     7
370
    25
100
AcDbLine
 10
476.119492
 20
279.07055
 30
0.0
 11
473.556149
 21
281.633893
 31
0.0
  0
LINE
  5
340
330
313
100
AcDbEntity
  8
LC-003-005-----0
 62
     7
370
    25
100
AcDbLine
 10
473.291065
 20
279.07055
 30
0.0
 11
470.062573
 21
282.299043
 31
0.0
  0
LINE
  5
341
330
313
100
AcDbEntity
  8
LC-003-005-----0
 62
     7
370
    25
100
AcDbLine
 10
470.462638
 20
279.07055
 30
0.0
 11
469.001998
 21
280.53119
 31
0.0
  0
ENDBLK
  5
315
330
313
100
AcDbEntity
  8
0
100
AcDbBlockEnd
  0
BLOCK
  5
344
330
343
100
AcDbEntity
  8
0
100
AcDbBlockBegin
  2
*X915
 70
     1
 71
     0
 10
0.0
 20
0.0
 30
0.0
  3
*X915
  1

  4
*X9
  0
LINE
  5
346
330
343
100
AcDbEntity
  8
LC-003-005-----0
 62
     7
370
    25
100
AcDbLine
 10
582.589838
 20
333.82055
 30
0.0
 11
580.43605
 21
335.974339
 31
0.0
  0
LINE
  5
347
330
343
100
AcDbEntity
  8
LC-003-005-----0
 62
     7
370
    25
100
AcDbLine
 10
579.761411
 20
333.82055
 30
0.0
 11
577.511411
 21
336.07055
 31
0.0
  0
LINE
  5
348
330
343
100
AcDbEntity
  8
LC-003-005-----0
 62
     7
370
    25
100
AcDbLine
 10
576.932984
 20
333.82055
 30
0.0
 11
574.682984
 21
336.07055
 31
0.0
  0
LINE
  5
349
330
343
100
AcDbEntity
  8
LC-003-005-----0
 62
     7
370
    25
100
AcDbLine
 10
574.104557
 20
333.82055
 30
0.0
 11
571.854557
 21
336.07055
 31
0.0
  0
LINE
  5
34A
330
343
100
AcDbEntity
  8
LC-003-005-----0
 62
     7
370
    25
100
AcDbLine
 10
571.27613
 20
333.82055
 30
0.0
 11
569.02613
 21
336.07055
 31
0.0
  0
LINE
  5
34B
330
343
100
AcDbEntity
  8
LC-003-005-----0
 62
     7
370
    25
100
AcDbLine
 10
568.447702
 20
333.82055
 30
0.0
 11
566.197702
 21
336.07055
 31
0.0
  0
LINE
  5
34C
330
343
100
AcDbEntity
  8
LC-003-005-----0
 62
     7
370
    25
100
AcDbLine
 10
565.619275
 20
333.82055
 30
0.0
 11
563.369275
 21
336.07055
 31
0.0
  0
LINE
  5
34D
330
343
100
AcDbEntity
  8
LC-003-005-----0
 62
     7
370
    25
100
AcDbLine
 10
562.790848
 20
333.82055
 30
0.0
 11
560.540848
 21
336.07055
 31
0.0
  0
LINE
  5
34E
330
343
100
AcDbEntity
  8
LC-003-005-----0
 62
     7
370
    25
100
AcDbLine
 10
559.962421
 20
333.82055
 30
0.0
 11
557.712421
 21
336.07055
 31
0.0
  0
LINE
  5
34F
330
343
100
AcDbEntity
  8
LC-003-005-----0
 62
     7
370
    25
100
AcDbLine
 10
557.133994
 20
333.82055
 30
0.0
 11
554.883994
 21
336.07055
 31
0.0
  0
LINE
  5
350
330
343
100
AcDbEntity
  8
LC-003-005-----0
 62
     7
370
    25
100
AcDbLine
 10
554.305567
 20
333.82055
 30
0.0
 11
552.055567
 21
336.07055
 31
0.0
  0
LINE
  5
351
330
343
100
AcDbEntity
  8
LC-003-005-----0
 62
     7
370
    25
100
AcDbLine
 10
551.47714
 20
333.82055
 30
0.0
 11
549.22714
 21
336.07055
 31
0.0
  0
LINE
  5
352
330
343
100
AcDbEntity
  8
LC-003-005-----0
 62
     7
370
    25
100
AcDbLine
 10
548.648713
 20
333.82055
 30
0.0
 11
546.398713
 21
336.07055
 31
0.0
  0
LINE
  5
353
330
343
100
AcDbEntity
  8
LC-003-005-----0
 62
     7
370
    25
100
AcDbLine
 10
545.820285
 20
333.82055
 30
0.0
 11
543.570285
 21
336.07055
 31
0.0
  0
LINE
  5
354
330
343
100
AcDbEntity
  8
LC-003-005-----0
 62
     7
370
    25
100
AcDbLine
 10
542.991858
 20
333.82055
 30
0.0
 11
540.741858
 21
336.07055
 31
0.0
  0
LINE
  5
355
330
343
100
AcDbEntity
  8
LC-003-005-----0
 62
     7
370
    25
100
AcDbLine
 10
540.163431
 20
333.82055
 30
0.0
 11
537.913431
 21
336.07055
 31
0.0
  0
LINE
  5
356
330
343
100
AcDbEntity
  8
LC-003-005-----0
 62
     7
370
    25
100
AcDbLine
 10
537.335004
 20
333.82055
 30
0.0
 11
535.085004
 21
336.07055
 31
0.0
  0
LINE
  5
357
330
343
100
AcDbEntity
  8
LC-003-005-----0
 62
     7
370
    25
100
AcDbLine
 10
534.506577
 20
333.82055
 30
0.0
 11
532.256577
 21
336.07055
 31
0.0
  0
LINE
  5
358
330
343
100
AcDbEntity
  8
LC-003-005-----0
 62
     7
370
    25
100
AcDbLine
 10
531.67815
 20
333.82055
 30
0.0
 11
529.42815
 21
336.07055
 31
0.0
  0
LINE
  5
359
330
343
100
AcDbEntity
  8
LC-003-005-----0
 62
     7
370
    25
100
AcDbLine
 10
528.849723
 20
333.82055
 30
0.0
 11
526.599723
 21
336.07055
 31
0.0
  0
LINE
  5
35A
330
343
100
AcDbEntity
  8
LC-003-005-----0
 62
     7
370
    25
100
AcDbLine
 10
526.021296
 20
333.82055
 30
0.0
 11
523.771296
 21
336.07055
 31
0.0
  0
LINE
  5
35B
330
343
100
AcDbEntity
  8
LC-003-005-----0
 62
     7
370
    25
100
AcDbLine
 10
523.192868
 20
333.82055
 30
0.0
 11
520.942868
 21
336.07055
 31
0.0
  0
LINE
  5
35C
330
343
100
AcDbEntity
  8
LC-003-005-----0
 62
     7
370
    25
100
AcDbLine
 10
520.364441
 20
333.82055
 30
0.0
 11
518.114441
 21
336.07055
 31
0.0
  0
LINE
  5
35D
330
343
100
AcDbEntity
  8
LC-003-005-----0
 62
     7
370
    25
100
AcDbLine
 10
517.536014
 20
333.82055
 30
0.0
 11
515.286014
 21
336.07055
 31
0.0
  0
LINE
  5
35E
330
343
100
AcDbEntity
  8
LC-003-005-----0
 62
     7
370
    25
100
AcDbLine
 10
514.707587
 20
333.82055
 30
0.0
 11
512.457587
 21
336.07055
 31
0.0
  0
LINE
  5
35F
330
343
100
AcDbEntity
  8
LC-003-005-----0
 62
     7
370
    25
100
AcDbLine
 10
511.87916
 20
333.82055
 30
0.0
 11
509.62916
 21
336.07055
 31
0.0
  0
LINE
  5
360
330
343
100
AcDbEntity
  8
LC-003-005-----0
 62
     7
370
    25
100
AcDbLine
 10
509.050733
 20
333.82055
 30
0.0
 11
506.800733
 21
336.07055
 31
0.0
  0
LINE
  5
361
330
343
100
AcDbEntity
  8
LC-003-005-----0
 62
     7
370
    25
100
AcDbLine
 10
506.222306
 20
333.82055
 30
0.0
 11
503.972306
 21
336.07055
 31
0.0
  0
LINE
  5
362
330
343
100
AcDbEntity
  8
LC-003-005-----0
 62
     7
370
    25
100
AcDbLine
 10
503.393879
 20
333.82055
 30
0.0
 11
501.143879
 21
336.07055
 31
0.0
  0
LINE
  5
363
330
343
100
AcDbEntity
  8
LC-003-005-----0
 62
     7
370
    25
100
AcDbLine
 10
500.565451
 20
333.82055
 30
0.0
 11
498.315451
 21
336.07055
 31
0.0
  0
LINE
  5
364
330
343
100
AcDbEntity
  8
LC-003-005-----0
 62
     7
370
    25
100
AcDbLine
 10
497.737024
 20
333.82055
 30
0.0
 11
491.818265
 21
339.73931
 31
0.0
  0
LINE
  5
365
330
343
100
AcDbEntity
  8
LC-003-005-----0
 62
     7
370
    25
100
AcDbLine
 10
491.422938
 20
337.306209
 30
0.0
 11
487.100947
 21
341.6282
 31
0.0
  0
LINE
  5
366
330
343
100
AcDbEntity
  8
LC-003-005-----0
 62
     7
370
    25
100
AcDbLine
 10
486.537953
 20
339.362767
 30
0.0
 11
483.35079
 21
342.549931
 31
0.0
  0
LINE
  5
367
330
343
100
AcDbEntity
  8
LC-003-005-----0
 62
     7
370
    25
100
AcDbLine
 10
482.773171
 20
340.299122
 30
0.0
 11
480.099341
 21
342.972953
 31
0.0
  0
LINE
  5
368
330
343
100
AcDbEntity
  8
LC-003-005-----0
 62
     7
370
    25
100
AcDbLine
 10
479.543534
 20
340.700332
 30
0.0
 11
477.173316
 21
343.07055
 31
0.0
  0
LINE
  5
369
330
343
100
AcDbEntity
  8
LC-003-005-----0
 62
     7
370
    25
100
AcDbLine
 10
476.656926
 20
340.758513
 30
0.0
 11
474.344889
 21
343.07055
 31
0.0
  0
LINE
  5
36A
330
343
100
AcDbEntity
  8
LC-003-005-----0
 62
     7
370
    25
100
AcDbLine
 10
474.021193
 20
340.565819
 30
0.0
 11
471.516462
 21
343.07055
 31
0.0
  0
LINE
  5
36B
330
343
100
AcDbEntity
  8
LC-003-005-----0
 62
     7
370
    25
100
AcDbLine
 10
471.583754
 20
340.174831
 30
0.0
 11
469.001998
 21
342.756586
 31
0.0
  0
ENDBLK
  5
345
330
343
100
AcDbEntity
  8
0
100
AcDbBlockEnd
  0
BLOCK
  5
373
330
372
100
AcDbEntity
  8
0
100
AcDbBlockBegin
  2
*X1016
 70
     1
 71
     0
 10
0.0
 20
0.0
 30
0.0
  3
*X1016
  1

  4
*X10
  0
LINE
  5
375
330
372
100
AcDbEntity
  8
LC-003-005-----0
 62
     7
370
    25
100
AcDbLine
 10
486.552356
 20
282.905603
 30
0.0
 11
487.454749
 21
283.807996
 31
0.0
  0
LINE
  5
376
330
372
100
AcDbEntity
  8
LC-003-005-----0
 62
     7
370
    25
100
AcDbLine
 10
485.840149
 20
282.759082
 30
0.0
 11
487.60127
 21
284.520203
 31
0.0
  0
LINE
  5
377
330
372
100
AcDbEntity
  8
LC-003-005-----0
 62
     7
370
    25
100
AcDbLine
 10
485.348282
 20
282.8329
 30
0.0
 11
487.527452
 21
285.01207
 31
0.0
  0
LINE
  5
378
330
372
100
AcDbEntity
  8
LC-003-005-----0
 62
     7
370
    25
100
AcDbLine
 10
484.955439
 20
283.005742
 30
0.0
 11
487.35461
 21
285.404913
 31
0.0
  0
LINE
  5
379
330
372
100
AcDbEntity
  8
LC-003-005-----0
 62
     7
370
    25
100
AcDbLine
 10
484.634921
 20
283.25091
 30
0.0
 11
487.109442
 21
285.725431
 31
0.0
  0
LINE
  5
37A
330
372
100
AcDbEntity
  8
LC-003-005-----0
 62
     7
370
    25
100
AcDbLine
 10
484.379949
 20
283.561623
 30
0.0
 11
486.798729
 21
285.980403
 31
0.0
  0
LINE
  5
37B
330
372
100
AcDbEntity
  8
LC-003-005-----0
 62
     7
370
    25
100
AcDbLine
 10
484.195446
 20
283.942806
 30
0.0
 11
486.417546
 21
286.164906
 31
0.0
  0
LINE
  5
37C
330
372
100
AcDbEntity
  8
LC-003-005-----0
 62
     7
370
    25
100
AcDbLine
 10
484.10374
 20
284.416785
 30
0.0
 11
485.943567
 21
286.256612
 31
0.0
  0
LINE
  5
37D
330
372
100
AcDbEntity
  8
LC-003-005-----0
 62
     7
370
    25
100
AcDbLine
 10
484.194871
 20
285.073601
 30
0.0
 11
485.286751
 21
286.165481
 31
0.0
  0
ENDBLK
  5
374
330
372
100
AcDbEntity
  8
0
100
AcDbBlockEnd
  0
BLOCK
  5
399
330
398
100
AcDbEntity
  8
0
100
AcDbBlockBegin
  2
*X1117
 70
     1
 71
     0
 10
0.0
 20
0.0
 30
0.0
  3
*X1117
  1

  4
*X11
  0
LINE
  5
39B
330
398
100
AcDbEntity
  8
LC-003-005-----0
  6
DASHED
 62
     7
370
    25
100
AcDbLine
 10
297.494165
 20
333.810769
 30
0.0
 11
296.134165
 21
335.170769
 31
0.0
  0
LINE
  5
39C
330
398
100
AcDbEntity
  8
LC-003-005-----0
  6
DASHED
 62
     7
370
    25
100
AcDbLine
 10
297.494165
 20
333.245084
 30
0.0
 11
295.698698
 21
335.04055
 31
0.0
  0
LINE
  5
39D
330
398
100
AcDbEntity
  8
LC-003-005-----0
  6
DASHED
 62
     7
370
    25
100
AcDbLine
 10
295.334165
 20
335.405084
 30
0.0
 11
295.178698
 21
335.56055
 31
0.0
  0
LINE
  5
39E
330
398
100
AcDbEntity
  8
LC-003-005-----0
 62
     7
370
    25
100
AcDbLine
 10
297.058084
 20
332.549794
 30
0.0
 11
294.047328
 21
335.56055
 31
0.0
  0
LINE
  5
39F
330
398
100
AcDbEntity
  8
LC-003-005-----0
 62
     7
370
    25
100
AcDbLine
 10
296.410544
 20
332.631648
 30
0.0
 11
293.175031
 21
335.867162
 31
0.0
  0
LINE
  5
3A0
330
398
100
AcDbEntity
  8
LC-003-005-----0
  6
DASHED
 62
     7
370
    25
100
AcDbLine
 10
295.067041
 20
332.84378
 30
0.0
 11
292.350271
 21
335.56055
 31
0.0
  0
LINE
  5
3A1
330
398
100
AcDbEntity
  8
LC-003-005-----0
  6
DASHED
 62
     7
370
    25
100
AcDbLine
 10
294.649423
 20
332.695714
 30
0.0
 11
291.663864
 21
335.681272
 31
0.0
  0
LINE
  5
3A2
330
398
100
AcDbEntity
  8
LC-003-005-----0
 62
     7
370
    25
100
AcDbLine
 10
295.18007
 20
331.033696
 30
0.0
 11
290.726815
 21
335.48695
 31
0.0
  0
LINE
  5
3A3
330
398
100
AcDbEntity
  8
LC-003-005-----0
 62
     7
370
    25
100
AcDbLine
 10
295.527785
 20
330.120295
 30
0.0
 11
290.38838
 21
335.2597
 31
0.0
  0
LINE
  5
3A4
330
398
100
AcDbEntity
  8
LC-003-005-----0
  6
DASHED
 62
     7
370
    25
100
AcDbLine
 10
295.105357
 20
329.411352
 30
0.0
 11
290.044428
 21
334.472281
 31
0.0
  0
LINE
  5
3A5
330
398
100
AcDbEntity
  8
LC-003-005-----0
  6
DASHED
 62
     7
370
    25
100
AcDbLine
 10
294.126782
 20
329.824242
 30
0.0
 11
289.924885
 21
334.026139
 31
0.0
  0
LINE
  5
3A6
330
398
100
AcDbEntity
  8
LC-003-005-----0
 62
     7
370
    25
100
AcDbLine
 10
291.86404
 20
330.955613
 30
0.0
 11
289.701717
 21
333.117936
 31
0.0
  0
LINE
  5
3A7
330
398
100
AcDbEntity
  8
LC-003-005-----0
 62
     7
370
    25
100
AcDbLine
 10
290.732669
 20
331.521298
 30
0.0
 11
289.776503
 21
332.477465
 31
0.0
  0
ENDBLK
  5
39A
330
398
100
AcDbEntity
  8
0
100
AcDbBlockEnd
  0
BLOCK
  5
3BF
330
3B3
100
AcDbEntity
  8
0
100
AcDbBlockBegin
  2
*D18
 70
     1
 71
     0
 10
0.0
 20
0.0
 30
0.0
  3
*D18
  1

  0
LINE
  5
3B4
330
3B3
100
AcDbEntity
  8
LC-005-003-----0
 62
     2
370
    -2
100
AcDbLine
 10
287.376348
 20
359.171062
 30
0.0
 11
205.139864
 21
359.171062
 31
0.0
  0
LINE
  5
3B5
330
3B3
100
AcDbEntity
  8
LC-005-003-----0
 62
     2
370
    -2
100
AcDbLine
 10
282.994165
 20
311.07055
 30
0.0
 11
205.139864
 21
311.07055
 31
0.0
  0
LINE
  5
3B6
330
3B3
100
AcDbEntity
  8
LC-005-003-----0
 62
     2
370
    -2
100
AcDbLine
 10
208.739864
 20
387.171062
 30
0.0
 11
208.739864
 21
415.171062
 31
0.0
  0
LINE
  5
3B7
330
3B3
100
AcDbEntity
  8
LC-005-003-----0
 62
     2
370
    -2
100
AcDbLine
 10
208.739864
 20
283.07055
 30
0.0
 11
208.739864
 21
255.07055
 31
0.0
  0
LINE
  5
3B8
330
3B3
100
AcDbEntity
  8
LC-005-003-----0
 62
     2
370
    -2
100
AcDbLine
 10
208.739864
 20
359.171062
 30
0.0
 11
208.739864
 21
311.07055
 31
0.0
  0
SOLID
  5
3B9
330
3B3
100
AcDbEntity
  8
LC-005-003-----0
 62
     2
100
AcDbTrace
 10
204.073197
 20
387.171062
 30
0.0
 11
213.40653
 21
387.171062
 31
0.0
 12
208.739864
 22
359.171062
 32
0.0
 13
208.739864
 23
359.171062
 33
0.0
  0
SOLID
  5
3BA
330
3B3
100
AcDbEntity
  8
LC-005-003-----0
 62
     2
100
AcDbTrace
 10
213.40653
 20
283.07055
 30
0.0
 11
204.073197
 21
283.07055
 31
0.0
 12
208.739864
 22
311.07055
 32
0.0
 13
208.739864
 23
311.07055
 33
0.0
  0
MTEXT
  5
3BB
330
3B3
100
AcDbEntity
  8
LC-005-003-----0
 62
     2
100
AcDbMText
 10
177.939864
 20
342.144
 30
0.0
 40
28.0
 41
0.0
 71
     5
 72
     1
  1
\A1;48
  7
LCTX15-400-0-0pDIN-Schrift
 11
6.123031769111886E-17
 21
1.0
 31
0.0
 73
     1
 44
1.0
  0
POINT
  5
3BC
330
3B3
100
AcDbEntity
  8
Defpoints
 62
     0
100
AcDbPoint
 10
287.376348
 20
359.171062
 30
0.0
  0
POINT
  5
3BD
330
3B3
100
AcDbEntity
  8
Defpoints
 62
     0
100
AcDbPoint
 10
282.994165
 20
311.07055
 30
0.0
  0
POINT
  5
3BE
330
3B3
100
AcDbEntity
  8
Defpoints
 62
     0
100
AcDbPoint
 10
208.739864
 20
311.07055
 30
0.0
  0
ENDBLK
  5
3C0
330
3B3
100
AcDbEntity
  8
0
100
AcDbBlockEnd
  0
BLOCK
  5
44C
330
44B
100
AcDbEntity
  8
0
100
AcDbBlockBegin
  2
*X1219
 70
     1
 71
     0
 10
0.0
 20
0.0
 30
0.0
  3
*X1219
  1

  4
*X12
  0
LINE
  5
44E
330
44B
100
AcDbEntity
  8
LC-003-005-----0
 62
     7
370
    25
100
AcDbLine
 10
295.569855
 20
292.177302
 30
0.0
 11
295.019214
 21
292.727942
 31
0.0
  0
LINE
  5
44F
330
44B
100
AcDbEntity
  8
LC-003-005-----0
  6
DASHED
 62
     7
370
    25
100
AcDbLine
 10
297.493439
 20
289.122347
 30
0.0
 11
297.021103
 21
289.594682
 31
0.0
  0
LINE
  5
450
330
44B
100
AcDbEntity
  8
LC-003-005-----0
  6
DASHED
 62
     7
370
    25
100
AcDbLine
 10
295.270592
 20
291.345194
 30
0.0
 11
294.241545
 21
292.374241
 31
0.0
  0
LINE
  5
451
330
44B
100
AcDbEntity
  8
LC-003-005-----0
  6
DASHED
 62
     7
370
    25
100
AcDbLine
 10
297.494165
 20
288.555935
 30
0.0
 11
296.522906
 21
289.527194
 31
0.0
  0
LINE
  5
452
330
44B
100
AcDbEntity
  8
LC-003-005-----0
  6
DASHED
 62
     7
370
    25
100
AcDbLine
 10
295.114621
 20
290.935479
 30
0.0
 11
293.864422
 21
292.185679
 31
0.0
  0
LINE
  5
453
330
44B
100
AcDbEntity
  8
LC-003-005-----0
 62
     7
370
    25
100
AcDbLine
 10
297.325953
 20
287.592776
 30
0.0
 11
295.545813
 21
289.372916
 31
0.0
  0
LINE
  5
454
330
44B
100
AcDbEntity
  8
LC-003-005-----0
 62
     7
370
    25
100
AcDbLine
 10
294.802679
 20
290.11605
 30
0.0
 11
293.110174
 21
291.808555
 31
0.0
  0
LINE
  5
455
330
44B
100
AcDbEntity
  8
LC-003-005-----0
 62
     7
370
    25
100
AcDbLine
 10
297.194155
 20
287.158889
 30
0.0
 11
295.057267
 21
289.295777
 31
0.0
  0
LINE
  5
456
330
44B
100
AcDbEntity
  8
LC-003-005-----0
 62
     7
370
    25
100
AcDbLine
 10
294.646708
 20
289.706336
 30
0.0
 11
292.733051
 21
291.619993
 31
0.0
  0
LINE
  5
457
330
44B
100
AcDbEntity
  8
LC-003-005-----0
  6
DASHED
 62
     7
370
    25
100
AcDbLine
 10
296.593214
 20
286.628459
 30
0.0
 11
296.134165
 21
287.087508
 31
0.0
  0
LINE
  5
458
330
44B
100
AcDbEntity
  8
LC-003-005-----0
  6
DASHED
 62
     7
370
    25
100
AcDbLine
 10
296.121123
 20
287.10055
 30
0.0
 11
291.978803
 21
291.24287
 31
0.0
  0
LINE
  5
459
330
44B
100
AcDbEntity
  8
LC-003-005-----0
  6
DASHED
 62
     7
370
    25
100
AcDbLine
 10
295.555437
 20
287.10055
 30
0.0
 11
291.60168
 21
291.054308
 31
0.0
  0
LINE
  5
45A
330
44B
100
AcDbEntity
  8
LC-003-005-----0
 62
     7
370
    25
100
AcDbLine
 10
294.975828
 20
286.548789
 30
0.0
 11
290.847433
 21
290.677184
 31
0.0
  0
LINE
  5
45B
330
44B
100
AcDbEntity
  8
LC-003-005-----0
 62
     7
370
    25
100
AcDbLine
 10
294.733467
 20
286.225465
 30
0.0
 11
294.415726
 21
286.543206
 31
0.0
  0
LINE
  5
45C
330
44B
100
AcDbEntity
  8
LC-003-005-----0
 62
     7
370
    25
100
AcDbLine
 10
294.378381
 20
286.58055
 30
0.0
 11
290.471172
 21
290.48776
 31
0.0
  0
LINE
  5
45D
330
44B
100
AcDbEntity
  8
LC-003-005-----0
  6
DASHED
 62
     7
370
    25
100
AcDbLine
 10
293.467097
 20
286.360463
 30
0.0
 11
289.898407
 21
289.929153
 31
0.0
  0
LINE
  5
45E
330
44B
100
AcDbEntity
  8
LC-003-005-----0
  6
DASHED
 62
     7
370
    25
100
AcDbLine
 10
292.681325
 20
286.58055
 30
0.0
 11
289.736114
 21
289.525761
 31
0.0
  0
LINE
  5
45F
330
44B
100
AcDbEntity
  8
LC-003-005-----0
 62
     7
370
    25
100
AcDbLine
 10
291.90924
 20
286.221264
 30
0.0
 11
291.654558
 21
286.475946
 31
0.0
  0
LINE
  5
460
330
44B
100
AcDbEntity
  8
LC-003-005-----0
 62
     7
370
    25
100
AcDbLine
 10
291.549954
 20
286.58055
 30
0.0
 11
289.891702
 21
288.238803
 31
0.0
  0
LINE
  5
461
330
44B
100
AcDbEntity
  8
LC-003-005-----0
 62
     7
370
    25
100
AcDbLine
 10
290.976144
 20
286.588675
 30
0.0
 11
290.098757
 21
287.466062
 31
0.0
  0
ENDBLK
  5
44D
330
44B
100
AcDbEntity
  8
0
100
AcDbBlockEnd
  0
BLOCK
  5
4C2
330
4B7
100
AcDbEntity
  8
0
100
AcDbBlockBegin
  2
*D20
 70
     1
 71
     0
 10
0.0
 20
0.0
 30
0.0
  3
*D20
  1

  0
LINE
  5
4B8
330
4B7
100
AcDbEntity
  8
LC-005-003-----0
 62
     2
370
    -2
100
AcDbLine
 10
297.946178
 20
331.47055
 30
0.0
 11
250.626496
 21
331.47055
 31
0.0
  0
LINE
  5
4B9
330
4B7
100
AcDbEntity
  8
LC-005-003-----0
 62
     2
370
    -2
100
AcDbLine
 10
297.494165
 20
290.67055
 30
0.0
 11
250.626496
 21
290.67055
 31
0.0
  0
LINE
  5
4BA
330
4B7
100
AcDbEntity
  8
LC-005-003-----0
 62
     2
370
    -2
100
AcDbLine
 10
254.226496
 20
262.67055
 30
0.0
 11
254.226496
 21
234.67055
 31
0.0
  0
LINE
  5
4BB
330
4B7
100
AcDbEntity
  8
LC-005-003-----0
 62
     2
370
    -2
100
AcDbLine
 10
254.226496
 20
359.47055
 30
0.0
 11
254.226496
 21
407.782758
 31
0.0
  0
SOLID
  5
4BC
330
4B7
100
AcDbEntity
  8
LC-005-003-----0
 62
     2
100
AcDbTrace
 10
249.559829
 20
359.47055
 30
0.0
 11
258.893163
 21
359.47055
 31
0.0
 12
254.226496
 22
331.47055
 32
0.0
 13
254.226496
 23
331.47055
 33
0.0
  0
SOLID
  5
4BD
330
4B7
100
AcDbEntity
  8
LC-005-003-----0
 62
     2
100
AcDbTrace
 10
258.893163
 20
262.67055
 30
0.0
 11
249.559829
 21
262.67055
 31
0.0
 12
254.226496
 22
290.67055
 32
0.0
 13
254.226496
 23
290.67055
 33
0.0
  0
MTEXT
  5
4BE
330
4B7
100
AcDbEntity
  8
LC-005-003-----0
 62
     2
100
AcDbMText
 10
223.426496
 20
361.746
 30
0.0
 40
28.0
 41
0.0
 71
     5
 72
     1
  1
\A1;DN40
  7
LCTX15-400-0-0pDIN-Schrift
 11
6.123031769111886E-17
 21
1.0
 31
0.0
 73
     1
 44
1.0
  0
POINT
  5
4BF
330
4B7
100
AcDbEntity
  8
Defpoints
 62
     0
100
AcDbPoint
 10
297.946178
 20
331.47055
 30
0.0
  0
POINT
  5
4C0
330
4B7
100
AcDbEntity
  8
Defpoints
 62
     0
100
AcDbPoint
 10
297.494165
 20
290.67055
 30
0.0
  0
POINT
  5
4C1
330
4B7
100
AcDbEntity
  8
Defpoints
 62
     0
100
AcDbPoint
 10
254.226496
 20
290.67055
 30
0.0
  0
ENDBLK
  5
4C3
330
4B7
100
AcDbEntity
  8
0
100
AcDbBlockEnd
  0
BLOCK
  5
4D0
330
4C5
100
AcDbEntity
  8
0
100
AcDbBlockBegin
  2
*D21
 70
     1
 71
     0
 10
0.0
 20
0.0
 30
0.0
  3
*D21
  1

  0
LINE
  5
4C6
330
4C5
100
AcDbEntity
  8
LC-005-003-----0
 62
     2
370
    -2
100
AcDbLine
 10
580.076983
 20
336.07055
 30
0.0
 11
646.785724
 21
336.07055
 31
0.0
  0
LINE
  5
4C7
330
4C5
100
AcDbEntity
  8
LC-005-003-----0
 62
     2
370
    -2
100
AcDbLine
 10
580.076983
 20
286.07055
 30
0.0
 11
646.785724
 21
286.07055
 31
0.0
  0
LINE
  5
4C8
330
4C5
100
AcDbEntity
  8
LC-005-003-----0
 62
     2
370
    -2
100
AcDbLine
 10
643.185724
 20
258.07055
 30
0.0
 11
643.185724
 21
230.07055
 31
0.0
  0
LINE
  5
4C9
330
4C5
100
AcDbEntity
  8
LC-005-003-----0
 62
     2
370
    -2
100
AcDbLine
 10
643.185724
 20
364.07055
 30
0.0
 11
643.185724
 21
386.694712
 31
0.0
  0
SOLID
  5
4CA
330
4C5
100
AcDbEntity
  8
LC-005-003-----0
 62
     2
100
AcDbTrace
 10
638.519057
 20
364.07055
 30
0.0
 11
647.85239
 21
364.07055
 31
0.0
 12
643.185724
 22
336.07055
 32
0.0
 13
643.185724
 23
336.07055
 33
0.0
  0
SOLID
  5
4CB
330
4C5
100
AcDbEntity
  8
LC-005-003-----0
 62
     2
100
AcDbTrace
 10
647.85239
 20
258.07055
 30
0.0
 11
638.519057
 21
258.07055
 31
0.0
 12
643.185724
 22
286.07055
 32
0.0
 13
643.185724
 23
286.07055
 33
0.0
  0
MTEXT
  5
4CC
330
4C5
100
AcDbEntity
  8
LC-005-003-----0
 62
     2
100
AcDbMText
 10
612.385724
 20
340.657955
 30
0.0
 40
28.0
 41
0.0
 71
     5
 72
     1
  1
\A1;DN50
  7
LCTX15-400-0-0pDIN-Schrift
 11
6.123031769111886E-17
 21
1.0
 31
0.0
 73
     1
 44
1.0
  0
POINT
  5
4CD
330
4C5
100
AcDbEntity
  8
Defpoints
 62
     0
100
AcDbPoint
 10
580.076983
 20
336.07055
 30
0.0
  0
POINT
  5
4CE
330
4C5
100
AcDbEntity
  8
Defpoints
 62
     0
100
AcDbPoint
 10
580.076983
 20
286.07055
 30
0.0
  0
POINT
  5
4CF
330
4C5
100
AcDbEntity
  8
Defpoints
 62
     0
100
AcDbPoint
 10
643.185724
 20
286.07055
 30
0.0
  0
ENDBLK
  5
4D1
330
4C5
100
AcDbEntity
  8
0
100
AcDbBlockEnd
  0
BLOCK
  5
4EB
330
4EA
100
AcDbEntity
  8
0
100
AcDbBlockBegin
  2
*X1322
 70
     1
 71
     0
 10
0.0
 20
0.0
 30
0.0
  3
*X1322
  1

  4
*X13
  0
LINE
  5
4ED
330
4EA
100
AcDbEntity
  8
LC-003-005-----0
 62
     7
370
    25
100
AcDbLine
 10
305.29267
 20
291.150535
 30
0.0
 11
307.994165
 21
293.852029
 31
0.0
  0
LINE
  5
4EE
330
4EA
100
AcDbEntity
  8
LC-003-005-----0
 62
     7
370
    25
100
AcDbLine
 10
302.384259
 20
291.07055
 30
0.0
 11
304.384259
 21
293.07055
 31
0.0
  0
LINE
  5
4EF
330
4EA
100
AcDbEntity
  8
LC-003-005-----0
 62
     7
370
    25
100
AcDbLine
 10
305.994165
 20
294.680456
 30
0.0
 11
307.994165
 21
296.680456
 31
0.0
  0
LINE
  5
4F0
330
4EA
100
AcDbEntity
  8
LC-003-005-----0
 62
     7
370
    25
100
AcDbLine
 10
299.555832
 20
291.07055
 30
0.0
 11
301.555832
 21
293.07055
 31
0.0
  0
LINE
  5
4F1
330
4EA
100
AcDbEntity
  8
LC-003-005-----0
 62
     7
370
    25
100
AcDbLine
 10
305.994165
 20
297.508883
 30
0.0
 11
307.994165
 21
299.508883
 31
0.0
  0
LINE
  5
4F2
330
4EA
100
AcDbEntity
  8
LC-003-005-----0
 62
     7
370
    25
100
AcDbLine
 10
296.727405
 20
291.07055
 30
0.0
 11
298.727405
 21
293.07055
 31
0.0
  0
LINE
  5
4F3
330
4EA
100
AcDbEntity
  8
LC-003-005-----0
 62
     7
370
    25
100
AcDbLine
 10
305.994165
 20
300.337311
 30
0.0
 11
307.994165
 21
302.337311
 31
0.0
  0
LINE
  5
4F4
330
4EA
100
AcDbEntity
  8
LC-003-005-----0
 62
     7
370
    25
100
AcDbLine
 10
293.898977
 20
291.07055
 30
0.0
 11
295.898977
 21
293.07055
 31
0.0
  0
LINE
  5
4F5
330
4EA
100
AcDbEntity
  8
LC-003-005-----0
 62
     7
370
    25
100
AcDbLine
 10
305.994165
 20
303.165738
 30
0.0
 11
307.994165
 21
305.165738
 31
0.0
  0
LINE
  5
4F6
330
4EA
100
AcDbEntity
  8
LC-003-005-----0
 62
     7
370
    25
100
AcDbLine
 10
291.07055
 20
291.07055
 30
0.0
 11
293.07055
 21
293.07055
 31
0.0
  0
LINE
  5
4F7
330
4EA
100
AcDbEntity
  8
LC-003-005-----0
 62
     7
370
    25
100
AcDbLine
 10
305.994165
 20
305.994165
 30
0.0
 11
307.994165
 21
307.994165
 31
0.0
  0
LINE
  5
4F8
330
4EA
100
AcDbEntity
  8
LC-003-005-----0
 62
     7
370
    25
100
AcDbLine
 10
282.242123
 20
285.07055
 30
0.0
 11
282.994165
 21
285.822592
 31
0.0
  0
LINE
  5
4F9
330
4EA
100
AcDbEntity
  8
LC-003-005-----0
 62
     7
370
    25
100
AcDbLine
 10
288.242123
 20
291.07055
 30
0.0
 11
290.242123
 21
293.07055
 31
0.0
  0
LINE
  5
4FA
330
4EA
100
AcDbEntity
  8
LC-003-005-----0
 62
     7
370
    25
100
AcDbLine
 10
305.994165
 20
308.822592
 30
0.0
 11
307.994165
 21
310.822592
 31
0.0
  0
LINE
  5
4FB
330
4EA
100
AcDbEntity
  8
LC-003-005-----0
 62
     7
370
    25
100
AcDbLine
 10
280.994165
 20
286.651019
 30
0.0
 11
282.994165
 21
288.651019
 31
0.0
  0
LINE
  5
4FC
330
4EA
100
AcDbEntity
  8
LC-003-005-----0
 62
     7
370
    25
100
AcDbLine
 10
285.413696
 20
291.07055
 30
0.0
 11
287.413696
 21
293.07055
 31
0.0
  0
LINE
  5
4FD
330
4EA
100
AcDbEntity
  8
LC-003-005-----0
 62
     7
370
    25
100
AcDbLine
 10
305.994165
 20
311.651019
 30
0.0
 11
307.994165
 21
313.651019
 31
0.0
  0
LINE
  5
4FE
330
4EA
100
AcDbEntity
  8
LC-003-005-----0
 62
     7
370
    25
100
AcDbLine
 10
280.994165
 20
289.479446
 30
0.0
 11
284.585269
 21
293.07055
 31
0.0
  0
LINE
  5
4FF
330
4EA
100
AcDbEntity
  8
LC-003-005-----0
 62
     7
370
    25
100
AcDbLine
 10
305.994165
 20
314.479446
 30
0.0
 11
307.994165
 21
316.479446
 31
0.0
  0
LINE
  5
500
330
4EA
100
AcDbEntity
  8
LC-003-005-----0
 62
     7
370
    25
100
AcDbLine
 10
280.994165
 20
292.307873
 30
0.0
 11
281.756842
 21
293.07055
 31
0.0
  0
LINE
  5
501
330
4EA
100
AcDbEntity
  8
LC-003-005-----0
 62
     7
370
    25
100
AcDbLine
 10
305.994165
 20
317.307873
 30
0.0
 11
307.994165
 21
319.307873
 31
0.0
  0
LINE
  5
502
330
4EA
100
AcDbEntity
  8
LC-003-005-----0
 62
     7
370
    25
100
AcDbLine
 10
305.994165
 20
320.1363
 30
0.0
 11
307.994165
 21
322.1363
 31
0.0
  0
LINE
  5
503
330
4EA
100
AcDbEntity
  8
LC-003-005-----0
 62
     7
370
    25
100
AcDbLine
 10
305.994165
 20
322.964728
 30
0.0
 11
307.994165
 21
324.964728
 31
0.0
  0
LINE
  5
504
330
4EA
100
AcDbEntity
  8
LC-003-005-----0
 62
     7
370
    25
100
AcDbLine
 10
305.994165
 20
325.793155
 30
0.0
 11
307.994165
 21
327.793155
 31
0.0
  0
LINE
  5
505
330
4EA
100
AcDbEntity
  8
LC-003-005-----0
 62
     7
370
    25
100
AcDbLine
 10
305.889176
 20
328.516593
 30
0.0
 11
307.714281
 21
330.341698
 31
0.0
  0
LINE
  5
506
330
4EA
100
AcDbEntity
  8
LC-003-005-----0
 62
     7
370
    25
100
AcDbLine
 10
303.614706
 20
329.07055
 30
0.0
 11
305.48357
 21
330.939414
 31
0.0
  0
LINE
  5
507
330
4EA
100
AcDbEntity
  8
LC-003-005-----0
 62
     7
370
    25
100
AcDbLine
 10
300.786279
 20
329.07055
 30
0.0
 11
302.786279
 21
331.07055
 31
0.0
  0
LINE
  5
508
330
4EA
100
AcDbEntity
  8
LC-003-005-----0
 62
     7
370
    25
100
AcDbLine
 10
297.957852
 20
329.07055
 30
0.0
 11
299.957852
 21
331.07055
 31
0.0
  0
LINE
  5
509
330
4EA
100
AcDbEntity
  8
LC-003-005-----0
 62
     7
370
    25
100
AcDbLine
 10
295.129425
 20
329.07055
 30
0.0
 11
297.129425
 21
331.07055
 31
0.0
  0
LINE
  5
50A
330
4EA
100
AcDbEntity
  8
LC-003-005-----0
 62
     7
370
    25
100
AcDbLine
 10
292.300998
 20
329.07055
 30
0.0
 11
294.300998
 21
331.07055
 31
0.0
  0
LINE
  5
50B
330
4EA
100
AcDbEntity
  8
LC-003-005-----0
 62
     7
370
    25
100
AcDbLine
 10
289.472571
 20
329.07055
 30
0.0
 11
291.472571
 21
331.07055
 31
0.0
  0
LINE
  5
50C
330
4EA
100
AcDbEntity
  8
LC-003-005-----0
 62
     7
370
    25
100
AcDbLine
 10
286.644143
 20
329.07055
 30
0.0
 11
288.644143
 21
331.07055
 31
0.0
  0
LINE
  5
50D
330
4EA
100
AcDbEntity
  8
LC-003-005-----0
 62
     7
370
    25
100
AcDbLine
 10
283.815716
 20
329.07055
 30
0.0
 11
285.815716
 21
331.07055
 31
0.0
  0
LINE
  5
50E
330
4EA
100
AcDbEntity
  8
LC-003-005-----0
 62
     7
370
    25
100
AcDbLine
 10
280.994165
 20
329.077426
 30
0.0
 11
282.994165
 21
331.077426
 31
0.0
  0
LINE
  5
50F
330
4EA
100
AcDbEntity
  8
LC-003-005-----0
 62
     7
370
    25
100
AcDbLine
 10
280.994165
 20
331.905853
 30
0.0
 11
282.994165
 21
333.905853
 31
0.0
  0
LINE
  5
510
330
4EA
100
AcDbEntity
  8
LC-003-005-----0
 62
     7
370
    25
100
AcDbLine
 10
280.994165
 20
334.73428
 30
0.0
 11
282.994165
 21
336.73428
 31
0.0
  0
ENDBLK
  5
4EC
330
4EA
100
AcDbEntity
  8
0
100
AcDbBlockEnd
  0
BLOCK
  5
52D
330
52C
100
AcDbEntity
  8
0
100
AcDbBlockBegin
  2
*X1423
 70
     1
 71
     0
 10
0.0
 20
0.0
 30
0.0
  3
*X1423
  1

  4
*X14
  0
LINE
  5
52F
330
52C
100
AcDbEntity
  8
LC-003-005-----0
 62
     7
370
    25
100
AcDbLine
 10
453.001998
 20
353.099732
 30
0.0
 11
450.549945
 21
355.551785
 31
0.0
  0
LINE
  5
530
330
52C
100
AcDbEntity
  8
LC-003-005-----0
  6
DASHED
 62
     7
370
    25
100
AcDbLine
 10
453.001998
 20
347.442878
 30
0.0
 11
448.001998
 21
352.442878
 31
0.0
  0
LINE
  5
531
330
52C
100
AcDbEntity
  8
LC-003-005-----0
  6
DASHED
 62
     7
370
    25
100
AcDbLine
 10
445.001998
 20
355.442878
 30
0.0
 11
444.893091
 21
355.551785
 31
0.0
  0
LINE
  5
532
330
52C
100
AcDbEntity
  8
LC-003-005-----0
  6
DASHED
 62
     7
370
    25
100
AcDbLine
 10
452.843936
 20
344.772513
 30
0.0
 11
448.001998
 21
349.614451
 31
0.0
  0
LINE
  5
533
330
52C
100
AcDbEntity
  8
LC-003-005-----0
  6
DASHED
 62
     7
370
    25
100
AcDbLine
 10
445.001998
 20
352.614451
 30
0.0
 11
443.001998
 21
354.614451
 31
0.0
  0
LINE
  5
534
330
52C
100
AcDbEntity
  8
LC-003-005-----0
 62
     7
370
    25
100
AcDbLine
 10
448.407809
 20
343.551785
 30
0.0
 11
446.907809
 21
345.051785
 31
0.0
  0
LINE
  5
535
330
52C
100
AcDbEntity
  8
LC-003-005-----0
 62
     7
370
    25
100
AcDbLine
 10
445.001998
 20
346.957596
 30
0.0
 11
443.001998
 21
348.957596
 31
0.0
  0
LINE
  5
536
330
52C
100
AcDbEntity
  8
LC-003-005-----0
 62
     7
370
    25
100
AcDbLine
 10
445.579382
 20
343.551785
 30
0.0
 11
443.001998
 21
346.129169
 31
0.0
  0
LINE
  5
537
330
52C
100
AcDbEntity
  8
LC-003-005-----0
  6
DASHED
 62
     7
370
    25
100
AcDbLine
 10
343.001998
 20
352.791074
 30
0.0
 11
341.001998
 21
354.791074
 31
0.0
  0
LINE
  5
538
330
52C
100
AcDbEntity
  8
LC-003-005-----0
 62
     7
370
    25
100
AcDbLine
 10
343.001998
 20
347.13422
 30
0.0
 11
341.001998
 21
349.13422
 31
0.0
  0
LINE
  5
539
330
52C
100
AcDbEntity
  8
LC-003-005-----0
 62
     7
370
    25
100
AcDbLine
 10
338.001998
 20
352.13422
 30
0.0
 11
334.584433
 21
355.551785
 31
0.0
  0
LINE
  5
53A
330
52C
100
AcDbEntity
  8
LC-003-005-----0
 62
     7
370
    25
100
AcDbLine
 10
342.742039
 20
344.565753
 30
0.0
 11
341.001998
 21
346.305793
 31
0.0
  0
LINE
  5
53B
330
52C
100
AcDbEntity
  8
LC-003-005-----0
 62
     7
370
    25
100
AcDbLine
 10
338.001998
 20
349.305793
 30
0.0
 11
333.001998
 21
354.305793
 31
0.0
  0
LINE
  5
53C
330
52C
100
AcDbEntity
  8
LC-003-005-----0
  6
DASHED
 62
     7
370
    25
100
AcDbLine
 10
338.099152
 20
343.551785
 30
0.0
 11
333.001998
 21
348.648939
 31
0.0
  0
LINE
  5
53D
330
52C
100
AcDbEntity
  8
LC-003-005-----0
  6
DASHED
 62
     7
370
    25
100
AcDbLine
 10
335.270724
 20
343.551785
 30
0.0
 11
333.001998
 21
345.820512
 31
0.0
  0
ENDBLK
  5
52E
330
52C
100
AcDbEntity
  8
0
100
AcDbBlockEnd
  0
BLOCK
  5
55E
330
554
100
AcDbEntity
  8
0
100
AcDbBlockBegin
  2
*D24
 70
     1
 71
     0
 10
0.0
 20
0.0
 30
0.0
  3
*D24
  1

  0
LINE
  5
555
330
554
100
AcDbEntity
  8
LC-005-003-----0
 62
     2
370
    -2
100
AcDbLine
 10
280.994165
 20
285.07055
 30
0.0
 11
280.994165
 21
178.164
 31
0.0
  0
LINE
  5
556
330
554
100
AcDbEntity
  8
LC-005-003-----0
 62
     2
370
    -2
100
AcDbLine
 10
583.576983
 20
288.32055
 30
0.0
 11
583.576983
 21
178.164
 31
0.0
  0
LINE
  5
557
330
554
100
AcDbEntity
  8
LC-005-003-----0
 62
     2
370
    -2
100
AcDbLine
 10
308.994165
 20
181.764
 30
0.0
 11
555.576983
 21
181.764
 31
0.0
  0
SOLID
  5
558
330
554
100
AcDbEntity
  8
LC-005-003-----0
 62
     2
100
AcDbTrace
 10
308.994165
 20
186.430667
 30
0.0
 11
308.994165
 21
177.097333
 31
0.0
 12
280.994165
 22
181.764
 32
0.0
 13
280.994165
 23
181.764
 33
0.0
  0
SOLID
  5
559
330
554
100
AcDbEntity
  8
LC-005-003-----0
 62
     2
100
AcDbTrace
 10
555.576983
 20
177.097333
 30
0.0
 11
555.576983
 21
186.430667
 31
0.0
 12
583.576983
 22
181.764
 32
0.0
 13
583.576983
 23
181.764
 33
0.0
  0
MTEXT
  5
55A
330
554
100
AcDbEntity
  8
LC-005-003-----0
 62
     2
100
AcDbMText
 10
392.397367
 20
212.564
 30
0.0
 40
28.0
 41
0.0
 71
     5
 72
     1
  1
\A1;300
  7
LCTX15-400-0-0pDIN-Schrift
 73
     1
 44
1.0
  0
POINT
  5
55B
330
554
100
AcDbEntity
  8
Defpoints
 62
     0
100
AcDbPoint
 10
280.994165
 20
285.07055
 30
0.0
  0
POINT
  5
55C
330
554
100
AcDbEntity
  8
Defpoints
 62
     0
100
AcDbPoint
 10
583.576983
 20
288.32055
 30
0.0
  0
POINT
  5
55D
330
554
100
AcDbEntity
  8
Defpoints
 62
     0
100
AcDbPoint
 10
583.576983
 20
181.764
 30
0.0
  0
ENDBLK
  5
55F
330
554
100
AcDbEntity
  8
0
100
AcDbBlockEnd
  0
BLOCK
  5
56B
330
561
100
AcDbEntity
  8
0
100
AcDbBlockBegin
  2
*D25
 70
     1
 71
     0
 10
0.0
 20
0.0
 30
0.0
  3
*D25
  1

  0
LINE
  5
562
330
561
100
AcDbEntity
  8
LC-005-003-----0
 62
     2
370
    -2
100
AcDbLine
 10
448.001998
 20
286.07055
 30
0.0
 11
448.001998
 21
217.368
 31
0.0
  0
LINE
  5
563
330
561
100
AcDbEntity
  8
LC-005-003-----0
 62
     2
370
    -2
100
AcDbLine
 10
583.576983
 20
288.32055
 30
0.0
 11
583.576983
 21
217.368
 31
0.0
  0
LINE
  5
564
330
561
100
AcDbEntity
  8
LC-005-003-----0
 62
     2
370
    -2
100
AcDbLine
 10
476.001998
 20
220.968
 30
0.0
 11
555.576983
 21
220.968
 31
0.0
  0
SOLID
  5
565
330
561
100
AcDbEntity
  8
LC-005-003-----0
 62
     2
100
AcDbTrace
 10
476.001998
 20
225.634667
 30
0.0
 11
476.001998
 21
216.301333
 31
0.0
 12
448.001998
 22
220.968
 32
0.0
 13
448.001998
 23
220.968
 33
0.0
  0
SOLID
  5
566
330
561
100
AcDbEntity
  8
LC-005-003-----0
 62
     2
100
AcDbTrace
 10
555.576983
 20
216.301333
 30
0.0
 11
555.576983
 21
225.634667
 31
0.0
 12
583.576983
 22
220.968
 32
0.0
 13
583.576983
 23
220.968
 33
0.0
  0
MTEXT
  5
567
330
561
100
AcDbEntity
  8
LC-005-003-----0
 62
     2
100
AcDbMText
 10
505.874857
 20
251.768
 30
0.0
 40
28.0
 41
0.0
 71
     5
 72
     1
  1
\A1;136
  7
LCTX15-400-0-0pDIN-Schrift
 73
     1
 44
1.0
  0
POINT
  5
568
330
561
100
AcDbEntity
  8
Defpoints
 62
     0
100
AcDbPoint
 10
448.001998
 20
286.07055
 30
0.0
  0
POINT
  5
569
330
561
100
AcDbEntity
  8
Defpoints
 62
     0
100
AcDbPoint
 10
583.576983
 20
288.32055
 30
0.0
  0
POINT
  5
56A
330
561
100
AcDbEntity
  8
Defpoints
 62
     0
100
AcDbPoint
 10
583.576983
 20
220.968
 30
0.0
  0
ENDBLK
  5
56C
330
561
100
AcDbEntity
  8
0
100
AcDbBlockEnd
  0
BLOCK
  5
587
330
586
100
AcDbEntity
  8
0
100
AcDbBlockBegin
  2
LCDIM1
 70
     0
 71
     0
 10
0.0
 20
0.0
 30
0.0
  3
LCDIM1
  1

  4
LCDIM1
  0
TEXT
  5
589
330
586
100
AcDbEntity
  8
LC-005-003-----0
 62
     7
370
   140
100
AcDbText
 10
639.039217
 20
179.869029
 30
0.0
 40
28.0
  1
 15%%d
 50
58.398071
 41
0.9
 51
15.0
  7
LCTX15-400-0-0-Arial
 72
     1
 11
655.572086
 21
206.740798
 31
0.0
100
AcDbText
  0
LINE
  5
58A
330
586
100
AcDbEntity
  8
LC-005-003-----0
 62
     7
370
    25
100
AcDbLine
 10
687.123951
 20
226.03531
 30
0.0
 11
688.957609
 21
235.379708
 31
0.0
  0
LINE
  5
58B
330
586
100
AcDbEntity
  8
LC-005-003-----0
 62
     7
370
    25
100
AcDbLine
 10
689.875229
 20
240.055933
 30
0.0
 11
692.515586
 21
253.511304
 31
0.0
  0
LINE
  5
58C
330
586
100
AcDbEntity
  8
LC-005-003-----0
 62
     7
370
    25
100
AcDbLine
 10
692.515586
 20
253.511304
 30
0.0
 11
686.838599
 21
241.92422
 31
0.0
  0
LINE
  5
58D
330
586
100
AcDbEntity
  8
LC-005-003-----0
 62
     7
370
    25
100
AcDbLine
 10
683.880183
 20
227.127092
 30
0.0
 11
687.123951
 21
226.03531
 31
0.0
  0
LINE
  5
58E
330
586
100
AcDbEntity
  8
LC-005-003-----0
 62
     7
370
    25
100
AcDbLine
 10
686.203496
 20
226.2794
 30
0.0
 11
687.535768
 21
233.068712
 31
0.0
  0
LINE
  5
58F
330
586
100
AcDbEntity
  8
LC-005-003-----0
 62
     7
370
    25
100
AcDbLine
 10
689.011192
 20
240.587532
 30
0.0
 11
690.193306
 21
246.611636
 31
0.0
  0
LINE
  5
590
330
586
100
AcDbEntity
  8
LC-005-003-----0
 62
     7
370
    25
100
AcDbLine
 10
690.193306
 20
246.611636
 30
0.0
 11
687.651662
 21
241.423983
 31
0.0
  0
LINE
  5
591
330
586
100
AcDbEntity
  8
LC-005-003-----0
 62
     7
370
    25
100
AcDbLine
 10
685.283041
 20
226.523491
 30
0.0
 11
686.113927
 21
230.757716
 31
0.0
  0
LINE
  5
592
330
586
100
AcDbEntity
  8
LC-005-003-----0
 62
     7
370
    25
100
AcDbLine
 10
684.362587
 20
226.767582
 30
0.0
 11
684.692085
 21
228.44672
 31
0.0
  0
LINE
  5
593
330
586
100
AcDbEntity
  8
LC-005-003-----0
 62
     7
370
    25
100
AcDbLine
 10
694.70177
 20
338.546545
 30
0.0
 11
700.093405
 21
311.07055
 31
0.0
  0
LINE
  5
594
330
586
100
AcDbEntity
  8
LC-005-003-----0
 62
     7
370
    25
100
AcDbLine
 10
700.093405
 20
311.07055
 30
0.0
 11
701.996796
 21
339.005781
 31
0.0
  0
LINE
  5
595
330
586
100
AcDbEntity
  8
LC-005-003-----0
 62
     7
370
    25
100
AcDbLine
 10
701.996796
 20
339.005781
 30
0.0
 11
694.70177
 21
338.546545
 31
0.0
  0
LINE
  5
596
330
586
100
AcDbEntity
  8
LC-005-003-----0
 62
     7
370
    25
100
AcDbLine
 10
695.64621
 20
338.668404
 30
0.0
 11
699.63602
 21
318.336168
 31
0.0
  0
LINE
  5
597
330
586
100
AcDbEntity
  8
LC-005-003-----0
 62
     7
370
    25
100
AcDbLine
 10
699.63602
 20
318.336168
 30
0.0
 11
701.044529
 21
339.008239
 31
0.0
  0
LINE
  5
598
330
586
100
AcDbEntity
  8
LC-005-003-----0
 62
     7
370
    25
100
AcDbLine
 10
696.59065
 20
338.790263
 30
0.0
 11
699.178635
 21
325.601786
 31
0.0
  0
LINE
  5
599
330
586
100
AcDbEntity
  8
LC-005-003-----0
 62
     7
370
    25
100
AcDbLine
 10
699.178635
 20
325.601786
 30
0.0
 11
700.092263
 21
339.010696
 31
0.0
  0
LINE
  5
59A
330
586
100
AcDbEntity
  8
LC-005-003-----0
 62
     7
370
    25
100
AcDbLine
 10
697.535091
 20
338.912122
 30
0.0
 11
698.721251
 21
332.867403
 31
0.0
  0
LINE
  5
59B
330
586
100
AcDbEntity
  8
LC-005-003-----0
 62
     7
370
    25
100
AcDbLine
 10
698.721251
 20
332.867403
 30
0.0
 11
699.139997
 21
339.013154
 31
0.0
  0
ARC
  5
59D
330
586
100
AcDbEntity
  8
LC-010-003-MTG-0
 62
     7
370
    25
100
AcDbCircle
 10
477.701554
 20
311.07055
 30
0.0
 40
222.3918504497581
100
AcDbArc
 50
318.244661
 51
319.028854
  0
ARC
  5
59E
330
586
100
AcDbEntity
  8
LC-010-003-MTG-0
 62
     7
370
    25
100
AcDbCircle
 10
477.701554
 20
311.07055
 30
0.0
 40
222.3918504497581
100
AcDbArc
 50
319.296551
 51
337.499591
  0
ARC
  5
59F
330
586
100
AcDbEntity
  8
LC-010-003-MTG-0
 62
     7
370
    25
100
AcDbCircle
 10
477.701554
 20
311.07055
 30
0.0
 40
222.3918504497581
100
AcDbArc
 50
341.575557
 51
9.996581
  0
LINE
  5
5A1
330
586
100
AcDbEntity
  8
LC-011-003-MTH-0
 62
     7
370
    25
100
AcDbLine
 10
580.476062
 20
283.532204
 30
0.0
 11
648.23747
 21
265.375589
 31
0.0
  0
LINE
  5
5A2
330
586
100
AcDbEntity
  8
LC-011-003-MTH-0
 62
     7
370
    25
100
AcDbLine
 10
649.095501
 20
265.145681
 30
0.0
 11
696.37929
 21
252.476028
 31
0.0
  0
LINE
  5
5A3
330
586
100
AcDbEntity
  8
LC-011-003-MTH-0
 62
     7
370
    25
100
AcDbLine
 10
584.101554
 20
311.07055
 30
0.0
 11
704.093405
 21
311.07055
 31
0.0
  0
ENDBLK
  5
588
330
586
100
AcDbEntity
  8
0
100
AcDbBlockEnd
  0
ENDSEC
  0
SECTION
  2
ENTITIES
  0
LINE
  5
32
330
1F
100
AcDbEntity
  8
LC-001-002-----0
 62
     7
370
    25
100
AcDbLine
 10
323.001509
 20
357.052476
 30
0.0
 11
323.001509
 21
343.051785
 31
0.0
  0
LINE
  5
33
330
1F
100
AcDbEntity
  8
LC-001-002-----0
  6
ByBlock
 62
     7
370
    50
100
AcDbLine
 10
332.001972
 20
359.587794
 30
0.0
 11
329.001912
 21
359.587794
 31
0.0
  0
LINE
  5
34
330
1F
100
AcDbEntity
  8
LC-001-002-----0
  6
ByBlock
 62
     7
370
    50
100
AcDbLine
 10
343.001998
 20
355.551785
 30
0.0
 11
443.001998
 21
355.551785
 31
0.0
  0
LINE
  5
35
330
1F
100
AcDbEntity
  8
LC-001-002-----0
  6
ByBlock
 62
     7
370
    50
100
AcDbLine
 10
287.717069
 20
362.754201
 30
0.0
 11
338.001998
 21
362.754201
 31
0.0
  0
LINE
  5
37
102
{ACAD_REACTORS
330
5AC
102
}
330
1F
100
AcDbEntity
  8
LC-002-101-D00-0
 62
     7
370
    25
100
AcDbLine
 10
343.833516
 20
446.82016
 30
0.0
 11
344.870481
 21
446.82016
 31
0.0
  0
LINE
  5
38
330
1F
100
AcDbEntity
  8
LC-001-002-----0
  6
ByBlock
 62
     7
370
    50
100
AcDbLine
 10
341.001998
 20
343.551785
 30
0.0
 11
445.001998
 21
343.551785
 31
0.0
  0
ARC
  5
39
102
{ACAD_REACTORS
330
5AB
102
}
330
1F
100
AcDbEntity
  8
LC-002-101-D00-0
 62
     7
370
    50
100
AcDbCircle
 10
370.501998
 20
377.754945
 30
0.0
 40
0.5
100
AcDbArc
 50
180.0
 51
270.0
  0
LINE
  5
3A
330
1F
100
AcDbEntity
  8
LC-001-002-----0
  6
ByBlock
 62
     7
370
    25
100
AcDbLine
 10
343.178132
 20
495.396
 30
0.0
 11
343.178132
 21
510.396
 31
0.0
  0
ARC
  5
3B
330
1F
100
AcDbEntity
  8
LC-002-101-D00-0
 62
     7
370
    50
100
AcDbCircle
 10
358.001998
 20
399.754945
 30
0.0
 40
12.0
100
AcDbArc
 50
180.0
 51
270.0
  0
ARC
  5
3C
330
1F
100
AcDbEntity
  8
LC-002-101-D00-0
 62
     7
370
    50
100
AcDbCircle
 10
369.401998
 20
379.254945
 30
0.0
 40
0.5
100
AcDbArc
 50
180.0
 51
270.0
  0
ARC
  5
3D
330
1F
100
AcDbEntity
  8
LC-002-101-D00-0
 62
     7
370
    50
100
AcDbCircle
 10
373.601998
 20
379.254945
 30
0.0
 40
0.5
100
AcDbArc
 50
270.0
 51
0.0
  0
ARC
  5
3E
330
1F
100
AcDbEntity
  8
LC-002-101-D00-0
 62
     7
370
    50
100
AcDbCircle
 10
368.401998
 20
387.254945
 30
0.0
 40
0.5
100
AcDbArc
 50
0.0
 51
90.0
  0
ARC
  5
3F
330
1F
100
AcDbEntity
  8
LC-002-101-D00-0
 62
     7
370
    50
100
AcDbCircle
 10
374.601998
 20
387.254945
 30
0.0
 40
0.5
100
AcDbArc
 50
90.0
 51
180.0
  0
ARC
  5
40
330
1F
100
AcDbEntity
  8
LC-002-101-D00-0
 62
     7
370
    50
100
AcDbCircle
 10
411.401998
 20
387.254945
 30
0.0
 40
0.5
100
AcDbArc
 50
0.0
 51
90.0
  0
ARC
  5
41
330
1F
100
AcDbEntity
  8
LC-002-101-D00-0
 62
     7
370
    50
100
AcDbCircle
 10
417.601998
 20
387.254945
 30
0.0
 40
0.5
100
AcDbArc
 50
90.0
 51
180.0
  0
ARC
  5
42
330
1F
100
AcDbEntity
  8
LC-002-101-D00-0
 62
     7
370
    50
100
AcDbCircle
 10
412.401998
 20
379.254945
 30
0.0
 40
0.5
100
AcDbArc
 50
180.0
 51
270.0
  0
ARC
  5
43
330
1F
100
AcDbEntity
  8
LC-002-101-D00-0
 62
     7
370
    50
100
AcDbCircle
 10
416.601998
 20
379.254945
 30
0.0
 40
0.5
100
AcDbArc
 50
270.0
 51
0.0
  0
ARC
  5
44
330
1F
100
AcDbEntity
  8
LC-002-101-D00-0
 62
     7
370
    50
100
AcDbCircle
 10
428.001998
 20
399.754945
 30
0.0
 40
12.0
100
AcDbArc
 50
270.0
 51
0.0
  0
ARC
  5
45
330
1F
100
AcDbEntity
  8
LC-002-101-D00-0
 62
     7
370
    50
100
AcDbCircle
 10
440.501998
 20
440.954945
 30
0.0
 40
0.500000000003638
100
AcDbArc
 50
180.0
 51
270.0
  0
ARC
  5
46
330
1F
100
AcDbEntity
  8
LC-002-101-D00-0
 62
     7
370
    50
100
AcDbCircle
 10
345.501998
 20
440.954945
 30
0.0
 40
0.5
100
AcDbArc
 50
270.0
 51
0.0
  0
INSERT
  5
4E
330
1F
100
AcDbEntity
  8
LC-002-101-D00-0
 62
     7
370
    50
100
AcDbBlockReference
  2
POLY1
 10
0.0
 20
0.0
 30
0.0
  0
INSERT
  5
56
330
1F
100
AcDbEntity
  8
LC-002-101-D00-0
 62
     7
370
    50
100
AcDbBlockReference
  2
POLY2
 10
0.0
 20
0.0
 30
0.0
  0
LINE
  5
57
330
1F
100
AcDbEntity
  8
LC-002-101-D00-0
 62
     7
370
    50
100
AcDbLine
 10
411.401998
 20
387.754945
 30
0.0
 11
417.601998
 21
387.754945
 31
0.0
  0
LINE
  5
58
330
1F
100
AcDbEntity
  8
LC-002-101-D00-0
 62
     7
370
    50
100
AcDbLine
 10
368.401998
 20
387.754945
 30
0.0
 11
374.601998
 21
387.754945
 31
0.0
  0
LINE
  5
59
330
1F
100
AcDbEntity
  8
LC-002-101-D00-0
 62
     7
370
    50
100
AcDbLine
 10
346.001998
 20
399.754945
 30
0.0
 11
440.001998
 21
399.754945
 31
0.0
  0
LINE
  5
5A
330
1F
100
AcDbEntity
  8
LC-002-101-D00-0
 62
     7
370
    50
100
AcDbLine
 10
343.301998
 20
446.234945
 30
0.0
 11
442.701998
 21
446.234945
 31
0.0
  0
LINE
  5
5B
330
1F
100
AcDbEntity
  8
LC-002-101-D00-0
 62
     7
370
    50
100
AcDbLine
 10
442.701998
 20
451.268626
 30
0.0
 11
343.301998
 21
451.268626
 31
0.0
  0
LINE
  5
5C
330
1F
100
AcDbEntity
  8
LC-002-101-D00-0
 62
     7
370
    50
100
AcDbLine
 10
346.001998
 20
443.751785
 30
0.0
 11
440.001998
 21
443.751785
 31
0.0
  0
LINE
  5
5D
330
1F
100
AcDbEntity
  8
LC-002-101-D00-0
 62
     7
370
    50
100
AcDbLine
 10
346.351998
 20
451.001785
 30
0.0
 11
439.651998
 21
451.001785
 31
0.0
  0
LINE
  5
5E
330
1F
100
AcDbEntity
  8
LC-002-101-D00-0
 62
     7
370
    50
100
AcDbLine
 10
374.601998
 20
387.754945
 30
0.0
 11
377.001998
 21
387.754945
 31
0.0
  0
LINE
  5
5F
330
1F
100
AcDbEntity
  8
LC-002-101-D00-0
 62
     7
370
    50
100
AcDbLine
 10
372.101998
 20
387.754945
 30
0.0
 11
370.901998
 21
387.754945
 31
0.0
  0
LINE
  5
60
330
1F
100
AcDbEntity
  8
LC-002-101-D00-0
 62
     7
370
    50
100
AcDbLine
 10
369.401998
 20
378.754945
 30
0.0
 11
373.601998
 21
378.754945
 31
0.0
  0
LINE
  5
61
330
1F
100
AcDbEntity
  8
LC-002-101-D00-0
 62
     7
370
    50
100
AcDbLine
 10
368.401998
 20
387.754945
 30
0.0
 11
358.001998
 21
387.754945
 31
0.0
  0
LINE
  5
62
330
1F
100
AcDbEntity
  8
LC-002-101-D00-0
 62
     7
370
    50
100
AcDbLine
 10
368.901998
 20
387.254945
 30
0.0
 11
368.901998
 21
379.254945
 31
0.0
  0
LINE
  5
63
330
1F
100
AcDbEntity
  8
LC-001-002-----0
  6
ByBlock
 62
     7
370
    50
100
AcDbLine
 10
498.286928
 20
362.754201
 30
0.0
 11
448.001998
 21
362.754201
 31
0.0
  0
LINE
  5
64
330
1F
100
AcDbEntity
  8
LC-001-002-----0
  6
ByBlock
 62
     7
370
    50
100
AcDbLine
 10
340.501998
 20
346.052476
 30
0.0
 11
340.501998
 21
340.948967
 31
0.0
  0
LINE
  5
65
330
1F
100
AcDbEntity
  8
0
 62
     7
370
    -2
100
AcDbLine
 10
377.001998
 20
387.754945
 30
0.0
 11
377.101998
 21
387.754945
 31
0.0
  0
CIRCLE
  5
66
102
{ACAD_REACTORS
330
5AA
102
}
330
1F
100
AcDbEntity
  8
LC-002-101-D00-0
 62
    70
370
    50
100
AcDbCircle
 10
344.351998
 20
448.751785
 30
0.0
 40
2.0
  0
ARC
  5
67
102
{ACAD_REACTORS
330
5AB
102
}
330
1F
100
AcDbEntity
  8
LC-002-101-D00-0
 62
     7
370
    50
100
AcDbCircle
 10
415.501998
 20
377.754945
 30
0.0
 40
0.5
100
AcDbArc
 50
270.0
 51
0.0
  0
LINE
  5
68
330
1F
100
AcDbEntity
  8
LC-002-101-D00-0
 62
     7
370
    50
100
AcDbLine
 10
343.301998
 20
455.751785
 30
0.0
 11
393.001998
 21
455.751785
 31
0.0
  0
LINE
  5
69
330
1F
100
AcDbEntity
  8
LC-002-101-D00-0
 62
     7
370
    50
100
AcDbLine
 10
346.351998
 20
451.001785
 30
0.0
 11
346.351998
 21
446.501785
 31
0.0
  0
LINE
  5
6A
102
{ACAD_REACTORS
330
5AB
102
}
330
1F
100
AcDbEntity
  8
LC-002-101-D00-0
 62
     7
370
    50
100
AcDbLine
 10
370.001998
 20
377.754945
 30
0.0
 11
416.001998
 21
377.754945
 31
0.0
  0
LINE
  5
6B
102
{ACAD_REACTORS
330
5AB
102
}
330
1F
100
AcDbEntity
  8
LC-002-101-D00-0
 62
     7
370
    50
100
AcDbLine
 10
391.001998
 20
378.754945
 30
0.0
 11
370.001998
 21
378.754945
 31
0.0
  0
LINE
  5
6C
102
{ACAD_REACTORS
330
5AB
102
}
330
1F
100
AcDbEntity
  8
LC-002-101-D00-0
 62
     7
370
    50
100
AcDbLine
 10
370.001998
 20
378.754945
 30
0.0
 11
370.001998
 21
377.754945
 31
0.0
  0
LINE
  5
6D
102
{ACAD_REACTORS
330
5AB
102
}
330
1F
100
AcDbEntity
  8
LC-002-101-D00-0
 62
     7
370
    50
100
AcDbLine
 10
370.501998
 20
377.254945
 30
0.0
 11
391.001998
 21
377.254945
 31
0.0
  0
LINE
  5
6E
330
1F
100
AcDbEntity
  8
LC-002-101-D00-0
 62
     7
370
    50
100
AcDbLine
 10
346.001998
 20
399.754945
 30
0.0
 11
346.001998
 21
436.750945
 31
0.0
  0
LINE
  5
6F
102
{ACAD_REACTORS
330
5AB
102
}
330
1F
100
AcDbEntity
  8
LC-002-101-D00-0
 62
     7
370
    50
100
AcDbLine
 10
391.001998
 20
377.254945
 30
0.0
 11
395.001998
 21
377.254945
 31
0.0
  0
LINE
  5
70
102
{ACAD_REACTORS
330
5AB
102
}
330
1F
100
AcDbEntity
  8
LC-002-101-D00-0
 62
     7
370
    50
100
AcDbLine
 10
395.001998
 20
378.754945
 30
0.0
 11
391.001998
 21
378.754945
 31
0.0
  0
LINE
  5
71
102
{ACAD_REACTORS
330
5AB
102
}
330
1F
100
AcDbEntity
  8
LC-002-101-D00-0
 62
     7
370
    50
100
AcDbLine
 10
395.001998
 20
377.254945
 30
0.0
 11
415.501998
 21
377.254945
 31
0.0
  0
LINE
  5
72
330
1F
100
AcDbEntity
  8
LC-002-101-D00-0
 62
     7
370
    50
100
AcDbLine
 10
346.351998
 20
446.501785
 30
0.0
 11
343.301998
 21
446.234945
 31
0.0
  0
LINE
  5
73
102
{ACAD_REACTORS
330
5AB
102
}
330
1F
100
AcDbEntity
  8
LC-002-101-D00-0
 62
     7
370
    50
100
AcDbLine
 10
416.001998
 20
377.754945
 30
0.0
 11
416.001998
 21
378.754945
 31
0.0
  0
LINE
  5
74
102
{ACAD_REACTORS
330
5AB
102
}
330
1F
100
AcDbEntity
  8
LC-002-101-D00-0
 62
     7
370
    50
100
AcDbLine
 10
416.001998
 20
378.754945
 30
0.0
 11
395.001998
 21
378.754945
 31
0.0
  0
LINE
  5
75
102
{ACAD_REACTORS
330
5AC
102
}
330
1F
100
AcDbEntity
  8
LC-002-101-D00-0
 62
     7
370
    25
100
AcDbLine
 10
343.269346
 20
447.07016
 30
0.0
 11
345.434651
 21
447.07016
 31
0.0
  0
LINE
  5
76
330
1F
100
AcDbEntity
  8
LC-002-101-D00-0
 62
     7
370
    50
100
AcDbLine
 10
343.301998
 20
443.751785
 30
0.0
 11
343.301998
 21
446.234945
 31
0.0
  0
LINE
  5
77
102
{ACAD_REACTORS
330
5AC
102
}
330
1F
100
AcDbEntity
  8
LC-002-101-D00-0
 62
     7
370
    25
100
AcDbLine
 10
342.955413
 20
447.32016
 30
0.0
 11
345.748583
 21
447.32016
 31
0.0
  0
LINE
  5
78
102
{ACAD_REACTORS
330
5AC
102
}
330
1F
100
AcDbEntity
  8
LC-002-101-D00-0
 62
     7
370
    25
100
AcDbLine
 10
342.738381
 20
447.57016
 30
0.0
 11
345.965616
 21
447.57016
 31
0.0
  0
LINE
  5
79
330
1F
100
AcDbEntity
  8
LC-002-101-D00-0
 62
     7
370
    50
100
AcDbLine
 10
343.301998
 20
443.751785
 30
0.0
 11
346.001998
 21
443.751785
 31
0.0
  0
LINE
  5
7A
102
{ACAD_REACTORS
330
5AC
102
}
330
1F
100
AcDbEntity
  8
LC-002-101-D00-0
 62
     7
370
    25
100
AcDbLine
 10
342.582232
 20
447.82016
 30
0.0
 11
346.121765
 21
447.82016
 31
0.0
  0
LINE
  5
7B
330
1F
100
AcDbEntity
  8
LC-001-002-----0
 62
     7
370
    25
100
AcDbLine
 10
463.002488
 20
356.552476
 30
0.0
 11
463.002488
 21
343.551785
 31
0.0
  0
LINE
  5
7C
102
{ACAD_REACTORS
330
5AC
102
}
330
1F
100
AcDbEntity
  8
LC-002-101-D00-0
 62
     7
370
    25
100
AcDbLine
 10
342.471736
 20
448.07016
 30
0.0
 11
346.232261
 21
448.07016
 31
0.0
  0
LINE
  5
7D
102
{ACAD_REACTORS
330
5AC
102
}
330
1F
100
AcDbEntity
  8
LC-002-101-D00-0
 62
     7
370
    25
100
AcDbLine
 10
342.399129
 20
448.32016
 30
0.0
 11
346.304868
 21
448.32016
 31
0.0
  0
LINE
  5
7E
102
{ACAD_REACTORS
330
5AC
102
}
330
1F
100
AcDbEntity
  8
LC-002-101-D00-0
 62
     7
370
    25
100
AcDbLine
 10
342.360262
 20
448.57016
 30
0.0
 11
346.343734
 21
448.57016
 31
0.0
  0
LINE
  5
7F
102
{ACAD_REACTORS
330
5AC
102
}
330
1F
100
AcDbEntity
  8
LC-002-101-D00-0
 62
     7
370
    25
100
AcDbLine
 10
342.353168
 20
448.82016
 30
0.0
 11
346.350829
 21
448.82016
 31
0.0
  0
LINE
  5
80
102
{ACAD_REACTORS
330
5AC
102
}
330
1F
100
AcDbEntity
  8
LC-002-101-D00-0
 62
     7
370
    25
100
AcDbLine
 10
342.377502
 20
449.07016
 30
0.0
 11
346.326495
 21
449.07016
 31
0.0
  0
LINE
  5
81
102
{ACAD_REACTORS
330
5AC
102
}
330
1F
100
AcDbEntity
  8
LC-002-101-D00-0
 62
     7
370
    25
100
AcDbLine
 10
342.434461
 20
449.32016
 30
0.0
 11
346.269536
 21
449.32016
 31
0.0
  0
LINE
  5
82
102
{ACAD_REACTORS
330
5AC
102
}
330
1F
100
AcDbEntity
  8
LC-002-101-D00-0
 62
     7
370
    25
100
AcDbLine
 10
342.527098
 20
449.57016
 30
0.0
 11
346.176899
 21
449.57016
 31
0.0
  0
LINE
  5
83
102
{ACAD_REACTORS
330
5AC
102
}
330
1F
100
AcDbEntity
  8
LC-002-101-D00-0
 62
     7
370
    25
100
AcDbLine
 10
342.661266
 20
449.82016
 30
0.0
 11
346.042731
 21
449.82016
 31
0.0
  0
LINE
  5
84
102
{ACAD_REACTORS
330
5AC
102
}
330
1F
100
AcDbEntity
  8
LC-002-101-D00-0
 62
     7
370
    25
100
AcDbLine
 10
342.848041
 20
450.07016
 30
0.0
 11
345.855956
 21
450.07016
 31
0.0
  0
LINE
  5
85
102
{ACAD_REACTORS
330
5AC
102
}
330
1F
100
AcDbEntity
  8
LC-002-101-D00-0
 62
     7
370
    25
100
AcDbLine
 10
343.11095
 20
450.32016
 30
0.0
 11
345.593046
 21
450.32016
 31
0.0
  0
LINE
  5
86
102
{ACAD_REACTORS
330
5AC
102
}
330
1F
100
AcDbEntity
  8
LC-002-101-D00-0
 62
     7
370
    25
100
AcDbLine
 10
343.519224
 20
450.57016
 30
0.0
 11
345.184773
 21
450.57016
 31
0.0
  0
LINE
  5
87
330
1F
100
AcDbEntity
  8
LC-002-101-D00-0
 62
     7
370
    50
100
AcDbLine
 10
346.351998
 20
451.001785
 30
0.0
 11
343.301998
 21
451.268626
 31
0.0
  0
LINE
  5
88
330
1F
100
AcDbEntity
  8
LC-002-101-D00-0
 62
     7
370
    50
100
AcDbLine
 10
343.301998
 20
451.268626
 30
0.0
 11
343.301998
 21
455.751785
 31
0.0
  0
LINE
  5
89
330
1F
100
AcDbEntity
  8
LC-002-101-D00-0
 62
     7
370
    50
100
AcDbLine
 10
374.101998
 20
379.254945
 30
0.0
 11
374.101998
 21
387.254945
 31
0.0
  0
LINE
  5
8A
330
1F
100
AcDbEntity
  8
LC-002-101-D00-0
 62
     7
370
    50
100
AcDbLine
 10
377.001998
 20
387.754945
 30
0.0
 11
393.001998
 21
387.754945
 31
0.0
  0
LINE
  5
8B
330
1F
100
AcDbEntity
  8
LC-002-101-D00-0
 62
     7
370
    50
100
AcDbLine
 10
344.501998
 20
457.751785
 30
0.0
 11
344.765845
 21
457.751785
 31
0.0
  0
LINE
  5
8C
330
1F
100
AcDbEntity
  8
LC-002-101-D00-0
 62
     7
370
    50
100
AcDbLine
 10
344.765845
 20
457.751785
 30
0.0
 11
345.263125
 21
457.751785
 31
0.0
  0
LINE
  5
8D
330
1F
100
AcDbEntity
  8
LC-002-101-D00-0
 62
     7
370
    50
100
AcDbLine
 10
348.001998
 20
457.751785
 30
0.0
 11
345.263125
 21
457.751785
 31
0.0
  0
LINE
  5
8E
330
1F
100
AcDbEntity
  8
LC-002-101-D00-0
 62
     7
370
    50
100
AcDbLine
 10
349.127176
 20
455.751785
 30
0.0
 11
349.127176
 21
456.546014
 31
0.0
  0
LINE
  5
8F
330
1F
100
AcDbEntity
  8
LC-002-101-D00-0
 62
     7
370
    50
100
AcDbLine
 10
348.001998
 20
457.751785
 30
0.0
 11
348.339374
 21
457.751785
 31
0.0
  0
LINE
  5
90
330
1F
100
AcDbEntity
  8
0
 62
     7
370
    -2
100
AcDbLine
 10
343.301998
 20
455.751785
 30
0.0
 11
340.001998
 21
455.751785
 31
0.0
  0
LINE
  5
91
330
1F
100
AcDbEntity
  8
LC-002-101-D00-0
 62
     7
370
    50
100
AcDbLine
 10
340.001998
 20
455.751785
 30
0.0
 11
340.001998
 21
456.546014
 31
0.0
  0
LINE
  5
92
330
1F
100
AcDbEntity
  8
LC-002-101-D00-0
 62
     7
370
    50
100
AcDbLine
 10
344.501998
 20
457.751785
 30
0.0
 11
340.001998
 21
456.546014
 31
0.0
  0
LINE
  5
93
330
1F
100
AcDbEntity
  8
LC-002-101-D00-0
 62
     7
370
    50
100
AcDbLine
 10
387.501998
 20
457.754945
 30
0.0
 11
383.001998
 21
456.549174
 31
0.0
  0
LINE
  5
94
330
1F
100
AcDbEntity
  8
LC-002-101-D00-0
 62
     7
370
    50
100
AcDbLine
 10
387.501998
 20
457.754945
 30
0.0
 11
387.949915
 21
457.754945
 31
0.0
  0
LINE
  5
95
330
1F
100
AcDbEntity
  8
LC-002-101-D00-0
 62
     7
370
    50
100
AcDbLine
 10
387.949915
 20
457.754945
 30
0.0
 11
393.001998
 21
457.754945
 31
0.0
  0
LINE
  5
96
330
1F
100
AcDbEntity
  8
LC-002-101-D00-0
 62
     7
370
    50
100
AcDbLine
 10
383.001998
 20
455.754945
 30
0.0
 11
383.001998
 21
456.549174
 31
0.0
  0
LINE
  5
97
330
1F
100
AcDbEntity
  8
LC-002-101-D00-0
 62
     7
370
    50
100
AcDbLine
 10
403.001998
 20
456.549174
 30
0.0
 11
403.001998
 21
455.754945
 31
0.0
  0
LINE
  5
98
330
1F
100
AcDbEntity
  8
LC-002-101-D00-0
 62
     7
370
    50
100
AcDbLine
 10
393.001998
 20
457.754945
 30
0.0
 11
398.054082
 21
457.754945
 31
0.0
  0
LINE
  5
99
330
1F
100
AcDbEntity
  8
LC-002-101-D00-0
 62
     7
370
    50
100
AcDbLine
 10
398.054082
 20
457.754945
 30
0.0
 11
398.501998
 21
457.754945
 31
0.0
  0
LINE
  5
9A
330
1F
100
AcDbEntity
  8
LC-002-101-D00-0
 62
     7
370
    50
100
AcDbLine
 10
403.001998
 20
456.549174
 30
0.0
 11
398.501998
 21
457.754945
 31
0.0
  0
LINE
  5
9B
330
1F
100
AcDbEntity
  8
LC-002-101-D00-0
 62
     7
370
    50
100
AcDbLine
 10
437.664623
 20
457.751785
 30
0.0
 11
438.001998
 21
457.751785
 31
0.0
  0
LINE
  5
9C
330
1F
100
AcDbEntity
  8
LC-002-101-D00-0
 62
     7
370
    50
100
AcDbLine
 10
446.001998
 20
456.546014
 30
0.0
 11
441.501998
 21
457.751785
 31
0.0
  0
LINE
  5
9D
330
1F
100
AcDbEntity
  8
LC-002-101-D00-0
 62
     7
370
    50
100
AcDbLine
 10
446.001998
 20
456.546014
 30
0.0
 11
446.001998
 21
455.751785
 31
0.0
  0
LINE
  5
9E
330
1F
100
AcDbEntity
  8
0
 62
     7
370
    -2
100
AcDbLine
 10
446.001998
 20
455.751785
 30
0.0
 11
442.701998
 21
455.751785
 31
0.0
  0
LINE
  5
9F
330
1F
100
AcDbEntity
  8
LC-002-101-D00-0
 62
     7
370
    50
100
AcDbLine
 10
436.87682
 20
456.546014
 30
0.0
 11
436.87682
 21
455.751785
 31
0.0
  0
LINE
  5
A0
330
1F
100
AcDbEntity
  8
LC-002-101-D00-0
 62
     7
370
    50
100
AcDbLine
 10
440.740871
 20
457.751785
 30
0.0
 11
438.001998
 21
457.751785
 31
0.0
  0
LINE
  5
A1
330
1F
100
AcDbEntity
  8
LC-002-101-D00-0
 62
     7
370
    50
100
AcDbLine
 10
440.740871
 20
457.751785
 30
0.0
 11
441.238151
 21
457.751785
 31
0.0
  0
LINE
  5
A2
330
1F
100
AcDbEntity
  8
LC-002-101-D00-0
 62
     7
370
    50
100
AcDbLine
 10
441.238151
 20
457.751785
 30
0.0
 11
441.501998
 21
457.751785
 31
0.0
  0
LINE
  5
A3
330
1F
100
AcDbEntity
  8
LC-002-101-D00-0
 62
     7
370
    50
100
AcDbLine
 10
393.001998
 20
387.754945
 30
0.0
 11
409.001998
 21
387.754945
 31
0.0
  0
LINE
  5
A4
330
1F
100
AcDbEntity
  8
LC-002-101-D00-0
 62
     7
370
    50
100
AcDbLine
 10
411.901998
 20
387.254945
 30
0.0
 11
411.901998
 21
379.254945
 31
0.0
  0
LINE
  5
A5
330
1F
100
AcDbEntity
  8
LC-002-101-D00-0
 62
     7
370
    50
100
AcDbLine
 10
442.701998
 20
455.751785
 30
0.0
 11
442.701998
 21
451.268626
 31
0.0
  0
LINE
  5
A6
330
1F
100
AcDbEntity
  8
LC-002-101-D00-0
 62
     7
370
    50
100
AcDbLine
 10
442.701998
 20
451.268626
 30
0.0
 11
439.651998
 21
451.001785
 31
0.0
  0
LINE
  5
A7
330
1F
100
AcDbEntity
  8
LC-002-101-D00-0
 62
     7
370
    50
100
AcDbLine
 10
440.001998
 20
443.751785
 30
0.0
 11
442.701998
 21
443.751785
 31
0.0
  0
LINE
  5
A8
330
1F
100
AcDbEntity
  8
LC-002-101-D00-0
 62
     7
370
    50
100
AcDbLine
 10
442.701998
 20
446.234945
 30
0.0
 11
442.701998
 21
443.751785
 31
0.0
  0
LINE
  5
A9
330
1F
100
AcDbEntity
  8
LC-002-101-D00-0
 62
     7
370
    50
100
AcDbLine
 10
442.701998
 20
446.234945
 30
0.0
 11
439.651998
 21
446.501785
 31
0.0
  0
LINE
  5
AA
330
1F
100
AcDbEntity
  8
LC-002-101-D00-0
 62
     7
370
    50
100
AcDbLine
 10
440.001998
 20
443.751785
 30
0.0
 11
440.001998
 21
440.954945
 31
0.0
  0
LINE
  5
AB
330
1F
100
AcDbEntity
  8
LC-002-101-D00-0
 62
     7
370
    50
100
AcDbLine
 10
439.651998
 20
446.501785
 30
0.0
 11
439.651998
 21
451.001785
 31
0.0
  0
LINE
  5
AC
330
1F
100
AcDbEntity
  8
0
 62
     7
370
    -2
100
AcDbLine
 10
393.001998
 20
455.751785
 30
0.0
 11
442.701998
 21
455.751785
 31
0.0
  0
LINE
  5
AD
330
1F
100
AcDbEntity
  8
0
 62
     7
370
    -2
100
AcDbLine
 10
408.901998
 20
388.755635
 30
0.0
 11
409.001998
 21
388.755635
 31
0.0
  0
LINE
  5
AE
330
1F
100
AcDbEntity
  8
LC-002-101-D00-0
 62
     7
370
    50
100
AcDbLine
 10
417.101998
 20
379.254945
 30
0.0
 11
417.101998
 21
387.254945
 31
0.0
  0
LINE
  5
AF
330
1F
100
AcDbEntity
  8
LC-002-101-D00-0
 62
     7
370
    50
100
AcDbLine
 10
428.001998
 20
387.754945
 30
0.0
 11
417.601998
 21
387.754945
 31
0.0
  0
LINE
  5
B0
330
1F
100
AcDbEntity
  8
0
 62
     7
370
    -2
100
AcDbLine
 10
415.101998
 20
388.755635
 30
0.0
 11
413.901998
 21
388.755635
 31
0.0
  0
LINE
  5
B1
330
1F
100
AcDbEntity
  8
LC-002-101-D00-0
 62
     7
370
    50
100
AcDbLine
 10
412.401998
 20
378.754945
 30
0.0
 11
416.601998
 21
378.754945
 31
0.0
  0
LINE
  5
B2
330
1F
100
AcDbEntity
  8
LC-002-101-D00-0
 62
     7
370
    50
100
AcDbLine
 10
409.001998
 20
387.754945
 30
0.0
 11
411.401998
 21
387.754945
 31
0.0
  0
LINE
  5
B3
330
1F
100
AcDbEntity
  8
LC-001-002-----0
  6
ByBlock
 62
     7
370
    25
100
AcDbLine
 10
343.178132
 20
510.396
 30
0.0
 11
358.178132
 21
510.396
 31
0.0
  0
LINE
  5
B4
330
1F
100
AcDbEntity
  8
LC-002-101-D00-0
 62
     7
370
    50
100
AcDbLine
 10
441.655998
 20
440.454945
 30
0.0
 11
440.501998
 21
440.454945
 31
0.0
  0
LINE
  5
B5
330
1F
100
AcDbEntity
  8
LC-002-101-D00-0
 62
     7
370
    50
100
AcDbLine
 10
441.655998
 20
438.404945
 30
0.0
 11
441.655998
 21
440.454945
 31
0.0
  0
LINE
  5
B6
330
1F
100
AcDbEntity
  8
LC-002-101-D00-0
 62
     7
370
    50
100
AcDbLine
 10
440.001998
 20
436.750945
 30
0.0
 11
441.655998
 21
438.404945
 31
0.0
  0
LINE
  5
B7
330
1F
100
AcDbEntity
  8
LC-002-101-D00-0
 62
     7
370
    50
100
AcDbLine
 10
345.501998
 20
440.454945
 30
0.0
 11
344.347998
 21
440.454945
 31
0.0
  0
LINE
  5
B8
330
1F
100
AcDbEntity
  8
LC-002-101-D00-0
 62
     7
370
    50
100
AcDbLine
 10
344.347998
 20
440.454945
 30
0.0
 11
344.347998
 21
438.404945
 31
0.0
  0
LINE
  5
B9
330
1F
100
AcDbEntity
  8
LC-002-101-D00-0
 62
     7
370
    50
100
AcDbLine
 10
344.347998
 20
438.404945
 30
0.0
 11
346.001998
 21
436.750945
 31
0.0
  0
LINE
  5
BA
330
1F
100
AcDbEntity
  8
LC-002-101-D00-0
 62
     7
370
    50
100
AcDbLine
 10
346.001998
 20
440.954945
 30
0.0
 11
346.001998
 21
443.751785
 31
0.0
  0
LINE
  5
BB
330
1F
100
AcDbEntity
  8
LC-002-101-D00-0
 62
     7
370
    50
100
AcDbLine
 10
440.001998
 20
436.750945
 30
0.0
 11
440.001998
 21
399.754945
 31
0.0
  0
LINE
  5
BC
330
1F
100
AcDbEntity
  8
LC-002-101-D00-0
 62
     7
370
    50
100
AcDbLine
 10
346.001998
 20
436.750945
 30
0.0
 11
440.001998
 21
436.750945
 31
0.0
  0
LINE
  5
BD
330
1F
100
AcDbEntity
  8
LC-002-101-D00-0
 62
     7
370
    50
100
AcDbLine
 10
344.347998
 20
438.404945
 30
0.0
 11
441.655998
 21
438.404945
 31
0.0
  0
LINE
  5
BE
330
1F
100
AcDbEntity
  8
LC-002-101-D00-0
 62
     7
370
    50
100
AcDbLine
 10
345.501998
 20
440.454945
 30
0.0
 11
440.501998
 21
440.454945
 31
0.0
  0
LINE
  5
BF
330
1F
100
AcDbEntity
  8
LC-001-002-----0
  6
ByBlock
 62
     7
370
    25
100
AcDbLine
 10
358.178132
 20
510.396
 30
0.0
 11
358.178132
 21
495.396
 31
0.0
  0
LINE
  5
C0
330
1F
100
AcDbEntity
  8
LC-001-002-----0
  6
ByBlock
 62
     7
370
    25
100
AcDbLine
 10
358.178132
 20
495.396
 30
0.0
 11
343.178132
 21
495.396
 31
0.0
  0
LINE
  5
C1
102
{ACAD_REACTORS
330
5B0
102
}
330
1F
100
AcDbEntity
  8
LC-001-002-----0
  6
ByBlock
 62
     7
370
    50
100
AcDbLine
 10
335.501998
 20
458.996171
 30
0.0
 11
335.501998
 21
461.996171
 31
0.0
  0
LINE
  5
C2
102
{ACAD_REACTORS
330
5B0
102
}
330
1F
100
AcDbEntity
  8
LC-001-002-----0
  6
ByBlock
 62
     7
370
    50
100
AcDbLine
 10
335.501998
 20
458.996171
 30
0.0
 11
450.501998
 21
458.996171
 31
0.0
  0
LINE
  5
C3
102
{ACAD_REACTORS
330
5B0
102
}
330
1F
100
AcDbEntity
  8
LC-001-002-----0
  6
ByBlock
 62
     7
370
    50
100
AcDbLine
 10
450.501998
 20
458.996171
 30
0.0
 11
450.501998
 21
461.996171
 31
0.0
  0
LINE
  5
C4
102
{ACAD_REACTORS
330
5B0
102
}
330
1F
100
AcDbEntity
  8
LC-001-002-----0
  6
ByBlock
 62
     7
370
    50
100
AcDbLine
 10
337.501998
 20
463.996171
 30
0.0
 11
350.501998
 21
463.996171
 31
0.0
  0
LINE
  5
C5
102
{ACAD_REACTORS
330
5B0
102
}
330
1F
100
AcDbEntity
  8
LC-001-002-----0
  6
ByBlock
 62
     7
370
    50
100
AcDbLine
 10
337.001998
 20
458.996171
 30
0.0
 11
337.001998
 21
461.996171
 31
0.0
  0
LINE
  5
C6
102
{ACAD_REACTORS
330
5B0
102
}
330
1F
100
AcDbEntity
  8
LC-001-002-----0
  6
ByBlock
 62
     7
370
    50
100
AcDbLine
 10
337.501998
 20
462.496171
 30
0.0
 11
340.501998
 21
462.496171
 31
0.0
  0
LINE
  5
C7
102
{ACAD_REACTORS
330
5B0
102
}
330
1F
100
AcDbEntity
  8
LC-001-002-----0
  6
ByBlock
 62
     7
370
    50
100
AcDbLine
 10
449.001998
 20
458.996171
 30
0.0
 11
449.001998
 21
461.996171
 31
0.0
  0
LINE
  5
C8
102
{ACAD_REACTORS
330
5B0
102
}
330
1F
100
AcDbEntity
  8
LC-001-002-----0
  6
ByBlock
 62
     7
370
    50
100
AcDbLine
 10
342.501998
 20
461.496171
 30
0.0
 11
342.501998
 21
461.996171
 31
0.0
  0
LINE
  5
C9
102
{ACAD_REACTORS
330
5B0
102
}
330
1F
100
AcDbEntity
  8
LC-001-002-----0
  6
ByBlock
 62
     7
370
    50
100
AcDbLine
 10
341.001998
 20
461.496171
 30
0.0
 11
341.001998
 21
461.996171
 31
0.0
  0
LINE
  5
CA
102
{ACAD_REACTORS
330
5B0
102
}
330
1F
100
AcDbEntity
  8
LC-001-002-----0
  6
ByBlock
 62
     7
370
    50
100
AcDbLine
 10
348.501998
 20
461.496171
 30
0.0
 11
348.501998
 21
461.996171
 31
0.0
  0
LINE
  5
CB
102
{ACAD_REACTORS
330
5B0
102
}
330
1F
100
AcDbEntity
  8
LC-001-002-----0
  6
ByBlock
 62
     7
370
    50
100
AcDbLine
 10
350.001998
 20
461.496171
 30
0.0
 11
350.001998
 21
461.996171
 31
0.0
  0
LINE
  5
CC
102
{ACAD_REACTORS
330
5B0
102
}
330
1F
100
AcDbEntity
  8
LC-001-002-----0
  6
ByBlock
 62
     7
370
    50
100
AcDbLine
 10
355.501998
 20
461.496171
 30
0.0
 11
355.501998
 21
461.996171
 31
0.0
  0
LINE
  5
CD
102
{ACAD_REACTORS
330
5B0
102
}
330
1F
100
AcDbEntity
  8
LC-001-002-----0
  6
ByBlock
 62
     7
370
    50
100
AcDbLine
 10
354.001998
 20
461.496171
 30
0.0
 11
354.001998
 21
461.996171
 31
0.0
  0
LINE
  5
CE
102
{ACAD_REACTORS
330
5B0
102
}
330
1F
100
AcDbEntity
  8
LC-001-002-----0
  6
ByBlock
 62
     7
370
    50
100
AcDbLine
 10
361.501998
 20
461.496171
 30
0.0
 11
361.501998
 21
461.996171
 31
0.0
  0
LINE
  5
CF
102
{ACAD_REACTORS
330
5B0
102
}
330
1F
100
AcDbEntity
  8
LC-001-002-----0
  6
ByBlock
 62
     7
370
    50
100
AcDbLine
 10
363.001998
 20
461.496171
 30
0.0
 11
363.001998
 21
461.996171
 31
0.0
  0
LINE
  5
D0
102
{ACAD_REACTORS
330
5B0
102
}
330
1F
100
AcDbEntity
  8
LC-001-002-----0
  6
ByBlock
 62
     7
370
    50
100
AcDbLine
 10
368.501998
 20
461.496171
 30
0.0
 11
368.501998
 21
461.996171
 31
0.0
  0
LINE
  5
D1
102
{ACAD_REACTORS
330
5B0
102
}
330
1F
100
AcDbEntity
  8
LC-001-002-----0
  6
ByBlock
 62
     7
370
    50
100
AcDbLine
 10
367.001998
 20
461.496171
 30
0.0
 11
367.001998
 21
461.996171
 31
0.0
  0
LINE
  5
D2
102
{ACAD_REACTORS
330
5B0
102
}
330
1F
100
AcDbEntity
  8
LC-001-002-----0
  6
ByBlock
 62
     7
370
    50
100
AcDbLine
 10
376.001998
 20
461.496171
 30
0.0
 11
376.001998
 21
461.996171
 31
0.0
  0
LINE
  5
D3
102
{ACAD_REACTORS
330
5B0
102
}
330
1F
100
AcDbEntity
  8
LC-001-002-----0
  6
ByBlock
 62
     7
370
    50
100
AcDbLine
 10
374.501998
 20
461.496171
 30
0.0
 11
374.501998
 21
461.996171
 31
0.0
  0
LINE
  5
D4
102
{ACAD_REACTORS
330
5B0
102
}
330
1F
100
AcDbEntity
  8
LC-001-002-----0
  6
ByBlock
 62
     7
370
    50
100
AcDbLine
 10
341.001998
 20
461.496171
 30
0.0
 11
348.565507
 21
461.496171
 31
0.0
  0
LINE
  5
D5
102
{ACAD_REACTORS
330
5B0
102
}
330
1F
100
AcDbEntity
  8
LC-001-002-----0
  6
ByBlock
 62
     7
370
    50
100
AcDbLine
 10
348.501998
 20
461.496171
 30
0.0
 11
354.001998
 21
461.496171
 31
0.0
  0
LINE
  5
D6
102
{ACAD_REACTORS
330
5B0
102
}
330
1F
100
AcDbEntity
  8
LC-001-002-----0
  6
ByBlock
 62
     7
370
    50
100
AcDbLine
 10
354.001998
 20
461.496171
 30
0.0
 11
361.501998
 21
461.496171
 31
0.0
  0
LINE
  5
D7
102
{ACAD_REACTORS
330
5B0
102
}
330
1F
100
AcDbEntity
  8
LC-001-002-----0
  6
ByBlock
 62
     7
370
    50
100
AcDbLine
 10
361.501998
 20
461.496171
 30
0.0
 11
367.001998
 21
461.496171
 31
0.0
  0
LINE
  5
D8
102
{ACAD_REACTORS
330
5B0
102
}
330
1F
100
AcDbEntity
  8
LC-001-002-----0
  6
ByBlock
 62
     7
370
    50
100
AcDbLine
 10
367.001998
 20
461.496171
 30
0.0
 11
374.501998
 21
461.496171
 31
0.0
  0
LINE
  5
D9
102
{ACAD_REACTORS
330
5B0
102
}
330
1F
100
AcDbEntity
  8
LC-001-002-----0
  6
ByBlock
 62
     7
370
    50
100
AcDbLine
 10
374.501998
 20
461.496171
 30
0.0
 11
410.001998
 21
461.496171
 31
0.0
  0
LINE
  5
DA
102
{ACAD_REACTORS
330
5B0
102
}
330
1F
100
AcDbEntity
  8
LC-001-002-----0
  6
ByBlock
 62
     7
370
    50
100
AcDbLine
 10
350.501998
 20
462.496171
 30
0.0
 11
353.501998
 21
462.496171
 31
0.0
  0
LINE
  5
DB
102
{ACAD_REACTORS
330
5B0
102
}
330
1F
100
AcDbEntity
  8
LC-001-002-----0
  6
ByBlock
 62
     7
370
    50
100
AcDbLine
 10
363.501998
 20
462.496171
 30
0.0
 11
366.501998
 21
462.496171
 31
0.0
  0
LINE
  5
DC
102
{ACAD_REACTORS
330
5B0
102
}
330
1F
100
AcDbEntity
  8
LC-001-002-----0
  6
ByBlock
 62
     7
370
    50
100
AcDbLine
 10
376.501998
 20
462.496171
 30
0.0
 11
409.501998
 21
462.496171
 31
0.0
  0
LINE
  5
DD
102
{ACAD_REACTORS
330
5B0
102
}
330
1F
100
AcDbEntity
  8
LC-001-002-----0
  6
ByBlock
 62
     7
370
    50
100
AcDbLine
 10
378.671398
 20
463.796171
 30
0.0
 11
378.671398
 21
463.996171
 31
0.0
  0
ARC
  5
DE
102
{ACAD_REACTORS
330
5B0
102
}
330
1F
100
AcDbEntity
  8
LC-001-002-----0
  6
ByBlock
 62
     7
370
    50
100
AcDbCircle
 10
337.501998
 20
461.996171
 30
0.0
 40
2.0
100
AcDbArc
 50
90.0
 51
180.0
  0
ARC
  5
DF
102
{ACAD_REACTORS
330
5B0
102
}
330
1F
100
AcDbEntity
  8
LC-001-002-----0
  6
ByBlock
 62
     7
370
    50
100
AcDbCircle
 10
337.501998
 20
461.996171
 30
0.0
 40
0.5
100
AcDbArc
 50
90.0
 51
180.0
  0
ARC
  5
E0
102
{ACAD_REACTORS
330
5B0
102
}
330
1F
100
AcDbEntity
  8
LC-001-002-----0
  6
ByBlock
 62
     7
370
    50
100
AcDbCircle
 10
340.501998
 20
461.996171
 30
0.0
 40
0.5
100
AcDbArc
 50
0.0
 51
90.0
  0
ARC
  5
E1
102
{ACAD_REACTORS
330
5B0
102
}
330
1F
100
AcDbEntity
  8
LC-001-002-----0
  6
ByBlock
 62
     7
370
    50
100
AcDbCircle
 10
350.501998
 20
461.996171
 30
0.0
 40
0.5
100
AcDbArc
 50
90.0
 51
180.0
  0
ARC
  5
E2
102
{ACAD_REACTORS
330
5B0
102
}
330
1F
100
AcDbEntity
  8
LC-001-002-----0
  6
ByBlock
 62
     7
370
    50
100
AcDbCircle
 10
353.501998
 20
461.996171
 30
0.0
 40
0.5
100
AcDbArc
 50
0.0
 51
90.0
  0
ARC
  5
E3
102
{ACAD_REACTORS
330
5B0
102
}
330
1F
100
AcDbEntity
  8
LC-001-002-----0
  6
ByBlock
 62
     7
370
    50
100
AcDbCircle
 10
363.501998
 20
461.996171
 30
0.0
 40
0.5
100
AcDbArc
 50
90.0
 51
180.0
  0
ARC
  5
E4
102
{ACAD_REACTORS
330
5B0
102
}
330
1F
100
AcDbEntity
  8
LC-001-002-----0
  6
ByBlock
 62
     7
370
    50
100
AcDbCircle
 10
366.501998
 20
461.996171
 30
0.0
 40
0.5
100
AcDbArc
 50
0.0
 51
90.0
  0
ARC
  5
E5
102
{ACAD_REACTORS
330
5B0
102
}
330
1F
100
AcDbEntity
  8
LC-001-002-----0
  6
ByBlock
 62
     7
370
    50
100
AcDbCircle
 10
376.501998
 20
461.996171
 30
0.0
 40
0.5
100
AcDbArc
 50
90.0
 51
180.0
  0
LINE
  5
E6
102
{ACAD_REACTORS
330
5B0
102
}
330
1F
100
AcDbEntity
  8
LC-001-002-----0
  6
ByBlock
 62
     7
370
    50
100
AcDbLine
 10
350.501998
 20
463.996171
 30
0.0
 11
363.501998
 21
463.996171
 31
0.0
  0
LINE
  5
E7
102
{ACAD_REACTORS
330
5B0
102
}
330
1F
100
AcDbEntity
  8
LC-001-002-----0
  6
ByBlock
 62
     7
370
    50
100
AcDbLine
 10
363.501998
 20
463.996171
 30
0.0
 11
376.501998
 21
463.996171
 31
0.0
  0
LINE
  5
E8
102
{ACAD_REACTORS
330
5B0
102
}
330
1F
100
AcDbEntity
  8
LC-001-002-----0
  6
ByBlock
 62
     7
370
    50
100
AcDbLine
 10
407.021398
 20
463.796171
 30
0.0
 11
407.021398
 21
463.996171
 31
0.0
  0
ARC
  5
E9
102
{ACAD_REACTORS
330
5B0
102
}
330
1F
100
AcDbEntity
  8
LC-001-002-----0
  6
ByBlock
 62
     7
370
    50
100
AcDbCircle
 10
340.501998
 20
461.996171
 30
0.0
 40
2.0
100
AcDbArc
 50
0.0
 51
90.0
  0
ARC
  5
EA
102
{ACAD_REACTORS
330
5B0
102
}
330
1F
100
AcDbEntity
  8
LC-001-002-----0
  6
ByBlock
 62
     7
370
    50
100
AcDbCircle
 10
350.501998
 20
461.996171
 30
0.0
 40
2.0
100
AcDbArc
 50
90.0
 51
180.0
  0
ARC
  5
EB
102
{ACAD_REACTORS
330
5B0
102
}
330
1F
100
AcDbEntity
  8
LC-001-002-----0
  6
ByBlock
 62
     7
370
    50
100
AcDbCircle
 10
353.501998
 20
461.996171
 30
0.0
 40
2.0
100
AcDbArc
 50
0.0
 51
90.0
  0
ARC
  5
EC
102
{ACAD_REACTORS
330
5B0
102
}
330
1F
100
AcDbEntity
  8
LC-001-002-----0
  6
ByBlock
 62
     7
370
    50
100
AcDbCircle
 10
363.501998
 20
461.996171
 30
0.0
 40
2.0
100
AcDbArc
 50
90.0
 51
180.0
  0
ARC
  5
ED
102
{ACAD_REACTORS
330
5B0
102
}
330
1F
100
AcDbEntity
  8
LC-001-002-----0
  6
ByBlock
 62
     7
370
    50
100
AcDbCircle
 10
366.501998
 20
461.996171
 30
0.0
 40
2.0
100
AcDbArc
 50
0.0
 51
90.0
  0
ARC
  5
EE
102
{ACAD_REACTORS
330
5B0
102
}
330
1F
100
AcDbEntity
  8
LC-001-002-----0
  6
ByBlock
 62
     7
370
    50
100
AcDbCircle
 10
376.501998
 20
461.996171
 30
0.0
 40
2.0
100
AcDbArc
 50
90.0
 51
180.0
  0
LINE
  5
EF
102
{ACAD_REACTORS
330
5B0
102
}
330
1F
100
AcDbEntity
  8
LC-001-002-----0
  6
ByBlock
 62
     7
370
    50
100
AcDbLine
 10
448.501998
 20
463.996171
 30
0.0
 11
445.501998
 21
463.996171
 31
0.0
  0
LINE
  5
F0
102
{ACAD_REACTORS
330
5B0
102
}
330
1F
100
AcDbEntity
  8
LC-001-002-----0
  6
ByBlock
 62
     7
370
    50
100
AcDbLine
 10
448.501998
 20
462.496171
 30
0.0
 11
445.501998
 21
462.496171
 31
0.0
  0
LINE
  5
F1
102
{ACAD_REACTORS
330
5B0
102
}
330
1F
100
AcDbEntity
  8
LC-001-002-----0
  6
ByBlock
 62
     7
370
    50
100
AcDbLine
 10
443.501998
 20
461.496171
 30
0.0
 11
443.501998
 21
461.996171
 31
0.0
  0
LINE
  5
F2
102
{ACAD_REACTORS
330
5B0
102
}
330
1F
100
AcDbEntity
  8
LC-001-002-----0
  6
ByBlock
 62
     7
370
    50
100
AcDbLine
 10
445.001998
 20
461.496171
 30
0.0
 11
445.001998
 21
461.996171
 31
0.0
  0
LINE
  5
F3
102
{ACAD_REACTORS
330
5B0
102
}
330
1F
100
AcDbEntity
  8
LC-001-002-----0
  6
ByBlock
 62
     7
370
    50
100
AcDbLine
 10
437.501998
 20
461.496171
 30
0.0
 11
437.501998
 21
461.996171
 31
0.0
  0
LINE
  5
F4
102
{ACAD_REACTORS
330
5B0
102
}
330
1F
100
AcDbEntity
  8
LC-001-002-----0
  6
ByBlock
 62
     7
370
    50
100
AcDbLine
 10
436.001998
 20
461.496171
 30
0.0
 11
436.001998
 21
461.996171
 31
0.0
  0
LINE
  5
F5
102
{ACAD_REACTORS
330
5B0
102
}
330
1F
100
AcDbEntity
  8
LC-001-002-----0
  6
ByBlock
 62
     7
370
    50
100
AcDbLine
 10
430.501998
 20
461.496171
 30
0.0
 11
430.501998
 21
461.996171
 31
0.0
  0
LINE
  5
F6
102
{ACAD_REACTORS
330
5B0
102
}
330
1F
100
AcDbEntity
  8
LC-001-002-----0
  6
ByBlock
 62
     7
370
    50
100
AcDbLine
 10
432.001998
 20
461.496171
 30
0.0
 11
432.001998
 21
461.996171
 31
0.0
  0
LINE
  5
F7
102
{ACAD_REACTORS
330
5B0
102
}
330
1F
100
AcDbEntity
  8
LC-001-002-----0
  6
ByBlock
 62
     7
370
    50
100
AcDbLine
 10
424.501998
 20
461.496171
 30
0.0
 11
424.501998
 21
461.996171
 31
0.0
  0
LINE
  5
F8
102
{ACAD_REACTORS
330
5B0
102
}
330
1F
100
AcDbEntity
  8
LC-001-002-----0
  6
ByBlock
 62
     7
370
    50
100
AcDbLine
 10
423.001998
 20
461.496171
 30
0.0
 11
423.001998
 21
461.996171
 31
0.0
  0
LINE
  5
F9
102
{ACAD_REACTORS
330
5B0
102
}
330
1F
100
AcDbEntity
  8
LC-001-002-----0
  6
ByBlock
 62
     7
370
    50
100
AcDbLine
 10
417.501998
 20
461.496171
 30
0.0
 11
417.501998
 21
461.996171
 31
0.0
  0
LINE
  5
FA
102
{ACAD_REACTORS
330
5B0
102
}
330
1F
100
AcDbEntity
  8
LC-001-002-----0
  6
ByBlock
 62
     7
370
    50
100
AcDbLine
 10
419.001998
 20
461.496171
 30
0.0
 11
419.001998
 21
461.996171
 31
0.0
  0
LINE
  5
FB
102
{ACAD_REACTORS
330
5B0
102
}
330
1F
100
AcDbEntity
  8
LC-001-002-----0
  6
ByBlock
 62
     7
370
    50
100
AcDbLine
 10
410.001998
 20
461.496171
 30
0.0
 11
410.001998
 21
461.996171
 31
0.0
  0
LINE
  5
FC
102
{ACAD_REACTORS
330
5B0
102
}
330
1F
100
AcDbEntity
  8
LC-001-002-----0
  6
ByBlock
 62
     7
370
    50
100
AcDbLine
 10
411.501998
 20
461.496171
 30
0.0
 11
411.501998
 21
461.996171
 31
0.0
  0
LINE
  5
FD
102
{ACAD_REACTORS
330
5B0
102
}
330
1F
100
AcDbEntity
  8
LC-001-002-----0
  6
ByBlock
 62
     7
370
    50
100
AcDbLine
 10
445.001998
 20
461.496171
 30
0.0
 11
443.501998
 21
461.496171
 31
0.0
  0
LINE
  5
FE
102
{ACAD_REACTORS
330
5B0
102
}
330
1F
100
AcDbEntity
  8
LC-001-002-----0
  6
ByBlock
 62
     7
370
    50
100
AcDbLine
 10
443.501998
 20
461.496171
 30
0.0
 11
436.001998
 21
461.496171
 31
0.0
  0
LINE
  5
FF
102
{ACAD_REACTORS
330
5B0
102
}
330
1F
100
AcDbEntity
  8
LC-001-002-----0
  6
ByBlock
 62
     7
370
    50
100
AcDbLine
 10
436.001998
 20
461.496171
 30
0.0
 11
430.501998
 21
461.496171
 31
0.0
  0
LINE
  5
100
102
{ACAD_REACTORS
330
5B0
102
}
330
1F
100
AcDbEntity
  8
LC-001-002-----0
  6
ByBlock
 62
     7
370
    50
100
AcDbLine
 10
430.501998
 20
461.496171
 30
0.0
 11
423.001998
 21
461.496171
 31
0.0
  0
LINE
  5
101
102
{ACAD_REACTORS
330
5B0
102
}
330
1F
100
AcDbEntity
  8
LC-001-002-----0
  6
ByBlock
 62
     7
370
    50
100
AcDbLine
 10
423.001998
 20
461.496171
 30
0.0
 11
417.501998
 21
461.496171
 31
0.0
  0
LINE
  5
102
102
{ACAD_REACTORS
330
5B0
102
}
330
1F
100
AcDbEntity
  8
LC-001-002-----0
  6
ByBlock
 62
     7
370
    50
100
AcDbLine
 10
417.501998
 20
461.496171
 30
0.0
 11
410.001998
 21
461.496171
 31
0.0
  0
LINE
  5
103
102
{ACAD_REACTORS
330
5B0
102
}
330
1F
100
AcDbEntity
  8
LC-001-002-----0
  6
ByBlock
 62
     7
370
    50
100
AcDbLine
 10
435.501998
 20
462.496171
 30
0.0
 11
432.501998
 21
462.496171
 31
0.0
  0
LINE
  5
104
102
{ACAD_REACTORS
330
5B0
102
}
330
1F
100
AcDbEntity
  8
LC-001-002-----0
  6
ByBlock
 62
     7
370
    50
100
AcDbLine
 10
422.501998
 20
462.496171
 30
0.0
 11
419.501998
 21
462.496171
 31
0.0
  0
ARC
  5
105
102
{ACAD_REACTORS
330
5B0
102
}
330
1F
100
AcDbEntity
  8
LC-001-002-----0
  6
ByBlock
 62
     7
370
    50
100
AcDbCircle
 10
448.501998
 20
461.996171
 30
0.0
 40
2.0
100
AcDbArc
 50
0.0
 51
90.0
  0
ARC
  5
106
102
{ACAD_REACTORS
330
5B0
102
}
330
1F
100
AcDbEntity
  8
LC-001-002-----0
  6
ByBlock
 62
     7
370
    50
100
AcDbCircle
 10
448.501998
 20
461.996171
 30
0.0
 40
0.5
100
AcDbArc
 50
0.0
 51
90.0
  0
ARC
  5
107
102
{ACAD_REACTORS
330
5B0
102
}
330
1F
100
AcDbEntity
  8
LC-001-002-----0
  6
ByBlock
 62
     7
370
    50
100
AcDbCircle
 10
445.501998
 20
461.996171
 30
0.0
 40
0.5
100
AcDbArc
 50
90.0
 51
180.0
  0
ARC
  5
108
102
{ACAD_REACTORS
330
5B0
102
}
330
1F
100
AcDbEntity
  8
LC-001-002-----0
  6
ByBlock
 62
     7
370
    50
100
AcDbCircle
 10
435.501998
 20
461.996171
 30
0.0
 40
0.5
100
AcDbArc
 50
0.0
 51
90.0
  0
ARC
  5
109
102
{ACAD_REACTORS
330
5B0
102
}
330
1F
100
AcDbEntity
  8
LC-001-002-----0
  6
ByBlock
 62
     7
370
    50
100
AcDbCircle
 10
432.501998
 20
461.996171
 30
0.0
 40
0.5
100
AcDbArc
 50
90.0
 51
180.0
  0
ARC
  5
10A
102
{ACAD_REACTORS
330
5B0
102
}
330
1F
100
AcDbEntity
  8
LC-001-002-----0
  6
ByBlock
 62
     7
370
    50
100
AcDbCircle
 10
422.501998
 20
461.996171
 30
0.0
 40
0.5
100
AcDbArc
 50
0.0
 51
90.0
  0
ARC
  5
10B
102
{ACAD_REACTORS
330
5B0
102
}
330
1F
100
AcDbEntity
  8
LC-001-002-----0
  6
ByBlock
 62
     7
370
    50
100
AcDbCircle
 10
419.501998
 20
461.996171
 30
0.0
 40
0.5
100
AcDbArc
 50
90.0
 51
180.0
  0
ARC
  5
10C
102
{ACAD_REACTORS
330
5B0
102
}
330
1F
100
AcDbEntity
  8
LC-001-002-----0
  6
ByBlock
 62
     7
370
    50
100
AcDbCircle
 10
409.501998
 20
461.996171
 30
0.0
 40
0.5
100
AcDbArc
 50
0.0
 51
90.0
  0
LINE
  5
10D
102
{ACAD_REACTORS
330
5B0
102
}
330
1F
100
AcDbEntity
  8
LC-001-002-----0
  6
ByBlock
 62
     7
370
    50
100
AcDbLine
 10
445.501998
 20
463.996171
 30
0.0
 11
432.501998
 21
463.996171
 31
0.0
  0
LINE
  5
10E
102
{ACAD_REACTORS
330
5B0
102
}
330
1F
100
AcDbEntity
  8
LC-001-002-----0
  6
ByBlock
 62
     7
370
    50
100
AcDbLine
 10
432.501998
 20
463.996171
 30
0.0
 11
419.501998
 21
463.996171
 31
0.0
  0
ARC
  5
10F
102
{ACAD_REACTORS
330
5B0
102
}
330
1F
100
AcDbEntity
  8
LC-001-002-----0
  6
ByBlock
 62
     7
370
    50
100
AcDbCircle
 10
445.501998
 20
461.996171
 30
0.0
 40
2.0
100
AcDbArc
 50
90.0
 51
180.0
  0
ARC
  5
110
102
{ACAD_REACTORS
330
5B0
102
}
330
1F
100
AcDbEntity
  8
LC-001-002-----0
  6
ByBlock
 62
     7
370
    50
100
AcDbCircle
 10
435.501998
 20
461.996171
 30
0.0
 40
2.0
100
AcDbArc
 50
0.0
 51
90.0
  0
ARC
  5
111
102
{ACAD_REACTORS
330
5B0
102
}
330
1F
100
AcDbEntity
  8
LC-001-002-----0
  6
ByBlock
 62
     7
370
    50
100
AcDbCircle
 10
432.501998
 20
461.996171
 30
0.0
 40
2.0
100
AcDbArc
 50
90.0
 51
180.0
  0
ARC
  5
112
102
{ACAD_REACTORS
330
5B0
102
}
330
1F
100
AcDbEntity
  8
LC-001-002-----0
  6
ByBlock
 62
     7
370
    50
100
AcDbCircle
 10
422.501998
 20
461.996171
 30
0.0
 40
2.0
100
AcDbArc
 50
0.0
 51
90.0
  0
ARC
  5
113
102
{ACAD_REACTORS
330
5B0
102
}
330
1F
100
AcDbEntity
  8
LC-001-002-----0
  6
ByBlock
 62
     7
370
    50
100
AcDbCircle
 10
419.501998
 20
461.996171
 30
0.0
 40
2.0
100
AcDbArc
 50
90.0
 51
180.0
  0
ARC
  5
114
102
{ACAD_REACTORS
330
5B0
102
}
330
1F
100
AcDbEntity
  8
LC-001-002-----0
  6
ByBlock
 62
     7
370
    50
100
AcDbCircle
 10
409.501998
 20
461.996171
 30
0.0
 40
2.0
100
AcDbArc
 50
0.0
 51
90.0
  0
LINE
  5
115
102
{ACAD_REACTORS
330
5B0
102
}
330
1F
100
AcDbEntity
  8
LC-001-002-----0
  6
ByBlock
 62
     7
370
    50
100
AcDbLine
 10
407.021398
 20
463.796171
 30
0.0
 11
378.671398
 21
463.796171
 31
0.0
  0
LINE
  5
116
102
{ACAD_REACTORS
330
5B0
102
}
330
1F
100
AcDbEntity
  8
LC-001-002-----0
  6
ByBlock
 62
     7
370
    50
100
AcDbLine
 10
376.501998
 20
463.996171
 30
0.0
 11
407.021398
 21
463.996171
 31
0.0
  0
LINE
  5
117
102
{ACAD_REACTORS
330
5B0
102
}
330
1F
100
AcDbEntity
  8
LC-001-002-----0
  6
ByBlock
 62
     7
370
    50
100
AcDbLine
 10
411.501998
 20
461.496171
 30
0.0
 11
410.001998
 21
461.496171
 31
0.0
  0
LINE
  5
118
102
{ACAD_REACTORS
330
5B0
102
}
330
1F
100
AcDbEntity
  8
LC-001-002-----0
  6
ByBlock
 62
     7
370
    50
100
AcDbLine
 10
419.501998
 20
463.996171
 30
0.0
 11
407.021398
 21
463.996171
 31
0.0
  0
INSERT
  5
140
102
{ACAD_REACTORS
330
5B0
102
}
330
1F
100
AcDbEntity
  8
LC-003-005-----0
 62
     7
370
    25
100
AcDbBlockReference
  2
*X13
 10
0.0
 20
0.0
 30
0.0
  0
ARC
  5
142
102
{ACAD_REACTORS
330
5B4
102
}
330
1F
100
AcDbEntity
  8
LC-004-002-RND-0
 62
     7
370
    50
100
AcDbCircle
 10
448.501998
 20
457.297904
 30
0.0
 40
0.5000000000000866
100
AcDbArc
 50
112.0
 51
180.0
  0
ARC
  5
143
102
{ACAD_REACTORS
330
5B4
102
}
330
1F
100
AcDbEntity
  8
LC-004-002-RND-0
 62
     7
370
    50
100
AcDbCircle
 10
448.501998
 20
457.297904
 30
0.0
 40
1.200000000000123
100
AcDbArc
 50
112.0
 51
180.0
  0
LINE
  5
144
102
{ACAD_REACTORS
330
5B4
102
}
330
1F
100
AcDbEntity
  8
LC-001-002-----0
  6
ByBlock
 62
     7
370
    50
100
AcDbLine
 10
337.689302
 20
457.761495
 30
0.0
 11
336.365932
 21
458.296171
 31
0.0
  0
LINE
  5
145
102
{ACAD_REACTORS
330
5B4
102
}
330
1F
100
AcDbEntity
  8
LC-001-002-----0
  6
ByBlock
 62
     7
370
    50
100
AcDbLine
 10
337.951526
 20
458.410524
 30
0.0
 11
336.501998
 21
458.996171
 31
0.0
  0
ARC
  5
146
102
{ACAD_REACTORS
330
5B4
102
}
330
1F
100
AcDbEntity
  8
LC-004-002-RND-0
 62
     7
370
    50
100
AcDbCircle
 10
337.501998
 20
457.297904
 30
0.0
 40
1.200000000000046
100
AcDbArc
 50
0.0
 51
68.0
  0
ARC
  5
147
102
{ACAD_REACTORS
330
5B4
102
}
330
1F
100
AcDbEntity
  8
LC-004-002-RND-0
 62
     7
370
    50
100
AcDbCircle
 10
337.501998
 20
457.297904
 30
0.0
 40
0.5
100
AcDbArc
 50
0.0
 51
68.0
  0
INSERT
  5
156
102
{ACAD_REACTORS
330
5B4
102
}
330
1F
100
AcDbEntity
  8
LC-003-005-----0
 62
     7
370
    25
100
AcDbBlockReference
  2
*X24
 10
0.0
 20
0.0
 30
0.0
  0
LINE
  5
157
102
{ACAD_REACTORS
330
5B6
102
}
330
1F
100
AcDbEntity
  8
LC-001-002-----0
  6
ByBlock
 62
     7
370
    50
100
AcDbLine
 10
445.501998
 20
449.701785
 30
0.0
 11
445.501998
 21
345.051785
 31
0.0
  0
LINE
  5
158
102
{ACAD_REACTORS
330
5B6
102
}
330
1F
100
AcDbEntity
  8
LC-001-002-----0
  6
ByBlock
 62
     7
370
    50
100
AcDbLine
 10
339.001998
 20
345.051785
 30
0.0
 11
338.001998
 21
346.051785
 31
0.0
  0
INSERT
  5
183
102
{ACAD_REACTORS
330
5B6
102
}
330
1F
100
AcDbEntity
  8
LC-003-005-----0
 62
     7
370
    25
100
AcDbBlockReference
  2
*X35
 10
0.0
 20
0.0
 30
0.0
  0
LINE
  5
184
102
{ACAD_REACTORS
330
5B6
102
}
330
1F
100
AcDbEntity
  8
LC-001-002-----0
  6
ByBlock
 62
     7
370
    50
100
AcDbLine
 10
446.751998
 20
453.551785
 30
0.0
 11
446.751998
 21
455.051785
 31
0.0
  0
LINE
  5
185
102
{ACAD_REACTORS
330
5B6
102
}
330
1F
100
AcDbEntity
  8
LC-001-002-----0
  6
ByBlock
 62
     7
370
    50
100
AcDbLine
 10
447.001998
 20
345.051785
 30
0.0
 11
448.001998
 21
346.051785
 31
0.0
  0
INSERT
  5
1B0
102
{ACAD_REACTORS
330
5B6
102
}
330
1F
100
AcDbEntity
  8
LC-003-005-----0
 62
     7
370
    25
100
AcDbBlockReference
  2
*X46
 10
0.0
 20
0.0
 30
0.0
  0
LINE
  5
1B1
102
{ACAD_REACTORS
330
5B6
102
}
330
1F
100
AcDbEntity
  8
LC-001-002-----0
  6
ByBlock
 62
     7
370
    50
100
AcDbLine
 10
340.501998
 20
449.701785
 30
0.0
 11
340.501998
 21
345.051785
 31
0.0
  0
LINE
  5
1B2
102
{ACAD_REACTORS
330
5B6
102
}
330
1F
100
AcDbEntity
  8
LC-001-002-----0
  6
ByBlock
 62
     7
370
    50
100
AcDbLine
 10
446.251998
 20
453.051785
 30
0.0
 11
446.751998
 21
453.551785
 31
0.0
  0
LINE
  5
1B3
102
{ACAD_REACTORS
330
5B6
102
}
330
1F
100
AcDbEntity
  8
LC-001-002-----0
  6
ByBlock
 62
     7
370
    50
100
AcDbLine
 10
339.251998
 20
453.551785
 30
0.0
 11
339.251998
 21
455.051785
 31
0.0
  0
LINE
  5
1B4
102
{ACAD_REACTORS
330
5B6
102
}
330
1F
100
AcDbEntity
  8
LC-001-002-----0
  6
ByBlock
 62
     7
370
    50
100
AcDbLine
 10
445.151998
 20
453.051785
 30
0.0
 11
446.251998
 21
453.051785
 31
0.0
  0
LINE
  5
1B5
102
{ACAD_REACTORS
330
5B6
102
}
330
1F
100
AcDbEntity
  8
LC-001-002-----0
  6
ByBlock
 62
     7
370
    50
100
AcDbLine
 10
339.751998
 20
453.051785
 30
0.0
 11
339.251998
 21
453.551785
 31
0.0
  0
LINE
  5
1B6
102
{ACAD_REACTORS
330
5B6
102
}
330
1F
100
AcDbEntity
  8
LC-001-002-----0
  6
ByBlock
 62
     7
370
    50
100
AcDbLine
 10
339.001998
 20
345.051785
 30
0.0
 11
340.501998
 21
345.051785
 31
0.0
  0
LINE
  5
1B7
102
{ACAD_REACTORS
330
5B6
102
}
330
1F
100
AcDbEntity
  8
LC-001-002-----0
  6
ByBlock
 62
     7
370
    50
100
AcDbLine
 10
338.001998
 20
455.051785
 30
0.0
 11
338.001998
 21
346.051785
 31
0.0
  0
LINE
  5
1B8
102
{ACAD_REACTORS
330
5B6
102
}
330
1F
100
AcDbEntity
  8
LC-001-002-----0
  6
ByBlock
 62
     7
370
    50
100
AcDbLine
 10
444.651998
 20
452.551785
 30
0.0
 11
445.151998
 21
453.051785
 31
0.0
  0
LINE
  5
1B9
102
{ACAD_REACTORS
330
5B6
102
}
330
1F
100
AcDbEntity
  8
LC-001-002-----0
  6
ByBlock
 62
     7
370
    50
100
AcDbLine
 10
444.651998
 20
452.551785
 30
0.0
 11
444.651998
 21
450.551785
 31
0.0
  0
LINE
  5
1BA
102
{ACAD_REACTORS
330
5B6
102
}
330
1F
100
AcDbEntity
  8
LC-001-002-----0
  6
ByBlock
 62
     7
370
    50
100
AcDbLine
 10
445.501998
 20
449.701785
 30
0.0
 11
444.651998
 21
450.551785
 31
0.0
  0
LINE
  5
1BB
102
{ACAD_REACTORS
330
5B6
102
}
330
1F
100
AcDbEntity
  8
LC-001-002-----0
  6
ByBlock
 62
     7
370
    50
100
AcDbLine
 10
340.851998
 20
453.051785
 30
0.0
 11
339.751998
 21
453.051785
 31
0.0
  0
LINE
  5
1BC
102
{ACAD_REACTORS
330
5B6
102
}
330
1F
100
AcDbEntity
  8
LC-001-002-----0
  6
ByBlock
 62
     7
370
    50
100
AcDbLine
 10
447.001998
 20
345.051785
 30
0.0
 11
445.501998
 21
345.051785
 31
0.0
  0
LINE
  5
1BD
102
{ACAD_REACTORS
330
5B6
102
}
330
1F
100
AcDbEntity
  8
LC-001-002-----0
  6
ByBlock
 62
     7
370
    50
100
AcDbLine
 10
448.001998
 20
455.051785
 30
0.0
 11
448.001998
 21
346.051785
 31
0.0
  0
LINE
  5
1BE
102
{ACAD_REACTORS
330
5B6
102
}
330
1F
100
AcDbEntity
  8
LC-001-002-----0
  6
ByBlock
 62
     7
370
    50
100
AcDbLine
 10
341.351998
 20
452.551785
 30
0.0
 11
340.851998
 21
453.051785
 31
0.0
  0
LINE
  5
1BF
102
{ACAD_REACTORS
330
5B6
102
}
330
1F
100
AcDbEntity
  8
LC-001-002-----0
  6
ByBlock
 62
     7
370
    50
100
AcDbLine
 10
341.351998
 20
452.551785
 30
0.0
 11
341.351998
 21
450.551785
 31
0.0
  0
LINE
  5
1C0
102
{ACAD_REACTORS
330
5B6
102
}
330
1F
100
AcDbEntity
  8
LC-001-002-----0
  6
ByBlock
 62
     7
370
    50
100
AcDbLine
 10
340.501998
 20
449.701785
 30
0.0
 11
341.351998
 21
450.551785
 31
0.0
  0
LINE
  5
1C1
102
{ACAD_REACTORS
330
5B6
102
}
330
1F
100
AcDbEntity
  8
LC-001-002-----0
  6
ByBlock
 62
     7
370
    50
100
AcDbLine
 10
338.001998
 20
455.051785
 30
0.0
 11
341.101998
 21
455.051785
 31
0.0
  0
LINE
  5
1C2
330
1F
100
AcDbEntity
  8
LC-001-002-----0
 62
     7
370
    25
100
AcDbLine
 10
393.001998
 20
357.052476
 30
0.0
 11
393.001998
 21
465.496862
 31
0.0
  0
LINE
  5
1C3
102
{ACAD_REACTORS
330
5B4
102
}
330
1F
100
AcDbEntity
  8
LC-001-002-----0
  6
ByBlock
 62
     7
370
    50
100
AcDbLine
 10
451.701998
 20
464.496171
 30
0.0
 11
393.001998
 21
464.496171
 31
0.0
  0
LINE
  5
1C4
102
{ACAD_REACTORS
330
5B4
102
}
330
1F
100
AcDbEntity
  8
LC-001-002-----0
  6
ByBlock
 62
     7
370
    50
100
AcDbLine
 10
450.501998
 20
458.296171
 30
0.0
 11
449.638065
 21
458.296171
 31
0.0
  0
LINE
  5
1C5
102
{ACAD_REACTORS
330
5B4
102
}
330
1F
100
AcDbEntity
  8
LC-001-002-----0
  6
ByBlock
 62
     7
370
    50
100
AcDbLine
 10
444.065718
 20
449.528996
 30
0.0
 11
443.701998
 21
449.528996
 31
0.0
  0
ARC
  5
1C6
102
{ACAD_REACTORS
330
5B4
102
}
330
1F
100
AcDbEntity
  8
LC-004-002-RND-0
 62
     7
370
    50
100
AcDbCircle
 10
450.501998
 20
459.496171
 30
0.0
 40
1.200000000000046
100
AcDbArc
 50
270.0
 51
0.0
  0
LINE
  5
1C7
102
{ACAD_REACTORS
330
5B4
102
}
330
1F
100
AcDbEntity
  8
LC-001-002-----0
  6
ByBlock
 62
     7
370
    50
100
AcDbLine
 10
450.501998
 20
458.996171
 30
0.0
 11
449.501998
 21
458.996171
 31
0.0
  0
ARC
  5
1C8
102
{ACAD_REACTORS
330
5B4
102
}
330
1F
100
AcDbEntity
  8
LC-004-002-RND-0
 62
     7
370
    50
100
AcDbCircle
 10
450.501998
 20
459.496171
 30
0.0
 40
0.5
100
AcDbArc
 50
270.0
 51
0.0
  0
LINE
  5
1C9
102
{ACAD_REACTORS
330
5B4
102
}
330
1F
100
AcDbEntity
  8
LC-001-002-----0
  6
ByBlock
 62
     7
370
    50
100
AcDbLine
 10
335.501998
 20
458.296171
 30
0.0
 11
336.365932
 21
458.296171
 31
0.0
  0
ARC
  5
1CA
102
{ACAD_REACTORS
330
5B4
102
}
330
1F
100
AcDbEntity
  8
LC-004-002-RND-0
 62
     7
370
    50
100
AcDbCircle
 10
335.501998
 20
459.496171
 30
0.0
 40
1.200000000000046
100
AcDbArc
 50
180.0
 51
270.0
  0
ARC
  5
1CB
102
{ACAD_REACTORS
330
5B4
102
}
330
1F
100
AcDbEntity
  8
LC-004-002-RND-0
 62
     7
370
    50
100
AcDbCircle
 10
335.501998
 20
459.496171
 30
0.0
 40
0.5
100
AcDbArc
 50
180.0
 51
270.0
  0
ARC
  5
1CC
102
{ACAD_REACTORS
330
5B4
102
}
330
1F
100
AcDbEntity
  8
LC-001-002-----0
  6
ByBlock
 62
     7
370
    50
100
AcDbCircle
 10
334.301998
 20
463.796171
 30
0.0
 40
0.6999999999998181
100
AcDbArc
 50
360.0
 51
180.0
  0
ARC
  5
1CD
102
{ACAD_REACTORS
330
5B4
102
}
330
1F
100
AcDbEntity
  8
LC-004-002-RND-0
 62
     7
370
    50
100
AcDbCircle
 10
339.201998
 20
456.251785
 30
0.0
 40
0.5
100
AcDbArc
 50
180.0
 51
270.0
  0
LINE
  5
1CE
102
{ACAD_REACTORS
330
5B4
102
}
330
1F
100
AcDbEntity
  8
LC-001-002-----0
  6
ByBlock
 62
     7
370
    50
100
AcDbLine
 10
334.301998
 20
461.996171
 30
0.0
 11
333.601998
 21
461.996171
 31
0.0
  0
LINE
  5
1CF
102
{ACAD_REACTORS
330
5B4
102
}
330
1F
100
AcDbEntity
  8
LC-001-002-----0
  6
ByBlock
 62
     7
370
    50
100
AcDbLine
 10
334.301998
 20
459.496171
 30
0.0
 11
334.301998
 21
463.301434
 31
0.0
  0
LINE
  5
1D0
102
{ACAD_REACTORS
330
5B4
102
}
330
1F
100
AcDbEntity
  8
LC-001-002-----0
  6
ByBlock
 62
     7
370
    50
100
AcDbLine
 10
335.001998
 20
459.496171
 30
0.0
 11
335.001998
 21
463.796171
 31
0.0
  0
LINE
  5
1D1
102
{ACAD_REACTORS
330
5B4
102
}
330
1F
100
AcDbEntity
  8
LC-001-002-----0
  6
ByBlock
 62
     7
370
    50
100
AcDbLine
 10
333.601998
 20
461.996171
 30
0.0
 11
333.601998
 21
463.796171
 31
0.0
  0
ARC
  5
1D2
102
{ACAD_REACTORS
330
5B4
102
}
330
1F
100
AcDbEntity
  8
LC-004-002-RND-0
 62
     7
370
    50
100
AcDbCircle
 10
339.201998
 20
456.251785
 30
0.0
 40
1.200000000000046
100
AcDbArc
 50
180.0
 51
270.0
  0
ARC
  5
1D3
102
{ACAD_REACTORS
330
5B4
102
}
330
1F
100
AcDbEntity
  8
LC-004-002-RND-0
 62
     7
370
    50
100
AcDbCircle
 10
341.101998
 20
454.551785
 30
0.0
 40
1.199999999999818
100
AcDbArc
 50
0.0
 51
90.0
  0
LINE
  5
1D4
102
{ACAD_REACTORS
330
5B4
102
}
330
1F
100
AcDbEntity
  8
LC-001-002-----0
  6
ByBlock
 62
     7
370
    50
100
AcDbLine
 10
341.101998
 20
455.051785
 30
0.0
 11
339.201998
 21
455.051785
 31
0.0
  0
LINE
  5
1D5
102
{ACAD_REACTORS
330
5B4
102
}
330
1F
100
AcDbEntity
  8
LC-001-002-----0
  6
ByBlock
 62
     7
370
    50
100
AcDbLine
 10
338.701998
 20
457.297904
 30
0.0
 11
338.701998
 21
456.251785
 31
0.0
  0
ARC
  5
1D6
102
{ACAD_REACTORS
330
5B4
102
}
330
1F
100
AcDbEntity
  8
LC-001-002-----0
  6
ByBlock
 62
     7
370
    50
100
AcDbCircle
 10
451.701998
 20
463.796171
 30
0.0
 40
0.7000000000002729
100
AcDbArc
 50
0.0
 51
180.0
  0
LINE
  5
1D7
102
{ACAD_REACTORS
330
5B4
102
}
330
1F
100
AcDbEntity
  8
LC-001-002-----0
  6
ByBlock
 62
     7
370
    50
100
AcDbLine
 10
338.001998
 20
457.297904
 30
0.0
 11
338.001998
 21
456.251785
 31
0.0
  0
ARC
  5
1D8
102
{ACAD_REACTORS
330
5B4
102
}
330
1F
100
AcDbEntity
  8
LC-004-002-RND-0
 62
     7
370
    50
100
AcDbCircle
 10
446.801998
 20
456.251785
 30
0.0
 40
0.5
100
AcDbArc
 50
270.0
 51
0.0
  0
LINE
  5
1D9
102
{ACAD_REACTORS
330
5B4
102
}
330
1F
100
AcDbEntity
  8
LC-001-002-----0
  6
ByBlock
 62
     7
370
    50
100
AcDbLine
 10
451.701998
 20
461.996171
 30
0.0
 11
452.401998
 21
461.996171
 31
0.0
  0
ARC
  5
1DA
102
{ACAD_REACTORS
330
5B4
102
}
330
1F
100
AcDbEntity
  8
LC-004-002-RND-0
 62
     7
370
    50
100
AcDbCircle
 10
341.101998
 20
454.551785
 30
0.0
 40
0.5
100
AcDbArc
 50
0.0
 51
90.0
  0
LINE
  5
1DB
102
{ACAD_REACTORS
330
5B4
102
}
330
1F
100
AcDbEntity
  8
LC-001-002-----0
  6
ByBlock
 62
     7
370
    50
100
AcDbLine
 10
342.301998
 20
449.528996
 30
0.0
 11
342.301998
 21
454.551785
 31
0.0
  0
LINE
  5
1DC
102
{ACAD_REACTORS
330
5B4
102
}
330
1F
100
AcDbEntity
  8
LC-001-002-----0
  6
ByBlock
 62
     7
370
    50
100
AcDbLine
 10
341.601998
 20
450.229351
 30
0.0
 11
341.601998
 21
454.551785
 31
0.0
  0
LINE
  5
1DD
102
{ACAD_REACTORS
330
5B4
102
}
330
1F
100
AcDbEntity
  8
LC-001-002-----0
  6
ByBlock
 62
     7
370
    50
100
AcDbLine
 10
341.938278
 20
449.528996
 30
0.0
 11
342.301998
 21
449.528996
 31
0.0
  0
LINE
  5
1DE
102
{ACAD_REACTORS
330
5B4
102
}
330
1F
100
AcDbEntity
  8
LC-001-002-----0
  6
ByBlock
 62
     7
370
    50
100
AcDbLine
 10
341.656371
 20
449.12639
 30
0.0
 11
342.652682
 21
446.389046
 31
0.0
  0
LINE
  5
1DF
102
{ACAD_REACTORS
330
5B4
102
}
330
1F
100
AcDbEntity
  8
LC-001-002-----0
  6
ByBlock
 62
     7
370
    50
100
AcDbLine
 10
451.701998
 20
459.496171
 30
0.0
 11
451.701998
 21
463.38986
 31
0.0
  0
ARC
  5
1E0
102
{ACAD_REACTORS
330
5B4
102
}
330
1F
100
AcDbEntity
  8
LC-004-002-RND-0
 62
     7
370
    50
100
AcDbCircle
 10
341.938278
 20
449.228996
 30
0.0
 40
0.2999999999999545
100
AcDbArc
 50
90.0
 51
200.0
  0
LINE
  5
1E1
102
{ACAD_REACTORS
330
5B4
102
}
330
1F
100
AcDbEntity
  8
LC-001-002-----0
  6
ByBlock
 62
     7
370
    50
100
AcDbLine
 10
342.652682
 20
446.389046
 30
0.0
 11
341.990687
 21
446.148099
 31
0.0
  0
LINE
  5
1E2
102
{ACAD_REACTORS
330
5B4
102
}
330
1F
100
AcDbEntity
  8
LC-001-002-----0
  6
ByBlock
 62
     7
370
    50
100
AcDbLine
 10
341.009004
 20
448.845253
 30
0.0
 11
341.990687
 21
446.148099
 31
0.0
  0
ARC
  5
1E3
102
{ACAD_REACTORS
330
5B4
102
}
330
1F
100
AcDbEntity
  8
LC-001-002-----0
  6
ByBlock
 62
     7
370
    50
100
AcDbCircle
 10
342.042666
 20
449.221475
 30
0.0
 40
1.100000000000068
100
AcDbArc
 50
113.616097
 51
200.0
  0
LINE
  5
1E4
102
{ACAD_REACTORS
330
5B4
102
}
330
1F
100
AcDbEntity
  8
LC-001-002-----0
  6
ByBlock
 62
     7
370
    50
100
AcDbLine
 10
449.501998
 20
458.996171
 30
0.0
 11
393.001998
 21
458.996171
 31
0.0
  0
LINE
  5
1E5
102
{ACAD_REACTORS
330
5B4
102
}
330
1F
100
AcDbEntity
  8
LC-001-002-----0
  6
ByBlock
 62
     7
370
    50
100
AcDbLine
 10
334.301998
 20
464.496171
 30
0.0
 11
393.001998
 21
464.496171
 31
0.0
  0
LINE
  5
1E6
102
{ACAD_REACTORS
330
5B4
102
}
330
1F
100
AcDbEntity
  8
LC-001-002-----0
  6
ByBlock
 62
     7
370
    50
100
AcDbLine
 10
335.501998
 20
458.996171
 30
0.0
 11
336.501998
 21
458.996171
 31
0.0
  0
LINE
  5
1E7
102
{ACAD_REACTORS
330
5B4
102
}
330
1F
100
AcDbEntity
  8
LC-001-002-----0
  6
ByBlock
 62
     7
370
    50
100
AcDbLine
 10
393.001998
 20
455.751785
 30
0.0
 11
341.101998
 21
455.751785
 31
0.0
  0
LINE
  5
1E8
102
{ACAD_REACTORS
330
5B4
102
}
330
1F
100
AcDbEntity
  8
LC-001-002-----0
  6
ByBlock
 62
     7
370
    50
100
AcDbLine
 10
451.001998
 20
459.496171
 30
0.0
 11
451.001998
 21
463.796171
 31
0.0
  0
LINE
  5
1E9
102
{ACAD_REACTORS
330
5B4
102
}
330
1F
100
AcDbEntity
  8
LC-001-002-----0
  6
ByBlock
 62
     7
370
    50
100
AcDbLine
 10
336.501998
 20
458.996171
 30
0.0
 11
393.001998
 21
458.996171
 31
0.0
  0
LINE
  5
1EA
102
{ACAD_REACTORS
330
5B4
102
}
330
1F
100
AcDbEntity
  8
LC-001-002-----0
  6
ByBlock
 62
     7
370
    50
100
AcDbLine
 10
341.101998
 20
455.751785
 30
0.0
 11
339.201998
 21
455.751785
 31
0.0
  0
LINE
  5
1EB
102
{ACAD_REACTORS
330
5B4
102
}
330
1F
100
AcDbEntity
  8
LC-001-002-----0
  6
ByBlock
 62
     7
370
    50
100
AcDbLine
 10
444.347626
 20
449.12639
 30
0.0
 11
443.351314
 21
446.389046
 31
0.0
  0
LINE
  5
1EC
102
{ACAD_REACTORS
330
5B4
102
}
330
1F
100
AcDbEntity
  8
LC-001-002-----0
  6
ByBlock
 62
     7
370
    50
100
AcDbLine
 10
444.994993
 20
448.845253
 30
0.0
 11
444.013309
 21
446.148099
 31
0.0
  0
ARC
  5
1ED
102
{ACAD_REACTORS
330
5B4
102
}
330
1F
100
AcDbEntity
  8
LC-001-002-----0
  6
ByBlock
 62
     7
370
    50
100
AcDbCircle
 10
443.961331
 20
449.221475
 30
0.0
 40
1.09999999999985
100
AcDbArc
 50
340.0
 51
66.383903
  0
ARC
  5
1EE
102
{ACAD_REACTORS
330
5B4
102
}
330
1F
100
AcDbEntity
  8
LC-004-002-RND-0
 62
     7
370
    50
100
AcDbCircle
 10
444.065718
 20
449.228996
 30
0.0
 40
0.2999999999999203
100
AcDbArc
 50
340.0
 51
90.0
  0
LINE
  5
1EF
102
{ACAD_REACTORS
330
5B4
102
}
330
1F
100
AcDbEntity
  8
LC-001-002-----0
  6
ByBlock
 62
     7
370
    50
100
AcDbLine
 10
443.351314
 20
446.389046
 30
0.0
 11
444.013309
 21
446.148099
 31
0.0
  0
LINE
  5
1F0
102
{ACAD_REACTORS
330
5B4
102
}
330
1F
100
AcDbEntity
  8
LC-001-002-----0
  6
ByBlock
 62
     7
370
    50
100
AcDbLine
 10
444.901998
 20
455.751785
 30
0.0
 11
446.801998
 21
455.751785
 31
0.0
  0
LINE
  5
1F1
102
{ACAD_REACTORS
330
5B4
102
}
330
1F
100
AcDbEntity
  8
LC-001-002-----0
  6
ByBlock
 62
     7
370
    50
100
AcDbLine
 10
448.05247
 20
458.410524
 30
0.0
 11
449.501998
 21
458.996171
 31
0.0
  0
LINE
  5
1F2
102
{ACAD_REACTORS
330
5B4
102
}
330
1F
100
AcDbEntity
  8
LC-001-002-----0
  6
ByBlock
 62
     7
370
    50
100
AcDbLine
 10
448.314695
 20
457.761495
 30
0.0
 11
449.638065
 21
458.296171
 31
0.0
  0
LINE
  5
1F3
102
{ACAD_REACTORS
330
5B4
102
}
330
1F
100
AcDbEntity
  8
LC-001-002-----0
  6
ByBlock
 62
     7
370
    50
100
AcDbLine
 10
452.401998
 20
461.996171
 30
0.0
 11
452.401998
 21
463.796171
 31
0.0
  0
ARC
  5
1F4
102
{ACAD_REACTORS
330
5B4
102
}
330
1F
100
AcDbEntity
  8
LC-004-002-RND-0
 62
     7
370
    50
100
AcDbCircle
 10
446.801998
 20
456.251785
 30
0.0
 40
1.200000000000046
100
AcDbArc
 50
270.0
 51
0.0
  0
ARC
  5
1F5
102
{ACAD_REACTORS
330
5B4
102
}
330
1F
100
AcDbEntity
  8
LC-004-002-RND-0
 62
     7
370
    50
100
AcDbCircle
 10
444.901998
 20
454.551785
 30
0.0
 40
1.200000000000046
100
AcDbArc
 50
90.0
 51
180.0
  0
LINE
  5
1F6
102
{ACAD_REACTORS
330
5B4
102
}
330
1F
100
AcDbEntity
  8
LC-001-002-----0
  6
ByBlock
 62
     7
370
    50
100
AcDbLine
 10
444.901998
 20
455.051785
 30
0.0
 11
446.801998
 21
455.051785
 31
0.0
  0
LINE
  5
1F7
102
{ACAD_REACTORS
330
5B4
102
}
330
1F
100
AcDbEntity
  8
LC-002-101-D00-0
 62
     7
370
    50
100
AcDbLine
 10
393.001998
 20
455.751785
 30
0.0
 11
444.901998
 21
455.751785
 31
0.0
  0
LINE
  5
1F8
102
{ACAD_REACTORS
330
5B4
102
}
330
1F
100
AcDbEntity
  8
LC-001-002-----0
  6
ByBlock
 62
     7
370
    50
100
AcDbLine
 10
447.301998
 20
457.297904
 30
0.0
 11
447.301998
 21
456.251785
 31
0.0
  0
LINE
  5
1F9
102
{ACAD_REACTORS
330
5B4
102
}
330
1F
100
AcDbEntity
  8
LC-001-002-----0
  6
ByBlock
 62
     7
370
    50
100
AcDbLine
 10
448.001998
 20
457.297904
 30
0.0
 11
448.001998
 21
456.251785
 31
0.0
  0
ARC
  5
1FA
102
{ACAD_REACTORS
330
5B4
102
}
330
1F
100
AcDbEntity
  8
LC-004-002-RND-0
 62
     7
370
    50
100
AcDbCircle
 10
444.901998
 20
454.551785
 30
0.0
 40
0.5
100
AcDbArc
 50
90.0
 51
180.0
  0
LINE
  5
1FB
102
{ACAD_REACTORS
330
5B4
102
}
330
1F
100
AcDbEntity
  8
LC-001-002-----0
  6
ByBlock
 62
     7
370
    50
100
AcDbLine
 10
443.701998
 20
449.528996
 30
0.0
 11
443.701998
 21
454.551785
 31
0.0
  0
LINE
  5
1FC
102
{ACAD_REACTORS
330
5B4
102
}
330
1F
100
AcDbEntity
  8
LC-001-002-----0
  6
ByBlock
 62
     7
370
    50
100
AcDbLine
 10
444.401998
 20
450.229351
 30
0.0
 11
444.401998
 21
454.551785
 31
0.0
  0
INSERT
  5
208
102
{ACAD_REACTORS
330
5B4
102
}
330
1F
100
AcDbEntity
  8
LC-003-005-----0
 62
     7
370
    25
100
AcDbBlockReference
  2
*X57
 10
0.0
 20
0.0
 30
0.0
  0
LINE
  5
209
102
{ACAD_REACTORS
330
5B4
102
}
330
1F
100
AcDbEntity
  8
LC-001-002-----0
  6
ByBlock
 62
     7
370
    50
100
AcDbLine
 10
447.501998
 20
458.996171
 30
0.0
 11
447.501998
 21
458.996171
 31
0.0
  0
LINE
  5
20A
102
{ACAD_REACTORS
330
5B4
102
}
330
1F
100
AcDbEntity
  8
LC-001-002-----0
  6
ByBlock
 62
     7
370
    50
100
AcDbLine
 10
433.501998
 20
458.996171
 30
0.0
 11
433.501998
 21
458.996171
 31
0.0
  0
LINE
  5
20B
102
{ACAD_REACTORS
330
5B4
102
}
330
1F
100
AcDbEntity
  8
LC-001-002-----0
  6
ByBlock
 62
     7
370
    50
100
AcDbLine
 10
433.501998
 20
458.996171
 30
0.0
 11
433.501998
 21
458.996171
 31
0.0
  0
LINE
  5
20C
102
{ACAD_REACTORS
330
5B4
102
}
330
1F
100
AcDbEntity
  8
LC-001-002-----0
  6
ByBlock
 62
     7
370
    50
100
AcDbLine
 10
447.501998
 20
458.996171
 30
0.0
 11
447.501998
 21
458.996171
 31
0.0
  0
ARC
  5
20D
102
{ACAD_REACTORS
330
5B4
102
}
330
1F
100
AcDbEntity
  8
LC-004-002-RND-0
 62
     7
370
    50
100
AcDbCircle
 10
434.001998
 20
458.996171
 30
0.0
 40
0.5
100
AcDbArc
 50
90.0
 51
180.0
  0
LINE
  5
20E
102
{ACAD_REACTORS
330
5B4
102
}
330
1F
100
AcDbEntity
  8
LC-001-002-----0
  6
ByBlock
 62
     7
370
    50
100
AcDbLine
 10
447.001998
 20
459.496171
 30
0.0
 11
434.001998
 21
459.496171
 31
0.0
  0
ARC
  5
20F
102
{ACAD_REACTORS
330
5B4
102
}
330
1F
100
AcDbEntity
  8
LC-004-002-RND-0
 62
     7
370
    50
100
AcDbCircle
 10
447.001998
 20
458.996171
 30
0.0
 40
0.5
100
AcDbArc
 50
0.0
 51
90.0
  0
LINE
  5
210
102
{ACAD_REACTORS
330
5AE
102
}
330
1F
100
AcDbEntity
  8
LC-001-002-----0
  6
ByBlock
 62
     7
370
    50
100
AcDbLine
 10
338.701998
 20
457.297904
 30
0.0
 11
338.701998
 21
456.251785
 31
0.0
  0
LINE
  5
211
102
{ACAD_REACTORS
330
5AE
102
}
330
1F
100
AcDbEntity
  8
LC-001-002-----0
  6
ByBlock
 62
     7
370
    50
100
AcDbLine
 10
338.501998
 20
458.996171
 30
0.0
 11
338.501998
 21
458.996171
 31
0.0
  0
LINE
  5
212
102
{ACAD_REACTORS
330
5AE
102
}
330
1F
100
AcDbEntity
  8
LC-001-002-----0
  6
ByBlock
 62
     7
370
    50
100
AcDbLine
 10
352.501998
 20
459.996862
 30
0.0
 11
352.501998
 21
459.996862
 31
0.0
  0
LINE
  5
213
102
{ACAD_REACTORS
330
5AE
102
}
330
1F
100
AcDbEntity
  8
LC-001-002-----0
  6
ByBlock
 62
     7
370
    50
100
AcDbLine
 10
352.501998
 20
458.996171
 30
0.0
 11
352.501998
 21
458.996171
 31
0.0
  0
LINE
  5
214
102
{ACAD_REACTORS
330
5AE
102
}
330
1F
100
AcDbEntity
  8
LC-001-002-----0
  6
ByBlock
 62
     7
370
    50
100
AcDbLine
 10
338.501998
 20
458.996171
 30
0.0
 11
338.501998
 21
458.996171
 31
0.0
  0
ARC
  5
215
102
{ACAD_REACTORS
330
5AE
102
}
330
1F
100
AcDbEntity
  8
LC-004-002-RND-0
 62
     7
370
    50
100
AcDbCircle
 10
352.001998
 20
458.996171
 30
0.0
 40
0.5
100
AcDbArc
 50
0.0
 51
90.0
  0
LINE
  5
216
102
{ACAD_REACTORS
330
5AE
102
}
330
1F
100
AcDbEntity
  8
LC-001-002-----0
  6
ByBlock
 62
     7
370
    50
100
AcDbLine
 10
339.001998
 20
459.496171
 30
0.0
 11
352.001998
 21
459.496171
 31
0.0
  0
ARC
  5
217
102
{ACAD_REACTORS
330
5AE
102
}
330
1F
100
AcDbEntity
  8
LC-004-002-RND-0
 62
     7
370
    50
100
AcDbCircle
 10
339.001998
 20
458.996171
 30
0.0
 40
0.5
100
AcDbArc
 50
90.0
 51
180.0
  0
LINE
  5
218
102
{ACAD_REACTORS
330
5B6
102
}
330
1F
100
AcDbEntity
  8
LC-001-002-----0
  6
ByBlock
 62
     7
370
    50
100
AcDbLine
 10
444.901998
 20
455.051785
 30
0.0
 11
448.001998
 21
455.051785
 31
0.0
  0
LINE
  5
219
330
1F
100
AcDbEntity
  8
LC-001-002-----0
  6
ByBlock
 62
     7
370
    50
100
AcDbLine
 10
289.028212
 20
362.302027
 30
0.0
 11
289.028212
 21
362.554892
 31
0.0
  0
DIMENSION
  5
21D
330
1F
100
AcDbEntity
  8
LC-005-003-----0
 62
     7
370
    25
100
AcDbDimension
  2
*D8
 10
452.401998
 20
481.32731
 30
0.0
 11
393.001998
 21
512.12731
 31
0.0
 70
   160
  1
120
 71
     5
 42
118.8
  3
LC-DIM-L-0140-02-02
100
AcDbAlignedDimension
 13
333.601998
 23
463.796171
 33
0.0
 14
452.401998
 24
463.796171
 34
0.0
100
AcDbRotatedDimension
  0
DIMENSION
  5
22B
330
1F
100
AcDbEntity
  8
LC-005-003-----0
 62
     7
370
    25
100
AcDbDimension
  2
*D9
 10
563.535595
 20
465.496862
 30
0.0
 11
532.735595
 21
412.236
 31
0.0
 70
   160
  1
14-105,5
 71
     5
 42
102.488811
 53
90.0
  3
LC-DIM-L-0140-02-02
100
AcDbAlignedDimension
 13
506.057404
 23
363.00805
 33
0.0
 14
451.701998
 24
465.496862
 34
0.0
 50
90.0
100
AcDbRotatedDimension
  0
LINE
  5
238
330
1F
100
AcDbEntity
  8
LC-001-002-----0
 62
     7
370
    25
100
AcDbLine
 10
393.001998
 20
281.082055
 30
0.0
 11
393.001998
 21
357.052476
 31
0.0
  0
LINE
  5
239
330
1F
100
AcDbEntity
  8
LC-001-002-----0
  6
ByBlock
 62
     7
370
    50
100
AcDbLine
 10
282.994165
 20
333.57055
 30
0.0
 11
287.994165
 21
333.57055
 31
0.0
  0
LINE
  5
23A
330
1F
100
AcDbEntity
  8
LC-001-002-----0
  6
ByBlock
 62
     7
370
    50
100
AcDbLine
 10
282.994165
 20
333.57055
 30
0.0
 11
282.994165
 21
335.07055
 31
0.0
  0
LINE
  5
23B
330
1F
100
AcDbEntity
  8
LC-001-002-----0
  6
ByBlock
 62
     7
370
    50
100
AcDbLine
 10
286.994165
 20
335.07055
 30
0.0
 11
282.994165
 21
335.07055
 31
0.0
  0
LINE
  5
23C
330
1F
100
AcDbEntity
  8
LC-001-002-----0
  6
ByBlock
 62
     7
370
    50
100
AcDbLine
 10
445.001998
 20
289.07055
 30
0.0
 11
445.001998
 21
284.582055
 31
0.0
  0
ARC
  5
23D
330
1F
100
AcDbEntity
  8
LC-004-002-RND-0
 62
     7
370
    50
100
AcDbCircle
 10
289.994165
 20
335.07055
 30
0.0
 40
3.0
100
AcDbArc
 50
90.0
 51
180.0
  0
LINE
  5
23E
330
1F
100
AcDbEntity
  8
LC-001-002-----0
  6
ByBlock
 62
     7
370
    50
100
AcDbLine
 10
289.994165
 20
338.07055
 30
0.0
 11
296.994165
 21
338.07055
 31
0.0
  0
LINE
  5
23F
330
1F
100
AcDbEntity
  8
LC-001-002-----0
  6
ByBlock
 62
     7
370
    50
100
AcDbLine
 10
300.994165
 20
333.07055
 30
0.0
 11
296.994165
 21
338.07055
 31
0.0
  0
ARC
  5
240
330
1F
100
AcDbEntity
  8
LC-001-002-----0
  6
ByBlock
 62
     7
370
    50
100
AcDbCircle
 10
296.494165
 20
334.92055
 30
0.0
 40
1.0
100
AcDbArc
 50
0.0
 51
90.0
  0
ARC
  5
242
102
{ACAD_REACTORS
330
5A8
102
}
330
1F
100
AcDbEntity
  8
LC-006-205-RND-0
 62
     7
370
    50
100
AcDbCircle
 10
483.301306
 20
339.794443
 30
0.0
 40
0.2999999999999545
100
AcDbArc
 50
0.0
 51
78.586371
  0
LINE
  5
243
330
1F
100
AcDbEntity
  8
LC-001-002-----0
  6
ByBlock
 62
     7
370
    50
100
AcDbLine
 10
290.344165
 20
335.92055
 30
0.0
 11
296.494165
 21
335.92055
 31
0.0
  0
LINE
  5
244
330
1F
100
AcDbEntity
  8
LC-001-002-----0
  6
ByBlock
 62
     7
370
    50
100
AcDbLine
 10
287.994165
 20
333.57055
 30
0.0
 11
290.344165
 21
335.92055
 31
0.0
  0
LINE
  5
245
330
1F
100
AcDbEntity
  8
LC-001-002-----0
  6
ByBlock
 62
     7
370
    50
100
AcDbLine
 10
282.994165
 20
288.57055
 30
0.0
 11
287.994165
 21
288.57055
 31
0.0
  0
LINE
  5
246
330
1F
100
AcDbEntity
  8
LC-001-002-----0
  6
ByBlock
 62
     7
370
    50
100
AcDbLine
 10
287.994165
 20
288.57055
 30
0.0
 11
290.344165
 21
286.22055
 31
0.0
  0
LINE
  5
247
330
1F
100
AcDbEntity
  8
LC-001-002-----0
  6
ByBlock
 62
     7
370
    50
100
AcDbLine
 10
290.344165
 20
286.22055
 30
0.0
 11
296.494165
 21
286.22055
 31
0.0
  0
ARC
  5
248
330
1F
100
AcDbEntity
  8
LC-001-002-----0
  6
ByBlock
 62
     7
370
    50
100
AcDbCircle
 10
296.494165
 20
287.22055
 30
0.0
 40
1.0
100
AcDbArc
 50
270.0
 51
0.0
  0
LINE
  5
249
330
1F
100
AcDbEntity
  8
LC-001-002-----0
  6
ByBlock
 62
     7
370
    50
100
AcDbLine
 10
297.494165
 20
290.67055
 30
0.0
 11
297.494165
 21
287.22055
 31
0.0
  0
LINE
  5
24A
330
1F
100
AcDbEntity
  8
LC-001-002-----0
  6
ByBlock
 62
     7
370
    50
100
AcDbLine
 10
301.034165
 20
289.12055
 30
0.0
 11
296.994165
 21
284.07055
 31
0.0
  0
LINE
  5
24B
330
1F
100
AcDbEntity
  8
LC-001-002-----0
  6
ByBlock
 62
     7
370
    50
100
AcDbLine
 10
289.994165
 20
284.07055
 30
0.0
 11
296.994165
 21
284.07055
 31
0.0
  0
ARC
  5
24C
330
1F
100
AcDbEntity
  8
LC-004-002-RND-0
 62
     7
370
    50
100
AcDbCircle
 10
289.994165
 20
287.07055
 30
0.0
 40
3.0
100
AcDbArc
 50
180.0
 51
270.0
  0
LINE
  5
24D
330
1F
100
AcDbEntity
  8
LC-001-002-----0
  6
ByBlock
 62
     7
370
    50
100
AcDbLine
 10
286.994165
 20
287.07055
 30
0.0
 11
282.994165
 21
287.07055
 31
0.0
  0
LINE
  5
24E
330
1F
100
AcDbEntity
  8
LC-001-002-----0
  6
ByBlock
 62
     7
370
    50
100
AcDbLine
 10
282.994165
 20
288.57055
 30
0.0
 11
282.994165
 21
287.07055
 31
0.0
  0
LINE
  5
250
330
1F
100
AcDbEntity
  8
LC-007-205-----0
 62
     7
370
    50
100
AcDbLine
 10
447.683315
 20
336.07055
 30
0.0
 11
459.601306
 21
336.07055
 31
0.0
  0
LINE
  5
251
330
1F
100
AcDbEntity
  8
LC-001-002-----0
  6
ByBlock
 62
     7
370
    50
100
AcDbLine
 10
459.601306
 20
336.07055
 30
0.0
 11
459.601306
 21
338.382055
 31
0.0
  0
LINE
  5
252
330
1F
100
AcDbEntity
  8
LC-001-002-----0
  6
ByBlock
 62
     7
370
    50
100
AcDbLine
 10
459.601306
 20
338.382055
 30
0.0
 11
462.101306
 21
338.382055
 31
0.0
  0
LINE
  5
253
330
1F
100
AcDbEntity
  8
LC-001-002-----0
  6
ByBlock
 62
     7
370
    50
100
AcDbLine
 10
462.101306
 20
336.35228
 30
0.0
 11
462.101306
 21
338.382055
 31
0.0
  0
LINE
  5
254
330
1F
100
AcDbEntity
  8
LC-001-002-----0
  6
ByBlock
 62
     7
370
    50
100
AcDbLine
 10
447.683315
 20
341.051785
 30
0.0
 11
447.683315
 21
336.07055
 31
0.0
  0
LINE
  5
255
330
1F
100
AcDbEntity
  8
LC-001-002-----0
  6
ByBlock
 62
     7
370
    50
100
AcDbLine
 10
495.101306
 20
289.07055
 30
0.0
 11
495.101306
 21
333.07055
 31
0.0
  0
LINE
  5
256
330
1F
100
AcDbEntity
  8
LC-001-002-----0
  6
ByBlock
 62
     7
370
    50
100
AcDbLine
 10
448.001998
 20
286.07055
 30
0.0
 11
448.001998
 21
284.582055
 31
0.0
  0
ARC
  5
257
330
1F
100
AcDbEntity
  8
LC-004-002-RND-0
 62
     7
370
    50
100
AcDbCircle
 10
444.501998
 20
284.582055
 30
0.0
 40
3.5
100
AcDbArc
 50
270.0
 51
360.0
  0
ARC
  5
258
102
{ACAD_REACTORS
330
5A8
102
}
330
1F
100
AcDbEntity
  8
LC-004-002-RND-0
 62
     7
370
    50
100
AcDbCircle
 10
444.501998
 20
284.582055
 30
0.0
 40
0.5
100
AcDbArc
 50
270.0
 51
360.0
  0
ARC
  5
259
330
1F
100
AcDbEntity
  8
LC-004-002-RND-0
 62
     7
370
    50
100
AcDbCircle
 10
341.501998
 20
284.582055
 30
0.0
 40
3.5
100
AcDbArc
 50
180.0
 51
270.0
  0
ARC
  5
25A
330
1F
100
AcDbEntity
  8
LC-004-002-RND-0
 62
     7
370
    50
100
AcDbCircle
 10
341.501998
 20
284.582055
 30
0.0
 40
0.5
100
AcDbArc
 50
180.0
 51
270.0
  0
LINE
  5
25B
330
1F
100
AcDbEntity
  8
LC-001-002-----0
  6
ByBlock
 62
     7
370
    50
100
AcDbLine
 10
338.001998
 20
284.582055
 30
0.0
 11
338.001998
 21
289.12055
 31
0.0
  0
LINE
  5
25C
330
1F
100
AcDbEntity
  8
LC-001-002-----0
  6
ByBlock
 62
     7
370
    50
100
AcDbLine
 10
341.001998
 20
284.582055
 30
0.0
 11
341.001998
 21
290.67055
 31
0.0
  0
ARC
  5
25D
330
1F
100
AcDbEntity
  8
LC-001-002-----0
  6
ByBlock
 62
     7
370
    50
100
AcDbCircle
 10
314.379542
 20
311.07055
 30
0.0
 40
33.53975507606346
100
AcDbArc
 50
322.538123
 51
37.461877
  0
INSERT
  5
2B2
330
1F
100
AcDbEntity
  8
LC-003-005-----0
 62
     7
370
    25
100
AcDbBlockReference
  2
*X610
 10
0.0
 20
0.0
 30
0.0
  0
LINE
  5
2B3
330
1F
100
AcDbEntity
  8
LC-001-002-----0
  6
ByBlock
 62
     7
370
    50
100
AcDbLine
 10
325.731134
 20
356.552476
 30
0.0
 11
324.308571
 21
356.552476
 31
0.0
  0
LINE
  5
2B4
330
1F
100
AcDbEntity
  8
LC-001-002-----0
  6
ByBlock
 62
     7
370
    50
100
AcDbLine
 10
465.713409
 20
356.552476
 30
0.0
 11
466.002084
 21
357.052476
 31
0.0
  0
ARC
  5
2B5
330
1F
100
AcDbEntity
  8
LC-004-002-RND-0
 62
     7
370
    50
100
AcDbCircle
 10
469.50252
 20
349.552476
 30
0.0
 40
1.0
100
AcDbArc
 50
90.0
 51
180.0
  0
LINE
  5
2B6
330
1F
100
AcDbEntity
  8
LC-001-002-----0
  6
ByBlock
 62
     7
370
    50
100
AcDbLine
 10
460.502574
 20
356.552476
 30
0.0
 11
460.502574
 21
343.051785
 31
0.0
  0
LINE
  5
2B7
330
1F
100
AcDbEntity
  8
LC-001-002-----0
  6
ByBlock
 62
     7
370
    50
100
AcDbLine
 10
468.50252
 20
349.552476
 30
0.0
 11
468.50252
 21
342.051785
 31
0.0
  0
LINE
  5
2B8
330
1F
100
AcDbEntity
  8
LC-001-002-----0
 62
     7
370
    25
100
AcDbLine
 10
449.885115
 20
311.07055
 30
0.0
 11
440.118882
 21
311.07055
 31
0.0
  0
LINE
  5
2B9
102
{ACAD_REACTORS
330
5A8
102
}
330
1F
100
AcDbEntity
  8
LC-001-002-----0
  6
ByBlock
 62
     7
370
    50
100
AcDbLine
 10
341.001998
 20
343.551785
 30
0.0
 11
341.001998
 21
331.47055
 31
0.0
  0
LINE
  5
2BA
330
1F
100
AcDbEntity
  8
LC-001-002-----0
 62
     7
370
    25
100
AcDbLine
 10
463.002488
 20
343.051785
 30
0.0
 11
463.002489
 21
356.552476
 31
0.0
  0
LINE
  5
2BB
102
{ACAD_REACTORS
330
5A8
102
}
330
1F
100
AcDbEntity
  8
LC-001-002-----0
  6
ByBlock
 62
     7
370
    50
100
AcDbLine
 10
445.001998
 20
343.551785
 30
0.0
 11
445.001998
 21
333.07055
 31
0.0
  0
LINE
  5
2BC
330
1F
100
AcDbEntity
  8
LC-001-002-----0
  6
ByBlock
 62
     7
370
    50
100
AcDbLine
 10
463.713409
 20
356.552476
 30
0.0
 11
464.002084
 21
357.052476
 31
0.0
  0
LINE
  5
2BD
330
1F
100
AcDbEntity
  8
LC-001-002-----0
  6
ByBlock
 62
     7
370
    50
100
AcDbLine
 10
464.002084
 20
357.052476
 30
0.0
 11
464.29076
 21
356.552476
 31
0.0
  0
LINE
  5
2BE
102
{ACAD_REACTORS
330
5AF
102
}
330
1F
100
AcDbEntity
  8
LC-001-002-----0
  6
ByBlock
 62
     7
370
    50
100
AcDbLine
 10
297.494165
 20
288.245409
 30
0.0
 11
297.494165
 21
287.37055
 31
0.0
  0
LINE
  5
2BF
330
1F
100
AcDbEntity
  8
LC-001-002-----0
  6
ByBlock
 62
     7
370
    50
100
AcDbLine
 10
322.007878
 20
357.052476
 30
0.0
 11
322.007349
 21
357.051559
 31
0.0
  0
LINE
  5
2C0
330
1F
100
AcDbEntity
  8
LC-001-002-----0
  6
ByBlock
 62
     7
370
    50
100
AcDbLine
 10
324.308571
 20
356.552476
 30
0.0
 11
324.019896
 21
357.052476
 31
0.0
  0
DIMENSION
  5
2C1
330
1F
100
AcDbEntity
  8
LC-005-003-----0
 62
     7
370
    25
100
AcDbDimension
  2
*D11
 10
508.001998
 20
536.976
 30
0.0
 11
392.708021
 21
567.776
 31
0.0
 70
   160
  1
%%c<>
 71
     5
 42
230.0
  3
LC-DIM-L-0140-02-02
100
AcDbAlignedDimension
 13
278.001998
 23
361.008818
 33
0.0
 14
508.001998
 24
361.008818
 34
0.0
100
AcDbRotatedDimension
  0
LINE
  5
2CE
330
1F
100
AcDbEntity
  8
LC-001-002-----0
  6
ByBlock
 62
     7
370
    50
100
AcDbLine
 10
461.713409
 20
356.552476
 30
0.0
 11
462.002084
 21
357.052476
 31
0.0
  0
LINE
  5
2CF
330
1F
100
AcDbEntity
  8
LC-001-002-----0
  6
ByBlock
 62
     7
370
    50
100
AcDbLine
 10
326.290587
 20
356.552476
 30
0.0
 11
326.001912
 21
357.052476
 31
0.0
  0
LINE
  5
2D0
330
1F
100
AcDbEntity
  8
LC-001-002-----0
  6
ByBlock
 62
     7
370
    50
100
AcDbLine
 10
460.002084
 20
357.052476
 30
0.0
 11
460.010165
 21
357.038481
 31
0.0
  0
LINE
  5
2D1
330
1F
100
AcDbEntity
  8
LC-001-002-----0
  6
ByBlock
 62
     7
370
    50
100
AcDbLine
 10
459.713409
 20
356.552476
 30
0.0
 11
460.002084
 21
357.052476
 31
0.0
  0
LINE
  5
2D2
330
1F
100
AcDbEntity
  8
LC-001-002-----0
  6
ByBlock
 62
     7
370
    50
100
AcDbLine
 10
466.002084
 20
357.052476
 30
0.0
 11
467.002574
 21
357.052476
 31
0.0
  0
LINE
  5
2D3
102
{ACAD_REACTORS
330
5A8
102
}
330
1F
100
AcDbEntity
  8
LC-001-002-----0
  6
ByBlock
 62
     7
370
    50
100
AcDbLine
 10
318.501477
 20
341.051785
 30
0.0
 11
335.001998
 21
341.051785
 31
0.0
  0
LINE
  5
2D4
330
1F
100
AcDbEntity
  8
LC-001-002-----0
  6
ByBlock
 62
     7
370
    50
100
AcDbLine
 10
462.002084
 20
357.052476
 30
0.0
 11
462.29076
 21
356.552476
 31
0.0
  0
LINE
  5
2D5
330
1F
100
AcDbEntity
  8
LC-001-002-----0
  6
ByBlock
 62
     7
370
    50
100
AcDbLine
 10
460.002084
 20
357.052476
 30
0.0
 11
460.29076
 21
356.552476
 31
0.0
  0
LINE
  5
2D6
330
1F
100
AcDbEntity
  8
LC-001-002-----0
  6
ByBlock
 62
     7
370
    50
100
AcDbLine
 10
326.01981
 20
357.052476
 30
0.0
 11
325.731134
 21
356.552476
 31
0.0
  0
LINE
  5
2D7
330
1F
100
AcDbEntity
  8
LC-001-002-----0
  6
ByBlock
 62
     7
370
    50
100
AcDbLine
 10
466.002084
 20
357.052476
 30
0.0
 11
466.29076
 21
356.552476
 31
0.0
  0
LINE
  5
2D8
330
1F
100
AcDbEntity
  8
LC-001-002-----0
  6
ByBlock
 62
     7
370
    50
100
AcDbLine
 10
460.29076
 20
356.552476
 30
0.0
 11
465.713409
 21
356.552476
 31
0.0
  0
LINE
  5
2D9
330
1F
100
AcDbEntity
  8
LC-001-002-----0
  6
ByBlock
 62
     7
370
    50
100
AcDbLine
 10
498.286928
 20
362.754201
 30
0.0
 11
505.935745
 21
363.00772
 31
0.0
  0
LINE
  5
2DA
330
1F
100
AcDbEntity
  8
LC-001-002-----0
  6
ByBlock
 62
     7
370
    50
100
AcDbLine
 10
498.627649
 20
359.171062
 30
0.0
 11
508.001998
 21
359.527674
 31
0.0
  0
LINE
  5
2DB
102
{ACAD_REACTORS
330
5A8
102
}
330
1F
100
AcDbEntity
  8
LC-001-002-----0
  6
ByBlock
 62
    70
370
    50
100
AcDbLine
 10
301.034165
 20
333.02055
 30
0.0
 11
337.001998
 21
333.02055
 31
0.0
  0
LINE
  5
2DC
330
1F
100
AcDbEntity
  8
LC-001-002-----0
  6
ByBlock
 62
     7
370
    50
100
AcDbLine
 10
478.451147
 20
353.001103
 30
0.0
 11
498.627649
 21
359.171062
 31
0.0
  0
DIMENSION
  5
2DD
330
1F
100
AcDbEntity
  8
LC-005-003-----0
 62
     7
370
    25
100
AcDbDimension
  2
*D12
 10
175.383
 20
281.082055
 30
0.0
 11
144.583
 21
315.414
 31
0.0
 70
   160
  1
78
 71
     5
 42
78.089007
 53
90.0
  3
LC-DIM-L-0140-02-02
100
AcDbAlignedDimension
 13
287.376348
 23
359.171062
 33
0.0
 14
341.501998
 24
281.082055
 34
0.0
 50
90.0
100
AcDbRotatedDimension
  0
LINE
  5
2EA
330
1F
100
AcDbEntity
  8
LC-001-002-----0
  6
ByBlock
 62
     7
370
    50
100
AcDbLine
 10
478.001998
 20
356.552476
 30
0.0
 11
498.286928
 21
362.754201
 31
0.0
  0
LINE
  5
2EB
330
1F
100
AcDbEntity
  8
LC-001-002-----0
  6
ByBlock
 62
     7
370
    50
100
AcDbLine
 10
320.290587
 20
356.552476
 30
0.0
 11
320.001912
 21
357.052476
 31
0.0
  0
LINE
  5
2EC
330
1F
100
AcDbEntity
  8
LC-001-002-----0
  6
ByBlock
 62
     7
370
    50
100
AcDbLine
 10
320.001912
 20
357.052476
 30
0.0
 11
319.713237
 21
356.552476
 31
0.0
  0
LINE
  5
2ED
330
1F
100
AcDbEntity
  8
LC-001-002-----0
  6
ByBlock
 62
     7
370
    50
100
AcDbLine
 10
467.50252
 20
341.051785
 30
0.0
 11
447.683315
 21
341.051785
 31
0.0
  0
LINE
  5
2EE
102
{ACAD_REACTORS
330
5B3
102
}
330
1F
100
AcDbEntity
  8
LC-001-002-----0
  6
ByBlock
 62
     7
370
    50
100
AcDbLine
 10
580.076983
 20
286.07055
 30
0.0
 11
583.576983
 21
287.008373
 31
0.0
  0
ARC
  5
2F0
102
{ACAD_REACTORS
330
5B3
102
}
330
1F
100
AcDbEntity
  8
LC-008-207-----0
 62
     7
370
    50
100
AcDbCircle
 10
477.502442
 20
311.07055
 30
0.0
 40
29.7000000000001
100
AcDbArc
 50
69.721682
 51
104.141305
  0
INSERT
  5
2FD
330
1F
100
AcDbEntity
  8
LC-003-005-----0
 62
     7
370
    25
100
AcDbBlockReference
  2
*X713
 10
0.0
 20
0.0
 30
0.0
  0
LINE
  5
2FE
102
{ACAD_REACTORS
330
5AF
102
}
330
1F
100
AcDbEntity
  8
LC-001-002-----0
  6
ByBlock
 62
     7
370
    50
100
AcDbLine
 10
297.494165
 20
331.47055
 30
0.0
 11
297.494165
 21
334.92055
 31
0.0
  0
ARC
  5
2FF
330
1F
100
AcDbEntity
  8
LC-004-002-RND-0
 62
     7
370
    50
100
AcDbCircle
 10
506.001998
 20
361.008818
 30
0.0
 40
2.0
100
AcDbArc
 50
0.0
 51
91.898364
  0
LINE
  5
300
102
{ACAD_REACTORS
330
5B2
102
}
330
1F
100
AcDbEntity
  8
LC-001-002-----0
  6
ByBlock
 62
     7
370
    50
100
AcDbLine
 10
297.494165
 20
333.895692
 30
0.0
 11
297.494165
 21
334.77055
 31
0.0
  0
ARC
  5
302
102
{ACAD_REACTORS
330
5B3
102
}
330
1F
100
AcDbEntity
  8
LC-009-207-RND-0
 62
     7
370
    50
100
AcDbCircle
 10
470.001998
 20
281.300879
 30
0.0
 40
0.9999999999999977
100
AcDbArc
 50
75.858695
 51
180.0
  0
LINE
  5
303
102
{ACAD_REACTORS
330
5B3
102
}
330
1F
100
AcDbEntity
  8
LC-001-002-----0
  6
ByBlock
 62
     7
370
    50
100
AcDbLine
 10
469.001998
 20
281.300879
 30
0.0
 11
469.001998
 21
279.07055
 31
0.0
  0
LINE
  5
304
102
{ACAD_REACTORS
330
5B3
102
}
330
1F
100
AcDbEntity
  8
LC-001-002-----0
  6
ByBlock
 62
     7
370
    50
100
AcDbLine
 10
583.576983
 20
287.008373
 30
0.0
 11
583.576983
 21
288.32055
 31
0.0
  0
LINE
  5
305
102
{ACAD_REACTORS
330
5B3
102
}
330
1F
100
AcDbEntity
  8
LC-001-002-----0
  6
ByBlock
 62
     7
370
    50
100
AcDbLine
 10
583.576983
 20
288.32055
 30
0.0
 11
583.576983
 21
333.82055
 31
0.0
  0
LINE
  5
306
102
{ACAD_REACTORS
330
5B3
102
}
330
1F
100
AcDbEntity
  8
LC-001-002-----0
  6
ByBlock
 62
     7
370
    50
100
AcDbLine
 10
583.576983
 20
333.82055
 30
0.0
 11
583.576983
 21
335.132728
 31
0.0
  0
LINE
  5
307
102
{ACAD_REACTORS
330
5B3
102
}
330
1F
100
AcDbEntity
  8
LC-001-002-----0
 62
     7
370
    25
100
AcDbLine
 10
583.576983
 20
311.07055
 30
0.0
 11
449.885115
 21
311.07055
 31
0.0
  0
LINE
  5
308
102
{ACAD_REACTORS
330
5A8
102
}
330
1F
100
AcDbEntity
  8
LC-001-002-----0
  6
ByBlock
 62
    70
370
    50
100
AcDbLine
 10
341.001998
 20
331.47055
 30
0.0
 11
297.494165
 21
331.47055
 31
0.0
  0
LINE
  5
309
102
{ACAD_REACTORS
330
5A8
102
}
330
1F
100
AcDbEntity
  8
LC-001-002-----0
  6
ByBlock
 62
    70
370
    50
100
AcDbLine
 10
341.001998
 20
290.67055
 30
0.0
 11
297.494165
 21
290.67055
 31
0.0
  0
LINE
  5
30A
102
{ACAD_REACTORS
330
5A8
102
}
330
1F
100
AcDbEntity
  8
LC-001-002-----0
  6
ByBlock
 62
    70
370
    50
100
AcDbLine
 10
301.034165
 20
289.12055
 30
0.0
 11
338.001998
 21
289.12055
 31
0.0
  0
LINE
  5
30B
102
{ACAD_REACTORS
330
5B3
102
}
330
1F
100
AcDbEntity
  8
LC-001-002-----0
  6
ByBlock
 62
     7
370
    50
100
AcDbLine
 10
580.076983
 20
336.07055
 30
0.0
 11
583.576983
 21
335.132728
 31
0.0
  0
CIRCLE
  5
30C
330
1F
100
AcDbEntity
  8
LC-001-002-----0
  6
ByBlock
 62
     7
370
    50
100
AcDbCircle
 10
485.851306
 20
337.82055
 30
0.0
 40
1.75
  0
ARC
  5
30D
102
{ACAD_REACTORS
330
5B3
102
}
330
1F
100
AcDbEntity
  8
LC-009-207-RND-0
 62
     7
370
    50
100
AcDbCircle
 10
470.001998
 20
340.840222
 30
0.0
 40
1.0
100
AcDbArc
 50
180.0
 51
284.141305
  0
LINE
  5
30E
102
{ACAD_REACTORS
330
5B3
102
}
330
1F
100
AcDbEntity
  8
LC-008-207-----0
 62
     7
370
    50
100
AcDbLine
 10
497.576983
 20
336.07055
 30
0.0
 11
580.076983
 21
336.07055
 31
0.0
  0
CIRCLE
  5
30F
330
1F
100
AcDbEntity
  8
LC-001-002-----0
  6
ByBlock
 62
     7
370
    50
100
AcDbCircle
 10
485.851306
 20
284.509046
 30
0.0
 40
1.75
  0
LINE
  5
310
102
{ACAD_REACTORS
330
5B3
102
}
330
1F
100
AcDbEntity
  8
LC-008-207-----0
 62
     7
370
    50
100
AcDbLine
 10
497.576983
 20
286.07055
 30
0.0
 11
580.076983
 21
286.07055
 31
0.0
  0
LINE
  5
311
102
{ACAD_REACTORS
330
5B3
102
}
330
1F
100
AcDbEntity
  8
LC-008-207-----0
 62
     7
370
    50
100
AcDbLine
 10
496.595046
 20
333.82055
 30
0.0
 11
583.576983
 21
333.82055
 31
0.0
  0
LINE
  5
312
102
{ACAD_REACTORS
330
5B3
102
}
330
1F
100
AcDbEntity
  8
LC-008-207-----0
 62
     7
370
    50
100
AcDbLine
 10
496.595046
 20
288.32055
 30
0.0
 11
583.576983
 21
288.32055
 31
0.0
  0
INSERT
  5
342
102
{ACAD_REACTORS
330
5B3
102
}
330
1F
100
AcDbEntity
  8
LC-003-005-----0
 62
     7
370
    25
100
AcDbBlockReference
  2
*X814
 10
0.0
 20
0.0
 30
0.0
  0
INSERT
  5
36C
102
{ACAD_REACTORS
330
5B3
102
}
330
1F
100
AcDbEntity
  8
LC-003-005-----0
 62
     7
370
    25
100
AcDbBlockReference
  2
*X915
 10
0.0
 20
0.0
 30
0.0
  0
LINE
  5
36D
102
{ACAD_REACTORS
330
5B3
102
}
330
1F
100
AcDbEntity
  8
LC-001-002-----0
  6
ByBlock
 62
     7
370
    50
100
AcDbLine
 10
469.001998
 20
340.840222
 30
0.0
 11
469.001998
 21
343.07055
 31
0.0
  0
LINE
  5
36E
102
{ACAD_REACTORS
330
5B3
102
}
330
1F
100
AcDbEntity
  8
LC-001-002-----0
  6
ByBlock
 62
     7
370
    50
100
AcDbLine
 10
469.001998
 20
343.07055
 30
0.0
 11
477.501998
 21
343.07055
 31
0.0
  0
LINE
  5
36F
102
{ACAD_REACTORS
330
5B3
102
}
330
1F
100
AcDbEntity
  8
LC-001-002-----0
  6
ByBlock
 62
     7
370
    50
100
AcDbLine
 10
469.001998
 20
279.07055
 30
0.0
 11
477.601998
 21
279.07055
 31
0.0
  0
ARC
  5
370
102
{ACAD_REACTORS
330
5B3
102
}
330
1F
100
AcDbEntity
  8
LC-001-002-----0
  6
ByBlock
 62
     7
370
    50
100
AcDbCircle
 10
477.601998
 20
311.07055
 30
0.0
 40
32.00000000000082
100
AcDbArc
 50
51.375167
 51
90.17905
  0
ARC
  5
371
102
{ACAD_REACTORS
330
5B3
102
}
330
1F
100
AcDbEntity
  8
LC-001-002-----0
  6
ByBlock
 62
     7
370
    50
100
AcDbCircle
 10
477.601998
 20
311.07055
 30
0.0
 40
32.00000000000125
100
AcDbArc
 50
270.0
 51
308.624833
  0
INSERT
  5
37E
330
1F
100
AcDbEntity
  8
LC-003-005-----0
 62
     7
370
    25
100
AcDbBlockReference
  2
*X1016
 10
0.0
 20
0.0
 30
0.0
  0
ARC
  5
37F
102
{ACAD_REACTORS
330
5B3
102
}
330
1F
100
AcDbEntity
  8
LC-008-207-----0
 62
     7
370
    50
100
AcDbCircle
 10
477.502442
 20
311.07055
 30
0.0
 40
29.70000000000012
100
AcDbArc
 50
49.995438
 51
69.721682
  0
ARC
  5
380
102
{ACAD_REACTORS
330
5B3
102
}
330
1F
100
AcDbEntity
  8
LC-008-207-----0
 62
     7
370
    50
100
AcDbCircle
 10
477.502442
 20
311.07055
 30
0.0
 40
29.7000000000001
100
AcDbArc
 50
255.858695
 51
310.004562
  0
ARC
  5
381
330
1F
100
AcDbEntity
  8
LC-004-002-RND-0
 62
     7
370
    50
100
AcDbCircle
 10
467.50252
 20
342.051785
 30
0.0
 40
1.0
100
AcDbArc
 50
270.0
 51
0.0
  0
ARC
  5
382
102
{ACAD_REACTORS
330
5A8
102
}
330
1F
100
AcDbEntity
  8
LC-004-002-RND-0
 62
     7
370
    50
100
AcDbCircle
 10
318.501477
 20
342.051785
 30
0.0
 40
1.0
100
AcDbArc
 50
180.0
 51
270.0
  0
LINE
  5
383
102
{ACAD_REACTORS
330
5B2
102
}
330
1F
100
AcDbEntity
  8
LC-001-002-----0
  6
ByBlock
 62
     7
370
    50
100
AcDbLine
 10
291.103356
 20
335.56055
 30
0.0
 11
291.594165
 21
335.56055
 31
0.0
  0
LINE
  5
384
102
{ACAD_REACTORS
330
5B2
102
}
330
1F
100
AcDbEntity
  8
LC-001-002-----0
  6
ByBlock
 62
     7
370
    50
100
AcDbLine
 10
294.994165
 20
335.56055
 30
0.0
 11
294.832396
 21
335.840743
 31
0.0
  0
LINE
  5
385
102
{ACAD_REACTORS
330
5B2
102
}
330
1F
100
AcDbEntity
  8
LC-001-002-----0
  6
ByBlock
 62
     7
370
    50
100
AcDbLine
 10
289.745276
 20
333.35583
 30
0.0
 11
290.13743
 21
334.819369
 31
0.0
  0
LINE
  5
386
102
{ACAD_REACTORS
330
5B2
102
}
330
1F
100
AcDbEntity
  8
LC-001-002-----0
  6
ByBlock
 62
     7
370
    50
100
AcDbLine
 10
296.134165
 20
335.04055
 30
0.0
 11
296.134165
 21
335.56055
 31
0.0
  0
LINE
  5
387
102
{ACAD_REACTORS
330
5B2
102
}
330
1F
100
AcDbEntity
  8
LC-001-002-----0
  6
ByBlock
 62
     7
370
    50
100
AcDbLine
 10
293.594165
 20
335.56055
 30
0.0
 11
294.394165
 21
335.56055
 31
0.0
  0
LINE
  5
388
102
{ACAD_REACTORS
330
5B2
102
}
330
1F
100
AcDbEntity
  8
LC-001-002-----0
  6
ByBlock
 62
     7
370
    50
100
AcDbLine
 10
292.194165
 20
335.56055
 30
0.0
 11
292.032396
 21
335.840743
 31
0.0
  0
ARC
  5
389
102
{ACAD_REACTORS
330
5B2
102
}
330
1F
100
AcDbEntity
  8
LC-001-002-----0
  6
ByBlock
 62
     7
370
    50
100
AcDbCircle
 10
291.894165
 20
335.760935
 30
0.0
 40
0.1596152422705388
100
AcDbArc
 50
30.0
 51
150.0
  0
LINE
  5
38A
102
{ACAD_REACTORS
330
5B2
102
}
330
1F
100
AcDbEntity
  8
LC-001-002-----0
  6
ByBlock
 62
     7
370
    50
100
AcDbLine
 10
291.594165
 20
335.56055
 30
0.0
 11
291.755934
 21
335.840743
 31
0.0
  0
LINE
  5
38B
102
{ACAD_REACTORS
330
5B2
102
}
330
1F
100
AcDbEntity
  8
LC-001-002-----0
  6
ByBlock
 62
     7
370
    50
100
AcDbLine
 10
293.594165
 20
335.56055
 30
0.0
 11
293.432396
 21
335.840743
 31
0.0
  0
LINE
  5
38C
102
{ACAD_REACTORS
330
5B2
102
}
330
1F
100
AcDbEntity
  8
LC-001-002-----0
  6
ByBlock
 62
     7
370
    50
100
AcDbLine
 10
296.916184
 20
332.551811
 30
0.0
 11
294.965498
 21
332.859813
 31
0.0
  0
ARC
  5
38D
102
{ACAD_REACTORS
330
5B2
102
}
330
1F
100
AcDbEntity
  8
LC-001-002-----0
  6
ByBlock
 62
     7
370
    50
100
AcDbCircle
 10
293.294165
 20
335.760935
 30
0.0
 40
0.1596152422705388
100
AcDbArc
 50
30.0
 51
150.0
  0
ARC
  5
38E
102
{ACAD_REACTORS
330
5B2
102
}
330
1F
100
AcDbEntity
  8
LC-004-002-RND-0
 62
     7
370
    50
100
AcDbCircle
 10
294.918709
 20
332.563485
 30
0.0
 40
0.2999999999999971
100
AcDbArc
 50
81.027373
 51
200.840919
  0
LINE
  5
38F
102
{ACAD_REACTORS
330
5B2
102
}
330
1F
100
AcDbEntity
  8
LC-001-002-----0
  6
ByBlock
 62
     7
370
    50
100
AcDbLine
 10
292.994165
 20
335.56055
 30
0.0
 11
293.155934
 21
335.840743
 31
0.0
  0
LINE
  5
390
102
{ACAD_REACTORS
330
5B2
102
}
330
1F
100
AcDbEntity
  8
LC-001-002-----0
  6
ByBlock
 62
     7
370
    50
100
AcDbLine
 10
297.494165
 20
333.92055
 30
0.0
 11
297.253327
 21
334.819369
 31
0.0
  0
LINE
  5
391
102
{ACAD_REACTORS
330
5B2
102
}
330
1F
100
AcDbEntity
  8
LC-001-002-----0
  6
ByBlock
 62
     7
370
    50
100
AcDbLine
 10
292.194165
 20
335.56055
 30
0.0
 11
292.994165
 21
335.56055
 31
0.0
  0
LINE
  5
392
102
{ACAD_REACTORS
330
5B2
102
}
330
1F
100
AcDbEntity
  8
LC-001-002-----0
  6
ByBlock
 62
     7
370
    50
100
AcDbLine
 10
294.994165
 20
335.56055
 30
0.0
 11
295.334165
 21
335.56055
 31
0.0
  0
ARC
  5
393
102
{ACAD_REACTORS
330
5B2
102
}
330
1F
100
AcDbEntity
  8
LC-001-002-----0
  6
ByBlock
 62
     7
370
    50
100
AcDbCircle
 10
294.694165
 20
335.760935
 30
0.0
 40
0.1596152422705388
100
AcDbArc
 50
30.0
 51
150.0
  0
LINE
  5
394
102
{ACAD_REACTORS
330
5B2
102
}
330
1F
100
AcDbEntity
  8
LC-001-002-----0
  6
ByBlock
 62
     7
370
    50
100
AcDbLine
 10
296.134165
 20
335.56055
 30
0.0
 11
296.287401
 21
335.56055
 31
0.0
  0
ARC
  5
395
102
{ACAD_REACTORS
330
5B2
102
}
330
1F
100
AcDbEntity
  8
LC-004-002-RND-0
 62
     7
370
    50
100
AcDbCircle
 10
295.072727
 20
329.910286
 30
0.0
 40
0.5000000000000342
100
AcDbArc
 50
243.434949
 51
20.840919
  0
LINE
  5
396
102
{ACAD_REACTORS
330
5B2
102
}
330
1F
100
AcDbEntity
  8
LC-001-002-----0
  6
ByBlock
 62
     7
370
    50
100
AcDbLine
 10
294.394165
 20
335.56055
 30
0.0
 11
294.555934
 21
335.840743
 31
0.0
  0
LINE
  5
397
102
{ACAD_REACTORS
330
5B2
102
}
330
1F
100
AcDbEntity
  8
LC-001-002-----0
  6
ByBlock
 62
     7
370
    50
100
AcDbLine
 10
295.540013
 20
330.088174
 30
0.0
 11
294.638338
 21
332.456752
 31
0.0
  0
INSERT
  5
3A8
102
{ACAD_REACTORS
330
5B2
102
}
330
1F
100
AcDbEntity
  8
LC-003-005-----0
 62
     7
370
    25
100
AcDbBlockReference
  2
*X1117
 10
0.0
 20
0.0
 30
0.0
  0
LINE
  5
3A9
102
{ACAD_REACTORS
330
5B2
102
}
330
1F
100
AcDbEntity
  8
LC-001-002-----0
  6
ByBlock
 62
     7
370
    50
100
AcDbLine
 10
295.334165
 20
335.04055
 30
0.0
 11
296.134165
 21
335.04055
 31
0.0
  0
ARC
  5
3AA
102
{ACAD_REACTORS
330
5B2
102
}
330
1F
100
AcDbEntity
  8
LC-004-002-RND-0
 62
     7
370
    50
100
AcDbCircle
 10
296.287401
 20
334.56055
 30
0.0
 40
0.9999999999999206
100
AcDbArc
 50
15.0
 51
90.0
  0
ARC
  5
3AB
102
{ACAD_REACTORS
330
5B2
102
}
330
1F
100
AcDbEntity
  8
LC-004-002-RND-0
 62
     7
370
    50
100
AcDbCircle
 10
291.194165
 20
332.967601
 30
0.0
 40
1.500000000000031
100
AcDbArc
 50
165.0
 51
243.434949
  0
ARC
  5
3AC
102
{ACAD_REACTORS
330
5B2
102
}
330
1F
100
AcDbEntity
  8
LC-004-002-RND-0
 62
     7
370
    50
100
AcDbCircle
 10
291.103356
 20
334.56055
 30
0.0
 40
1.0
100
AcDbArc
 50
90.0
 51
165.0
  0
LINE
  5
3AD
102
{ACAD_REACTORS
330
5B2
102
}
330
1F
100
AcDbEntity
  8
LC-001-002-----0
  6
ByBlock
 62
     7
370
    50
100
AcDbLine
 10
295.334165
 20
335.04055
 30
0.0
 11
295.334165
 21
335.56055
 31
0.0
  0
ARC
  5
3AE
102
{ACAD_REACTORS
330
5B2
102
}
330
1F
100
AcDbEntity
  8
LC-004-002-RND-0
 62
     7
370
    50
100
AcDbCircle
 10
296.994165
 20
333.045692
 30
0.0
 40
0.4999999999999755
100
AcDbArc
 50
261.027373
 51
0.0
  0
LINE
  5
3AF
102
{ACAD_REACTORS
330
5B2
102
}
330
1F
100
AcDbEntity
  8
LC-001-002-----0
  6
ByBlock
 62
     7
370
    50
100
AcDbLine
 10
290.523344
 20
331.625961
 30
0.0
 11
294.84912
 21
329.463073
 31
0.0
  0
LINE
  5
3B0
102
{ACAD_REACTORS
330
5B2
102
}
330
1F
100
AcDbEntity
  8
LC-001-002-----0
  6
ByBlock
 62
     7
370
    50
100
AcDbLine
 10
297.494165
 20
290.67055
 30
0.0
 11
297.494165
 21
287.22055
 31
0.0
  0
LINE
  5
3B1
102
{ACAD_REACTORS
330
5B2
102
}
330
1F
100
AcDbEntity
  8
LC-001-002-----0
  6
ByBlock
 62
     7
370
    50
100
AcDbLine
 10
297.494165
 20
333.895692
 30
0.0
 11
297.494165
 21
331.47055
 31
0.0
  0
DIMENSION
  5
3B2
330
1F
100
AcDbEntity
  8
LC-005-003-----0
 62
     7
370
    25
100
AcDbDimension
  2
*D18
 10
208.739864
 20
311.07055
 30
0.0
 11
177.939864
 21
342.144
 31
0.0
 70
   160
  1
48
 71
     5
 42
48.100511
 53
90.0
  3
LC-DIM-L-0140-02-02
100
AcDbAlignedDimension
 13
287.376348
 23
359.171062
 33
0.0
 14
282.994165
 24
311.07055
 34
0.0
 50
90.0
100
AcDbRotatedDimension
  0
LINE
  5
3C1
330
1F
100
AcDbEntity
  8
LC-001-002-----0
  6
ByBlock
 62
     7
370
    50
100
AcDbLine
 10
466.29076
 20
356.552476
 30
0.0
 11
467.713409
 21
356.552476
 31
0.0
  0
ELLIPSE
  5
3C2
330
1F
100
AcDbEntity
  8
LC-001-002-----0
  6
ByBlock
 62
     7
370
    50
100
AcDbEllipse
 10
445.001998
 20
311.07055
 30
0.0
 11
0.0
 21
-21.999999999246
 31
0.0
210
0.0
220
0.0
230
1.0
 40
0.22196
 41
6.283092605574667
 42
9.424777960769484
  0
LINE
  5
3C3
330
1F
100
AcDbEntity
  8
LC-001-002-----0
  6
ByBlock
 62
     7
370
    50
100
AcDbLine
 10
508.001998
 20
359.527674
 30
0.0
 11
508.001998
 21
361.008818
 31
0.0
  0
LINE
  5
3C4
330
1F
100
AcDbEntity
  8
LC-001-002-----0
  6
ByBlock
 62
     7
370
    50
100
AcDbLine
 10
278.001998
 20
359.527674
 30
0.0
 11
278.001998
 21
361.008818
 31
0.0
  0
ARC
  5
3C5
102
{ACAD_REACTORS
330
5B7
102
}
330
1F
100
AcDbEntity
  8
LC-004-002-RND-0
 62
     7
370
    50
100
AcDbCircle
 10
280.001998
 20
361.008818
 30
0.0
 40
1.999999999999994
100
AcDbArc
 50
88.101636
 51
180.0
  0
LINE
  5
3C6
102
{ACAD_REACTORS
330
5A6
102
}
330
1F
100
AcDbEntity
  8
LC-003-005-----0
 62
     7
370
    25
100
AcDbLine
 10
340.372584
 20
331.47055
 30
0.0
 11
341.001998
 21
332.099964
 31
0.0
  0
LINE
  5
3C7
102
{ACAD_REACTORS
330
5A6
102
}
330
1F
100
AcDbEntity
  8
LC-003-005-----0
 62
     7
370
    25
100
AcDbLine
 10
337.544157
 20
331.47055
 30
0.0
 11
341.001998
 21
334.928392
 31
0.0
  0
LINE
  5
3C8
102
{ACAD_REACTORS
330
5A6
102
}
330
1F
100
AcDbEntity
  8
LC-003-005-----0
 62
     7
370
    25
100
AcDbLine
 10
334.71573
 20
331.47055
 30
0.0
 11
336.26573
 21
333.02055
 31
0.0
  0
LINE
  5
3C9
102
{ACAD_REACTORS
330
5A6
102
}
330
1F
100
AcDbEntity
  8
LC-003-005-----0
 62
     7
370
    25
100
AcDbLine
 10
338.001998
 20
334.756819
 30
0.0
 11
341.001998
 21
337.756819
 31
0.0
  0
LINE
  5
3CA
102
{ACAD_REACTORS
330
5A6
102
}
330
1F
100
AcDbEntity
  8
LC-003-005-----0
 62
     7
370
    25
100
AcDbLine
 10
331.887303
 20
331.47055
 30
0.0
 11
333.437303
 21
333.02055
 31
0.0
  0
LINE
  5
3CB
102
{ACAD_REACTORS
330
5A6
102
}
330
1F
100
AcDbEntity
  8
LC-003-005-----0
 62
     7
370
    25
100
AcDbLine
 10
338.001998
 20
337.585246
 30
0.0
 11
341.001998
 21
340.585246
 31
0.0
  0
LINE
  5
3CC
102
{ACAD_REACTORS
330
5A6
102
}
330
1F
100
AcDbEntity
  8
LC-003-005-----0
 62
     7
370
    25
100
AcDbLine
 10
329.058876
 20
331.47055
 30
0.0
 11
330.608876
 21
333.02055
 31
0.0
  0
LINE
  5
3CD
102
{ACAD_REACTORS
330
5A6
102
}
330
1F
100
AcDbEntity
  8
LC-003-005-----0
 62
     7
370
    25
100
AcDbLine
 10
337.418244
 20
339.829919
 30
0.0
 11
341.001998
 21
343.413673
 31
0.0
  0
LINE
  5
3CE
102
{ACAD_REACTORS
330
5A6
102
}
330
1F
100
AcDbEntity
  8
LC-003-005-----0
 62
     7
370
    25
100
AcDbLine
 10
326.230449
 20
331.47055
 30
0.0
 11
327.780449
 21
333.02055
 31
0.0
  0
LINE
  5
3CF
102
{ACAD_REACTORS
330
5A6
102
}
330
1F
100
AcDbEntity
  8
LC-003-005-----0
 62
     7
370
    25
100
AcDbLine
 10
335.723605
 20
340.963706
 30
0.0
 11
337.811684
 21
343.051785
 31
0.0
  0
LINE
  5
3D0
102
{ACAD_REACTORS
330
5A6
102
}
330
1F
100
AcDbEntity
  8
LC-003-005-----0
 62
     7
370
    25
100
AcDbLine
 10
323.402022
 20
331.47055
 30
0.0
 11
324.952022
 21
333.02055
 31
0.0
  0
LINE
  5
3D1
102
{ACAD_REACTORS
330
5A6
102
}
330
1F
100
AcDbEntity
  8
LC-003-005-----0
 62
     7
370
    25
100
AcDbLine
 10
332.983257
 20
341.051785
 30
0.0
 11
335.501886
 21
343.570415
 31
0.0
  0
LINE
  5
3D2
102
{ACAD_REACTORS
330
5A6
102
}
330
1F
100
AcDbEntity
  8
LC-003-005-----0
 62
     7
370
    25
100
AcDbLine
 10
320.573595
 20
331.47055
 30
0.0
 11
322.123595
 21
333.02055
 31
0.0
  0
LINE
  5
3D3
102
{ACAD_REACTORS
330
5A6
102
}
330
1F
100
AcDbEntity
  8
LC-003-005-----0
 62
     7
370
    25
100
AcDbLine
 10
330.15483
 20
341.051785
 30
0.0
 11
333.001972
 21
343.898928
 31
0.0
  0
LINE
  5
3D4
102
{ACAD_REACTORS
330
5A6
102
}
330
1F
100
AcDbEntity
  8
LC-003-005-----0
 62
     7
370
    25
100
AcDbLine
 10
317.745167
 20
331.47055
 30
0.0
 11
319.295167
 21
333.02055
 31
0.0
  0
LINE
  5
3D5
102
{ACAD_REACTORS
330
5A6
102
}
330
1F
100
AcDbEntity
  8
LC-003-005-----0
 62
     7
370
    25
100
AcDbLine
 10
327.326403
 20
341.051785
 30
0.0
 11
333.001972
 21
346.727355
 31
0.0
  0
LINE
  5
3D6
102
{ACAD_REACTORS
330
5A6
102
}
330
1F
100
AcDbEntity
  8
LC-003-005-----0
 62
     7
370
    25
100
AcDbLine
 10
314.91674
 20
331.47055
 30
0.0
 11
316.46674
 21
333.02055
 31
0.0
  0
LINE
  5
3D7
102
{ACAD_REACTORS
330
5A6
102
}
330
1F
100
AcDbEntity
  8
LC-003-005-----0
 62
     7
370
    25
100
AcDbLine
 10
324.497975
 20
341.051785
 30
0.0
 11
333.001972
 21
349.555782
 31
0.0
  0
LINE
  5
3D8
102
{ACAD_REACTORS
330
5A6
102
}
330
1F
100
AcDbEntity
  8
LC-003-005-----0
 62
     7
370
    25
100
AcDbLine
 10
312.088313
 20
331.47055
 30
0.0
 11
313.638313
 21
333.02055
 31
0.0
  0
LINE
  5
3D9
102
{ACAD_REACTORS
330
5A6
102
}
330
1F
100
AcDbEntity
  8
LC-003-005-----0
 62
     7
370
    25
100
AcDbLine
 10
321.669548
 20
341.051785
 30
0.0
 11
323.669548
 21
343.051785
 31
0.0
  0
LINE
  5
3DA
102
{ACAD_REACTORS
330
5A6
102
}
330
1F
100
AcDbEntity
  8
LC-003-005-----0
 62
     7
370
    25
100
AcDbLine
 10
325.501509
 20
344.883746
 30
0.0
 11
333.001972
 21
352.38421
 31
0.0
  0
LINE
  5
3DB
102
{ACAD_REACTORS
330
5A6
102
}
330
1F
100
AcDbEntity
  8
LC-003-005-----0
 62
     7
370
    25
100
AcDbLine
 10
309.259886
 20
331.47055
 30
0.0
 11
310.809886
 21
333.02055
 31
0.0
  0
LINE
  5
3DC
102
{ACAD_REACTORS
330
5A6
102
}
330
1F
100
AcDbEntity
  8
LC-003-005-----0
 62
     7
370
    25
100
AcDbLine
 10
318.841121
 20
341.051785
 30
0.0
 11
320.841121
 21
343.051785
 31
0.0
  0
LINE
  5
3DD
102
{ACAD_REACTORS
330
5A6
102
}
330
1F
100
AcDbEntity
  8
LC-003-005-----0
 62
     7
370
    25
100
AcDbLine
 10
325.501509
 20
347.712173
 30
0.0
 11
333.001972
 21
355.212637
 31
0.0
  0
LINE
  5
3DE
102
{ACAD_REACTORS
330
5A6
102
}
330
1F
100
AcDbEntity
  8
LC-003-005-----0
 62
     7
370
    25
100
AcDbLine
 10
306.431459
 20
331.47055
 30
0.0
 11
307.981459
 21
333.02055
 31
0.0
  0
LINE
  5
3DF
102
{ACAD_REACTORS
330
5A6
102
}
330
1F
100
AcDbEntity
  8
LC-003-005-----0
 62
     7
370
    25
100
AcDbLine
 10
317.501477
 20
342.540568
 30
0.0
 11
320.501509
 21
345.5406
 31
0.0
  0
LINE
  5
3E0
102
{ACAD_REACTORS
330
5A6
102
}
330
1F
100
AcDbEntity
  8
LC-003-005-----0
 62
     7
370
    25
100
AcDbLine
 10
325.501509
 20
350.5406
 30
0.0
 11
333.001972
 21
358.041064
 31
0.0
  0
LINE
  5
3E1
102
{ACAD_REACTORS
330
5A6
102
}
330
1F
100
AcDbEntity
  8
LC-003-005-----0
 62
     7
370
    25
100
AcDbLine
 10
303.603032
 20
331.47055
 30
0.0
 11
305.153032
 21
333.02055
 31
0.0
  0
LINE
  5
3E2
102
{ACAD_REACTORS
330
5A6
102
}
330
1F
100
AcDbEntity
  8
LC-003-005-----0
 62
     7
370
    25
100
AcDbLine
 10
317.501477
 20
345.368995
 30
0.0
 11
320.501509
 21
348.369028
 31
0.0
  0
LINE
  5
3E3
102
{ACAD_REACTORS
330
5A6
102
}
330
1F
100
AcDbEntity
  8
LC-003-005-----0
 62
     7
370
    25
100
AcDbLine
 10
325.501509
 20
353.369028
 30
0.0
 11
328.684957
 21
356.552476
 31
0.0
  0
LINE
  5
3E4
102
{ACAD_REACTORS
330
5A6
102
}
330
1F
100
AcDbEntity
  8
LC-003-005-----0
 62
     7
370
    25
100
AcDbLine
 10
329.001998
 20
356.869517
 30
0.0
 11
331.720276
 21
359.587794
 31
0.0
  0
LINE
  5
3E5
102
{ACAD_REACTORS
330
5A6
102
}
330
1F
100
AcDbEntity
  8
LC-003-005-----0
 62
     7
370
    25
100
AcDbLine
 10
300.774605
 20
331.47055
 30
0.0
 11
302.324605
 21
333.02055
 31
0.0
  0
ARC
  5
3E6
102
{ACAD_REACTORS
330
5A8
102
}
330
1F
100
AcDbEntity
  8
LC-004-002-RND-0
 62
     7
370
    50
100
AcDbCircle
 10
335.001998
 20
338.051785
 30
0.0
 40
3.0
100
AcDbArc
 50
360.0
 51
90.0
  0
LINE
  5
3E7
102
{ACAD_REACTORS
330
5A8
102
}
330
1F
100
AcDbEntity
  8
LC-001-002-----0
  6
ByBlock
 62
     7
370
    50
100
AcDbLine
 10
341.001998
 20
342.22055
 30
0.0
 11
341.001998
 21
340.612825
 31
0.0
  0
LINE
  5
3E8
102
{ACAD_REACTORS
330
5A8
102
}
330
1F
100
AcDbEntity
  8
LC-001-002-----0
  6
ByBlock
 62
     7
370
    50
100
AcDbLine
 10
338.001998
 20
338.051785
 30
0.0
 11
338.001998
 21
334.02055
 31
0.0
  0
LINE
  5
3E9
102
{ACAD_REACTORS
330
5A6
102
}
330
1F
100
AcDbEntity
  8
LC-003-005-----0
 62
     7
370
    25
100
AcDbLine
 10
317.501477
 20
348.197422
 30
0.0
 11
320.501509
 21
351.197455
 31
0.0
  0
ARC
  5
3EA
102
{ACAD_REACTORS
330
5A8
102
}
330
1F
100
AcDbEntity
  8
LC-007-205-----0
 62
     7
370
    50
100
AcDbCircle
 10
488.351306
 20
338.345242
 30
0.0
 40
0.2500000000000429
100
AcDbArc
 50
68.305797
 51
180.0
  0
ARC
  5
3EB
102
{ACAD_REACTORS
330
5A8
102
}
330
1F
100
AcDbEntity
  8
LC-004-002-RND-0
 62
    70
370
    50
100
AcDbCircle
 10
337.001998
 20
334.02055
 30
0.0
 40
1.0
100
AcDbArc
 50
270.0
 51
360.0
  0
LINE
  5
3EC
102
{ACAD_REACTORS
330
5A8
102
}
330
1F
100
AcDbEntity
  8
LC-001-002-----0
  6
ByBlock
 62
     7
370
    50
100
AcDbLine
 10
341.501998
 20
281.082055
 30
0.0
 11
444.501998
 21
281.082055
 31
0.0
  0
LINE
  5
3ED
102
{ACAD_REACTORS
330
5A6
102
}
330
1F
100
AcDbEntity
  8
LC-003-005-----0
 62
     7
370
    25
100
AcDbLine
 10
297.946178
 20
331.47055
 30
0.0
 11
300.350615
 21
333.874988
 31
0.0
  0
LINE
  5
3EE
102
{ACAD_REACTORS
330
5A6
102
}
330
1F
100
AcDbEntity
  8
LC-003-005-----0
 62
     7
370
    25
100
AcDbLine
 10
316.931108
 20
350.45548
 30
0.0
 11
320.501509
 21
354.025882
 31
0.0
  0
ARC
  5
3EF
102
{ACAD_REACTORS
330
5A8
102
}
330
1F
100
AcDbEntity
  8
LC-001-002-----0
  6
ByBlock
 62
     7
370
    50
100
AcDbCircle
 10
477.502442
 20
311.07055
 30
0.0
 40
29.60339290378799
100
AcDbArc
 50
78.506497
 51
121.348957
  0
LINE
  5
3F0
102
{ACAD_REACTORS
330
5A6
102
}
330
1F
100
AcDbEntity
  8
LC-003-005-----0
 62
     7
370
    25
100
AcDbLine
 10
297.494165
 20
333.846965
 30
0.0
 11
299.093536
 21
335.446336
 31
0.0
  0
LINE
  5
3F1
102
{ACAD_REACTORS
330
5AF
102
}
330
1F
100
AcDbEntity
  8
LC-001-002-----0
  6
ByBlock
 62
     7
370
    50
100
AcDbLine
 10
296.134165
 20
287.10055
 30
0.0
 11
296.134165
 21
286.58055
 31
0.0
  0
LINE
  5
3F2
102
{ACAD_REACTORS
330
5A6
102
}
330
1F
100
AcDbEntity
  8
LC-003-005-----0
 62
     7
370
    25
100
AcDbLine
 10
314.199676
 20
350.552476
 30
0.0
 11
316.699676
 21
353.052476
 31
0.0
  0
LINE
  5
3F3
102
{ACAD_REACTORS
330
5A6
102
}
330
1F
100
AcDbEntity
  8
LC-003-005-----0
 62
     7
370
    25
100
AcDbLine
 10
317.001998
 20
353.354798
 30
0.0
 11
320.257312
 21
356.610111
 31
0.0
  0
LINE
  5
3F4
102
{ACAD_REACTORS
330
5A6
102
}
330
1F
100
AcDbEntity
  8
LC-003-005-----0
 62
     7
370
    25
100
AcDbLine
 10
296.714702
 20
335.895929
 30
0.0
 11
297.836457
 21
337.017685
 31
0.0
  0
LINE
  5
3F5
102
{ACAD_REACTORS
330
5A8
102
}
330
1F
100
AcDbEntity
  8
LC-001-002-----0
  6
ByBlock
 62
     7
370
    50
100
AcDbLine
 10
459.601306
 20
283.759046
 30
0.0
 11
462.101306
 21
283.759046
 31
0.0
  0
LINE
  5
3F6
102
{ACAD_REACTORS
330
5A8
102
}
330
1F
100
AcDbEntity
  8
LC-001-002-----0
  6
ByBlock
 62
     7
370
    50
100
AcDbLine
 10
459.601306
 20
286.07055
 30
0.0
 11
459.601306
 21
283.759046
 31
0.0
  0
LINE
  5
3F7
102
{ACAD_REACTORS
330
5A6
102
}
330
1F
100
AcDbEntity
  8
LC-003-005-----0
 62
     7
370
    25
100
AcDbLine
 10
311.371249
 20
350.552476
 30
0.0
 11
313.871249
 21
353.052476
 31
0.0
  0
LINE
  5
3F8
330
1F
100
AcDbEntity
  8
LC-001-002-----0
  6
ByBlock
 62
     7
370
    50
100
AcDbLine
 10
468.002084
 20
357.052476
 30
0.0
 11
467.002574
 21
357.052476
 31
0.0
  0
LINE
  5
3F9
330
1F
100
AcDbEntity
  8
LC-001-002-----0
  6
ByBlock
 62
     7
370
    50
100
AcDbLine
 10
458.002084
 20
357.052476
 30
0.0
 11
466.002084
 21
357.052476
 31
0.0
  0
LINE
  5
3FA
330
1F
100
AcDbEntity
  8
LC-001-002-----0
  6
ByBlock
 62
     7
370
    50
100
AcDbLine
 10
458.002084
 20
357.052476
 30
0.0
 11
457.002084
 21
357.052476
 31
0.0
  0
LINE
  5
3FB
330
1F
100
AcDbEntity
  8
LC-001-002-----0
  6
ByBlock
 62
     7
370
    50
100
AcDbLine
 10
476.002606
 20
356.552476
 30
0.0
 11
469.002084
 21
356.552476
 31
0.0
  0
LINE
  5
3FC
330
1F
100
AcDbEntity
  8
LC-001-002-----0
  6
ByBlock
 62
     7
370
    50
100
AcDbLine
 10
457.002084
 20
358.052476
 30
0.0
 11
457.002084
 21
356.552476
 31
0.0
  0
LINE
  5
3FD
330
1F
100
AcDbEntity
  8
LC-001-002-----0
  6
ByBlock
 62
     7
370
    50
100
AcDbLine
 10
469.002084
 20
356.552476
 30
0.0
 11
469.002084
 21
353.052476
 31
0.0
  0
LINE
  5
3FE
330
1F
100
AcDbEntity
  8
LC-001-002-----0
  6
ByBlock
 62
     7
370
    50
100
AcDbLine
 10
457.002084
 20
356.552476
 30
0.0
 11
457.713409
 21
356.552476
 31
0.0
  0
LINE
  5
3FF
330
1F
100
AcDbEntity
  8
LC-001-002-----0
  6
ByBlock
 62
     7
370
    50
100
AcDbLine
 10
469.002606
 20
353.052476
 30
0.0
 11
476.002606
 21
353.052476
 31
0.0
  0
LINE
  5
400
330
1F
100
AcDbEntity
  8
LC-001-002-----0
  6
ByBlock
 62
     7
370
    50
100
AcDbLine
 10
476.002606
 20
353.052476
 30
0.0
 11
476.002606
 21
356.552476
 31
0.0
  0
LINE
  5
401
330
1F
100
AcDbEntity
  8
LC-001-002-----0
  6
ByBlock
 62
     7
370
    50
100
AcDbLine
 10
469.50252
 20
350.552476
 30
0.0
 11
476.002606
 21
350.552476
 31
0.0
  0
LINE
  5
402
330
1F
100
AcDbEntity
  8
LC-001-002-----0
  6
ByBlock
 62
     7
370
    50
100
AcDbLine
 10
476.002606
 20
350.552476
 30
0.0
 11
478.451271
 21
353.001141
 31
0.0
  0
LINE
  5
403
330
1F
100
AcDbEntity
  8
LC-001-002-----0
  6
ByBlock
 62
     7
370
    50
100
AcDbLine
 10
457.713409
 20
356.552476
 30
0.0
 11
458.002084
 21
357.052476
 31
0.0
  0
LINE
  5
404
330
1F
100
AcDbEntity
  8
LC-001-002-----0
  6
ByBlock
 62
     7
370
    50
100
AcDbLine
 10
458.002084
 20
357.052476
 30
0.0
 11
458.29076
 21
356.552476
 31
0.0
  0
LINE
  5
405
330
1F
100
AcDbEntity
  8
LC-001-002-----0
  6
ByBlock
 62
     7
370
    50
100
AcDbLine
 10
458.29076
 20
356.552476
 30
0.0
 11
459.713409
 21
356.552476
 31
0.0
  0
LINE
  5
406
330
1F
100
AcDbEntity
  8
LC-001-002-----0
  6
ByBlock
 62
     7
370
    50
100
AcDbLine
 10
468.002084
 20
357.052476
 30
0.0
 11
468.29076
 21
356.552476
 31
0.0
  0
LINE
  5
407
330
1F
100
AcDbEntity
  8
LC-001-002-----0
  6
ByBlock
 62
     7
370
    50
100
AcDbLine
 10
467.713409
 20
356.552476
 30
0.0
 11
468.002084
 21
357.052476
 31
0.0
  0
LINE
  5
408
330
1F
100
AcDbEntity
  8
LC-001-002-----0
  6
ByBlock
 62
     7
370
    50
100
AcDbLine
 10
468.29076
 20
356.552476
 30
0.0
 11
469.002084
 21
356.552476
 31
0.0
  0
LINE
  5
409
330
1F
100
AcDbEntity
  8
LC-001-002-----0
  6
ByBlock
 62
     7
370
    50
100
AcDbLine
 10
465.502574
 20
343.051785
 30
0.0
 11
460.502574
 21
343.051785
 31
0.0
  0
LINE
  5
40A
102
{ACAD_REACTORS
330
5A6
102
}
330
1F
100
AcDbEntity
  8
LC-003-005-----0
 62
     7
370
    25
100
AcDbLine
 10
317.001998
 20
356.183226
 30
0.0
 11
317.371249
 21
356.552476
 31
0.0
  0
LINE
  5
40B
330
1F
100
AcDbEntity
  8
LC-001-002-----0
  6
ByBlock
 62
     7
370
    50
100
AcDbLine
 10
465.502574
 20
356.552476
 30
0.0
 11
465.502574
 21
343.051785
 31
0.0
  0
LINE
  5
40C
330
1F
100
AcDbEntity
  8
LC-001-002-----0
  6
ByBlock
 62
     7
370
    50
100
AcDbLine
 10
457.002084
 20
358.052476
 30
0.0
 11
453.002197
 21
358.052476
 31
0.0
  0
LINE
  5
40D
330
1F
100
AcDbEntity
  8
LC-001-002-----0
  6
ByBlock
 62
     7
370
    50
100
AcDbLine
 10
476.002606
 20
356.552476
 30
0.0
 11
478.002084
 21
356.552476
 31
0.0
  0
LINE
  5
40E
102
{ACAD_REACTORS
330
5A6
102
}
330
1F
100
AcDbEntity
  8
LC-003-005-----0
 62
     7
370
    25
100
AcDbLine
 10
293.910896
 20
335.92055
 30
0.0
 11
296.060896
 21
338.07055
 31
0.0
  0
LINE
  5
40F
102
{ACAD_REACTORS
330
5A6
102
}
330
1F
100
AcDbEntity
  8
LC-003-005-----0
 62
     7
370
    25
100
AcDbLine
 10
309.272149
 20
351.281803
 30
0.0
 11
311.042822
 21
353.052476
 31
0.0
  0
LINE
  5
410
102
{ACAD_REACTORS
330
5A6
102
}
330
1F
100
AcDbEntity
  8
LC-003-005-----0
 62
     7
370
    25
100
AcDbLine
 10
291.082469
 20
335.92055
 30
0.0
 11
293.232469
 21
338.07055
 31
0.0
  0
LINE
  5
411
102
{ACAD_REACTORS
330
5A6
102
}
330
1F
100
AcDbEntity
  8
LC-003-005-----0
 62
     7
370
    25
100
AcDbLine
 10
307.857936
 20
352.696017
 30
0.0
 11
310.001477
 21
354.839558
 31
0.0
  0
LINE
  5
412
102
{ACAD_REACTORS
330
5A6
102
}
330
1F
100
AcDbEntity
  8
LC-003-005-----0
 62
     7
370
    25
100
AcDbLine
 10
285.904042
 20
333.57055
 30
0.0
 11
290.404042
 21
338.07055
 31
0.0
  0
LINE
  5
413
102
{ACAD_REACTORS
330
5A6
102
}
330
1F
100
AcDbEntity
  8
LC-003-005-----0
 62
     7
370
    25
100
AcDbLine
 10
305.854078
 20
353.520586
 30
0.0
 11
308.885967
 21
356.552476
 31
0.0
  0
LINE
  5
414
102
{ACAD_REACTORS
330
5A6
102
}
330
1F
100
AcDbEntity
  8
LC-003-005-----0
 62
     7
370
    25
100
AcDbLine
 10
283.075615
 20
333.57055
 30
0.0
 11
284.575615
 21
335.07055
 31
0.0
  0
LINE
  5
415
102
{ACAD_REACTORS
330
5A6
102
}
330
1F
100
AcDbEntity
  8
LC-003-005-----0
 62
     7
370
    25
100
AcDbLine
 10
303.688027
 20
354.182963
 30
0.0
 11
306.512826
 21
357.007762
 31
0.0
  0
LINE
  5
416
330
1F
100
AcDbEntity
  8
LC-001-002-----0
  6
ByBlock
 62
     7
370
    50
100
AcDbLine
 10
310.001477
 20
356.552476
 30
0.0
 11
317.077615
 21
356.552476
 31
0.0
  0
LINE
  5
417
330
1F
100
AcDbEntity
  8
LC-001-002-----0
  6
ByBlock
 62
     7
370
    50
100
AcDbLine
 10
329.001998
 20
357.052476
 30
0.0
 11
329.001998
 21
356.552476
 31
0.0
  0
LINE
  5
418
330
1F
100
AcDbEntity
  8
LC-001-002-----0
  6
ByBlock
 62
     7
370
    50
100
AcDbLine
 10
317.001998
 20
356.552476
 30
0.0
 11
317.001998
 21
353.052476
 31
0.0
  0
LINE
  5
419
330
1F
100
AcDbEntity
  8
LC-001-002-----0
  6
ByBlock
 62
     7
370
    50
100
AcDbLine
 10
329.001998
 20
356.552476
 30
0.0
 11
328.290674
 21
356.552476
 31
0.0
  0
LINE
  5
41A
330
1F
100
AcDbEntity
  8
LC-001-002-----0
  6
ByBlock
 62
     7
370
    50
100
AcDbLine
 10
317.001477
 20
353.052476
 30
0.0
 11
310.001477
 21
353.052476
 31
0.0
  0
LINE
  5
41B
330
1F
100
AcDbEntity
  8
LC-001-002-----0
  6
ByBlock
 62
     7
370
    50
100
AcDbLine
 10
310.001477
 20
353.052476
 30
0.0
 11
310.001477
 21
356.552476
 31
0.0
  0
LINE
  5
41C
330
1F
100
AcDbEntity
  8
LC-001-002-----0
  6
ByBlock
 62
     7
370
    50
100
AcDbLine
 10
316.501477
 20
350.552476
 30
0.0
 11
310.001477
 21
350.552476
 31
0.0
  0
LINE
  5
41D
330
1F
100
AcDbEntity
  8
LC-001-002-----0
  6
ByBlock
 62
     7
370
    50
100
AcDbLine
 10
310.001477
 20
350.552476
 30
0.0
 11
307.55285
 21
353.001103
 31
0.0
  0
LINE
  5
41E
330
1F
100
AcDbEntity
  8
LC-001-002-----0
  6
ByBlock
 62
     7
370
    50
100
AcDbLine
 10
328.290674
 20
356.552476
 30
0.0
 11
328.001998
 21
357.052476
 31
0.0
  0
LINE
  5
41F
330
1F
100
AcDbEntity
  8
LC-001-002-----0
  6
ByBlock
 62
     7
370
    50
100
AcDbLine
 10
328.001998
 20
357.052476
 30
0.0
 11
327.713323
 21
356.552476
 31
0.0
  0
LINE
  5
420
330
1F
100
AcDbEntity
  8
LC-001-002-----0
  6
ByBlock
 62
     7
370
    50
100
AcDbLine
 10
327.713323
 20
356.552476
 30
0.0
 11
327.001509
 21
356.552476
 31
0.0
  0
LINE
  5
421
330
1F
100
AcDbEntity
  8
LC-001-002-----0
  6
ByBlock
 62
     7
370
    50
100
AcDbLine
 10
318.001998
 20
357.052476
 30
0.0
 11
317.713323
 21
356.552476
 31
0.0
  0
LINE
  5
422
330
1F
100
AcDbEntity
  8
LC-001-002-----0
  6
ByBlock
 62
     7
370
    50
100
AcDbLine
 10
318.290674
 20
356.552476
 30
0.0
 11
318.001998
 21
357.052476
 31
0.0
  0
LINE
  5
423
330
1F
100
AcDbEntity
  8
LC-001-002-----0
  6
ByBlock
 62
     7
370
    50
100
AcDbLine
 10
326.997973
 20
356.552476
 30
0.0
 11
326.290587
 21
356.552476
 31
0.0
  0
LINE
  5
424
330
1F
100
AcDbEntity
  8
LC-001-002-----0
  6
ByBlock
 62
     7
370
    50
100
AcDbLine
 10
317.713323
 20
356.552476
 30
0.0
 11
317.001998
 21
356.552476
 31
0.0
  0
LINE
  5
425
330
1F
100
AcDbEntity
  8
LC-001-002-----0
  6
ByBlock
 62
     7
370
    50
100
AcDbLine
 10
310.001477
 20
356.552476
 30
0.0
 11
308.001998
 21
356.552476
 31
0.0
  0
LINE
  5
426
330
1F
100
AcDbEntity
  8
LC-001-002-----0
  6
ByBlock
 62
     7
370
    50
100
AcDbLine
 10
332.001972
 20
358.051785
 30
0.0
 11
332.001972
 21
359.587794
 31
0.0
  0
LINE
  5
427
330
1F
100
AcDbEntity
  8
LC-001-002-----0
  6
ByBlock
 62
     7
370
    50
100
AcDbLine
 10
325.501509
 20
356.552476
 30
0.0
 11
325.501509
 21
343.051785
 31
0.0
  0
LINE
  5
428
330
1F
100
AcDbEntity
  8
LC-001-002-----0
  6
ByBlock
 62
     7
370
    50
100
AcDbLine
 10
320.501509
 20
356.552476
 30
0.0
 11
320.501509
 21
343.051785
 31
0.0
  0
LINE
  5
429
330
1F
100
AcDbEntity
  8
LC-001-002-----0
  6
ByBlock
 62
     7
370
    50
100
AcDbLine
 10
320.501509
 20
343.051785
 30
0.0
 11
325.501509
 21
343.051785
 31
0.0
  0
LINE
  5
42A
330
1F
100
AcDbEntity
  8
LC-001-002-----0
  6
ByBlock
 62
     7
370
    50
100
AcDbLine
 10
333.001972
 20
358.051785
 30
0.0
 11
332.001972
 21
358.051785
 31
0.0
  0
LINE
  5
42B
102
{ACAD_REACTORS
330
5A6
102
}
330
1F
100
AcDbEntity
  8
LC-003-005-----0
 62
     7
370
    25
100
AcDbLine
 10
301.521977
 20
354.845339
 30
0.0
 11
304.346662
 21
357.670024
 31
0.0
  0
LINE
  5
42C
102
{ACAD_REACTORS
330
5A6
102
}
330
1F
100
AcDbEntity
  8
LC-003-005-----0
 62
     7
370
    25
100
AcDbLine
 10
299.355926
 20
355.507716
 30
0.0
 11
302.180498
 21
358.332287
 31
0.0
  0
LINE
  5
42D
102
{ACAD_REACTORS
330
5A8
102
}
330
1F
100
AcDbEntity
  8
LC-001-002-----0
  6
ByBlock
 62
     7
370
    50
100
AcDbLine
 10
462.101306
 20
285.981289
 30
0.0
 11
462.101306
 21
283.759046
 31
0.0
  0
ARC
  5
42E
102
{ACAD_REACTORS
330
5A8
102
}
330
1F
100
AcDbEntity
  8
LC-007-205-----0
 62
     7
370
    50
100
AcDbCircle
 10
487.601306
 20
336.57055
 30
0.0
 40
0.5000000000002274
100
AcDbArc
 50
270.0
 51
0.0
  0
ARC
  5
42F
102
{ACAD_REACTORS
330
5A8
102
}
330
1F
100
AcDbEntity
  8
LC-001-002-----0
  6
ByBlock
 62
     7
370
    50
100
AcDbCircle
 10
477.502442
 20
311.07055
 30
0.0
 40
29.6025923914001
100
AcDbArc
 50
53.522709
 51
68.309138
  0
LINE
  5
430
102
{ACAD_REACTORS
330
5A8
102
}
330
1F
100
AcDbEntity
  8
LC-007-205-----0
 62
     7
370
    50
100
AcDbLine
 10
495.101306
 20
334.873774
 30
0.0
 11
495.101306
 21
333.07055
 31
0.0
  0
LINE
  5
431
102
{ACAD_REACTORS
330
5A6
102
}
330
1F
100
AcDbEntity
  8
LC-003-005-----0
 62
     7
370
    25
100
AcDbLine
 10
297.189875
 20
356.170092
 30
0.0
 11
300.014333
 21
358.99455
 31
0.0
  0
LINE
  5
432
102
{ACAD_REACTORS
330
5A8
102
}
330
1F
100
AcDbEntity
  8
LC-001-002-----0
  6
ByBlock
 62
     7
370
    50
100
AcDbLine
 10
444.501998
 20
284.082055
 30
0.0
 11
341.501998
 21
284.082055
 31
0.0
  0
LINE
  5
433
102
{ACAD_REACTORS
330
5A8
102
}
330
1F
100
AcDbEntity
  8
LC-007-205-----0
 62
     7
370
    50
100
AcDbLine
 10
495.101306
 20
289.07055
 30
0.0
 11
495.101306
 21
287.459046
 31
0.0
  0
LINE
  5
434
102
{ACAD_REACTORS
330
5A8
102
}
330
1F
100
AcDbEntity
  8
LC-007-205-----0
 62
     7
370
    50
100
AcDbLine
 10
484.101306
 20
286.259046
 30
0.0
 11
487.601306
 21
286.259046
 31
0.0
  0
ARC
  5
435
102
{ACAD_REACTORS
330
5A8
102
}
330
1F
100
AcDbEntity
  8
LC-007-205-----0
 62
     7
370
    50
100
AcDbCircle
 10
487.601306
 20
285.759046
 30
0.0
 40
0.5
100
AcDbArc
 50
0.0
 51
90.0
  0
LINE
  5
436
102
{ACAD_REACTORS
330
5A8
102
}
330
1F
100
AcDbEntity
  8
LC-007-205-----0
 62
     7
370
    50
100
AcDbLine
 10
488.101306
 20
285.759046
 30
0.0
 11
488.101306
 21
284.061532
 31
0.0
  0
LINE
  5
437
102
{ACAD_REACTORS
330
5A6
102
}
330
1F
100
AcDbEntity
  8
LC-003-005-----0
 62
     7
370
    25
100
AcDbLine
 10
295.023825
 20
356.832469
 30
0.0
 11
297.848169
 21
359.656813
 31
0.0
  0
ARC
  5
438
102
{ACAD_REACTORS
330
5A8
102
}
330
1F
100
AcDbEntity
  8
LC-007-205-----0
 62
     7
370
    50
100
AcDbCircle
 10
488.401306
 20
284.061532
 30
0.0
 40
0.2999999999997272
100
AcDbArc
 50
180.0
 51
291.837464
  0
ARC
  5
439
102
{ACAD_REACTORS
330
5A8
102
}
330
1F
100
AcDbEntity
  8
LC-007-205-----0
 62
     7
370
    50
100
AcDbCircle
 10
477.502442
 20
311.259046
 30
0.0
 40
29.60000000000002
100
AcDbArc
 50
291.837464
 51
306.481001
  0
LINE
  5
43A
102
{ACAD_REACTORS
330
5A8
102
}
330
1F
100
AcDbEntity
  8
LC-001-002-----0
  6
ByBlock
 62
     7
370
    50
100
AcDbLine
 10
445.001998
 20
289.07055
 30
0.0
 11
495.101306
 21
289.07055
 31
0.0
  0
ARC
  5
43B
102
{ACAD_REACTORS
330
5A8
102
}
330
1F
100
AcDbEntity
  8
LC-007-205-----0
 62
     7
370
    50
100
AcDbCircle
 10
483.351306
 20
339.835329
 30
0.0
 40
0.25
100
AcDbArc
 50
0.0
 51
78.504265
  0
LINE
  5
43C
102
{ACAD_REACTORS
330
5A8
102
}
330
1F
100
AcDbEntity
  8
LC-007-205-----0
 62
     7
370
    50
100
AcDbLine
 10
483.601306
 20
339.835329
 30
0.0
 11
483.601306
 21
336.57055
 31
0.0
  0
LINE
  5
43D
102
{ACAD_REACTORS
330
5A8
102
}
330
1F
100
AcDbEntity
  8
LC-007-205-----0
 62
     7
370
    50
100
AcDbLine
 10
488.101306
 20
338.345242
 30
0.0
 11
488.101306
 21
336.57055
 31
0.0
  0
LINE
  5
43E
102
{ACAD_REACTORS
330
5A8
102
}
330
1F
100
AcDbEntity
  8
LC-007-205-----0
 62
     7
370
    50
100
AcDbLine
 10
484.101306
 20
336.07055
 30
0.0
 11
487.601306
 21
336.07055
 31
0.0
  0
ARC
  5
43F
102
{ACAD_REACTORS
330
5A8
102
}
330
1F
100
AcDbEntity
  8
LC-007-205-----0
 62
     7
370
    50
100
AcDbCircle
 10
484.101306
 20
336.57055
 30
0.0
 40
0.5
100
AcDbArc
 50
180.0
 51
270.0
  0
LINE
  5
440
102
{ACAD_REACTORS
330
5A8
102
}
330
1F
100
AcDbEntity
  8
LC-007-205-----0
 62
     7
370
    50
100
AcDbLine
 10
483.601306
 20
285.759046
 30
0.0
 11
483.601306
 21
282.49773
 31
0.0
  0
ARC
  5
441
102
{ACAD_REACTORS
330
5A8
102
}
330
1F
100
AcDbEntity
  8
LC-007-205-----0
 62
     7
370
    50
100
AcDbCircle
 10
484.101306
 20
285.759046
 30
0.0
 40
0.5
100
AcDbArc
 50
90.0
 51
180.0
  0
ARC
  5
442
102
{ACAD_REACTORS
330
5A8
102
}
330
1F
100
AcDbEntity
  8
LC-007-205-----0
 62
     7
370
    50
100
AcDbCircle
 10
477.502442
 20
311.259046
 30
0.0
 40
29.60000000000006
100
AcDbArc
 50
238.647042
 51
281.49485
  0
ARC
  5
443
102
{ACAD_REACTORS
330
5A8
102
}
330
1F
100
AcDbEntity
  8
LC-007-205-----0
 62
     7
370
    50
100
AcDbCircle
 10
488.351306
 20
338.345242
 30
0.0
 40
0.2500000000000429
100
AcDbArc
 50
68.305797
 51
180.0
  0
ARC
  5
444
102
{ACAD_REACTORS
330
5A8
102
}
330
1F
100
AcDbEntity
  8
LC-007-205-----0
 62
     7
370
    50
100
AcDbCircle
 10
483.351306
 20
282.49773
 30
0.0
 40
0.2500000000000769
100
AcDbArc
 50
281.49485
 51
0.0
  0
LINE
  5
445
102
{ACAD_REACTORS
330
5A8
102
}
330
1F
100
AcDbEntity
  8
LC-007-205-----0
 62
     7
370
    50
100
AcDbLine
 10
448.001998
 20
286.07055
 30
0.0
 11
459.601306
 21
286.07055
 31
0.0
  0
LINE
  5
446
102
{ACAD_REACTORS
330
5A8
102
}
330
1F
100
AcDbEntity
  8
LC-001-002-----0
  6
ByBlock
 62
     7
370
    50
100
AcDbLine
 10
495.101306
 20
333.07055
 30
0.0
 11
445.001998
 21
333.07055
 31
0.0
  0
LINE
  5
447
102
{ACAD_REACTORS
330
5A6
102
}
330
1F
100
AcDbEntity
  8
LC-003-005-----0
 62
     7
370
    25
100
AcDbLine
 10
292.857774
 20
357.494846
 30
0.0
 11
295.682005
 21
360.319076
 31
0.0
  0
LINE
  5
448
102
{ACAD_REACTORS
330
5A6
102
}
330
1F
100
AcDbEntity
  8
LC-003-005-----0
 62
     7
370
    25
100
AcDbLine
 10
290.691724
 20
358.157222
 30
0.0
 11
293.51584
 21
360.981339
 31
0.0
  0
LINE
  5
449
102
{ACAD_REACTORS
330
5A6
102
}
330
1F
100
AcDbEntity
  8
LC-003-005-----0
 62
     7
370
    25
100
AcDbLine
 10
288.525673
 20
358.819599
 30
0.0
 11
291.349676
 21
361.643602
 31
0.0
  0
LINE
  5
44A
102
{ACAD_REACTORS
330
5A6
102
}
330
1F
100
AcDbEntity
  8
LC-003-005-----0
 62
     7
370
    25
100
AcDbLine
 10
286.097363
 20
359.219716
 30
0.0
 11
289.183512
 21
362.305865
 31
0.0
  0
INSERT
  5
462
102
{ACAD_REACTORS
330
5AF
102
}
330
1F
100
AcDbEntity
  8
LC-003-005-----0
 62
     7
370
    25
100
AcDbBlockReference
  2
*X1219
 10
0.0
 20
0.0
 30
0.0
  0
LINE
  5
463
102
{ACAD_REACTORS
330
5A6
102
}
330
1F
100
AcDbEntity
  8
LC-003-005-----0
 62
     7
370
    25
100
AcDbLine
 10
283.37259
 20
359.32337
 30
0.0
 11
286.832733
 21
362.783512
 31
0.0
  0
LINE
  5
464
102
{ACAD_REACTORS
330
5A6
102
}
330
1F
100
AcDbEntity
  8
LC-003-005-----0
 62
     7
370
    25
100
AcDbLine
 10
280.647817
 20
359.427024
 30
0.0
 11
284.095046
 21
362.874253
 31
0.0
  0
LINE
  5
465
102
{ACAD_REACTORS
330
5A6
102
}
330
1F
100
AcDbEntity
  8
LC-003-005-----0
 62
     7
370
    25
100
AcDbLine
 10
277.923044
 20
359.530678
 30
0.0
 11
281.357359
 21
362.964993
 31
0.0
  0
LINE
  5
466
102
{ACAD_REACTORS
330
5AF
102
}
330
1F
100
AcDbEntity
  8
LC-001-002-----0
  6
ByBlock
 62
     7
370
    50
100
AcDbLine
 10
295.334165
 20
287.10055
 30
0.0
 11
295.334165
 21
286.58055
 31
0.0
  0
ARC
  5
467
102
{ACAD_REACTORS
330
5AF
102
}
330
1F
100
AcDbEntity
  8
LC-004-002-RND-0
 62
     7
370
    50
100
AcDbCircle
 10
296.994165
 20
289.095409
 30
0.0
 40
0.5
100
AcDbArc
 50
0.0
 51
98.972627
  0
LINE
  5
468
102
{ACAD_REACTORS
330
5B1
102
}
330
1F
100
AcDbEntity
  8
LC-003-005-----0
 62
     7
370
    25
100
AcDbLine
 10
494.707649
 20
333.07055
 30
0.0
 11
495.101306
 21
333.464207
 31
0.0
  0
LINE
  5
469
102
{ACAD_REACTORS
330
5B1
102
}
330
1F
100
AcDbEntity
  8
LC-003-005-----0
 62
     7
370
    25
100
AcDbLine
 10
491.879222
 20
333.07055
 30
0.0
 11
494.273066
 21
335.464395
 31
0.0
  0
ARC
  5
46A
102
{ACAD_REACTORS
330
5AF
102
}
330
1F
100
AcDbEntity
  8
LC-004-002-RND-0
 62
     7
370
    50
100
AcDbCircle
 10
294.918709
 20
289.577616
 30
0.0
 40
0.3000000000000571
100
AcDbArc
 50
159.159081
 51
278.972627
  0
LINE
  5
46B
102
{ACAD_REACTORS
330
5AF
102
}
330
1F
100
AcDbEntity
  8
LC-001-002-----0
  6
ByBlock
 62
     7
370
    50
100
AcDbLine
 10
297.494165
 20
288.22055
 30
0.0
 11
297.253327
 21
287.321731
 31
0.0
  0
LINE
  5
46C
102
{ACAD_REACTORS
330
5AF
102
}
330
1F
100
AcDbEntity
  8
LC-001-002-----0
  6
ByBlock
 62
     7
370
    50
100
AcDbLine
 10
289.745276
 20
288.785271
 30
0.0
 11
290.13743
 21
287.321731
 31
0.0
  0
LINE
  5
46D
102
{ACAD_REACTORS
330
5AF
102
}
330
1F
100
AcDbEntity
  8
LC-001-002-----0
  6
ByBlock
 62
     7
370
    50
100
AcDbLine
 10
291.103356
 20
286.58055
 30
0.0
 11
291.594165
 21
286.58055
 31
0.0
  0
LINE
  5
46E
102
{ACAD_REACTORS
330
5AF
102
}
330
1F
100
AcDbEntity
  8
LC-001-002-----0
  6
ByBlock
 62
     7
370
    50
100
AcDbLine
 10
290.523344
 20
290.51514
 30
0.0
 11
294.84912
 21
292.678028
 31
0.0
  0
ARC
  5
46F
102
{ACAD_REACTORS
330
5AF
102
}
330
1F
100
AcDbEntity
  8
LC-004-002-RND-0
 62
     7
370
    50
100
AcDbCircle
 10
291.103356
 20
287.58055
 30
0.0
 40
1.00000000000003
100
AcDbArc
 50
195.0
 51
270.0
  0
ARC
  5
470
102
{ACAD_REACTORS
330
5AF
102
}
330
1F
100
AcDbEntity
  8
LC-004-002-RND-0
 62
     7
370
    50
100
AcDbCircle
 10
291.194165
 20
289.173499
 30
0.0
 40
1.500000000000001
100
AcDbArc
 50
116.565051
 51
195.0
  0
ARC
  5
471
102
{ACAD_REACTORS
330
5AF
102
}
330
1F
100
AcDbEntity
  8
LC-004-002-RND-0
 62
     7
370
    50
100
AcDbCircle
 10
296.287401
 20
287.58055
 30
0.0
 40
1.0
100
AcDbArc
 50
270.0
 51
345.0
  0
LINE
  5
472
102
{ACAD_REACTORS
330
5AF
102
}
330
1F
100
AcDbEntity
  8
LC-001-002-----0
  6
ByBlock
 62
     7
370
    50
100
AcDbLine
 10
295.334165
 20
287.10055
 30
0.0
 11
296.134165
 21
287.10055
 31
0.0
  0
LINE
  5
473
102
{ACAD_REACTORS
330
5AF
102
}
330
1F
100
AcDbEntity
  8
LC-001-002-----0
  6
ByBlock
 62
     7
370
    50
100
AcDbLine
 10
295.540013
 20
292.052927
 30
0.0
 11
294.638338
 21
289.684348
 31
0.0
  0
ARC
  5
474
102
{ACAD_REACTORS
330
5AF
102
}
330
1F
100
AcDbEntity
  8
LC-004-002-RND-0
 62
     7
370
    50
100
AcDbCircle
 10
295.072727
 20
292.230814
 30
0.0
 40
0.500000000000095
100
AcDbArc
 50
339.159081
 51
116.565051
  0
LINE
  5
475
102
{ACAD_REACTORS
330
5AF
102
}
330
1F
100
AcDbEntity
  8
LC-001-002-----0
  6
ByBlock
 62
     7
370
    50
100
AcDbLine
 10
296.134165
 20
286.58055
 30
0.0
 11
296.287401
 21
286.58055
 31
0.0
  0
LINE
  5
476
102
{ACAD_REACTORS
330
5AF
102
}
330
1F
100
AcDbEntity
  8
LC-001-002-----0
  6
ByBlock
 62
     7
370
    50
100
AcDbLine
 10
292.194165
 20
286.58055
 30
0.0
 11
292.994165
 21
286.58055
 31
0.0
  0
LINE
  5
477
102
{ACAD_REACTORS
330
5AF
102
}
330
1F
100
AcDbEntity
  8
LC-001-002-----0
  6
ByBlock
 62
     7
370
    50
100
AcDbLine
 10
296.916184
 20
289.58929
 30
0.0
 11
294.965498
 21
289.281287
 31
0.0
  0
LINE
  5
478
102
{ACAD_REACTORS
330
5AF
102
}
330
1F
100
AcDbEntity
  8
LC-001-002-----0
  6
ByBlock
 62
     7
370
    50
100
AcDbLine
 10
293.594165
 20
286.58055
 30
0.0
 11
294.394165
 21
286.58055
 31
0.0
  0
LINE
  5
479
102
{ACAD_REACTORS
330
5AF
102
}
330
1F
100
AcDbEntity
  8
LC-001-002-----0
  6
ByBlock
 62
     7
370
    50
100
AcDbLine
 10
294.994165
 20
286.58055
 30
0.0
 11
294.832396
 21
286.300358
 31
0.0
  0
LINE
  5
47A
102
{ACAD_REACTORS
330
5AF
102
}
330
1F
100
AcDbEntity
  8
LC-001-002-----0
  6
ByBlock
 62
     7
370
    50
100
AcDbLine
 10
294.394165
 20
286.58055
 30
0.0
 11
294.555934
 21
286.300358
 31
0.0
  0
ARC
  5
47B
102
{ACAD_REACTORS
330
5AF
102
}
330
1F
100
AcDbEntity
  8
LC-001-002-----0
  6
ByBlock
 62
     7
370
    50
100
AcDbCircle
 10
294.694165
 20
286.380166
 30
0.0
 40
0.1596152422705804
100
AcDbArc
 50
210.0
 51
330.0
  0
LINE
  5
47C
102
{ACAD_REACTORS
330
5AF
102
}
330
1F
100
AcDbEntity
  8
LC-001-002-----0
  6
ByBlock
 62
     7
370
    50
100
AcDbLine
 10
294.994165
 20
286.58055
 30
0.0
 11
295.334165
 21
286.58055
 31
0.0
  0
LINE
  5
47D
102
{ACAD_REACTORS
330
5AF
102
}
330
1F
100
AcDbEntity
  8
LC-001-002-----0
  6
ByBlock
 62
     7
370
    50
100
AcDbLine
 10
292.994165
 20
286.58055
 30
0.0
 11
293.155934
 21
286.300358
 31
0.0
  0
ARC
  5
47E
102
{ACAD_REACTORS
330
5AF
102
}
330
1F
100
AcDbEntity
  8
LC-001-002-----0
  6
ByBlock
 62
     7
370
    50
100
AcDbCircle
 10
293.294165
 20
286.380166
 30
0.0
 40
0.1596152422705804
100
AcDbArc
 50
210.0
 51
330.0
  0
LINE
  5
47F
102
{ACAD_REACTORS
330
5AF
102
}
330
1F
100
AcDbEntity
  8
LC-001-002-----0
  6
ByBlock
 62
     7
370
    50
100
AcDbLine
 10
293.594165
 20
286.58055
 30
0.0
 11
293.432396
 21
286.300358
 31
0.0
  0
LINE
  5
480
102
{ACAD_REACTORS
330
5B1
102
}
330
1F
100
AcDbEntity
  8
LC-003-005-----0
 62
     7
370
    25
100
AcDbLine
 10
489.050795
 20
333.07055
 30
0.0
 11
492.545992
 21
336.565748
 31
0.0
  0
LINE
  5
481
102
{ACAD_REACTORS
330
5B1
102
}
330
1F
100
AcDbEntity
  8
LC-003-005-----0
 62
     7
370
    25
100
AcDbLine
 10
486.222368
 20
333.07055
 30
0.0
 11
490.713517
 21
337.5617
 31
0.0
  0
LINE
  5
482
102
{ACAD_REACTORS
330
5B1
102
}
330
1F
100
AcDbEntity
  8
LC-003-005-----0
 62
     7
370
    25
100
AcDbLine
 10
483.393941
 20
333.07055
 30
0.0
 11
486.393941
 21
336.07055
 31
0.0
  0
LINE
  5
483
102
{ACAD_REACTORS
330
5B1
102
}
330
1F
100
AcDbEntity
  8
LC-003-005-----0
 62
     7
370
    25
100
AcDbLine
 10
488.101306
 20
337.777916
 30
0.0
 11
488.768797
 21
338.445406
 31
0.0
  0
LINE
  5
484
102
{ACAD_REACTORS
330
5B1
102
}
330
1F
100
AcDbEntity
  8
LC-003-005-----0
 62
     7
370
    25
100
AcDbLine
 10
480.565513
 20
333.07055
 30
0.0
 11
483.73031
 21
336.235346
 31
0.0
  0
LINE
  5
485
102
{ACAD_REACTORS
330
5B1
102
}
330
1F
100
AcDbEntity
  8
LC-003-005-----0
 62
     7
370
    25
100
AcDbLine
 10
506.983908
 20
359.488945
 30
0.0
 11
508.001998
 21
360.507035
 31
0.0
  0
LINE
  5
486
102
{ACAD_REACTORS
330
5B1
102
}
330
1F
100
AcDbEntity
  8
LC-003-005-----0
 62
     7
370
    25
100
AcDbLine
 10
477.737086
 20
333.07055
 30
0.0
 11
483.601306
 21
338.93477
 31
0.0
  0
LINE
  5
487
102
{ACAD_REACTORS
330
5B1
102
}
330
1F
100
AcDbEntity
  8
LC-003-005-----0
 62
     7
370
    25
100
AcDbLine
 10
504.043629
 20
359.377093
 30
0.0
 11
507.243427
 21
362.576891
 31
0.0
  0
LINE
  5
488
102
{ACAD_REACTORS
330
5B1
102
}
330
1F
100
AcDbEntity
  8
LC-003-005-----0
 62
     7
370
    25
100
AcDbLine
 10
474.908659
 20
333.07055
 30
0.0
 11
482.145648
 21
340.307539
 31
0.0
  0
LINE
  5
489
102
{ACAD_REACTORS
330
5B1
102
}
330
1F
100
AcDbEntity
  8
LC-003-005-----0
 62
     7
370
    25
100
AcDbLine
 10
501.103349
 20
359.265241
 30
0.0
 11
504.808465
 21
362.970356
 31
0.0
  0
LINE
  5
48A
102
{ACAD_REACTORS
330
5B1
102
}
330
1F
100
AcDbEntity
  8
LC-003-005-----0
 62
     7
370
    25
100
AcDbLine
 10
472.080232
 20
333.07055
 30
0.0
 11
479.608607
 21
340.598926
 31
0.0
  0
LINE
  5
48B
102
{ACAD_REACTORS
330
5B1
102
}
330
1F
100
AcDbEntity
  8
LC-003-005-----0
 62
     7
370
    25
100
AcDbLine
 10
497.983879
 20
358.974197
 30
0.0
 11
501.883077
 21
362.873395
 31
0.0
  0
LINE
  5
48C
102
{ACAD_REACTORS
330
5B1
102
}
330
1F
100
AcDbEntity
  8
LC-003-005-----0
 62
     7
370
    25
100
AcDbLine
 10
469.251805
 20
333.07055
 30
0.0
 11
476.847962
 21
340.666708
 31
0.0
  0
LINE
  5
48D
102
{ACAD_REACTORS
330
5AF
102
}
330
1F
100
AcDbEntity
  8
LC-001-002-----0
  6
ByBlock
 62
     7
370
    50
100
AcDbLine
 10
291.594165
 20
286.58055
 30
0.0
 11
291.755934
 21
286.300358
 31
0.0
  0
LINE
  5
48E
102
{ACAD_REACTORS
330
5B1
102
}
330
1F
100
AcDbEntity
  8
LC-003-005-----0
 62
     7
370
    25
100
AcDbLine
 10
493.909514
 20
357.72826
 30
0.0
 11
498.957688
 21
362.776433
 31
0.0
  0
LINE
  5
48F
102
{ACAD_REACTORS
330
5B1
102
}
330
1F
100
AcDbEntity
  8
LC-003-005-----0
 62
     7
370
    25
100
AcDbLine
 10
466.423378
 20
333.07055
 30
0.0
 11
473.793511
 21
340.440683
 31
0.0
  0
LINE
  5
490
102
{ACAD_REACTORS
330
5B1
102
}
330
1F
100
AcDbEntity
  8
LC-003-005-----0
 62
     7
370
    25
100
AcDbLine
 10
489.83515
 20
356.482322
 30
0.0
 11
495.147081
 21
361.794254
 31
0.0
  0
LINE
  5
491
102
{ACAD_REACTORS
330
5B1
102
}
330
1F
100
AcDbEntity
  8
LC-003-005-----0
 62
     7
370
    25
100
AcDbLine
 10
463.594951
 20
333.07055
 30
0.0
 11
470.311756
 21
339.787355
 31
0.0
  0
LINE
  5
492
102
{ACAD_REACTORS
330
5B1
102
}
330
1F
100
AcDbEntity
  8
LC-003-005-----0
 62
     7
370
    25
100
AcDbLine
 10
485.760785
 20
355.236384
 30
0.0
 11
491.073119
 21
360.548718
 31
0.0
  0
LINE
  5
493
102
{ACAD_REACTORS
330
5B1
102
}
330
1F
100
AcDbEntity
  8
LC-003-005-----0
 62
     7
370
    25
100
AcDbLine
 10
460.766524
 20
333.07055
 30
0.0
 11
466.075678
 21
338.379705
 31
0.0
  0
LINE
  5
494
102
{ACAD_REACTORS
330
5B1
102
}
330
1F
100
AcDbEntity
  8
LC-003-005-----0
 62
     7
370
    25
100
AcDbLine
 10
481.68642
 20
353.990447
 30
0.0
 11
486.999156
 21
359.303183
 31
0.0
  0
LINE
  5
495
102
{ACAD_REACTORS
330
5B1
102
}
330
1F
100
AcDbEntity
  8
LC-003-005-----0
 62
     7
370
    25
100
AcDbLine
 10
457.938096
 20
333.07055
 30
0.0
 11
462.101306
 21
337.23376
 31
0.0
  0
LINE
  5
496
102
{ACAD_REACTORS
330
5B1
102
}
330
1F
100
AcDbEntity
  8
LC-003-005-----0
 62
     7
370
    25
100
AcDbLine
 10
465.919332
 20
341.051785
 30
0.0
 11
468.50252
 21
343.634974
 31
0.0
  0
LINE
  5
497
102
{ACAD_REACTORS
330
5B1
102
}
330
1F
100
AcDbEntity
  8
LC-003-005-----0
 62
     7
370
    25
100
AcDbLine
 10
475.420022
 20
350.552476
 30
0.0
 11
482.925194
 21
358.057648
 31
0.0
  0
LINE
  5
498
102
{ACAD_REACTORS
330
5B1
102
}
330
1F
100
AcDbEntity
  8
LC-003-005-----0
 62
     7
370
    25
100
AcDbLine
 10
455.109669
 20
333.07055
 30
0.0
 11
458.109669
 21
336.07055
 31
0.0
  0
LINE
  5
499
102
{ACAD_REACTORS
330
5B1
102
}
330
1F
100
AcDbEntity
  8
LC-003-005-----0
 62
     7
370
    25
100
AcDbLine
 10
459.601306
 20
337.562187
 30
0.0
 11
460.421174
 21
338.382055
 31
0.0
  0
LINE
  5
49A
102
{ACAD_REACTORS
330
5B1
102
}
330
1F
100
AcDbEntity
  8
LC-003-005-----0
 62
     7
370
    25
100
AcDbLine
 10
463.090905
 20
341.051785
 30
0.0
 11
465.090905
 21
343.051785
 31
0.0
  0
LINE
  5
49B
102
{ACAD_REACTORS
330
5B1
102
}
330
1F
100
AcDbEntity
  8
LC-003-005-----0
 62
     7
370
    25
100
AcDbLine
 10
465.502574
 20
343.463455
 30
0.0
 11
468.50252
 21
346.463401
 31
0.0
  0
LINE
  5
49C
102
{ACAD_REACTORS
330
5B1
102
}
330
1F
100
AcDbEntity
  8
LC-003-005-----0
 62
     7
370
    25
100
AcDbLine
 10
472.591595
 20
350.552476
 30
0.0
 11
475.091595
 21
353.052476
 31
0.0
  0
LINE
  5
49D
102
{ACAD_REACTORS
330
5B1
102
}
330
1F
100
AcDbEntity
  8
LC-003-005-----0
 62
     7
370
    25
100
AcDbLine
 10
476.002606
 20
353.963487
 30
0.0
 11
478.851232
 21
356.812113
 31
0.0
  0
LINE
  5
49E
102
{ACAD_REACTORS
330
5B1
102
}
330
1F
100
AcDbEntity
  8
LC-003-005-----0
 62
     7
370
    25
100
AcDbLine
 10
452.281242
 20
333.07055
 30
0.0
 11
455.281242
 21
336.07055
 31
0.0
  0
LINE
  5
49F
102
{ACAD_REACTORS
330
5B1
102
}
330
1F
100
AcDbEntity
  8
LC-003-005-----0
 62
     7
370
    25
100
AcDbLine
 10
460.262477
 20
341.051785
 30
0.0
 11
462.262477
 21
343.051785
 31
0.0
  0
LINE
  5
4A0
102
{ACAD_REACTORS
330
5B1
102
}
330
1F
100
AcDbEntity
  8
LC-003-005-----0
 62
     7
370
    25
100
AcDbLine
 10
465.502574
 20
346.291882
 30
0.0
 11
468.50252
 21
349.291828
 31
0.0
  0
LINE
  5
4A1
102
{ACAD_REACTORS
330
5B1
102
}
330
1F
100
AcDbEntity
  8
LC-003-005-----0
 62
     7
370
    25
100
AcDbLine
 10
469.763168
 20
350.552476
 30
0.0
 11
472.263168
 21
353.052476
 31
0.0
  0
LINE
  5
4A2
102
{ACAD_REACTORS
330
5B1
102
}
330
1F
100
AcDbEntity
  8
LC-003-005-----0
 62
     7
370
    25
100
AcDbLine
 10
449.452815
 20
333.07055
 30
0.0
 11
452.452815
 21
336.07055
 31
0.0
  0
LINE
  5
4A3
102
{ACAD_REACTORS
330
5B1
102
}
330
1F
100
AcDbEntity
  8
LC-003-005-----0
 62
     7
370
    25
100
AcDbLine
 10
457.43405
 20
341.051785
 30
0.0
 11
460.502574
 21
344.120309
 31
0.0
  0
LINE
  5
4A4
102
{ACAD_REACTORS
330
5B1
102
}
330
1F
100
AcDbEntity
  8
LC-003-005-----0
 62
     7
370
    25
100
AcDbLine
 10
465.502574
 20
349.120309
 30
0.0
 11
469.434741
 21
353.052476
 31
0.0
  0
LINE
  5
4A5
102
{ACAD_REACTORS
330
5B1
102
}
330
1F
100
AcDbEntity
  8
LC-003-005-----0
 62
     7
370
    25
100
AcDbLine
 10
446.624388
 20
333.07055
 30
0.0
 11
449.624388
 21
336.07055
 31
0.0
  0
LINE
  5
4A6
102
{ACAD_REACTORS
330
5B1
102
}
330
1F
100
AcDbEntity
  8
LC-003-005-----0
 62
     7
370
    25
100
AcDbLine
 10
454.605623
 20
341.051785
 30
0.0
 11
460.502574
 21
346.948736
 31
0.0
  0
LINE
  5
4A7
102
{ACAD_REACTORS
330
5B1
102
}
330
1F
100
AcDbEntity
  8
LC-003-005-----0
 62
     7
370
    25
100
AcDbLine
 10
465.502574
 20
351.948736
 30
0.0
 11
469.002084
 21
355.448247
 31
0.0
  0
LINE
  5
4A8
102
{ACAD_REACTORS
330
5B1
102
}
330
1F
100
AcDbEntity
  8
LC-003-005-----0
 62
     7
370
    25
100
AcDbLine
 10
445.001998
 20
334.276588
 30
0.0
 11
447.683315
 21
336.957905
 31
0.0
  0
LINE
  5
4A9
102
{ACAD_REACTORS
330
5B1
102
}
330
1F
100
AcDbEntity
  8
LC-003-005-----0
 62
     7
370
    25
100
AcDbLine
 10
451.777196
 20
341.051785
 30
0.0
 11
460.502574
 21
349.777163
 31
0.0
  0
LINE
  5
4AA
102
{ACAD_REACTORS
330
5B1
102
}
330
1F
100
AcDbEntity
  8
LC-003-005-----0
 62
     7
370
    25
100
AcDbLine
 10
465.502574
 20
354.777163
 30
0.0
 11
467.277886
 21
356.552476
 31
0.0
  0
LINE
  5
4AB
102
{ACAD_REACTORS
330
5B1
102
}
330
1F
100
AcDbEntity
  8
LC-003-005-----0
 62
     7
370
    25
100
AcDbLine
 10
445.001998
 20
337.105015
 30
0.0
 11
447.683315
 21
339.786332
 31
0.0
  0
LINE
  5
4AC
102
{ACAD_REACTORS
330
5B1
102
}
330
1F
100
AcDbEntity
  8
LC-003-005-----0
 62
     7
370
    25
100
AcDbLine
 10
448.948769
 20
341.051785
 30
0.0
 11
460.502574
 21
352.60559
 31
0.0
  0
LINE
  5
4AD
102
{ACAD_REACTORS
330
5B1
102
}
330
1F
100
AcDbEntity
  8
LC-003-005-----0
 62
     7
370
    25
100
AcDbLine
 10
445.001998
 20
339.933442
 30
0.0
 11
448.120342
 21
343.051785
 31
0.0
  0
LINE
  5
4AE
102
{ACAD_REACTORS
330
5B1
102
}
330
1F
100
AcDbEntity
  8
LC-003-005-----0
 62
     7
370
    25
100
AcDbLine
 10
453.002111
 20
347.933554
 30
0.0
 11
460.502574
 21
355.434018
 31
0.0
  0
LINE
  5
4AF
102
{ACAD_REACTORS
330
5B1
102
}
330
1F
100
AcDbEntity
  8
LC-003-005-----0
 62
     7
370
    25
100
AcDbLine
 10
445.001998
 20
342.761869
 30
0.0
 11
445.791915
 21
343.551785
 31
0.0
  0
LINE
  5
4B0
102
{ACAD_REACTORS
330
5B1
102
}
330
1F
100
AcDbEntity
  8
LC-003-005-----0
 62
     7
370
    25
100
AcDbLine
 10
453.002111
 20
350.761981
 30
0.0
 11
458.792605
 21
356.552476
 31
0.0
  0
LINE
  5
4B1
102
{ACAD_REACTORS
330
5B1
102
}
330
1F
100
AcDbEntity
  8
LC-003-005-----0
 62
     7
370
    25
100
AcDbLine
 10
453.002111
 20
353.590409
 30
0.0
 11
457.002084
 21
357.590382
 31
0.0
  0
LINE
  5
4B2
102
{ACAD_REACTORS
330
5B1
102
}
330
1F
100
AcDbEntity
  8
LC-003-005-----0
 62
     7
370
    25
100
AcDbLine
 10
453.002111
 20
356.418836
 30
0.0
 11
454.635751
 21
358.052476
 31
0.0
  0
ARC
  5
4B3
102
{ACAD_REACTORS
330
5AF
102
}
330
1F
100
AcDbEntity
  8
LC-001-002-----0
  6
ByBlock
 62
     7
370
    50
100
AcDbCircle
 10
291.894165
 20
286.380166
 30
0.0
 40
0.1596152422705804
100
AcDbArc
 50
210.0
 51
330.0
  0
LINE
  5
4B4
102
{ACAD_REACTORS
330
5AF
102
}
330
1F
100
AcDbEntity
  8
LC-001-002-----0
  6
ByBlock
 62
     7
370
    50
100
AcDbLine
 10
292.194165
 20
286.58055
 30
0.0
 11
292.032396
 21
286.300358
 31
0.0
  0
LINE
  5
4B5
102
{ACAD_REACTORS
330
5AF
102
}
330
1F
100
AcDbEntity
  8
LC-001-002-----0
  6
ByBlock
 62
     7
370
    50
100
AcDbLine
 10
297.494165
 20
288.245409
 30
0.0
 11
297.494165
 21
290.67055
 31
0.0
  0
DIMENSION
  5
4B6
330
1F
100
AcDbEntity
  8
LC-005-003-----0
 62
     7
370
    25
100
AcDbDimension
  2
*D20
 10
254.226496
 20
290.67055
 30
0.0
 11
223.426496
 21
361.746
 31
0.0
 70
   160
  1
DN40
 71
     5
 42
40.8
 53
90.0
  3
LC-DIM-L-0140-02-02
100
AcDbAlignedDimension
 13
297.946178
 23
331.47055
 33
0.0
 14
297.494165
 24
290.67055
 34
0.0
 50
90.0
100
AcDbRotatedDimension
  0
DIMENSION
  5
4C4
330
1F
100
AcDbEntity
  8
LC-005-003-----0
 62
     7
370
    25
100
AcDbDimension
  2
*D21
 10
643.185724
 20
286.07055
 30
0.0
 11
612.385724
 21
340.657955
 31
0.0
 70
   160
  1
DN50
 71
     5
 42
50.0
 53
90.0
  3
LC-DIM-L-0140-02-02
100
AcDbAlignedDimension
 13
580.076983
 23
336.07055
 33
0.0
 14
580.076983
 24
286.07055
 34
0.0
 50
90.0
100
AcDbRotatedDimension
  0
LINE
  5
4D2
330
1F
100
AcDbEntity
  8
LC-001-002-----0
  6
ByBlock
 62
     7
370
    50
100
AcDbLine
 10
496.595046
 20
333.82055
 30
0.0
 11
496.595046
 21
288.32055
 31
0.0
  0
LINE
  5
4D3
102
{ACAD_REACTORS
330
5B7
102
}
330
1F
100
AcDbEntity
  8
LC-001-002-----0
  6
ByBlock
 62
     7
370
    50
100
AcDbLine
 10
287.717069
 20
362.754201
 30
0.0
 11
280.068252
 21
363.00772
 31
0.0
  0
LINE
  5
4D4
102
{ACAD_REACTORS
330
5B7
102
}
330
1F
100
AcDbEntity
  8
LC-001-002-----0
  6
ByBlock
 62
     7
370
    50
100
AcDbLine
 10
308.001998
 20
356.552476
 30
0.0
 11
287.717069
 21
362.754201
 31
0.0
  0
LINE
  5
4D5
102
{ACAD_REACTORS
330
5B7
102
}
330
1F
100
AcDbEntity
  8
LC-001-002-----0
  6
ByBlock
 62
     7
370
    50
100
AcDbLine
 10
307.55285
 20
353.001103
 30
0.0
 11
287.376348
 21
359.171062
 31
0.0
  0
LINE
  5
4D6
102
{ACAD_REACTORS
330
5B7
102
}
330
1F
100
AcDbEntity
  8
LC-001-002-----0
  6
ByBlock
 62
     7
370
    50
100
AcDbLine
 10
287.376348
 20
359.171062
 30
0.0
 11
278.001998
 21
359.527674
 31
0.0
  0
ARC
  5
4D7
330
1F
100
AcDbEntity
  8
LC-004-002-RND-0
 62
     7
370
    50
100
AcDbCircle
 10
316.501477
 20
349.552476
 30
0.0
 40
1.0
100
AcDbArc
 50
360.0
 51
90.0
  0
LINE
  5
4D8
330
1F
100
AcDbEntity
  8
LC-001-002-----0
  6
ByBlock
 62
     7
370
    50
100
AcDbLine
 10
333.001972
 20
358.051785
 30
0.0
 11
333.001972
 21
343.551785
 31
0.0
  0
LINE
  5
4D9
330
1F
100
AcDbEntity
  8
LC-001-002-----0
  6
ByBlock
 62
     7
370
    50
100
AcDbLine
 10
453.002111
 20
358.051785
 30
0.0
 11
453.002111
 21
343.551785
 31
0.0
  0
LINE
  5
4DA
330
1F
100
AcDbEntity
  8
LC-001-002-----0
  6
ByBlock
 62
     7
370
    50
100
AcDbLine
 10
317.501477
 20
349.552476
 30
0.0
 11
317.501477
 21
342.051785
 31
0.0
  0
LINE
  5
4DB
102
{ACAD_REACTORS
330
5B5
102
}
330
1F
100
AcDbEntity
  8
LC-001-002-----0
  6
ByBlock
 62
     7
370
    50
100
AcDbLine
 10
280.994165
 20
337.07055
 30
0.0
 11
280.994165
 21
285.07055
 31
0.0
  0
LINE
  5
4DC
102
{ACAD_REACTORS
330
5B5
102
}
330
1F
100
AcDbEntity
  8
LC-001-002-----0
  6
ByBlock
 62
     7
370
    50
100
AcDbLine
 10
280.994165
 20
285.07055
 30
0.0
 11
282.994165
 21
285.07055
 31
0.0
  0
LINE
  5
4DD
102
{ACAD_REACTORS
330
5B5
102
}
330
1F
100
AcDbEntity
  8
LC-001-002-----0
  6
ByBlock
 62
     7
370
    50
100
AcDbLine
 10
282.994165
 20
285.07055
 30
0.0
 11
282.994165
 21
291.07055
 31
0.0
  0
LINE
  5
4DE
102
{ACAD_REACTORS
330
5B5
102
}
330
1F
100
AcDbEntity
  8
LC-001-002-----0
  6
ByBlock
 62
     7
370
    50
100
AcDbLine
 10
282.994165
 20
291.07055
 30
0.0
 11
304.994165
 21
291.07055
 31
0.0
  0
LINE
  5
4DF
102
{ACAD_REACTORS
330
5B5
102
}
330
1F
100
AcDbEntity
  8
LC-001-002-----0
  6
ByBlock
 62
     7
370
    50
100
AcDbLine
 10
307.994165
 20
291.874398
 30
0.0
 11
307.994165
 21
330.266703
 31
0.0
  0
LINE
  5
4E0
102
{ACAD_REACTORS
330
5B5
102
}
330
1F
100
AcDbEntity
  8
LC-001-002-----0
  6
ByBlock
 62
     7
370
    50
100
AcDbLine
 10
304.994165
 20
331.07055
 30
0.0
 11
282.994165
 21
331.07055
 31
0.0
  0
LINE
  5
4E1
102
{ACAD_REACTORS
330
5B5
102
}
330
1F
100
AcDbEntity
  8
LC-001-002-----0
  6
ByBlock
 62
     7
370
    50
100
AcDbLine
 10
282.994165
 20
331.07055
 30
0.0
 11
282.994165
 21
337.07055
 31
0.0
  0
LINE
  5
4E2
102
{ACAD_REACTORS
330
5B5
102
}
330
1F
100
AcDbEntity
  8
LC-001-002-----0
  6
ByBlock
 62
     7
370
    50
100
AcDbLine
 10
282.994165
 20
337.07055
 30
0.0
 11
280.994165
 21
337.07055
 31
0.0
  0
LINE
  5
4E3
102
{ACAD_REACTORS
330
5B5
102
}
330
1F
100
AcDbEntity
  8
LC-001-002-----0
  6
ByBlock
 62
     7
370
    50
100
AcDbLine
 10
305.994165
 20
294.07055
 30
0.0
 11
305.994165
 21
328.07055
 31
0.0
  0
LINE
  5
4E4
102
{ACAD_REACTORS
330
5B5
102
}
330
1F
100
AcDbEntity
  8
LC-001-002-----0
  6
ByBlock
 62
     7
370
    50
100
AcDbLine
 10
304.994165
 20
329.07055
 30
0.0
 11
280.994165
 21
329.07055
 31
0.0
  0
LINE
  5
4E5
102
{ACAD_REACTORS
330
5B5
102
}
330
1F
100
AcDbEntity
  8
LC-001-002-----0
  6
ByBlock
 62
     7
370
    50
100
AcDbLine
 10
280.994165
 20
293.07055
 30
0.0
 11
304.994165
 21
293.07055
 31
0.0
  0
LINE
  5
4E6
102
{ACAD_REACTORS
330
5B5
102
}
330
1F
100
AcDbEntity
  8
LC-001-002-----0
  6
ByBlock
 62
     7
370
    50
100
AcDbLine
 10
307.994165
 20
330.266703
 30
0.0
 11
304.994165
 21
331.07055
 31
0.0
  0
LINE
  5
4E7
102
{ACAD_REACTORS
330
5B5
102
}
330
1F
100
AcDbEntity
  8
LC-001-002-----0
  6
ByBlock
 62
     7
370
    50
100
AcDbLine
 10
307.994165
 20
291.874398
 30
0.0
 11
304.994165
 21
291.07055
 31
0.0
  0
ARC
  5
4E8
102
{ACAD_REACTORS
330
5B5
102
}
330
1F
100
AcDbEntity
  8
LC-004-002-RND-0
 62
     7
370
    50
100
AcDbCircle
 10
304.994165
 20
328.07055
 30
0.0
 40
1.0
100
AcDbArc
 50
0.0
 51
90.0
  0
ARC
  5
4E9
102
{ACAD_REACTORS
330
5B5
102
}
330
1F
100
AcDbEntity
  8
LC-004-002-RND-0
 62
     7
370
    50
100
AcDbCircle
 10
304.994165
 20
294.07055
 30
0.0
 40
1.0
100
AcDbArc
 50
270.0
 51
0.0
  0
INSERT
  5
511
102
{ACAD_REACTORS
330
5B5
102
}
330
1F
100
AcDbEntity
  8
LC-003-005-----0
 62
     7
370
    25
100
AcDbBlockReference
  2
*X1322
 10
0.0
 20
0.0
 30
0.0
  0
LINE
  5
512
102
{ACAD_REACTORS
330
5A5
102
}
330
1F
100
AcDbEntity
  8
LC-001-002-----0
  6
ByBlock
 62
     7
370
    50
100
AcDbLine
 10
333.001972
 20
343.551785
 30
0.0
 11
341.001998
 21
343.551785
 31
0.0
  0
LINE
  5
513
330
1F
100
AcDbEntity
  8
LC-001-002-----0
  6
ByBlock
 62
     7
370
    50
100
AcDbLine
 10
453.002111
 20
343.551785
 30
0.0
 11
445.001998
 21
343.551785
 31
0.0
  0
LINE
  5
514
330
1F
100
AcDbEntity
  8
LC-001-002-----0
 62
     7
370
    25
100
AcDbLine
 10
347.919297
 20
311.07055
 30
0.0
 11
283.075615
 21
311.07055
 31
0.0
  0
LINE
  5
515
330
1F
100
AcDbEntity
  8
LC-001-002-----0
  6
ByBlock
 62
     7
370
    50
100
AcDbLine
 10
322.001826
 20
357.052476
 30
0.0
 11
321.713151
 21
356.552476
 31
0.0
  0
LINE
  5
516
330
1F
100
AcDbEntity
  8
LC-001-002-----0
  6
ByBlock
 62
     7
370
    50
100
AcDbLine
 10
324.00174
 20
357.052476
 30
0.0
 11
323.713065
 21
356.552476
 31
0.0
  0
LINE
  5
517
330
1F
100
AcDbEntity
  8
LC-001-002-----0
  6
ByBlock
 62
     7
370
    50
100
AcDbLine
 10
322.296553
 20
356.552476
 30
0.0
 11
322.007878
 21
357.052476
 31
0.0
  0
LINE
  5
518
330
1F
100
AcDbEntity
  8
LC-001-002-----0
  6
ByBlock
 62
     7
370
    50
100
AcDbLine
 10
319.713237
 20
356.552476
 30
0.0
 11
318.290674
 21
356.552476
 31
0.0
  0
LINE
  5
519
330
1F
100
AcDbEntity
  8
LC-001-002-----0
  6
ByBlock
 62
     7
370
    50
100
AcDbLine
 10
321.713151
 20
356.552476
 30
0.0
 11
320.290587
 21
356.552476
 31
0.0
  0
LINE
  5
51A
330
1F
100
AcDbEntity
  8
LC-001-002-----0
  6
ByBlock
 62
     7
370
    50
100
AcDbLine
 10
323.713065
 20
356.552476
 30
0.0
 11
322.296553
 21
356.552476
 31
0.0
  0
LINE
  5
51B
330
1F
100
AcDbEntity
  8
LC-001-002-----0
  6
ByBlock
 62
     7
370
    50
100
AcDbLine
 10
329.001912
 20
359.587794
 30
0.0
 11
329.001912
 21
356.552476
 31
0.0
  0
LINE
  5
51C
102
{ACAD_REACTORS
330
5A7
102
}
330
1F
100
AcDbEntity
  8
LC-001-002-----0
  6
ByBlock
 62
     7
370
    50
100
AcDbLine
 10
333.001998
 20
355.551785
 30
0.0
 11
333.001998
 21
345.551785
 31
0.0
  0
LINE
  5
51D
102
{ACAD_REACTORS
330
5A7
102
}
330
1F
100
AcDbEntity
  8
LC-001-002-----0
  6
ByBlock
 62
     7
370
    50
100
AcDbLine
 10
335.001998
 20
343.551785
 30
0.0
 11
451.001998
 21
343.551785
 31
0.0
  0
LINE
  5
51E
102
{ACAD_REACTORS
330
5A7
102
}
330
1F
100
AcDbEntity
  8
LC-001-002-----0
  6
ByBlock
 62
     7
370
    50
100
AcDbLine
 10
453.001998
 20
345.551785
 30
0.0
 11
453.001998
 21
355.551785
 31
0.0
  0
LINE
  5
51F
102
{ACAD_REACTORS
330
5A7
102
}
330
1F
100
AcDbEntity
  8
LC-001-002-----0
  6
ByBlock
 62
     7
370
    50
100
AcDbLine
 10
453.001998
 20
355.551785
 30
0.0
 11
448.001998
 21
355.551785
 31
0.0
  0
LINE
  5
520
102
{ACAD_REACTORS
330
5A7
102
}
330
1F
100
AcDbEntity
  8
LC-001-002-----0
  6
ByBlock
 62
     7
370
    50
100
AcDbLine
 10
338.001998
 20
355.551785
 30
0.0
 11
338.001998
 21
345.051785
 31
0.0
  0
LINE
  5
521
102
{ACAD_REACTORS
330
5A7
102
}
330
1F
100
AcDbEntity
  8
LC-001-002-----0
  6
ByBlock
 62
     7
370
    50
100
AcDbLine
 10
338.001998
 20
345.051785
 30
0.0
 11
341.001998
 21
345.051785
 31
0.0
  0
LINE
  5
522
102
{ACAD_REACTORS
330
5A7
102
}
330
1F
100
AcDbEntity
  8
LC-001-002-----0
  6
ByBlock
 62
     7
370
    50
100
AcDbLine
 10
341.001998
 20
355.551785
 30
0.0
 11
341.001998
 21
345.051785
 31
0.0
  0
LINE
  5
523
102
{ACAD_REACTORS
330
5A7
102
}
330
1F
100
AcDbEntity
  8
LC-001-002-----0
  6
ByBlock
 62
     7
370
    50
100
AcDbLine
 10
343.001998
 20
355.551785
 30
0.0
 11
343.001998
 21
345.551785
 31
0.0
  0
LINE
  5
524
102
{ACAD_REACTORS
330
5A7
102
}
330
1F
100
AcDbEntity
  8
LC-001-002-----0
  6
ByBlock
 62
     7
370
    50
100
AcDbLine
 10
443.001998
 20
355.551785
 30
0.0
 11
443.001998
 21
345.551785
 31
0.0
  0
LINE
  5
525
102
{ACAD_REACTORS
330
5A7
102
}
330
1F
100
AcDbEntity
  8
LC-001-002-----0
  6
ByBlock
 62
     7
370
    50
100
AcDbLine
 10
445.001998
 20
355.551785
 30
0.0
 11
445.001998
 21
345.051785
 31
0.0
  0
LINE
  5
526
102
{ACAD_REACTORS
330
5A7
102
}
330
1F
100
AcDbEntity
  8
LC-001-002-----0
  6
ByBlock
 62
     7
370
    50
100
AcDbLine
 10
448.001998
 20
355.551785
 30
0.0
 11
448.001998
 21
345.051785
 31
0.0
  0
LINE
  5
527
102
{ACAD_REACTORS
330
5A7
102
}
330
1F
100
AcDbEntity
  8
LC-001-002-----0
  6
ByBlock
 62
     7
370
    50
100
AcDbLine
 10
448.001998
 20
345.051785
 30
0.0
 11
445.001998
 21
345.051785
 31
0.0
  0
ARC
  5
528
102
{ACAD_REACTORS
330
5A7
102
}
330
1F
100
AcDbEntity
  8
LC-004-002-RND-0
 62
     7
370
    50
100
AcDbCircle
 10
335.001998
 20
345.551785
 30
0.0
 40
2.0
100
AcDbArc
 50
180.0
 51
270.0
  0
ARC
  5
529
102
{ACAD_REACTORS
330
5A7
102
}
330
1F
100
AcDbEntity
  8
LC-004-002-RND-0
 62
     7
370
    50
100
AcDbCircle
 10
341.001998
 20
345.551785
 30
0.0
 40
2.0
100
AcDbArc
 50
270.0
 51
0.0
  0
ARC
  5
52A
102
{ACAD_REACTORS
330
5A7
102
}
330
1F
100
AcDbEntity
  8
LC-004-002-RND-0
 62
     7
370
    50
100
AcDbCircle
 10
445.001998
 20
345.551785
 30
0.0
 40
2.0
100
AcDbArc
 50
180.0
 51
270.0
  0
ARC
  5
52B
102
{ACAD_REACTORS
330
5A7
102
}
330
1F
100
AcDbEntity
  8
LC-004-002-RND-0
 62
     7
370
    50
100
AcDbCircle
 10
451.001998
 20
345.551785
 30
0.0
 40
2.0
100
AcDbArc
 50
270.0
 51
0.0
  0
INSERT
  5
53E
102
{ACAD_REACTORS
330
5A7
102
}
330
1F
100
AcDbEntity
  8
LC-003-005-----0
 62
     7
370
    25
100
AcDbBlockReference
  2
*X1423
 10
0.0
 20
0.0
 30
0.0
  0
LINE
  5
53F
102
{ACAD_REACTORS
330
5A7
102
}
330
1F
100
AcDbEntity
  8
LC-001-002-----0
  6
ByBlock
 62
     7
370
    50
100
AcDbLine
 10
338.001998
 20
355.551785
 30
0.0
 11
333.001998
 21
355.551785
 31
0.0
  0
LINE
  5
540
102
{ACAD_REACTORS
330
5A7
102
}
330
1F
100
AcDbEntity
  8
LC-001-002-----0
  6
ByBlock
 62
     7
370
    50
100
AcDbLine
 10
343.001998
 20
355.551785
 30
0.0
 11
341.001998
 21
355.551785
 31
0.0
  0
LINE
  5
541
102
{ACAD_REACTORS
330
5A7
102
}
330
1F
100
AcDbEntity
  8
LC-001-002-----0
  6
ByBlock
 62
     7
370
    50
100
AcDbLine
 10
445.001998
 20
355.551785
 30
0.0
 11
443.001998
 21
355.551785
 31
0.0
  0
CIRCLE
  5
542
102
{ACAD_REACTORS
330
5A9
102
}
330
1F
100
AcDbEntity
  8
LC-002-101-D00-0
 62
    70
370
    50
100
AcDbCircle
 10
441.651998
 20
448.751785
 30
0.0
 40
2.0
  0
LINE
  5
543
330
1F
100
AcDbEntity
  8
LC-002-101-D00-0
 62
     7
370
    25
100
AcDbLine
 10
443.265616
 20
447.57016
 30
0.0
 11
440.038381
 21
447.57016
 31
0.0
  0
LINE
  5
544
330
1F
100
AcDbEntity
  8
LC-002-101-D00-0
 62
     7
370
    25
100
AcDbLine
 10
443.421765
 20
447.82016
 30
0.0
 11
439.882232
 21
447.82016
 31
0.0
  0
LINE
  5
545
330
1F
100
AcDbEntity
  8
LC-002-101-D00-0
 62
     7
370
    25
100
AcDbLine
 10
443.532261
 20
448.07016
 30
0.0
 11
439.771736
 21
448.07016
 31
0.0
  0
LINE
  5
546
330
1F
100
AcDbEntity
  8
LC-002-101-D00-0
 62
     7
370
    25
100
AcDbLine
 10
443.604868
 20
448.32016
 30
0.0
 11
439.699129
 21
448.32016
 31
0.0
  0
LINE
  5
547
330
1F
100
AcDbEntity
  8
LC-002-101-D00-0
 62
     7
370
    25
100
AcDbLine
 10
443.643734
 20
448.57016
 30
0.0
 11
439.660262
 21
448.57016
 31
0.0
  0
LINE
  5
548
330
1F
100
AcDbEntity
  8
LC-002-101-D00-0
 62
     7
370
    25
100
AcDbLine
 10
443.650829
 20
448.82016
 30
0.0
 11
439.653168
 21
448.82016
 31
0.0
  0
LINE
  5
549
330
1F
100
AcDbEntity
  8
LC-002-101-D00-0
 62
     7
370
    25
100
AcDbLine
 10
443.626495
 20
449.07016
 30
0.0
 11
439.677502
 21
449.07016
 31
0.0
  0
LINE
  5
54A
330
1F
100
AcDbEntity
  8
LC-002-101-D00-0
 62
     7
370
    25
100
AcDbLine
 10
443.569536
 20
449.32016
 30
0.0
 11
439.734461
 21
449.32016
 31
0.0
  0
LINE
  5
54B
330
1F
100
AcDbEntity
  8
LC-002-101-D00-0
 62
     7
370
    25
100
AcDbLine
 10
443.476899
 20
449.57016
 30
0.0
 11
439.827098
 21
449.57016
 31
0.0
  0
LINE
  5
54C
330
1F
100
AcDbEntity
  8
LC-002-101-D00-0
 62
     7
370
    25
100
AcDbLine
 10
443.342731
 20
449.82016
 30
0.0
 11
439.961266
 21
449.82016
 31
0.0
  0
LINE
  5
54D
330
1F
100
AcDbEntity
  8
LC-002-101-D00-0
 62
     7
370
    25
100
AcDbLine
 10
443.155956
 20
450.07016
 30
0.0
 11
440.148041
 21
450.07016
 31
0.0
  0
LINE
  5
54E
330
1F
100
AcDbEntity
  8
LC-002-101-D00-0
 62
     7
370
    25
100
AcDbLine
 10
442.893046
 20
450.32016
 30
0.0
 11
440.41095
 21
450.32016
 31
0.0
  0
LINE
  5
54F
330
1F
100
AcDbEntity
  8
LC-002-101-D00-0
 62
     7
370
    25
100
AcDbLine
 10
442.484773
 20
450.57016
 30
0.0
 11
440.819224
 21
450.57016
 31
0.0
  0
LINE
  5
550
330
1F
100
AcDbEntity
  8
LC-002-101-D00-0
 62
     7
370
    25
100
AcDbLine
 10
442.170481
 20
446.82016
 30
0.0
 11
441.133516
 21
446.82016
 31
0.0
  0
LINE
  5
551
330
1F
100
AcDbEntity
  8
LC-002-101-D00-0
 62
     7
370
    25
100
AcDbLine
 10
442.734651
 20
447.07016
 30
0.0
 11
440.569346
 21
447.07016
 31
0.0
  0
LINE
  5
552
330
1F
100
AcDbEntity
  8
LC-002-101-D00-0
 62
     7
370
    25
100
AcDbLine
 10
443.048583
 20
447.32016
 30
0.0
 11
440.255413
 21
447.32016
 31
0.0
  0
DIMENSION
  5
553
330
1F
100
AcDbEntity
  8
LC-005-003-----0
 62
     7
370
    25
100
AcDbDimension
  2
*D24
 10
583.576983
 20
181.764
 30
0.0
 11
392.397367
 21
212.564
 31
0.0
 70
   160
  1
300
 71
     5
 42
302.582818
  3
LC-DIM-L-0140-02-02
100
AcDbAlignedDimension
 13
280.994165
 23
285.07055
 33
0.0
 14
583.576983
 24
288.32055
 34
0.0
100
AcDbRotatedDimension
  0
DIMENSION
  5
560
330
1F
100
AcDbEntity
  8
LC-005-003-----0
 62
     7
370
    25
100
AcDbDimension
  2
*D25
 10
583.576983
 20
220.968
 30
0.0
 11
505.874857
 21
251.768
 31
0.0
 70
   160
  1
136
 71
     5
 42
135.574984
  3
LC-DIM-L-0140-02-02
100
AcDbAlignedDimension
 13
448.001998
 23
286.07055
 33
0.0
 14
583.576983
 24
288.32055
 34
0.0
100
AcDbRotatedDimension
  0
LINE
  5
56D
102
{ACAD_REACTORS
330
5AD
102
}
330
1F
100
AcDbEntity
  8
LC-001-002-----0
  6
DASHED
 62
     7
370
    25
100
AcDbLine
 10
570.624846
 20
260.289925
 30
0.0
 11
574.248312
 21
260.289925
 31
0.0
  0
ARC
  5
56E
102
{ACAD_REACTORS
330
5AD
102
}
330
1F
100
AcDbEntity
  8
LC-008-207-----0
 62
     7
370
    50
100
AcDbCircle
 10
477.605391
 20
311.096317
 30
0.0
 40
29.70000000000018
100
AcDbArc
 50
54.721682
 51
89.141305
  0
ARC
  5
56F
102
{ACAD_REACTORS
330
5AD
102
}
330
1F
100
AcDbEntity
  8
LC-001-002-----0
  6
DASHED
 62
     7
370
    25
100
AcDbCircle
 10
462.65556
 20
284.282281
 30
0.0
 40
1.000000000000003
100
AcDbArc
 50
60.858695
 51
165.0
  0
LINE
  5
570
102
{ACAD_REACTORS
330
5AD
102
}
330
1F
100
AcDbEntity
  8
LC-001-002-----0
  6
DASHED
 62
     7
370
    25
100
AcDbLine
 10
461.689634
 20
284.5411
 30
0.0
 11
461.112383
 21
282.386768
 31
0.0
  0
LINE
  5
571
102
{ACAD_REACTORS
330
5AD
102
}
330
1F
100
AcDbEntity
  8
LC-001-002-----0
  6
DASHED
 62
     7
370
    25
100
AcDbLine
 10
574.248312
 20
260.289925
 30
0.0
 11
574.587929
 21
261.557391
 31
0.0
  0
LINE
  5
572
102
{ACAD_REACTORS
330
5AD
102
}
330
1F
100
AcDbEntity
  8
LC-001-002-----0
  6
DASHED
 62
     7
370
    25
100
AcDbLine
 10
574.587929
 20
261.557391
 30
0.0
 11
586.364196
 21
305.507016
 31
0.0
  0
LINE
  5
573
102
{ACAD_REACTORS
330
5AD
102
}
330
1F
100
AcDbEntity
  8
LC-001-002-----0
  6
DASHED
 62
     7
370
    25
100
AcDbLine
 10
586.364196
 20
305.507016
 30
0.0
 11
586.703812
 21
306.774483
 31
0.0
  0
LINE
  5
574
102
{ACAD_REACTORS
330
5AD
102
}
330
1F
100
AcDbEntity
  8
LC-001-002-----0
 62
     7
370
    25
100
AcDbLine
 10
580.476062
 20
283.532204
 30
0.0
 11
450.929101
 21
318.244208
 31
0.0
  0
LINE
  5
575
102
{ACAD_REACTORS
330
5AD
102
}
330
1F
100
AcDbEntity
  8
LC-001-002-----0
  6
DASHED
 62
     7
370
    25
100
AcDbLine
 10
583.565798
 20
308.586216
 30
0.0
 11
586.703812
 21
306.774483
 31
0.0
  0
ARC
  5
576
102
{ACAD_REACTORS
330
5AD
102
}
330
1F
100
AcDbEntity
  8
LC-001-002-----0
  6
DASHED
 62
     7
370
    25
100
AcDbCircle
 10
478.065476
 20
341.79287
 30
0.0
 40
1.00000000000003
100
AcDbArc
 50
165.0
 51
269.141305
  0
LINE
  5
577
102
{ACAD_REACTORS
330
5AD
102
}
330
1F
100
AcDbEntity
  8
LC-001-002-----0
  6
DASHED
 62
     7
370
    25
100
AcDbLine
 10
503.466384
 20
330.04879
 30
0.0
 11
583.565798
 21
308.586216
 31
0.0
  0
LINE
  5
578
102
{ACAD_REACTORS
330
5AD
102
}
330
1F
100
AcDbEntity
  8
LC-001-002-----0
  6
DASHED
 62
     7
370
    25
100
AcDbLine
 10
490.525432
 20
281.752498
 30
0.0
 11
550.180391
 21
265.768
 31
0.0
  0
LINE
  5
579
102
{ACAD_REACTORS
330
5AD
102
}
330
1F
100
AcDbEntity
  8
LC-001-002-----0
  6
DASHED
 62
     7
370
    25
100
AcDbLine
 10
562.612399
 20
262.436854
 30
0.0
 11
570.624846
 21
260.289925
 31
0.0
  0
LINE
  5
57A
102
{ACAD_REACTORS
330
5AD
102
}
330
1F
100
AcDbEntity
  8
LC-001-002-----0
  6
DASHED
 62
     7
370
    25
100
AcDbLine
 10
501.935563
 20
328.129601
 30
0.0
 11
586.364196
 21
305.507016
 31
0.0
  0
LINE
  5
57B
102
{ACAD_REACTORS
330
5AD
102
}
330
1F
100
AcDbEntity
  8
LC-001-002-----0
  6
DASHED
 62
     7
370
    25
100
AcDbLine
 10
490.159296
 20
284.179975
 30
0.0
 11
558.873724
 21
265.768
 31
0.0
  0
LINE
  5
57C
102
{ACAD_REACTORS
330
5AD
102
}
330
1F
100
AcDbEntity
  8
LC-001-002-----0
  6
DASHED
 62
     7
370
    25
100
AcDbLine
 10
562.612399
 20
264.766225
 30
0.0
 11
574.587929
 21
261.557391
 31
0.0
  0
LINE
  5
57D
102
{ACAD_REACTORS
330
5AD
102
}
330
1F
100
AcDbEntity
  8
LC-001-002-----0
  6
DASHED
 62
     7
370
    25
100
AcDbLine
 10
477.09955
 20
342.051689
 30
0.0
 11
477.676802
 21
344.206021
 31
0.0
  0
LINE
  5
57E
102
{ACAD_REACTORS
330
5AD
102
}
330
1F
100
AcDbEntity
  8
LC-001-002-----0
  6
DASHED
 62
     7
370
    25
100
AcDbLine
 10
477.676802
 20
344.206021
 30
0.0
 11
485.887171
 21
342.006059
 31
0.0
  0
LINE
  5
57F
102
{ACAD_REACTORS
330
5AD
102
}
330
1F
100
AcDbEntity
  8
LC-001-002-----0
  6
DASHED
 62
     7
370
    25
100
AcDbLine
 10
461.112383
 20
282.386768
 30
0.0
 11
469.419345
 21
280.160924
 31
0.0
  0
ARC
  5
580
102
{ACAD_REACTORS
330
5AD
102
}
330
1F
100
AcDbEntity
  8
LC-001-002-----0
  6
DASHED
 62
     7
370
    25
100
AcDbCircle
 10
477.701554
 20
311.07055
 30
0.0
 40
32.00000000000085
100
AcDbArc
 50
36.375167
 51
75.17905
  0
ARC
  5
581
102
{ACAD_REACTORS
330
5AD
102
}
330
1F
100
AcDbEntity
  8
LC-001-002-----0
  6
DASHED
 62
     7
370
    25
100
AcDbCircle
 10
477.701554
 20
311.07055
 30
0.0
 40
32.00000000000124
100
AcDbArc
 50
255.0
 51
293.624833
  0
ARC
  5
582
102
{ACAD_REACTORS
330
5AD
102
}
330
1F
100
AcDbEntity
  8
LC-001-002-----0
  6
DASHED
 62
     7
370
    25
100
AcDbCircle
 10
477.605391
 20
311.096317
 30
0.0
 40
29.7000000000002
100
AcDbArc
 50
34.995438
 51
54.721682
  0
ARC
  5
583
102
{ACAD_REACTORS
330
5AD
102
}
330
1F
100
AcDbEntity
  8
LC-001-002-----0
  6
DASHED
 62
     7
370
    25
100
AcDbCircle
 10
477.605391
 20
311.096317
 30
0.0
 40
29.70000000000012
100
AcDbArc
 50
240.858695
 51
295.004562
  0
LINE
  5
584
330
1F
100
AcDbEntity
  8
LC-001-002-----0
  6
DASHED
 62
     7
370
    25
100
AcDbLine
 10
501.935563
 20
328.129601
 30
0.0
 11
490.159296
 21
284.179975
 31
0.0
  0
INSERT
  5
5A4
330
1F
100
AcDbEntity
  8
LC-005-003-----0
 62
     7
370
    25
100
AcDbBlockReference
  2
LCDIM1
 10
0.0
 20
0.0
 30
0.0
  0
ENDSEC
  0
SECTION
  2
OBJECTS
  0
DICTIONARY
  5
C
330
0
100
AcDbDictionary
281
     1
  3
ACAD_GROUP
350
D
  3
ACAD_LAYOUT
350
1A
  3
ACAD_MLINESTYLE
350
17
  3
ACAD_PLOTSETTINGS
350
19
  3
ACAD_PLOTSTYLENAME
350
E
  0
DICTIONARY
  5
D
102
{ACAD_REACTORS
330
C
102
}
330
C
100
AcDbDictionary
281
     1
  3
LCGROUP1233
350
5B0
  3
LCGROUP1323
350
5B4
  3
LCGROUP1331
350
5B6
  3
LCGROUP1425
350
5AE
  3
LCGROUP2470
350
5A8
  3
LCGROUP2563
350
5AF
  3
LCGROUP2631
350
5B1
  3
LCGROUP2643
350
5B3
  3
LCGROUP2649
350
5B2
  3
LCGROUP2719
350
5B7
  3
LCGROUP2721
350
5A6
  3
LCGROUP2973
350
5B5
  3
LCGROUP2996
350
5A5
  3
LCGROUP3019
350
5A7
  3
LCGROUP3041
350
5AA
  3
LCGROUP3042
350
5AB
  3
LCGROUP3043
350
5AC
  3
LCGROUP3045
350
5A9
  3
LCGROUP3065
350
5AD
  0
DICTIONARY
  5
1A
102
{ACAD_REACTORS
330
C
102
}
330
C
100
AcDbDictionary
281
     1
  3
Layout1
350
1E
  3
Layout2
350
26
  3
Model
350
22
  0
DICTIONARY
  5
17
102
{ACAD_REACTORS
330
C
102
}
330
C
100
AcDbDictionary
281
     1
  3
Standard
350
18
  0
DICTIONARY
  5
19
102
{ACAD_REACTORS
330
C
102
}
330
C
100
AcDbDictionary
281
     1
  0
ACDBDICTIONARYWDFLT
  5
E
102
{ACAD_REACTORS
330
C
102
}
330
C
100
AcDbDictionary
281
     1
  3
Normal
350
F
100
AcDbDictionaryWithDefault
340
F
  0
GROUP
  5
5B0
102
{ACAD_REACTORS
330
D
102
}
330
D
100
AcDbGroup
300
GRP1233
 70
     1
 71
     1
340
C1
340
C2
340
C3
340
C4
340
C5
340
C6
340
C7
340
C8
340
C9
340
CA
340
CB
340
CC
340
CD
340
CE
340
CF
340
D0
340
D1
340
D2
340
D3
340
D4
340
D5
340
D6
340
D7
340
D8
340
D9
340
DA
340
DB
340
DC
340
DD
340
DE
340
DF
340
E0
340
E1
340
E2
340
E3
340
E4
340
E5
340
E6
340
E7
340
E8
340
E9
340
EA
340
EB
340
EC
340
ED
340
EE
340
EF
340
F0
340
F1
340
F2
340
F3
340
F4
340
F5
340
F6
340
F7
340
F8
340
F9
340
FA
340
FB
340
FC
340
FD
340
FE
340
FF
340
100
340
101
340
102
340
103
340
104
340
105
340
106
340
107
340
108
340
109
340
10A
340
10B
340
10C
340
10D
340
10E
340
10F
340
110
340
111
340
112
340
113
340
114
340
115
340
116
340
117
340
118
340
140
  0
GROUP
  5
5B4
102
{ACAD_REACTORS
330
D
102
}
330
D
100
AcDbGroup
300
Rahmen SA
 70
     1
 71
     1
340
142
340
143
340
144
340
145
340
146
340
147
340
156
340
1C3
340
1C4
340
1C5
340
1C6
340
1C7
340
1C8
340
1C9
340
1CA
340
1CB
340
1CC
340
1CD
340
1CE
340
1CF
340
1D0
340
1D1
340
1D2
340
1D3
340
1D4
340
1D5
340
1D6
340
1D7
340
1D8
340
1D9
340
1DA
340
1DB
340
1DC
340
1DD
340
1DE
340
1DF
340
1E0
340
1E1
340
1E2
340
1E3
340
1E4
340
1E5
340
1E6
340
1E7
340
1E8
340
1E9
340
1EA
340
1EB
340
1EC
340
1ED
340
1EE
340
1EF
340
1F0
340
1F1
340
1F2
340
1F3
340
1F4
340
1F5
340
1F6
340
1F7
340
1F8
340
1F9
340
1FA
340
1FB
340
1FC
340
208
340
209
340
20A
340
20B
340
20C
340
20D
340
20E
340
20F
  0
GROUP
  5
5B6
102
{ACAD_REACTORS
330
D
102
}
330
D
100
AcDbGroup
300
GRP1331
 70
     1
 71
     1
340
157
340
158
340
183
340
184
340
185
340
1B0
340
1B1
340
1B2
340
1B3
340
1B4
340
1B5
340
1B6
340
1B7
340
1B8
340
1B9
340
1BA
340
1BB
340
1BC
340
1BD
340
1BE
340
1BF
340
1C0
340
1C1
340
218
  0
GROUP
  5
5AE
102
{ACAD_REACTORS
330
D
102
}
330
D
100
AcDbGroup
300
Rahmen SA
 70
     1
 71
     1
340
210
340
211
340
212
340
213
340
214
340
215
340
216
340
217
  0
GROUP
  5
5A8
102
{ACAD_REACTORS
330
D
102
}
330
D
100
AcDbGroup
300
ablaufschn
 70
     1
 71
     1
340
242
340
258
340
2B9
340
2BB
340
2D3
340
2DB
340
308
340
309
340
30A
340
382
340
3E6
340
3E7
340
3E8
340
3EA
340
3EB
340
3EC
340
3EF
340
3F5
340
3F6
340
42D
340
42E
340
42F
340
430
340
432
340
433
340
434
340
435
340
436
340
438
340
439
340
43A
340
43B
340
43C
340
43D
340
43E
340
43F
340
440
340
441
340
442
340
443
340
444
340
445
340
446
  0
GROUP
  5
5AF
102
{ACAD_REACTORS
330
D
102
}
330
D
100
AcDbGroup
300
GRP2563
 70
     1
 71
     1
340
2BE
340
2FE
340
3F1
340
462
340
466
340
467
340
46A
340
46B
340
46C
340
46D
340
46E
340
46F
340
470
340
471
340
472
340
473
340
474
340
475
340
476
340
477
340
478
340
479
340
47A
340
47B
340
47C
340
47D
340
47E
340
47F
340
48D
340
4B3
340
4B4
340
4B5
  0
GROUP
  5
5B1
102
{ACAD_REACTORS
330
D
102
}
330
D
100
AcDbGroup
300
GRP2631
 70
     1
 71
     1
340
468
340
469
340
480
340
481
340
482
340
483
340
484
340
485
340
486
340
487
340
488
340
489
340
48A
340
48B
340
48C
340
48E
340
48F
340
490
340
491
340
492
340
493
340
494
340
495
340
496
340
497
340
498
340
499
340
49A
340
49B
340
49C
340
49D
340
49E
340
49F
340
4A0
340
4A1
340
4A2
340
4A3
340
4A4
340
4A5
340
4A6
340
4A7
340
4A8
340
4A9
340
4AA
340
4AB
340
4AC
340
4AD
340
4AE
340
4AF
340
4B0
340
4B1
340
4B2
  0
GROUP
  5
5B3
102
{ACAD_REACTORS
330
D
102
}
330
D
100
AcDbGroup
300
GRP2643
 70
     1
 71
     1
340
2EE
340
2F0
340
302
340
303
340
304
340
305
340
306
340
307
340
30B
340
30D
340
30E
340
310
340
311
340
312
340
342
340
36C
340
36D
340
36E
340
36F
340
370
340
371
340
37F
340
380
  0
GROUP
  5
5B2
102
{ACAD_REACTORS
330
D
102
}
330
D
100
AcDbGroup
300
GRP2649
 70
     1
 71
     1
340
300
340
383
340
384
340
385
340
386
340
387
340
388
340
389
340
38A
340
38B
340
38C
340
38D
340
38E
340
38F
340
390
340
391
340
392
340
393
340
394
340
395
340
396
340
397
340
3A8
340
3A9
340
3AA
340
3AB
340
3AC
340
3AD
340
3AE
340
3AF
340
3B0
340
3B1
  0
GROUP
  5
5B7
102
{ACAD_REACTORS
330
D
102
}
330
D
100
AcDbGroup
300
ablaufschn
 70
     1
 71
     1
340
3C5
340
4D3
340
4D4
340
4D5
340
4D6
  0
GROUP
  5
5A6
102
{ACAD_REACTORS
330
D
102
}
330
D
100
AcDbGroup
300
GRP2721
 70
     1
 71
     1
340
3C6
340
3C7
340
3C8
340
3C9
340
3CA
340
3CB
340
3CC
340
3CD
340
3CE
340
3CF
340
3D0
340
3D1
340
3D2
340
3D3
340
3D4
340
3D5
340
3D6
340
3D7
340
3D8
340
3D9
340
3DA
340
3DB
340
3DC
340
3DD
340
3DE
340
3DF
340
3E0
340
3E1
340
3E2
340
3E3
340
3E4
340
3E5
340
3E9
340
3ED
340
3EE
340
3F0
340
3F2
340
3F3
340
3F4
340
3F7
340
40A
340
40E
340
40F
340
410
340
411
340
412
340
413
340
414
340
415
340
42B
340
42C
340
431
340
437
340
447
340
448
340
449
340
44A
340
463
340
464
340
465
  0
GROUP
  5
5B5
102
{ACAD_REACTORS
330
D
102
}
330
D
100
AcDbGroup
300
GRP2973
 70
     1
 71
     1
340
4DB
340
4DC
340
4DD
340
4DE
340
4DF
340
4E0
340
4E1
340
4E2
340
4E3
340
4E4
340
4E5
340
4E6
340
4E7
340
4E8
340
4E9
340
511
  0
GROUP
  5
5A5
102
{ACAD_REACTORS
330
D
102
}
330
D
100
AcDbGroup
300
Deckel SN
 70
     1
 71
     1
340
512
  0
GROUP
  5
5A7
102
{ACAD_REACTORS
330
D
102
}
330
D
100
AcDbGroup
300
GRP3019
 70
     1
 71
     1
340
51C
340
51D
340
51E
340
51F
340
520
340
521
340
522
340
523
340
524
340
525
340
526
340
527
340
528
340
529
340
52A
340
52B
340
53E
340
53F
340
540
340
541
  0
GROUP
  5
5AA
102
{ACAD_REACTORS
330
D
102
}
330
D
100
AcDbGroup
300
O-RING_4X92-LCMaster-LCGROUP1923
 70
     1
 71
     1
340
66
  0
GROUP
  5
5AB
102
{ACAD_REACTORS
330
D
102
}
330
D
100
AcDbGroup
300
PRALLSCHEIBE_ZU_HL2000-LCMaster-LCGROUP1923
 70
     1
 71
     1
340
39
340
67
340
6A
340
6B
340
6C
340
6D
340
6F
340
70
340
71
340
73
340
74
  0
GROUP
  5
5AC
102
{ACAD_REACTORS
330
D
102
}
330
D
100
AcDbGroup
300
DXF - Schraffur-LCMaster-LCGROUP3041
 70
     1
 71
     1
340
37
340
75
340
77
340
78
340
7A
340
7C
340
7D
340
7E
340
7F
340
80
340
81
340
82
340
83
340
84
340
85
340
86
  0
GROUP
  5
5A9
102
{ACAD_REACTORS
330
D
102
}
330
D
100
AcDbGroup
300
O-RING_4X92
 70
     1
 71
     1
340
542
  0
GROUP
  5
5AD
102
{ACAD_REACTORS
330
D
102
}
330
D
100
AcDbGroup
300
GRP3065
 70
     1
 71
     1
340
56D
340
56E
340
56F
340
570
340
571
340
572
340
573
340
574
340
575
340
576
340
577
340
578
340
579
340
57A
340
57B
340
57C
340
57D
340
57E
340
57F
340
580
340
581
340
582
340
583
  0
LAYOUT
  5
1E
102
{ACAD_REACTORS
330
1A
102
}
330
1A
100
AcDbPlotSettings
  1

  2

  4

  6

 40
0.0
 41
0.0
 42
0.0
 43
0.0
 44
0.0
 45
0.0
 46
0.0
 47
0.0
 48
0.0
 49
0.0
140
0.0
141
0.0
142
1.0
143
1.0
 70
   688
 72
     0
 73
     0
 74
     5
  7

 75
    16
147
1.0
148
0.0
149
0.0
100
AcDbLayout
  1
Layout1
 70
     1
 71
     1
 10
0.0
 20
0.0
 11
840.0
 21
594.0
 12
0.0
 22
0.0
 32
0.0
 14
0.0
 24
0.0
 34
0.0
 15
840.0
 25
594.0
 35
0.0
146
0.0
 13
0.0
 23
0.0
 33
0.0
 16
1.0
 26
0.0
 36
0.0
 17
0.0
 27
1.0
 37
0.0
 76
     0
330
1B
  0
LAYOUT
  5
26
102
{ACAD_REACTORS
330
1A
102
}
330
1A
100
AcDbPlotSettings
  1

  2

  4

  6

 40
0.0
 41
0.0
 42
0.0
 43
0.0
 44
0.0
 45
0.0
 46
0.0
 47
0.0
 48
0.0
 49
0.0
140
0.0
141
0.0
142
1.0
143
1.0
 70
   688
 72
     0
 73
     0
 74
     5
  7

 75
    16
147
1.0
148
0.0
149
0.0
100
AcDbLayout
  1
Layout2
 70
     1
 71
     2
 10
0.0
 20
0.0
 11
0.0
 21
0.0
 12
0.0
 22
0.0
 32
0.0
 14
0.0
 24
0.0
 34
0.0
 15
0.0
 25
0.0
 35
0.0
146
0.0
 13
0.0
 23
0.0
 33
0.0
 16
1.0
 26
0.0
 36
0.0
 17
0.0
 27
1.0
 37
0.0
 76
     0
330
23
  0
LAYOUT
  5
22
102
{ACAD_REACTORS
330
1A
102
}
330
1A
100
AcDbPlotSettings
  1

  2

  4

  6

 40
0.0
 41
0.0
 42
0.0
 43
0.0
 44
0.0
 45
0.0
 46
0.0
 47
0.0
 48
0.0
 49
0.0
140
0.0
141
0.0
142
1.0
143
1.0
 70
  1776
 72
     0
 73
     0
 74
     0
  7

 75
     0
147
1.0
148
0.0
149
0.0
100
AcDbLayout
  1
Model
 70
     1
 71
     0
 10
0.0
 20
0.0
 11
840.0
 21
594.0
 12
0.0
 22
0.0
 32
0.0
 14
0.0
 24
0.0
 34
0.0
 15
840.0
 25
594.0
 35
0.0
146
0.0
 13
0.0
 23
0.0
 33
0.0
 16
1.0
 26
0.0
 36
0.0
 17
0.0
 27
1.0
 37
0.0
 76
     0
330
1F
  0
MLINESTYLE
  5
18
102
{ACAD_REACTORS
330
17
102
}
330
17
100
AcDbMlineStyle
  2
Standard
 70
     0
  3

 62
   256
 51
90.0
 52
90.0
 71
     2
 49
0.5
 62
   256
  6
BYLAYER
 49
-0.5
 62
   256
  6
BYLAYER
  0
ACDBPLACEHOLDER
  5
F
102
{ACAD_REACTORS
330
E
102
}
330
E
  0
ENDSEC
  0
EOF
