  0
SECTION
  2
HEADER
  9
$ACADVER
  1
AC1015
  9
$ACADMAINTVER
 70
     6
  9
$DWGCODEPAGE
  3
DOS850
  9
$INSBASE
 10
86.626536
 20
69.211637
 30
0.0
  9
$EXTMIN
 10
-123.373464
 20
-79.288363
 30
0.0
  9
$EXTMAX
 10
716.626536
 20
514.711637
 30
0.0
  9
$LIMMIN
 10
-123.373464
 20
-79.288363
  9
$LIMMAX
 10
716.626536
 20
514.711637
  9
$ORTHOMODE
 70
     0
  9
$REGENMODE
 70
     1
  9
$FILLMODE
 70
     1
  9
$QTEXTMODE
 70
     0
  9
$MIRRTEXT
 70
     1
  9
$LTSCALE
 40
2.0
  9
$ATTMODE
 70
     1
  9
$TEXTSIZE
 40
2.5
  9
$TRACEWID
 40
1.0
  9
$TEXTSTYLE
  7
Standard
  9
$CLAYER
  8
0
  9
$CELTYPE
  6
ByLayer
  9
$CECOLOR
 62
     7
  9
$CELTSCALE
 40
1.0
  9
$DISPSILH
 70
     0
  9
$DIMSCALE
 40
2.0
  9
$DIMASZ
 40
3.5
  9
$DIMEXO
 40
0.625
  9
$DIMDLI
 40
3.75
  9
$DIMRND
 40
0.0
  9
$DIMDLE
 40
0.0
  9
$DIMEXE
 40
1.25
  9
$DIMTP
 40
0.0
  9
$DIMTM
 40
0.0
  9
$DIMTXT
 40
3.5
  9
$DIMCEN
 40
2.5
  9
$DIMTSZ
 40
0.0
  9
$DIMTOL
 70
     0
  9
$DIMLIM
 70
     0
  9
$DIMTIH
 70
     0
  9
$DIMTOH
 70
     0
  9
$DIMSE1
 70
     0
  9
$DIMSE2
 70
     0
  9
$DIMTAD
 70
     1
  9
$DIMZIN
 70
     8
  9
$DIMBLK
  1

  9
$DIMASO
 70
     1
  9
$DIMSHO
 70
     1
  9
$DIMPOST
  1

  9
$DIMAPOST
  1

  9
$DIMALT
 70
     0
  9
$DIMALTD
 70
     3
  9
$DIMALTF
 40
0.03937
  9
$DIMLFAC
 40
1.0
  9
$DIMTOFL
 70
     1
  9
$DIMTVP
 40
0.0
  9
$DIMTIX
 70
     0
  9
$DIMSOXD
 70
     0
  9
$DIMSAH
 70
     0
  9
$DIMBLK1
  1

  9
$DIMBLK2
  1

  9
$DIMSTYLE
  2
ISO-25
  9
$DIMCLRD
 70
     0
  9
$DIMCLRE
 70
     0
  9
$DIMCLRT
 70
     0
  9
$DIMTFAC
 40
1.0
  9
$DIMGAP
 40
0.625
  9
$DIMJUST
 70
     0
  9
$DIMSD1
 70
     0
  9
$DIMSD2
 70
     0
  9
$DIMTOLJ
 70
     0
  9
$DIMTZIN
 70
     8
  9
$DIMALTZ
 70
     0
  9
$DIMALTTZ
 70
     0
  9
$DIMUPT
 70
     0
  9
$DIMDEC
 70
     2
  9
$DIMTDEC
 70
     2
  9
$DIMALTU
 70
     2
  9
$DIMALTTD
 70
     3
  9
$DIMTXSTY
  7
Standard
  9
$DIMAUNIT
 70
     0
  9
$DIMADEC
 70
     0
  9
$DIMALTRND
 40
0.0
  9
$DIMAZIN
 70
     0
  9
$DIMDSEP
 70
    44
  9
$DIMATFIT
 70
     3
  9
$DIMFRAC
 70
     0
  9
$DIMLDRBLK
  1

  9
$DIMLUNIT
 70
     2
  9
$DIMLWD
 70
    -2
  9
$DIMLWE
 70
    -2
  9
$DIMTMOVE
 70
     0
  9
$LUNITS
 70
     2
  9
$LUPREC
 70
     4
  9
$SKETCHINC
 40
1.0
  9
$FILLETRAD
 40
10.0
  9
$AUNITS
 70
     0
  9
$AUPREC
 70
     0
  9
$MENU
  1
.
  9
$ELEVATION
 40
0.0
  9
$PELEVATION
 40
0.0
  9
$THICKNESS
 40
0.0
  9
$LIMCHECK
 70
     0
  9
$CHAMFERA
 40
10.0
  9
$CHAMFERB
 40
10.0
  9
$CHAMFERC
 40
20.0
  9
$CHAMFERD
 40
0.0
  9
$SKPOLY
 70
     0
  9
$TDCREATE
 40
2453663.409570671
  9
$TDUCREATE
 40
2453663.326237338
  9
$TDUPDATE
 40
2453663.409570683
  9
$TDUUPDATE
 40
2453663.326237349
  9
$TDINDWG
 40
0.0000000116
  9
$TDUSRTIMER
 40
0.0000000116
  9
$USRTIMER
 70
     1
  9
$ANGBASE
 50
0.0
  9
$ANGDIR
 70
     0
  9
$PDMODE
 70
     0
  9
$PDSIZE
 40
0.0
  9
$PLINEWID
 40
0.0
  9
$SPLFRAME
 70
     0
  9
$SPLINETYPE
 70
     6
  9
$SPLINESEGS
 70
     8
  9
$HANDSEED
  5
11D
  9
$SURFTAB1
 70
     6
  9
$SURFTAB2
 70
     6
  9
$SURFTYPE
 70
     6
  9
$SURFU
 70
     6
  9
$SURFV
 70
     6
  9
$UCSBASE
  2

  9
$UCSNAME
  2

  9
$UCSORG
 10
0.0
 20
0.0
 30
0.0
  9
$UCSXDIR
 10
1.0
 20
0.0
 30
0.0
  9
$UCSYDIR
 10
0.0
 20
1.0
 30
0.0
  9
$UCSORTHOREF
  2

  9
$UCSORTHOVIEW
 70
     0
  9
$UCSORGTOP
 10
0.0
 20
0.0
 30
0.0
  9
$UCSORGBOTTOM
 10
0.0
 20
0.0
 30
0.0
  9
$UCSORGLEFT
 10
0.0
 20
0.0
 30
0.0
  9
$UCSORGRIGHT
 10
0.0
 20
0.0
 30
0.0
  9
$UCSORGFRONT
 10
0.0
 20
0.0
 30
0.0
  9
$UCSORGBACK
 10
0.0
 20
0.0
 30
0.0
  9
$PUCSBASE
  2

  9
$PUCSNAME
  2

  9
$PUCSORG
 10
0.0
 20
0.0
 30
0.0
  9
$PUCSXDIR
 10
1.0
 20
0.0
 30
0.0
  9
$PUCSYDIR
 10
0.0
 20
1.0
 30
0.0
  9
$PUCSORTHOREF
  2

  9
$PUCSORTHOVIEW
 70
     0
  9
$PUCSORGTOP
 10
0.0
 20
0.0
 30
0.0
  9
$PUCSORGBOTTOM
 10
0.0
 20
0.0
 30
0.0
  9
$PUCSORGLEFT
 10
0.0
 20
0.0
 30
0.0
  9
$PUCSORGRIGHT
 10
0.0
 20
0.0
 30
0.0
  9
$PUCSORGFRONT
 10
0.0
 20
0.0
 30
0.0
  9
$PUCSORGBACK
 10
0.0
 20
0.0
 30
0.0
  9
$USERI1
 70
     0
  9
$USERI2
 70
     0
  9
$USERI3
 70
     0
  9
$USERI4
 70
     0
  9
$USERI5
 70
     0
  9
$USERR1
 40
0.0
  9
$USERR2
 40
0.0
  9
$USERR3
 40
0.0
  9
$USERR4
 40
0.0
  9
$USERR5
 40
0.0
  9
$WORLDVIEW
 70
     1
  9
$SHADEDGE
 70
     3
  9
$SHADEDIF
 70
    70
  9
$TILEMODE
 70
     1
  9
$MAXACTVP
 70
    64
  9
$PINSBASE
 10
0.0
 20
0.0
 30
0.0
  9
$PLIMCHECK
 70
     0
  9
$PEXTMIN
 10
-123.373464
 20
-79.288363
 30
0.0
  9
$PEXTMAX
 10
716.626536
 20
514.711637
 30
0.0
  9
$PLIMMIN
 10
-123.373464
 20
-79.288363
  9
$PLIMMAX
 10
716.626536
 20
514.711637
  9
$UNITMODE
 70
     0
  9
$VISRETAIN
 70
     1
  9
$PLINEGEN
 70
     0
  9
$PSLTSCALE
 70
     1
  9
$TREEDEPTH
 70
  3020
  9
$CMLSTYLE
  2
Standard
  9
$CMLJUST
 70
     0
  9
$CMLSCALE
 40
20.0
  9
$PROXYGRAPHICS
 70
     1
  9
$MEASUREMENT
 70
     1
  9
$CELWEIGHT
370
    -1
  9
$ENDCAPS
280
     0
  9
$JOINSTYLE
280
     0
  9
$LWDISPLAY
290
     0
  9
$INSUNITS
 70
     4
  9
$HYPERLINKBASE
  1

  9
$STYLESHEET
  1

  9
$XEDIT
290
     1
  9
$CEPSNTYPE
380
     0
  9
$PSTYLEMODE
290
     1
  9
$FINGERPRINTGUID
  2
{FAEB1C30-E019-11D5-929B-00C0DF256EC4}
  9
$VERSIONGUID
  2
{FAEB1C32-E019-11D5-929B-00C0DF256EC4}
  9
$EXTNAMES
290
     1
  9
$PSVPSCALE
 40
0.0
  9
$OLESTARTUP
290
     0
  0
ENDSEC
  0
SECTION
  2
CLASSES
  0
CLASS
  1
ACDBDICTIONARYWDFLT
  2
AcDbDictionaryWithDefault
  3
ObjectDBX Classes
 90
        0
280
     0
281
     0
  0
CLASS
  1
ACDBPLACEHOLDER
  2
AcDbPlaceHolder
  3
ObjectDBX Classes
 90
        0
280
     0
281
     0
  0
CLASS
  1
LAYOUT
  2
AcDbLayout
  3
ObjectDBX Classes
 90
        0
280
     0
281
     0
  0
ENDSEC
  0
SECTION
  2
TABLES
  0
TABLE
  2
VPORT
  5
8
330
0
100
AcDbSymbolTable
 70
     2
  0
VPORT
  5
29
330
8
100
AcDbSymbolTableRecord
100
AcDbViewportTableRecord
  2
*ACTIVE
 70
     0
 10
0.0
 20
0.0
 11
1.0
 21
1.0
 12
296.626536
 22
217.711637
 13
0.0
 23
0.0
 14
1.0
 24
1.0
 15
0.0
 25
0.0
 16
0.0
 26
0.0
 36
1.0
 17
0.0
 27
0.0
 37
0.0
 40
594.0
 41
1.414141
 42
50.0
 43
0.0
 44
0.0
 50
0.0
 51
0.0
 71
    16
 72
   100
 73
     1
 74
     0
 75
     0
 76
     0
 77
     0
 78
     0
281
     0
 65
     0
110
0.0
120
0.0
130
0.0
111
1.0
121
0.0
131
0.0
112
0.0
122
1.0
132
0.0
 79
     0
146
0.0
  0
ENDTAB
  0
TABLE
  2
LTYPE
  5
5
330
0
100
AcDbSymbolTable
 70
     3
  0
LTYPE
  5
14
330
5
100
AcDbSymbolTableRecord
100
AcDbLinetypeTableRecord
  2
ByBlock
 70
     0
  3

 72
    65
 73
     0
 40
0.0
  0
LTYPE
  5
15
330
5
100
AcDbSymbolTableRecord
100
AcDbLinetypeTableRecord
  2
ByLayer
 70
     0
  3

 72
    65
 73
     0
 40
0.0
  0
LTYPE
  5
16
330
5
100
AcDbSymbolTableRecord
100
AcDbLinetypeTableRecord
  2
Continuous
 70
     0
  3
Solid line
 72
    65
 73
     0
 40
0.0
  0
LTYPE
  5
2A
330
5
100
AcDbSymbolTableRecord
100
AcDbLinetypeTableRecord
  2
DASHED
 70
     0
  3
__ __ __ __ __
 72
    65
 73
     2
 40
6.25
 49
5.0
 74
     4
 75
     0
340
0
 46
1.0
 50
0.0
 44
0.0
 45
0.0
 49
-1.25
 74
     4
 75
     0
340
0
 46
1.0
 50
0.0
 44
0.0
 45
0.0
  0
LTYPE
  5
52
330
5
100
AcDbSymbolTableRecord
100
AcDbLinetypeTableRecord
  2
CENTER
 70
     0
  3
__ . __ . __ . __ . __
 72
    65
 73
     4
 40
7.5
 49
5.0
 74
     4
 75
     0
340
0
 46
1.0
 50
0.0
 44
0.0
 45
0.0
 49
-1.25
 74
     4
 75
     0
340
0
 46
1.0
 50
0.0
 44
0.0
 45
0.0
 49
0.0
 74
     4
 75
     0
340
0
 46
1.0
 50
0.0
 44
0.0
 45
0.0
 49
-1.25
 74
     4
 75
     0
340
0
 46
1.0
 50
0.0
 44
0.0
 45
0.0
  0
ENDTAB
  0
TABLE
  2
LAYER
  5
2
330
0
100
AcDbSymbolTable
 70
    11
  0
LAYER
  5
10
330
2
100
AcDbSymbolTableRecord
100
AcDbLayerTableRecord
  2
0
 70
     0
 62
     7
  6
Continuous
370
    -3
390
F
  0
LAYER
  5
2B
330
2
100
AcDbSymbolTableRecord
100
AcDbLayerTableRecord
  2
LC-INFO-1-2-mm-A3-0
 70
     1
 62
     7
  6
ByBlock
370
    -3
390
F
  0
LAYER
  5
2C
330
2
100
AcDbSymbolTableRecord
100
AcDbLayerTableRecord
  2
LC-CUT-HIDDEN
 70
     0
 62
     7
  6
DASHED
370
    -3
390
F
  0
LAYER
  5
2D
330
2
100
AcDbSymbolTableRecord
100
AcDbLayerTableRecord
  2
LC-VIEWPORT
 70
     0
 62
     7
  6
ByBlock
370
    -3
390
F
  0
LAYER
  5
2E
330
2
100
AcDbSymbolTableRecord
100
AcDbLayerTableRecord
  2
LC-3D-HIDDEN
 70
     0
 62
     9
  6
DASHED
370
    -3
390
F
  0
LAYER
  5
30
330
2
100
AcDbSymbolTableRecord
100
AcDbLayerTableRecord
  2
LC-001-002-----0
 70
     0
 62
     2
  6
ByBlock
370
    -3
390
F
  0
LAYER
  5
3B
330
2
100
AcDbSymbolTableRecord
100
AcDbLayerTableRecord
  2
LC-002-002-RND-0
 70
     0
 62
     1
  6
ByBlock
370
    -3
390
F
  0
LAYER
  5
53
330
2
100
AcDbSymbolTableRecord
100
AcDbLayerTableRecord
  2
LC-003-006-MLN-0
 70
     0
 62
     2
  6
CENTER
370
    -3
390
F
  0
LAYER
  5
7A
330
2
100
AcDbSymbolTableRecord
100
AcDbLayerTableRecord
  2
LC-004-005-----0
 70
     0
 62
     2
  6
ByBlock
370
    -3
390
F
  0
LAYER
  5
F0
330
2
100
AcDbSymbolTableRecord
100
AcDbLayerTableRecord
  2
LC-005-003-----0
 70
     0
 62
     2
  6
ByBlock
370
    -3
390
F
  0
LAYER
  5
F2
330
2
100
AcDbSymbolTableRecord
100
AcDbLayerTableRecord
  2
Defpoints
 70
     0
 62
     7
  6
Continuous
290
     0
370
    -3
390
F
  0
ENDTAB
  0
TABLE
  2
STYLE
  5
3
330
0
100
AcDbSymbolTable
 70
     3
  0
STYLE
  5
11
330
3
100
AcDbSymbolTableRecord
100
AcDbTextStyleTableRecord
  2
Standard
 70
     0
 40
0.0
 41
1.0
 50
0.0
 71
     0
 42
2.5
  3
txt
  4

  0
STYLE
  5
2F
330
3
100
AcDbSymbolTableRecord
100
AcDbTextStyleTableRecord
  2
LCTX15-400-0-0-Arial
 70
     0
 40
0.0
 41
0.8
 50
0.0
 71
     0
 42
3.5
  3

  4

1001
ACAD
1000
Arial
1071
 16777218
  0
STYLE
  5
EE
330
3
100
AcDbSymbolTableRecord
100
AcDbTextStyleTableRecord
  2
LCTX15-400-0-0pDIN-Schrift
 70
     0
 40
2.5
 41
0.8
 50
15.0
 71
     0
 42
3.5
  3
STANDARD
  4

  0
ENDTAB
  0
TABLE
  2
VIEW
  5
6
330
0
100
AcDbSymbolTable
 70
     0
  0
ENDTAB
  0
TABLE
  2
UCS
  5
7
330
0
100
AcDbSymbolTable
 70
     0
  0
ENDTAB
  0
TABLE
  2
APPID
  5
9
330
0
100
AcDbSymbolTable
 70
     1
  0
APPID
  5
12
330
9
100
AcDbSymbolTableRecord
100
AcDbRegAppTableRecord
  2
ACAD
 70
     0
  0
ENDTAB
  0
TABLE
  2
DIMSTYLE
  5
A
330
0
100
AcDbSymbolTable
 70
     2
100
AcDbDimStyleTable
  0
DIMSTYLE
105
27
330
A
100
AcDbSymbolTableRecord
100
AcDbDimStyleTableRecord
  2
ISO-25
 70
     0
 41
2.5
 42
0.625
 43
3.75
 44
1.25
 73
     0
 74
     0
 77
     1
 78
     8
140
2.5
141
2.5
143
0.03937
147
0.625
171
     3
172
     1
271
     2
272
     2
274
     3
278
    44
283
     0
284
     8
340
11
  0
DIMSTYLE
105
EF
102
{ACAD_REACTORS
330
F1
330
FF
330
10C
102
}
330
A
100
AcDbSymbolTableRecord
100
AcDbDimStyleTableRecord
  2
LC-DIM-L-0140-02-02
 70
     0
 40
2.0
 41
14.0
 42
0.0
 43
7.5
 44
1.8
 73
     0
 74
     0
 77
     1
 78
     8
 79
     2
140
14.0
141
0.0
146
0.71
147
1.5
176
     2
177
     2
178
     2
179
     2
271
     2
278
    44
289
     1
340
EE
  0
ENDTAB
  0
TABLE
  2
BLOCK_RECORD
  5
1
330
0
100
AcDbSymbolTable
 70
     6
  0
BLOCK_RECORD
  5
1F
330
1
100
AcDbSymbolTableRecord
100
AcDbBlockTableRecord
  2
*Model_Space
340
22
  0
BLOCK_RECORD
  5
1B
330
1
100
AcDbSymbolTableRecord
100
AcDbBlockTableRecord
  2
*Paper_Space
340
1E
  0
BLOCK_RECORD
  5
23
330
1
100
AcDbSymbolTableRecord
100
AcDbBlockTableRecord
  2
*Paper_Space0
340
26
  0
BLOCK_RECORD
  5
77
330
1
100
AcDbSymbolTableRecord
100
AcDbBlockTableRecord
  2
*X11
340
0
102
{BLKREFS
331
94
102
}
  0
BLOCK_RECORD
  5
95
330
1
100
AcDbSymbolTableRecord
100
AcDbBlockTableRecord
  2
*X22
340
0
102
{BLKREFS
331
ED
102
}
  0
BLOCK_RECORD
  5
F3
330
1
100
AcDbSymbolTableRecord
100
AcDbBlockTableRecord
  2
*D3
340
0
  0
BLOCK_RECORD
  5
100
330
1
100
AcDbSymbolTableRecord
100
AcDbBlockTableRecord
  2
*D4
340
0
  0
BLOCK_RECORD
  5
10D
330
1
100
AcDbSymbolTableRecord
100
AcDbBlockTableRecord
  2
*D5
340
0
  0
ENDTAB
  0
ENDSEC
  0
SECTION
  2
BLOCKS
  0
BLOCK
  5
20
330
1F
100
AcDbEntity
  8
0
100
AcDbBlockBegin
  2
*Model_Space
 70
     0
 71
     0
 10
0.0
 20
0.0
 30
0.0
  3
*Model_Space
  1

  0
ENDBLK
  5
21
330
1F
100
AcDbEntity
  8
0
100
AcDbBlockEnd
  0
BLOCK
  5
1C
330
1B
100
AcDbEntity
 67
     1
  8
0
100
AcDbBlockBegin
  2
*Paper_Space
 70
     0
 71
     0
 10
0.0
 20
0.0
 30
0.0
  3
*Paper_Space
  1

  0
ENDBLK
  5
1D
330
1B
100
AcDbEntity
 67
     1
  8
0
100
AcDbBlockEnd
  0
BLOCK
  5
24
330
23
100
AcDbEntity
  8
0
100
AcDbBlockBegin
  2
*Paper_Space0
 70
     0
 71
     0
 10
0.0
 20
0.0
 30
0.0
  3
*Paper_Space0
  1

  0
ENDBLK
  5
25
330
23
100
AcDbEntity
  8
0
100
AcDbBlockEnd
  0
BLOCK
  5
78
330
77
100
AcDbEntity
  8
0
100
AcDbBlockBegin
  2
*X11
 70
     1
 71
     0
 10
0.0
 20
0.0
 30
0.0
  3
*X11
  1

  4
*X1
  0
LINE
  5
7B
330
77
100
AcDbEntity
  8
LC-004-005-----0
 62
     7
370
    25
100
AcDbLine
 10
356.897732
 20
254.042527
 30
0.0
 11
353.594626
 21
257.345633
 31
0.0
  0
LINE
  5
7C
330
77
100
AcDbEntity
  8
LC-004-005-----0
  6
DASHED
 62
     7
370
    25
100
AcDbLine
 10
371.557185
 20
230.897792
 30
0.0
 11
368.395345
 21
234.059632
 31
0.0
  0
LINE
  5
7D
330
77
100
AcDbEntity
  8
LC-004-005-----0
  6
DASHED
 62
     7
370
    25
100
AcDbLine
 10
364.547341
 20
237.907637
 30
0.0
 11
361.547341
 21
240.907637
 31
0.0
  0
LINE
  5
7E
330
77
100
AcDbEntity
  8
LC-004-005-----0
  6
DASHED
 62
     7
370
    25
100
AcDbLine
 10
357.718888
 20
244.736089
 30
0.0
 11
354.052426
 21
248.402552
 31
0.0
  0
LINE
  5
7F
330
77
100
AcDbEntity
  8
LC-004-005-----0
  6
DASHED
 62
     7
370
    25
100
AcDbLine
 10
389.03896
 20
209.173377
 30
0.0
 11
387.322433
 21
210.889903
 31
0.0
  0
LINE
  5
80
330
77
100
AcDbEntity
  8
LC-004-005-----0
  6
DASHED
 62
     7
370
    25
100
AcDbLine
 10
371.780482
 20
226.431855
 30
0.0
 11
368.618642
 21
229.593695
 31
0.0
  0
LINE
  5
81
330
77
100
AcDbEntity
  8
LC-004-005-----0
  6
DASHED
 62
     7
370
    25
100
AcDbLine
 10
360.3047
 20
237.907637
 30
0.0
 11
354.82636
 21
243.385977
 31
0.0
  0
LINE
  5
82
330
77
100
AcDbEntity
  8
LC-004-005-----0
 62
     7
370
    25
100
AcDbLine
 10
381.819419
 20
207.907637
 30
0.0
 11
378.819419
 21
210.907637
 31
0.0
  0
LINE
  5
83
330
77
100
AcDbEntity
  8
LC-004-005-----0
 62
     7
370
    25
100
AcDbLine
 10
372.227076
 20
217.49998
 30
0.0
 11
369.065236
 21
220.661819
 31
0.0
  0
LINE
  5
84
330
77
100
AcDbEntity
  8
LC-004-005-----0
 62
     7
370
    25
100
AcDbLine
 10
377.576778
 20
207.907637
 30
0.0
 11
374.576778
 21
210.907637
 31
0.0
  0
LINE
  5
85
330
77
100
AcDbEntity
  8
LC-004-005-----0
 62
     7
370
    25
100
AcDbLine
 10
372.450373
 20
213.034042
 30
0.0
 11
369.288533
 21
216.195882
 31
0.0
  0
LINE
  5
86
330
77
100
AcDbEntity
  8
LC-004-005-----0
  6
DASHED
 62
     7
370
    25
100
AcDbLine
 10
244.418804
 20
256.212797
 30
0.0
 11
242.723965
 21
257.907637
 31
0.0
  0
LINE
  5
87
330
77
100
AcDbEntity
  8
LC-004-005-----0
  6
DASHED
 62
     7
370
    25
100
AcDbLine
 10
244.219155
 20
252.169806
 30
0.0
 11
241.307339
 21
255.081622
 31
0.0
  0
LINE
  5
88
330
77
100
AcDbEntity
  8
LC-004-005-----0
 62
     7
370
    25
100
AcDbLine
 10
243.607103
 20
244.296576
 30
0.0
 11
240.619343
 21
247.284336
 31
0.0
  0
LINE
  5
89
330
77
100
AcDbEntity
  8
LC-004-005-----0
 62
     7
370
    25
100
AcDbLine
 10
243.04271
 20
240.618328
 30
0.0
 11
240.275345
 21
243.385693
 31
0.0
  0
LINE
  5
8A
330
77
100
AcDbEntity
  8
LC-004-005-----0
  6
DASHED
 62
     7
370
    25
100
AcDbLine
 10
237.26812
 20
237.907637
 30
0.0
 11
234.26812
 21
240.907637
 31
0.0
  0
LINE
  5
8B
330
77
100
AcDbEntity
  8
LC-004-005-----0
  6
DASHED
 62
     7
370
    25
100
AcDbLine
 10
233.02548
 20
237.907637
 30
0.0
 11
230.02548
 21
240.907637
 31
0.0
  0
LINE
  5
8C
330
77
100
AcDbEntity
  8
LC-004-005-----0
 62
     7
370
    25
100
AcDbLine
 10
229.654715
 20
232.79312
 30
0.0
 11
226.794003
 21
235.653832
 31
0.0
  0
LINE
  5
8D
330
77
100
AcDbEntity
  8
LC-004-005-----0
 62
     7
370
    25
100
AcDbLine
 10
229.452684
 20
228.75251
 30
0.0
 11
226.591972
 21
231.613222
 31
0.0
  0
LINE
  5
8E
330
77
100
AcDbEntity
  8
LC-004-005-----0
  6
DASHED
 62
     7
370
    25
100
AcDbLine
 10
229.048623
 20
220.67129
 30
0.0
 11
226.187911
 21
223.532002
 31
0.0
  0
LINE
  5
8F
330
77
100
AcDbEntity
  8
LC-004-005-----0
  6
DASHED
 62
     7
370
    25
100
AcDbLine
 10
228.846593
 20
216.630679
 30
0.0
 11
225.985881
 21
219.491392
 31
0.0
  0
LINE
  5
90
330
77
100
AcDbEntity
  8
LC-004-005-----0
 62
     7
370
    25
100
AcDbLine
 10
228.442532
 20
208.549459
 30
0.0
 11
225.510227
 21
211.481764
 31
0.0
  0
LINE
  5
91
330
77
100
AcDbEntity
  8
LC-004-005-----0
 62
     7
370
    25
100
AcDbLine
 10
224.841714
 20
207.907637
 30
0.0
 11
221.841714
 21
210.907637
 31
0.0
  0
LINE
  5
92
330
77
100
AcDbEntity
  8
LC-004-005-----0
  6
DASHED
 62
     7
370
    25
100
AcDbLine
 10
216.356432
 20
207.907637
 30
0.0
 11
213.356432
 21
210.907637
 31
0.0
  0
LINE
  5
93
330
77
100
AcDbEntity
  8
LC-004-005-----0
  6
DASHED
 62
     7
370
    25
100
AcDbLine
 10
212.113791
 20
207.907637
 30
0.0
 11
209.671317
 21
210.350111
 31
0.0
  0
ENDBLK
  5
79
330
77
100
AcDbEntity
  8
0
100
AcDbBlockEnd
  0
BLOCK
  5
96
330
95
100
AcDbEntity
  8
0
100
AcDbBlockBegin
  2
*X22
 70
     1
 71
     0
 10
0.0
 20
0.0
 30
0.0
  3
*X22
  1

  4
*X2
  0
LINE
  5
98
330
95
100
AcDbEntity
  8
LC-004-005-----0
 62
     7
370
    25
100
AcDbLine
 10
546.318892
 20
206.907637
 30
0.0
 11
547.318892
 21
207.907637
 31
0.0
  0
LINE
  5
99
330
95
100
AcDbEntity
  8
LC-004-005-----0
 62
     7
370
    25
100
AcDbLine
 10
542.076251
 20
206.907637
 30
0.0
 11
543.076251
 21
207.907637
 31
0.0
  0
LINE
  5
9A
330
95
100
AcDbEntity
  8
LC-004-005-----0
 62
     7
370
    25
100
AcDbLine
 10
537.83361
 20
206.907637
 30
0.0
 11
538.83361
 21
207.907637
 31
0.0
  0
LINE
  5
9B
330
95
100
AcDbEntity
  8
LC-004-005-----0
 62
     7
370
    25
100
AcDbLine
 10
533.590969
 20
206.907637
 30
0.0
 11
534.590969
 21
207.907637
 31
0.0
  0
LINE
  5
9C
330
95
100
AcDbEntity
  8
LC-004-005-----0
 62
     7
370
    25
100
AcDbLine
 10
529.348329
 20
206.907637
 30
0.0
 11
530.348329
 21
207.907637
 31
0.0
  0
LINE
  5
9D
330
95
100
AcDbEntity
  8
LC-004-005-----0
 62
     7
370
    25
100
AcDbLine
 10
525.105688
 20
206.907637
 30
0.0
 11
526.105688
 21
207.907637
 31
0.0
  0
LINE
  5
9E
330
95
100
AcDbEntity
  8
LC-004-005-----0
 62
     7
370
    25
100
AcDbLine
 10
520.863047
 20
206.907637
 30
0.0
 11
521.863047
 21
207.907637
 31
0.0
  0
LINE
  5
9F
330
95
100
AcDbEntity
  8
LC-004-005-----0
 62
     7
370
    25
100
AcDbLine
 10
516.620407
 20
206.907637
 30
0.0
 11
517.620407
 21
207.907637
 31
0.0
  0
LINE
  5
A0
330
95
100
AcDbEntity
  8
LC-004-005-----0
 62
     7
370
    25
100
AcDbLine
 10
512.377766
 20
206.907637
 30
0.0
 11
513.377766
 21
207.907637
 31
0.0
  0
LINE
  5
A1
330
95
100
AcDbEntity
  8
LC-004-005-----0
 62
     7
370
    25
100
AcDbLine
 10
508.135125
 20
206.907637
 30
0.0
 11
509.135125
 21
207.907637
 31
0.0
  0
LINE
  5
A2
330
95
100
AcDbEntity
  8
LC-004-005-----0
 62
     7
370
    25
100
AcDbLine
 10
503.892485
 20
206.907637
 30
0.0
 11
504.892485
 21
207.907637
 31
0.0
  0
LINE
  5
A3
330
95
100
AcDbEntity
  8
LC-004-005-----0
 62
     7
370
    25
100
AcDbLine
 10
499.649844
 20
206.907637
 30
0.0
 11
500.649844
 21
207.907637
 31
0.0
  0
LINE
  5
A4
330
95
100
AcDbEntity
  8
LC-004-005-----0
 62
     7
370
    25
100
AcDbLine
 10
495.407203
 20
206.907637
 30
0.0
 11
496.407203
 21
207.907637
 31
0.0
  0
LINE
  5
A5
330
95
100
AcDbEntity
  8
LC-004-005-----0
 62
     7
370
    25
100
AcDbLine
 10
491.164563
 20
206.907637
 30
0.0
 11
492.164563
 21
207.907637
 31
0.0
  0
LINE
  5
A6
330
95
100
AcDbEntity
  8
LC-004-005-----0
 62
     7
370
    25
100
AcDbLine
 10
486.921922
 20
206.907637
 30
0.0
 11
487.921922
 21
207.907637
 31
0.0
  0
LINE
  5
A7
330
95
100
AcDbEntity
  8
LC-004-005-----0
 62
     7
370
    25
100
AcDbLine
 10
482.679281
 20
206.907637
 30
0.0
 11
483.679281
 21
207.907637
 31
0.0
  0
LINE
  5
A8
330
95
100
AcDbEntity
  8
LC-004-005-----0
 62
     7
370
    25
100
AcDbLine
 10
478.436641
 20
206.907637
 30
0.0
 11
479.436641
 21
207.907637
 31
0.0
  0
LINE
  5
A9
330
95
100
AcDbEntity
  8
LC-004-005-----0
 62
     7
370
    25
100
AcDbLine
 10
474.194
 20
206.907637
 30
0.0
 11
475.194
 21
207.907637
 31
0.0
  0
LINE
  5
AA
330
95
100
AcDbEntity
  8
LC-004-005-----0
 62
     7
370
    25
100
AcDbLine
 10
469.951359
 20
206.907637
 30
0.0
 11
470.951359
 21
207.907637
 31
0.0
  0
LINE
  5
AB
330
95
100
AcDbEntity
  8
LC-004-005-----0
 62
     7
370
    25
100
AcDbLine
 10
465.708718
 20
206.907637
 30
0.0
 11
466.708718
 21
207.907637
 31
0.0
  0
LINE
  5
AC
330
95
100
AcDbEntity
  8
LC-004-005-----0
 62
     7
370
    25
100
AcDbLine
 10
461.466078
 20
206.907637
 30
0.0
 11
462.466078
 21
207.907637
 31
0.0
  0
LINE
  5
AD
330
95
100
AcDbEntity
  8
LC-004-005-----0
 62
     7
370
    25
100
AcDbLine
 10
457.223437
 20
206.907637
 30
0.0
 11
458.223437
 21
207.907637
 31
0.0
  0
LINE
  5
AE
330
95
100
AcDbEntity
  8
LC-004-005-----0
 62
     7
370
    25
100
AcDbLine
 10
452.980796
 20
206.907637
 30
0.0
 11
453.980796
 21
207.907637
 31
0.0
  0
LINE
  5
AF
330
95
100
AcDbEntity
  8
LC-004-005-----0
 62
     7
370
    25
100
AcDbLine
 10
448.738156
 20
206.907637
 30
0.0
 11
449.738156
 21
207.907637
 31
0.0
  0
LINE
  5
B0
330
95
100
AcDbEntity
  8
LC-004-005-----0
 62
     7
370
    25
100
AcDbLine
 10
444.495515
 20
206.907637
 30
0.0
 11
445.495515
 21
207.907637
 31
0.0
  0
LINE
  5
B1
330
95
100
AcDbEntity
  8
LC-004-005-----0
 62
     7
370
    25
100
AcDbLine
 10
440.252874
 20
206.907637
 30
0.0
 11
441.252874
 21
207.907637
 31
0.0
  0
LINE
  5
B2
330
95
100
AcDbEntity
  8
LC-004-005-----0
 62
     7
370
    25
100
AcDbLine
 10
436.010234
 20
206.907637
 30
0.0
 11
437.010234
 21
207.907637
 31
0.0
  0
LINE
  5
B3
330
95
100
AcDbEntity
  8
LC-004-005-----0
 62
     7
370
    25
100
AcDbLine
 10
431.767593
 20
206.907637
 30
0.0
 11
432.767593
 21
207.907637
 31
0.0
  0
LINE
  5
B4
330
95
100
AcDbEntity
  8
LC-004-005-----0
 62
     7
370
    25
100
AcDbLine
 10
427.524952
 20
206.907637
 30
0.0
 11
428.524952
 21
207.907637
 31
0.0
  0
LINE
  5
B5
330
95
100
AcDbEntity
  8
LC-004-005-----0
 62
     7
370
    25
100
AcDbLine
 10
423.282312
 20
206.907637
 30
0.0
 11
424.282312
 21
207.907637
 31
0.0
  0
LINE
  5
B6
330
95
100
AcDbEntity
  8
LC-004-005-----0
 62
     7
370
    25
100
AcDbLine
 10
419.039671
 20
206.907637
 30
0.0
 11
420.039671
 21
207.907637
 31
0.0
  0
LINE
  5
B7
330
95
100
AcDbEntity
  8
LC-004-005-----0
 62
     7
370
    25
100
AcDbLine
 10
414.79703
 20
206.907637
 30
0.0
 11
415.79703
 21
207.907637
 31
0.0
  0
LINE
  5
B8
330
95
100
AcDbEntity
  8
LC-004-005-----0
 62
     7
370
    25
100
AcDbLine
 10
410.55439
 20
206.907637
 30
0.0
 11
411.55439
 21
207.907637
 31
0.0
  0
LINE
  5
B9
330
95
100
AcDbEntity
  8
LC-004-005-----0
 62
     7
370
    25
100
AcDbLine
 10
406.311749
 20
206.907637
 30
0.0
 11
407.311749
 21
207.907637
 31
0.0
  0
LINE
  5
BA
330
95
100
AcDbEntity
  8
LC-004-005-----0
 62
     7
370
    25
100
AcDbLine
 10
402.069108
 20
206.907637
 30
0.0
 11
403.069108
 21
207.907637
 31
0.0
  0
LINE
  5
BB
330
95
100
AcDbEntity
  8
LC-004-005-----0
 62
     7
370
    25
100
AcDbLine
 10
397.826467
 20
206.907637
 30
0.0
 11
398.826467
 21
207.907637
 31
0.0
  0
LINE
  5
BC
330
95
100
AcDbEntity
  8
LC-004-005-----0
 62
     7
370
    25
100
AcDbLine
 10
393.583827
 20
206.907637
 30
0.0
 11
394.583827
 21
207.907637
 31
0.0
  0
LINE
  5
BD
330
95
100
AcDbEntity
  8
LC-004-005-----0
 62
     7
370
    25
100
AcDbLine
 10
389.341186
 20
206.907637
 30
0.0
 11
390.341186
 21
207.907637
 31
0.0
  0
LINE
  5
BE
330
95
100
AcDbEntity
  8
LC-004-005-----0
 62
     7
370
    25
100
AcDbLine
 10
385.098545
 20
206.907637
 30
0.0
 11
386.098545
 21
207.907637
 31
0.0
  0
LINE
  5
BF
330
95
100
AcDbEntity
  8
LC-004-005-----0
 62
     7
370
    25
100
AcDbLine
 10
380.855905
 20
206.907637
 30
0.0
 11
381.855905
 21
207.907637
 31
0.0
  0
LINE
  5
C0
330
95
100
AcDbEntity
  8
LC-004-005-----0
 62
     7
370
    25
100
AcDbLine
 10
376.613264
 20
206.907637
 30
0.0
 11
377.613264
 21
207.907637
 31
0.0
  0
LINE
  5
C1
330
95
100
AcDbEntity
  8
LC-004-005-----0
 62
     7
370
    25
100
AcDbLine
 10
372.370623
 20
206.907637
 30
0.0
 11
373.370623
 21
207.907637
 31
0.0
  0
LINE
  5
C2
330
95
100
AcDbEntity
  8
LC-004-005-----0
 62
     7
370
    25
100
AcDbLine
 10
228.12084
 20
206.907637
 30
0.0
 11
228.360441
 21
207.147237
 31
0.0
  0
LINE
  5
C3
330
95
100
AcDbEntity
  8
LC-004-005-----0
 62
     7
370
    25
100
AcDbLine
 10
223.878199
 20
206.907637
 30
0.0
 11
224.878199
 21
207.907637
 31
0.0
  0
LINE
  5
C4
330
95
100
AcDbEntity
  8
LC-004-005-----0
 62
     7
370
    25
100
AcDbLine
 10
219.635559
 20
206.907637
 30
0.0
 11
220.635559
 21
207.907637
 31
0.0
  0
LINE
  5
C5
330
95
100
AcDbEntity
  8
LC-004-005-----0
 62
     7
370
    25
100
AcDbLine
 10
215.392918
 20
206.907637
 30
0.0
 11
216.392918
 21
207.907637
 31
0.0
  0
LINE
  5
C6
330
95
100
AcDbEntity
  8
LC-004-005-----0
 62
     7
370
    25
100
AcDbLine
 10
211.150277
 20
206.907637
 30
0.0
 11
212.150277
 21
207.907637
 31
0.0
  0
LINE
  5
C7
330
95
100
AcDbEntity
  8
LC-004-005-----0
 62
     7
370
    25
100
AcDbLine
 10
206.907637
 20
206.907637
 30
0.0
 11
207.907637
 21
207.907637
 31
0.0
  0
LINE
  5
C8
330
95
100
AcDbEntity
  8
LC-004-005-----0
 62
     7
370
    25
100
AcDbLine
 10
202.664996
 20
206.907637
 30
0.0
 11
203.664996
 21
207.907637
 31
0.0
  0
LINE
  5
C9
330
95
100
AcDbEntity
  8
LC-004-005-----0
 62
     7
370
    25
100
AcDbLine
 10
198.422355
 20
206.907637
 30
0.0
 11
199.422355
 21
207.907637
 31
0.0
  0
LINE
  5
CA
330
95
100
AcDbEntity
  8
LC-004-005-----0
 62
     7
370
    25
100
AcDbLine
 10
194.179714
 20
206.907637
 30
0.0
 11
195.179714
 21
207.907637
 31
0.0
  0
LINE
  5
CB
330
95
100
AcDbEntity
  8
LC-004-005-----0
 62
     7
370
    25
100
AcDbLine
 10
189.937074
 20
206.907637
 30
0.0
 11
190.937074
 21
207.907637
 31
0.0
  0
LINE
  5
CC
330
95
100
AcDbEntity
  8
LC-004-005-----0
 62
     7
370
    25
100
AcDbLine
 10
185.694433
 20
206.907637
 30
0.0
 11
186.694433
 21
207.907637
 31
0.0
  0
LINE
  5
CD
330
95
100
AcDbEntity
  8
LC-004-005-----0
 62
     7
370
    25
100
AcDbLine
 10
181.451792
 20
206.907637
 30
0.0
 11
182.451792
 21
207.907637
 31
0.0
  0
LINE
  5
CE
330
95
100
AcDbEntity
  8
LC-004-005-----0
 62
     7
370
    25
100
AcDbLine
 10
177.209152
 20
206.907637
 30
0.0
 11
178.209152
 21
207.907637
 31
0.0
  0
LINE
  5
CF
330
95
100
AcDbEntity
  8
LC-004-005-----0
 62
     7
370
    25
100
AcDbLine
 10
172.966511
 20
206.907637
 30
0.0
 11
173.966511
 21
207.907637
 31
0.0
  0
LINE
  5
D0
330
95
100
AcDbEntity
  8
LC-004-005-----0
 62
     7
370
    25
100
AcDbLine
 10
168.72387
 20
206.907637
 30
0.0
 11
169.72387
 21
207.907637
 31
0.0
  0
LINE
  5
D1
330
95
100
AcDbEntity
  8
LC-004-005-----0
 62
     7
370
    25
100
AcDbLine
 10
164.48123
 20
206.907637
 30
0.0
 11
165.48123
 21
207.907637
 31
0.0
  0
LINE
  5
D2
330
95
100
AcDbEntity
  8
LC-004-005-----0
 62
     7
370
    25
100
AcDbLine
 10
160.238589
 20
206.907637
 30
0.0
 11
161.238589
 21
207.907637
 31
0.0
  0
LINE
  5
D3
330
95
100
AcDbEntity
  8
LC-004-005-----0
 62
     7
370
    25
100
AcDbLine
 10
155.995948
 20
206.907637
 30
0.0
 11
156.995948
 21
207.907637
 31
0.0
  0
LINE
  5
D4
330
95
100
AcDbEntity
  8
LC-004-005-----0
 62
     7
370
    25
100
AcDbLine
 10
151.753308
 20
206.907637
 30
0.0
 11
152.753308
 21
207.907637
 31
0.0
  0
LINE
  5
D5
330
95
100
AcDbEntity
  8
LC-004-005-----0
 62
     7
370
    25
100
AcDbLine
 10
147.510667
 20
206.907637
 30
0.0
 11
148.510667
 21
207.907637
 31
0.0
  0
LINE
  5
D6
330
95
100
AcDbEntity
  8
LC-004-005-----0
 62
     7
370
    25
100
AcDbLine
 10
143.268026
 20
206.907637
 30
0.0
 11
144.268026
 21
207.907637
 31
0.0
  0
LINE
  5
D7
330
95
100
AcDbEntity
  8
LC-004-005-----0
 62
     7
370
    25
100
AcDbLine
 10
139.025386
 20
206.907637
 30
0.0
 11
140.025386
 21
207.907637
 31
0.0
  0
LINE
  5
D8
330
95
100
AcDbEntity
  8
LC-004-005-----0
 62
     7
370
    25
100
AcDbLine
 10
134.782745
 20
206.907637
 30
0.0
 11
135.782745
 21
207.907637
 31
0.0
  0
LINE
  5
D9
330
95
100
AcDbEntity
  8
LC-004-005-----0
 62
     7
370
    25
100
AcDbLine
 10
130.540104
 20
206.907637
 30
0.0
 11
131.540104
 21
207.907637
 31
0.0
  0
LINE
  5
DA
330
95
100
AcDbEntity
  8
LC-004-005-----0
 62
     7
370
    25
100
AcDbLine
 10
126.297463
 20
206.907637
 30
0.0
 11
127.297463
 21
207.907637
 31
0.0
  0
LINE
  5
DB
330
95
100
AcDbEntity
  8
LC-004-005-----0
 62
     7
370
    25
100
AcDbLine
 10
122.054823
 20
206.907637
 30
0.0
 11
123.054823
 21
207.907637
 31
0.0
  0
LINE
  5
DC
330
95
100
AcDbEntity
  8
LC-004-005-----0
 62
     7
370
    25
100
AcDbLine
 10
117.812182
 20
206.907637
 30
0.0
 11
118.812182
 21
207.907637
 31
0.0
  0
LINE
  5
DD
330
95
100
AcDbEntity
  8
LC-004-005-----0
 62
     7
370
    25
100
AcDbLine
 10
113.569541
 20
206.907637
 30
0.0
 11
114.569541
 21
207.907637
 31
0.0
  0
LINE
  5
DE
330
95
100
AcDbEntity
  8
LC-004-005-----0
 62
     7
370
    25
100
AcDbLine
 10
109.326901
 20
206.907637
 30
0.0
 11
110.326901
 21
207.907637
 31
0.0
  0
LINE
  5
DF
330
95
100
AcDbEntity
  8
LC-004-005-----0
 62
     7
370
    25
100
AcDbLine
 10
105.08426
 20
206.907637
 30
0.0
 11
106.08426
 21
207.907637
 31
0.0
  0
LINE
  5
E0
330
95
100
AcDbEntity
  8
LC-004-005-----0
 62
     7
370
    25
100
AcDbLine
 10
100.841619
 20
206.907637
 30
0.0
 11
101.841619
 21
207.907637
 31
0.0
  0
LINE
  5
E1
330
95
100
AcDbEntity
  8
LC-004-005-----0
 62
     7
370
    25
100
AcDbLine
 10
96.598979
 20
206.907637
 30
0.0
 11
97.598979
 21
207.907637
 31
0.0
  0
LINE
  5
E2
330
95
100
AcDbEntity
  8
LC-004-005-----0
 62
     7
370
    25
100
AcDbLine
 10
92.356338
 20
206.907637
 30
0.0
 11
93.356338
 21
207.907637
 31
0.0
  0
LINE
  5
E3
330
95
100
AcDbEntity
  8
LC-004-005-----0
 62
     7
370
    25
100
AcDbLine
 10
88.113697
 20
206.907637
 30
0.0
 11
89.113697
 21
207.907637
 31
0.0
  0
LINE
  5
E4
330
95
100
AcDbEntity
  8
LC-004-005-----0
 62
     7
370
    25
100
AcDbLine
 10
83.871057
 20
206.907637
 30
0.0
 11
84.871057
 21
207.907637
 31
0.0
  0
LINE
  5
E5
330
95
100
AcDbEntity
  8
LC-004-005-----0
 62
     7
370
    25
100
AcDbLine
 10
79.628416
 20
206.907637
 30
0.0
 11
80.628416
 21
207.907637
 31
0.0
  0
LINE
  5
E6
330
95
100
AcDbEntity
  8
LC-004-005-----0
 62
     7
370
    25
100
AcDbLine
 10
75.385775
 20
206.907637
 30
0.0
 11
76.385775
 21
207.907637
 31
0.0
  0
LINE
  5
E7
330
95
100
AcDbEntity
  8
LC-004-005-----0
 62
     7
370
    25
100
AcDbLine
 10
71.143135
 20
206.907637
 30
0.0
 11
72.143135
 21
207.907637
 31
0.0
  0
LINE
  5
E8
330
95
100
AcDbEntity
  8
LC-004-005-----0
 62
     7
370
    25
100
AcDbLine
 10
66.900494
 20
206.907637
 30
0.0
 11
67.900494
 21
207.907637
 31
0.0
  0
LINE
  5
E9
330
95
100
AcDbEntity
  8
LC-004-005-----0
 62
     7
370
    25
100
AcDbLine
 10
62.657853
 20
206.907637
 30
0.0
 11
63.657853
 21
207.907637
 31
0.0
  0
LINE
  5
EA
330
95
100
AcDbEntity
  8
LC-004-005-----0
 62
     7
370
    25
100
AcDbLine
 10
58.415212
 20
206.907637
 30
0.0
 11
59.415212
 21
207.907637
 31
0.0
  0
LINE
  5
EB
330
95
100
AcDbEntity
  8
LC-004-005-----0
 62
     7
370
    25
100
AcDbLine
 10
54.172572
 20
206.907637
 30
0.0
 11
55.172572
 21
207.907637
 31
0.0
  0
LINE
  5
EC
330
95
100
AcDbEntity
  8
LC-004-005-----0
 62
     7
370
    25
100
AcDbLine
 10
49.929931
 20
206.907637
 30
0.0
 11
50.929931
 21
207.907637
 31
0.0
  0
ENDBLK
  5
97
330
95
100
AcDbEntity
  8
0
100
AcDbBlockEnd
  0
BLOCK
  5
FD
330
F3
100
AcDbEntity
  8
0
100
AcDbBlockBegin
  2
*D3
 70
     1
 71
     0
 10
0.0
 20
0.0
 30
0.0
  3
*D3
  1

  0
LINE
  5
F4
330
F3
100
AcDbEntity
  8
LC-005-003-----0
 62
     2
370
    -2
100
AcDbLine
 10
49.056693
 20
206.907637
 30
0.0
 11
49.056693
 21
140.010741
 31
0.0
  0
LINE
  5
F5
330
F3
100
AcDbEntity
  8
LC-005-003-----0
 62
     2
370
    -2
100
AcDbLine
 10
549.056693
 20
206.907637
 30
0.0
 11
549.056693
 21
140.010741
 31
0.0
  0
LINE
  5
F6
330
F3
100
AcDbEntity
  8
LC-005-003-----0
 62
     2
370
    -2
100
AcDbLine
 10
77.056693
 20
143.610741
 30
0.0
 11
521.056693
 21
143.610741
 31
0.0
  0
SOLID
  5
F7
330
F3
100
AcDbEntity
  8
LC-005-003-----0
 62
     2
100
AcDbTrace
 10
77.056693
 20
148.277408
 30
0.0
 11
77.056693
 21
138.944074
 31
0.0
 12
49.056693
 22
143.610741
 32
0.0
 13
49.056693
 23
143.610741
 33
0.0
  0
SOLID
  5
F8
330
F3
100
AcDbEntity
  8
LC-005-003-----0
 62
     2
100
AcDbTrace
 10
521.056693
 20
138.944074
 30
0.0
 11
521.056693
 21
148.277408
 31
0.0
 12
549.056693
 22
143.610741
 32
0.0
 13
549.056693
 23
143.610741
 33
0.0
  0
MTEXT
  5
F9
330
F3
100
AcDbEntity
  8
LC-005-003-----0
 62
     2
100
AcDbMText
 10
299.056693
 20
174.410741
 30
0.0
 40
28.0
 41
0.0
 71
     5
 72
     1
  1
\A1;500
  7
LCTX15-400-0-0pDIN-Schrift
 73
     1
 44
1.0
  0
POINT
  5
FA
330
F3
100
AcDbEntity
  8
Defpoints
 62
     0
100
AcDbPoint
 10
49.056693
 20
206.907637
 30
0.0
  0
POINT
  5
FB
330
F3
100
AcDbEntity
  8
Defpoints
 62
     0
100
AcDbPoint
 10
549.056693
 20
206.907637
 30
0.0
  0
POINT
  5
FC
330
F3
100
AcDbEntity
  8
Defpoints
 62
     0
100
AcDbPoint
 10
549.056693
 20
143.610741
 30
0.0
  0
ENDBLK
  5
FE
330
F3
100
AcDbEntity
  8
0
100
AcDbBlockEnd
  0
BLOCK
  5
10A
330
100
100
AcDbEntity
  8
0
100
AcDbBlockBegin
  2
*D4
 70
     1
 71
     0
 10
0.0
 20
0.0
 30
0.0
  3
*D4
  1

  0
LINE
  5
101
330
100
100
AcDbEntity
  8
LC-005-003-----0
 62
     2
370
    -2
100
AcDbLine
 10
245.556693
 20
253.763821
 30
0.0
 11
245.556693
 21
299.155955
 31
0.0
  0
LINE
  5
102
330
100
100
AcDbEntity
  8
LC-005-003-----0
 62
     2
370
    -2
100
AcDbLine
 10
352.556693
 20
253.763821
 30
0.0
 11
352.556693
 21
299.155955
 31
0.0
  0
LINE
  5
103
330
100
100
AcDbEntity
  8
LC-005-003-----0
 62
     2
370
    -2
100
AcDbLine
 10
273.556693
 20
295.555955
 30
0.0
 11
324.556693
 21
295.555955
 31
0.0
  0
SOLID
  5
104
330
100
100
AcDbEntity
  8
LC-005-003-----0
 62
     2
100
AcDbTrace
 10
273.556693
 20
300.222622
 30
0.0
 11
273.556693
 21
290.889289
 31
0.0
 12
245.556693
 22
295.555955
 32
0.0
 13
245.556693
 23
295.555955
 33
0.0
  0
SOLID
  5
105
330
100
100
AcDbEntity
  8
LC-005-003-----0
 62
     2
100
AcDbTrace
 10
324.556693
 20
290.889289
 30
0.0
 11
324.556693
 21
300.222622
 31
0.0
 12
352.556693
 22
295.555955
 32
0.0
 13
352.556693
 23
295.555955
 33
0.0
  0
MTEXT
  5
106
330
100
100
AcDbEntity
  8
LC-005-003-----0
 62
     2
100
AcDbMText
 10
299.056693
 20
326.355955
 30
0.0
 40
28.0
 41
0.0
 71
     5
 72
     1
  1
\A1;DN100
  7
LCTX15-400-0-0pDIN-Schrift
 73
     1
 44
1.0
  0
POINT
  5
107
330
100
100
AcDbEntity
  8
Defpoints
 62
     0
100
AcDbPoint
 10
245.556693
 20
253.763821
 30
0.0
  0
POINT
  5
108
330
100
100
AcDbEntity
  8
Defpoints
 62
     0
100
AcDbPoint
 10
352.556693
 20
253.763821
 30
0.0
  0
POINT
  5
109
330
100
100
AcDbEntity
  8
Defpoints
 62
     0
100
AcDbPoint
 10
352.556693
 20
295.555955
 30
0.0
  0
ENDBLK
  5
10B
330
100
100
AcDbEntity
  8
0
100
AcDbBlockEnd
  0
BLOCK
  5
119
330
10D
100
AcDbEntity
  8
0
100
AcDbBlockBegin
  2
*D5
 70
     1
 71
     0
 10
0.0
 20
0.0
 30
0.0
  3
*D5
  1

  0
LINE
  5
10E
330
10D
100
AcDbEntity
  8
LC-005-003-----0
 62
     2
370
    -2
100
AcDbLine
 10
49.056693
 20
207.907637
 30
0.0
 11
21.964345
 21
207.907637
 31
0.0
  0
LINE
  5
10F
330
10D
100
AcDbEntity
  8
LC-005-003-----0
 62
     2
370
    -2
100
AcDbLine
 10
241.556693
 20
257.907637
 30
0.0
 11
21.964345
 21
257.907637
 31
0.0
  0
LINE
  5
110
330
10D
100
AcDbEntity
  8
LC-005-003-----0
 62
     2
370
    -2
100
AcDbLine
 10
25.564345
 20
179.907637
 30
0.0
 11
25.564345
 21
151.907637
 31
0.0
  0
LINE
  5
111
330
10D
100
AcDbEntity
  8
LC-005-003-----0
 62
     2
370
    -2
100
AcDbLine
 10
25.564345
 20
285.907637
 30
0.0
 11
25.564345
 21
313.907637
 31
0.0
  0
LINE
  5
112
330
10D
100
AcDbEntity
  8
LC-005-003-----0
 62
     2
370
    -2
100
AcDbLine
 10
25.564345
 20
207.907637
 30
0.0
 11
25.564345
 21
257.907637
 31
0.0
  0
SOLID
  5
113
330
10D
100
AcDbEntity
  8
LC-005-003-----0
 62
     2
100
AcDbTrace
 10
30.231012
 20
179.907637
 30
0.0
 11
20.897679
 21
179.907637
 31
0.0
 12
25.564345
 22
207.907637
 32
0.0
 13
25.564345
 23
207.907637
 33
0.0
  0
SOLID
  5
114
330
10D
100
AcDbEntity
  8
LC-005-003-----0
 62
     2
100
AcDbTrace
 10
20.897679
 20
285.907637
 30
0.0
 11
30.231012
 21
285.907637
 31
0.0
 12
25.564345
 22
257.907637
 32
0.0
 13
25.564345
 23
257.907637
 33
0.0
  0
MTEXT
  5
115
330
10D
100
AcDbEntity
  8
LC-005-003-----0
 62
     2
100
AcDbMText
 10
-5.235655
 20
232.907637
 30
0.0
 40
28.0
 41
0.0
 71
     5
 72
     1
  1
\A1;50
  7
LCTX15-400-0-0pDIN-Schrift
 11
6.123031769111886E-17
 21
1.0
 31
0.0
 73
     1
 44
1.0
  0
POINT
  5
116
330
10D
100
AcDbEntity
  8
Defpoints
 62
     0
100
AcDbPoint
 10
49.056693
 20
207.907637
 30
0.0
  0
POINT
  5
117
330
10D
100
AcDbEntity
  8
Defpoints
 62
     0
100
AcDbPoint
 10
241.556693
 20
257.907637
 30
0.0
  0
POINT
  5
118
330
10D
100
AcDbEntity
  8
Defpoints
 62
     0
100
AcDbPoint
 10
25.564345
 20
257.907637
 30
0.0
  0
ENDBLK
  5
11A
330
10D
100
AcDbEntity
  8
0
100
AcDbBlockEnd
  0
ENDSEC
  0
SECTION
  2
ENTITIES
  0
LINE
  5
31
330
1F
100
AcDbEntity
  8
LC-001-002-----0
 62
     7
370
    25
100
AcDbLine
 10
251.140693
 20
155.989823
 30
0.0
 11
251.140693
 21
170.989823
 31
0.0
  0
LINE
  5
32
102
{ACAD_REACTORS
330
11B
102
}
330
1F
100
AcDbEntity
  8
LC-001-002-----0
 62
     7
370
    50
100
AcDbLine
 10
229.910441
 20
237.907637
 30
0.0
 11
228.410441
 21
207.907637
 31
0.0
  0
LINE
  5
33
102
{ACAD_REACTORS
330
11B
102
}
330
1F
100
AcDbEntity
  8
LC-001-002-----0
 62
     7
370
    50
100
AcDbLine
 10
241.556693
 20
257.907637
 30
0.0
 11
240.137173
 21
241.819743
 31
0.0
  0
LINE
  5
34
102
{ACAD_REACTORS
330
11B
102
}
330
1F
100
AcDbEntity
  8
LC-001-002-----0
 62
     7
370
    50
100
AcDbLine
 10
229.910441
 20
237.907637
 30
0.0
 11
299.056693
 21
237.907637
 31
0.0
  0
LINE
  5
35
102
{ACAD_REACTORS
330
11B
102
}
330
1F
100
AcDbEntity
  8
LC-001-002-----0
 62
     7
370
    50
100
AcDbLine
 10
244.568348
 20
257.907637
 30
0.0
 11
244.331548
 21
255.223893
 31
0.0
  0
LINE
  5
36
102
{ACAD_REACTORS
330
11B
102
}
330
1F
100
AcDbEntity
  8
LC-001-002-----0
 62
     7
370
    50
100
AcDbLine
 10
226.914184
 20
238.057449
 30
0.0
 11
225.604196
 21
211.857699
 31
0.0
  0
LINE
  5
37
102
{ACAD_REACTORS
330
11B
102
}
330
1F
100
AcDbEntity
  8
LC-001-002-----0
 62
     7
370
    50
100
AcDbLine
 10
244.331548
 20
255.223893
 30
0.0
 11
299.056693
 21
255.223893
 31
0.0
  0
LINE
  5
38
102
{ACAD_REACTORS
330
11B
102
}
330
1F
100
AcDbEntity
  8
LC-001-002-----0
 62
     7
370
    50
100
AcDbLine
 10
244.04361
 20
251.960599
 30
0.0
 11
299.056693
 21
251.960599
 31
0.0
  0
LINE
  5
39
102
{ACAD_REACTORS
330
11B
102
}
330
1F
100
AcDbEntity
  8
LC-001-002-----0
 62
     7
370
    50
100
AcDbLine
 10
243.761187
 20
248.759807
 30
0.0
 11
299.056693
 21
248.759807
 31
0.0
  0
LINE
  5
3A
102
{ACAD_REACTORS
330
11B
102
}
330
1F
100
AcDbEntity
  8
LC-001-002-----0
 62
     7
370
    50
100
AcDbLine
 10
243.339201
 20
243.977303
 30
0.0
 11
299.056693
 21
243.977303
 31
0.0
  0
ARC
  5
3C
102
{ACAD_REACTORS
330
11B
102
}
330
1F
100
AcDbEntity
  8
LC-002-002-RND-0
 62
     7
370
    50
100
AcDbCircle
 10
229.910441
 20
237.907637
 30
0.0
 40
3.0
100
AcDbArc
 50
90.0
 51
177.137595
  0
ARC
  5
3D
102
{ACAD_REACTORS
330
11B
102
}
330
1F
100
AcDbEntity
  8
LC-002-002-RND-0
 62
     7
370
    50
100
AcDbCircle
 10
239.141043
 20
241.907637
 30
0.0
 40
1.0
100
AcDbArc
 50
270.0
 51
354.957549
  0
ARC
  5
3E
102
{ACAD_REACTORS
330
11B
102
}
330
1F
100
AcDbEntity
  8
LC-002-002-RND-0
 62
     7
370
    50
100
AcDbCircle
 10
224.605444
 20
211.907637
 30
0.0
 40
1.0
100
AcDbArc
 50
270.0
 51
357.137595
  0
ARC
  5
3F
102
{ACAD_REACTORS
330
11B
102
}
330
1F
100
AcDbEntity
  8
LC-002-002-RND-0
 62
     7
370
    50
100
AcDbCircle
 10
240.056693
 20
240.907637
 30
0.0
 40
3.0
100
AcDbArc
 50
270.0
 51
354.957549
  0
ARC
  5
40
102
{ACAD_REACTORS
330
11B
102
}
330
1F
100
AcDbEntity
  8
LC-002-002-RND-0
 62
     7
370
    50
100
AcDbCircle
 10
211.056693
 20
208.907637
 30
0.0
 40
2.0
100
AcDbArc
 50
90.0
 51
180.0
  0
ARC
  5
41
102
{ACAD_REACTORS
330
11B
102
}
330
1F
100
AcDbEntity
  8
LC-002-002-RND-0
 62
     7
370
    50
100
AcDbCircle
 10
387.056693
 20
208.907637
 30
0.0
 40
2.0
100
AcDbArc
 50
0.0
 51
90.0
  0
LINE
  5
42
102
{ACAD_REACTORS
330
11B
102
}
330
1F
100
AcDbEntity
  8
LC-001-002-----0
 62
     7
370
    50
100
AcDbLine
 10
209.056693
 20
208.907637
 30
0.0
 11
209.056693
 21
207.907637
 31
0.0
  0
LINE
  5
43
102
{ACAD_REACTORS
330
11C
102
}
330
1F
100
AcDbEntity
  8
LC-001-002-----0
 62
     7
370
    50
100
AcDbLine
 10
49.056693
 20
206.907637
 30
0.0
 11
299.056693
 21
206.907637
 31
0.0
  0
LINE
  5
44
102
{ACAD_REACTORS
330
11C
102
}
330
1F
100
AcDbEntity
  8
LC-001-002-----0
 62
     7
370
    50
100
AcDbLine
 10
49.056693
 20
206.907637
 30
0.0
 11
49.056693
 21
207.907637
 31
0.0
  0
LINE
  5
45
102
{ACAD_REACTORS
330
11C
102
}
330
1F
100
AcDbEntity
  8
LC-001-002-----0
 62
     7
370
    50
100
AcDbLine
 10
209.056693
 20
207.907637
 30
0.0
 11
49.056693
 21
207.907637
 31
0.0
  0
LINE
  5
46
102
{ACAD_REACTORS
330
11C
102
}
330
1F
100
AcDbEntity
  8
LC-001-002-----0
 62
     7
370
    50
100
AcDbLine
 10
228.360441
 20
206.907637
 30
0.0
 11
228.360441
 21
207.907637
 31
0.0
  0
LINE
  5
47
330
1F
100
AcDbEntity
  8
LC-001-002-----0
 62
     7
370
    25
100
AcDbLine
 10
251.140693
 20
170.989823
 30
0.0
 11
266.140693
 21
170.989823
 31
0.0
  0
LINE
  5
48
330
1F
100
AcDbEntity
  8
LC-001-002-----0
 62
     7
370
    25
100
AcDbLine
 10
266.140693
 20
170.989823
 30
0.0
 11
266.140693
 21
155.989823
 31
0.0
  0
LINE
  5
49
102
{ACAD_REACTORS
330
11B
102
}
330
1F
100
AcDbEntity
  8
LC-001-002-----0
 62
     7
370
    50
100
AcDbLine
 10
211.056693
 20
210.907637
 30
0.0
 11
224.605444
 21
210.907637
 31
0.0
  0
LINE
  5
4A
330
1F
100
AcDbEntity
  8
LC-001-002-----0
 62
     7
370
    25
100
AcDbLine
 10
266.140693
 20
155.989823
 30
0.0
 11
251.140693
 21
155.989823
 31
0.0
  0
LINE
  5
4B
102
{ACAD_REACTORS
330
11B
102
}
330
1F
100
AcDbEntity
  8
LC-001-002-----0
 62
     7
370
    50
100
AcDbLine
 10
229.910441
 20
240.907637
 30
0.0
 11
239.141043
 21
240.907637
 31
0.0
  0
LINE
  5
4C
102
{ACAD_REACTORS
330
11B
102
}
330
1F
100
AcDbEntity
  8
LC-001-002-----0
 62
     7
370
    50
100
AcDbLine
 10
245.556693
 20
246.620006
 30
0.0
 11
299.056693
 21
246.620006
 31
0.0
  0
LINE
  5
4D
102
{ACAD_REACTORS
330
11B
102
}
330
1F
100
AcDbEntity
  8
LC-001-002-----0
 62
     7
370
    50
100
AcDbLine
 10
245.556693
 20
253.763821
 30
0.0
 11
244.331548
 21
255.223893
 31
0.0
  0
LINE
  5
4E
102
{ACAD_REACTORS
330
11B
102
}
330
1F
100
AcDbEntity
  8
LC-001-002-----0
 62
     7
370
    50
100
AcDbLine
 10
245.556693
 20
253.763821
 30
0.0
 11
244.04361
 21
251.960599
 31
0.0
  0
LINE
  5
4F
102
{ACAD_REACTORS
330
11B
102
}
330
1F
100
AcDbEntity
  8
LC-001-002-----0
 62
     7
370
    50
100
AcDbLine
 10
245.556693
 20
253.763821
 30
0.0
 11
299.056693
 21
253.763821
 31
0.0
  0
LINE
  5
50
102
{ACAD_REACTORS
330
11B
102
}
330
1F
100
AcDbEntity
  8
LC-001-002-----0
 62
     7
370
    50
100
AcDbLine
 10
245.556693
 20
246.620006
 30
0.0
 11
243.761187
 21
248.759807
 31
0.0
  0
LINE
  5
51
102
{ACAD_REACTORS
330
11B
102
}
330
1F
100
AcDbEntity
  8
LC-001-002-----0
 62
     7
370
    50
100
AcDbLine
 10
245.556693
 20
246.620006
 30
0.0
 11
243.339201
 21
243.977303
 31
0.0
  0
LINE
  5
54
102
{ACAD_REACTORS
330
11B
102
}
330
1F
100
AcDbEntity
  8
LC-003-006-MLN-0
 62
     7
370
    25
100
AcDbLine
 10
299.056693
 20
197.907637
 30
0.0
 11
299.056693
 21
267.907637
 31
0.0
  0
LINE
  5
55
102
{ACAD_REACTORS
330
11B
102
}
330
1F
100
AcDbEntity
  8
LC-001-002-----0
 62
     7
370
    50
100
AcDbLine
 10
209.056693
 20
207.907637
 30
0.0
 11
299.056693
 21
207.907637
 31
0.0
  0
LINE
  5
56
102
{ACAD_REACTORS
330
11B
102
}
330
1F
100
AcDbEntity
  8
LC-001-002-----0
 62
     7
370
    50
100
AcDbLine
 10
241.556693
 20
257.907637
 30
0.0
 11
299.056693
 21
257.907637
 31
0.0
  0
LINE
  5
57
102
{ACAD_REACTORS
330
11B
102
}
330
1F
100
AcDbEntity
  8
LC-001-002-----0
 62
     7
370
    50
100
AcDbLine
 10
244.04361
 20
251.960599
 30
0.0
 11
243.761187
 21
248.759807
 31
0.0
  0
LINE
  5
58
102
{ACAD_REACTORS
330
11B
102
}
330
1F
100
AcDbEntity
  8
LC-001-002-----0
 62
     7
370
    50
100
AcDbLine
 10
243.339201
 20
243.977303
 30
0.0
 11
243.045082
 21
240.643955
 31
0.0
  0
LINE
  5
59
102
{ACAD_REACTORS
330
11B
102
}
330
1F
100
AcDbEntity
  8
LC-001-002-----0
 62
     7
370
    50
100
AcDbLine
 10
368.202945
 20
237.907637
 30
0.0
 11
369.702945
 21
207.907637
 31
0.0
  0
LINE
  5
5A
102
{ACAD_REACTORS
330
11B
102
}
330
1F
100
AcDbEntity
  8
LC-001-002-----0
 62
     7
370
    50
100
AcDbLine
 10
356.556693
 20
257.907637
 30
0.0
 11
357.976213
 21
241.819743
 31
0.0
  0
LINE
  5
5B
102
{ACAD_REACTORS
330
11B
102
}
330
1F
100
AcDbEntity
  8
LC-001-002-----0
 62
     7
370
    50
100
AcDbLine
 10
368.202945
 20
237.907637
 30
0.0
 11
299.056693
 21
237.907637
 31
0.0
  0
LINE
  5
5C
102
{ACAD_REACTORS
330
11B
102
}
330
1F
100
AcDbEntity
  8
LC-001-002-----0
 62
     7
370
    50
100
AcDbLine
 10
353.545037
 20
257.907637
 30
0.0
 11
353.781838
 21
255.223893
 31
0.0
  0
LINE
  5
5D
102
{ACAD_REACTORS
330
11B
102
}
330
1F
100
AcDbEntity
  8
LC-001-002-----0
 62
     7
370
    50
100
AcDbLine
 10
371.199202
 20
238.057449
 30
0.0
 11
372.50919
 21
211.857699
 31
0.0
  0
LINE
  5
5E
102
{ACAD_REACTORS
330
11B
102
}
330
1F
100
AcDbEntity
  8
LC-001-002-----0
 62
     7
370
    50
100
AcDbLine
 10
353.781838
 20
255.223893
 30
0.0
 11
299.056693
 21
255.223893
 31
0.0
  0
LINE
  5
5F
102
{ACAD_REACTORS
330
11B
102
}
330
1F
100
AcDbEntity
  8
LC-001-002-----0
 62
     7
370
    50
100
AcDbLine
 10
354.069776
 20
251.960599
 30
0.0
 11
299.056693
 21
251.960599
 31
0.0
  0
LINE
  5
60
102
{ACAD_REACTORS
330
11B
102
}
330
1F
100
AcDbEntity
  8
LC-001-002-----0
 62
     7
370
    50
100
AcDbLine
 10
354.352199
 20
248.759807
 30
0.0
 11
299.056693
 21
248.759807
 31
0.0
  0
LINE
  5
61
102
{ACAD_REACTORS
330
11B
102
}
330
1F
100
AcDbEntity
  8
LC-001-002-----0
 62
     7
370
    50
100
AcDbLine
 10
354.774184
 20
243.977303
 30
0.0
 11
299.056693
 21
243.977303
 31
0.0
  0
ARC
  5
62
102
{ACAD_REACTORS
330
11B
102
}
330
1F
100
AcDbEntity
  8
LC-002-002-RND-0
 62
     7
370
    50
100
AcDbCircle
 10
368.202945
 20
237.907637
 30
0.0
 40
3.0
100
AcDbArc
 50
2.862405
 51
90.0
  0
ARC
  5
63
102
{ACAD_REACTORS
330
11B
102
}
330
1F
100
AcDbEntity
  8
LC-002-002-RND-0
 62
     7
370
    50
100
AcDbCircle
 10
358.972343
 20
241.907637
 30
0.0
 40
1.000000000000016
100
AcDbArc
 50
185.042451
 51
270.0
  0
ARC
  5
64
102
{ACAD_REACTORS
330
11B
102
}
330
1F
100
AcDbEntity
  8
LC-002-002-RND-0
 62
     7
370
    50
100
AcDbCircle
 10
373.507942
 20
211.907637
 30
0.0
 40
1.00000000000002
100
AcDbArc
 50
182.862405
 51
270.0
  0
ARC
  5
65
102
{ACAD_REACTORS
330
11B
102
}
330
1F
100
AcDbEntity
  8
LC-002-002-RND-0
 62
     7
370
    50
100
AcDbCircle
 10
358.056693
 20
240.907637
 30
0.0
 40
2.999999999999991
100
AcDbArc
 50
185.042451
 51
270.0
  0
LINE
  5
66
102
{ACAD_REACTORS
330
11B
102
}
330
1F
100
AcDbEntity
  8
LC-001-002-----0
 62
     7
370
    50
100
AcDbLine
 10
389.056693
 20
208.907637
 30
0.0
 11
389.056693
 21
207.907637
 31
0.0
  0
LINE
  5
67
102
{ACAD_REACTORS
330
11B
102
}
330
1F
100
AcDbEntity
  8
LC-001-002-----0
 62
     7
370
    50
100
AcDbLine
 10
387.056693
 20
210.907637
 30
0.0
 11
373.507942
 21
210.907637
 31
0.0
  0
LINE
  5
68
102
{ACAD_REACTORS
330
11B
102
}
330
1F
100
AcDbEntity
  8
LC-001-002-----0
 62
     7
370
    50
100
AcDbLine
 10
368.202945
 20
240.907637
 30
0.0
 11
358.972343
 21
240.907637
 31
0.0
  0
LINE
  5
69
102
{ACAD_REACTORS
330
11B
102
}
330
1F
100
AcDbEntity
  8
LC-001-002-----0
 62
     7
370
    50
100
AcDbLine
 10
352.556693
 20
246.620006
 30
0.0
 11
299.056693
 21
246.620006
 31
0.0
  0
LINE
  5
6A
102
{ACAD_REACTORS
330
11B
102
}
330
1F
100
AcDbEntity
  8
LC-001-002-----0
 62
     7
370
    50
100
AcDbLine
 10
352.556693
 20
253.763821
 30
0.0
 11
353.781838
 21
255.223893
 31
0.0
  0
LINE
  5
6B
102
{ACAD_REACTORS
330
11B
102
}
330
1F
100
AcDbEntity
  8
LC-001-002-----0
 62
     7
370
    50
100
AcDbLine
 10
352.556693
 20
253.763821
 30
0.0
 11
354.069776
 21
251.960599
 31
0.0
  0
LINE
  5
6C
102
{ACAD_REACTORS
330
11B
102
}
330
1F
100
AcDbEntity
  8
LC-001-002-----0
 62
     7
370
    50
100
AcDbLine
 10
352.556693
 20
253.763821
 30
0.0
 11
299.056693
 21
253.763821
 31
0.0
  0
LINE
  5
6D
102
{ACAD_REACTORS
330
11B
102
}
330
1F
100
AcDbEntity
  8
LC-001-002-----0
 62
     7
370
    50
100
AcDbLine
 10
352.556693
 20
246.620006
 30
0.0
 11
354.352199
 21
248.759807
 31
0.0
  0
LINE
  5
6E
102
{ACAD_REACTORS
330
11B
102
}
330
1F
100
AcDbEntity
  8
LC-001-002-----0
 62
     7
370
    50
100
AcDbLine
 10
352.556693
 20
246.620006
 30
0.0
 11
354.774184
 21
243.977303
 31
0.0
  0
LINE
  5
6F
102
{ACAD_REACTORS
330
11B
102
}
330
1F
100
AcDbEntity
  8
LC-001-002-----0
 62
     7
370
    50
100
AcDbLine
 10
389.056693
 20
207.907637
 30
0.0
 11
299.056693
 21
207.907637
 31
0.0
  0
LINE
  5
70
102
{ACAD_REACTORS
330
11B
102
}
330
1F
100
AcDbEntity
  8
LC-001-002-----0
 62
     7
370
    50
100
AcDbLine
 10
356.556693
 20
257.907637
 30
0.0
 11
299.056693
 21
257.907637
 31
0.0
  0
LINE
  5
71
102
{ACAD_REACTORS
330
11B
102
}
330
1F
100
AcDbEntity
  8
LC-001-002-----0
 62
     7
370
    50
100
AcDbLine
 10
354.069776
 20
251.960599
 30
0.0
 11
354.352199
 21
248.759807
 31
0.0
  0
LINE
  5
72
102
{ACAD_REACTORS
330
11B
102
}
330
1F
100
AcDbEntity
  8
LC-001-002-----0
 62
     7
370
    50
100
AcDbLine
 10
354.774184
 20
243.977303
 30
0.0
 11
355.068303
 21
240.643955
 31
0.0
  0
LINE
  5
73
102
{ACAD_REACTORS
330
11C
102
}
330
1F
100
AcDbEntity
  8
LC-001-002-----0
 62
     7
370
    50
100
AcDbLine
 10
549.056693
 20
206.907637
 30
0.0
 11
299.056693
 21
206.907637
 31
0.0
  0
LINE
  5
74
102
{ACAD_REACTORS
330
11C
102
}
330
1F
100
AcDbEntity
  8
LC-001-002-----0
 62
     7
370
    50
100
AcDbLine
 10
549.056693
 20
206.907637
 30
0.0
 11
549.056693
 21
207.907637
 31
0.0
  0
LINE
  5
75
102
{ACAD_REACTORS
330
11C
102
}
330
1F
100
AcDbEntity
  8
LC-001-002-----0
 62
     7
370
    50
100
AcDbLine
 10
389.056693
 20
207.907637
 30
0.0
 11
549.056693
 21
207.907637
 31
0.0
  0
LINE
  5
76
102
{ACAD_REACTORS
330
11C
102
}
330
1F
100
AcDbEntity
  8
LC-001-002-----0
 62
     7
370
    50
100
AcDbLine
 10
369.752945
 20
206.907637
 30
0.0
 11
369.752945
 21
207.907637
 31
0.0
  0
INSERT
  5
94
102
{ACAD_REACTORS
330
11B
102
}
330
1F
100
AcDbEntity
  8
LC-004-005-----0
 62
     7
370
    25
100
AcDbBlockReference
  2
*X11
 10
0.0
 20
0.0
 30
0.0
  0
INSERT
  5
ED
102
{ACAD_REACTORS
330
11C
102
}
330
1F
100
AcDbEntity
  8
LC-004-005-----0
 62
     7
370
    25
100
AcDbBlockReference
  2
*X22
 10
0.0
 20
0.0
 30
0.0
  0
DIMENSION
  5
F1
330
1F
100
AcDbEntity
  8
LC-005-003-----0
 62
     7
370
    25
100
AcDbDimension
  2
*D3
 10
549.056693
 20
143.610741
 30
0.0
 11
299.056693
 21
174.410741
 31
0.0
 70
   160
 71
     5
 42
500.0
  3
LC-DIM-L-0140-02-02
100
AcDbAlignedDimension
 13
49.056693
 23
206.907637
 33
0.0
 14
549.056693
 24
206.907637
 34
0.0
100
AcDbRotatedDimension
  0
DIMENSION
  5
FF
330
1F
100
AcDbEntity
  8
LC-005-003-----0
 62
     7
370
    25
100
AcDbDimension
  2
*D4
 10
352.556693
 20
295.555955
 30
0.0
 11
299.056693
 21
326.355955
 31
0.0
 70
   160
  1
DN100
 71
     5
 42
107.0
  3
LC-DIM-L-0140-02-02
100
AcDbAlignedDimension
 13
245.556693
 23
253.763821
 33
0.0
 14
352.556693
 24
253.763821
 34
0.0
100
AcDbRotatedDimension
  0
DIMENSION
  5
10C
330
1F
100
AcDbEntity
  8
LC-005-003-----0
 62
     7
370
    25
100
AcDbDimension
  2
*D5
 10
25.564345
 20
257.907637
 30
0.0
 11
-5.235655
 21
232.907637
 31
0.0
 70
   160
 71
     5
 42
50.0
 53
90.0
  3
LC-DIM-L-0140-02-02
100
AcDbAlignedDimension
 13
49.056693
 23
207.907637
 33
0.0
 14
241.556693
 24
257.907637
 34
0.0
 50
90.0
100
AcDbRotatedDimension
  0
ENDSEC
  0
SECTION
  2
OBJECTS
  0
DICTIONARY
  5
C
330
0
100
AcDbDictionary
281
     1
  3
ACAD_GROUP
350
D
  3
ACAD_LAYOUT
350
1A
  3
ACAD_MLINESTYLE
350
17
  3
ACAD_PLOTSETTINGS
350
19
  3
ACAD_PLOTSTYLENAME
350
E
  0
DICTIONARY
  5
D
102
{ACAD_REACTORS
330
C
102
}
330
C
100
AcDbDictionary
281
     1
  3
LCGROUP31
350
11B
  3
LCGROUP32
350
11C
  0
DICTIONARY
  5
1A
102
{ACAD_REACTORS
330
C
102
}
330
C
100
AcDbDictionary
281
     1
  3
Layout1
350
1E
  3
Layout2
350
26
  3
Model
350
22
  0
DICTIONARY
  5
17
102
{ACAD_REACTORS
330
C
102
}
330
C
100
AcDbDictionary
281
     1
  3
Standard
350
18
  0
DICTIONARY
  5
19
102
{ACAD_REACTORS
330
C
102
}
330
C
100
AcDbDictionary
281
     1
  0
ACDBDICTIONARYWDFLT
  5
E
102
{ACAD_REACTORS
330
C
102
}
330
C
100
AcDbDictionary
281
     1
  3
Normal
350
F
100
AcDbDictionaryWithDefault
340
F
  0
GROUP
  5
11B
102
{ACAD_REACTORS
330
D
102
}
330
D
100
AcDbGroup
300
GRP31
 70
     1
 71
     1
340
32
340
33
340
34
340
35
340
36
340
37
340
38
340
39
340
3A
340
3C
340
3D
340
3E
340
3F
340
40
340
41
340
42
340
49
340
4B
340
4C
340
4D
340
4E
340
4F
340
50
340
51
340
54
340
55
340
56
340
57
340
58
340
59
340
5A
340
5B
340
5C
340
5D
340
5E
340
5F
340
60
340
61
340
62
340
63
340
64
340
65
340
66
340
67
340
68
340
69
340
6A
340
6B
340
6C
340
6D
340
6E
340
6F
340
70
340
71
340
72
340
94
  0
GROUP
  5
11C
102
{ACAD_REACTORS
330
D
102
}
330
D
100
AcDbGroup
300
GRP32
 70
     1
 71
     1
340
43
340
44
340
45
340
46
340
73
340
74
340
75
340
76
340
ED
  0
LAYOUT
  5
1E
102
{ACAD_REACTORS
330
1A
102
}
330
1A
100
AcDbPlotSettings
  1

  2

  4

  6

 40
0.0
 41
0.0
 42
0.0
 43
0.0
 44
0.0
 45
0.0
 46
0.0
 47
0.0
 48
0.0
 49
0.0
140
0.0
141
0.0
142
1.0
143
1.0
 70
   688
 72
     0
 73
     0
 74
     5
  7

 75
    16
147
1.0
148
0.0
149
0.0
100
AcDbLayout
  1
Layout1
 70
     1
 71
     1
 10
-123.373464
 20
-79.288363
 11
716.626536
 21
514.711637
 12
0.0
 22
0.0
 32
0.0
 14
-123.373464
 24
-79.288363
 34
0.0
 15
716.626536
 25
514.711637
 35
0.0
146
0.0
 13
0.0
 23
0.0
 33
0.0
 16
1.0
 26
0.0
 36
0.0
 17
0.0
 27
1.0
 37
0.0
 76
     0
330
1B
  0
LAYOUT
  5
26
102
{ACAD_REACTORS
330
1A
102
}
330
1A
100
AcDbPlotSettings
  1

  2

  4

  6

 40
0.0
 41
0.0
 42
0.0
 43
0.0
 44
0.0
 45
0.0
 46
0.0
 47
0.0
 48
0.0
 49
0.0
140
0.0
141
0.0
142
1.0
143
1.0
 70
   688
 72
     0
 73
     0
 74
     5
  7

 75
    16
147
1.0
148
0.0
149
0.0
100
AcDbLayout
  1
Layout2
 70
     1
 71
     2
 10
0.0
 20
0.0
 11
0.0
 21
0.0
 12
0.0
 22
0.0
 32
0.0
 14
0.0
 24
0.0
 34
0.0
 15
0.0
 25
0.0
 35
0.0
146
0.0
 13
0.0
 23
0.0
 33
0.0
 16
1.0
 26
0.0
 36
0.0
 17
0.0
 27
1.0
 37
0.0
 76
     0
330
23
  0
LAYOUT
  5
22
102
{ACAD_REACTORS
330
1A
102
}
330
1A
100
AcDbPlotSettings
  1

  2

  4

  6

 40
0.0
 41
0.0
 42
0.0
 43
0.0
 44
0.0
 45
0.0
 46
0.0
 47
0.0
 48
0.0
 49
0.0
140
0.0
141
0.0
142
1.0
143
1.0
 70
  1776
 72
     0
 73
     0
 74
     0
  7

 75
     0
147
1.0
148
0.0
149
0.0
100
AcDbLayout
  1
Model
 70
     1
 71
     0
 10
-123.373464
 20
-79.288363
 11
716.626536
 21
514.711637
 12
86.626536
 22
69.211637
 32
0.0
 14
-123.373464
 24
-79.288363
 34
0.0
 15
716.626536
 25
514.711637
 35
0.0
146
0.0
 13
0.0
 23
0.0
 33
0.0
 16
1.0
 26
0.0
 36
0.0
 17
0.0
 27
1.0
 37
0.0
 76
     0
330
1F
  0
MLINESTYLE
  5
18
102
{ACAD_REACTORS
330
17
102
}
330
17
100
AcDbMlineStyle
  2
Standard
 70
     0
  3

 62
   256
 51
90.0
 52
90.0
 71
     2
 49
0.5
 62
   256
  6
BYLAYER
 49
-0.5
 62
   256
  6
BYLAYER
  0
ACDBPLACEHOLDER
  5
F
102
{ACAD_REACTORS
330
E
102
}
330
E
  0
ENDSEC
  0
EOF
