  0
SECTION
  2
HEADER
  9
$ACADVER
  1
AC1009
  9
$INSBASE
 10
-123.0
 20
-87.0
 30
0.0
  9
$EXTMIN
 10
-123.0
 20
-87.0
 30
0.0
  9
$EXTMAX
 10
717.0
 20
507.0
 30
0.0
  9
$LIMMIN
 10
-123.0
 20
-87.0
  9
$LIMMAX
 10
717.0
 20
507.0
  9
$ORTHOMODE
 70
     0
  9
$REGENMODE
 70
     1
  9
$FILLMODE
 70
     1
  9
$QTEXTMODE
 70
     0
  9
$MIRRTEXT
 70
     1
  9
$DRAGMODE
 70
     2
  9
$LTSCALE
 40
2.0
  9
$OSMODE
 70
     0
  9
$ATTMODE
 70
     1
  9
$TEXTSIZE
 40
0.2
  9
$TRACEWID
 40
0.05
  9
$TEXTSTYLE
  7
STANDARD
  9
$CLAYER
  8
0
  9
$CELTYPE
  6
BYLAYER
  9
$CECOLOR
 62
     7
  9
$DIMSCALE
 40
2.0
  9
$DIMASZ
 40
3.5
  9
$DIMEXO
 40
0.0625
  9
$DIMDLI
 40
0.38
  9
$DIMRND
 40
0.0
  9
$DIMDLE
 40
0.0
  9
$DIMEXE
 40
0.18
  9
$DIMTP
 40
0.0
  9
$DIMTM
 40
0.0
  9
$DIMTXT
 40
3.5
  9
$DIMCEN
 40
0.09
  9
$DIMTSZ
 40
0.0
  9
$DIMTOL
 70
     0
  9
$DIMLIM
 70
     0
  9
$DIMTIH
 70
     1
  9
$DIMTOH
 70
     1
  9
$DIMSE1
 70
     0
  9
$DIMSE2
 70
     0
  9
$DIMTAD
 70
     1
  9
$DIMZIN
 70
     0
  9
$DIMBLK
  1

  9
$DIMASO
 70
     1
  9
$DIMSHO
 70
     1
  9
$DIMPOST
  1

  9
$DIMAPOST
  1

  9
$DIMALT
 70
     0
  9
$DIMALTD
 70
     2
  9
$DIMALTF
 40
25.4
  9
$DIMLFAC
 40
1.0
  9
$DIMTOFL
 70
     0
  9
$DIMTVP
 40
0.0
  9
$DIMTIX
 70
     0
  9
$DIMSOXD
 70
     0
  9
$DIMSAH
 70
     0
  9
$DIMBLK1
  1

  9
$DIMBLK2
  1

  9
$DIMSTYLE
  2
STANDARD
  9
$DIMCLRD
 70
     0
  9
$DIMCLRE
 70
     0
  9
$DIMCLRT
 70
     0
  9
$DIMTFAC
 40
1.0
  9
$DIMGAP
 40
0.09
  9
$LUNITS
 70
     2
  9
$LUPREC
 70
     2
  9
$AXISMODE
 70
     0
  9
$AXISUNIT
 10
0.0
 20
0.0
  9
$SKETCHINC
 40
0.1
  9
$FILLETRAD
 40
0.0
  9
$AUNITS
 70
     0
  9
$AUPREC
 70
     0
  9
$MENU
  1
acad
  9
$ELEVATION
 40
0.0
  9
$PELEVATION
 40
0.0
  9
$THICKNESS
 40
0.0
  9
$LIMCHECK
 70
     0
  9
$BLIPMODE
 70
     1
  9
$CHAMFERA
 40
0.0
  9
$CHAMFERB
 40
0.0
  9
$SKPOLY
 70
     0
  9
$TDCREATE
 40
0.000000000
  9
$TDUPDATE
 40
0.000000000
  9
$TDINDWG
 40
0.0000000000
  9
$TDUSRTIMER
 40
0.0000000000
  9
$USRTIMER
 70
     1
  9
$ANGBASE
 50
0.0
  9
$ANGDIR
 70
     0
  9
$PDMODE
 70
     0
  9
$PDSIZE
 40
0.0
  9
$PLINEWID
 40
0.0
  9
$COORDS
 70
     0
  9
$SPLFRAME
 70
     0
  9
$SPLINETYPE
 70
     6
  9
$SPLINESEGS
 70
     8
  9
$ATTDIA
 70
     0
  9
$ATTREQ
 70
     1
  9
$HANDLING
 70
     1
  9
$HANDSEED
  5
9AC
  9
$SURFTAB1
 70
     6
  9
$SURFTAB2
 70
     6
  9
$SURFTYPE
 70
     6
  9
$SURFU
 70
     6
  9
$SURFV
 70
     6
  9
$UCSNAME
  2

  9
$UCSORG
 10
0.0
 20
0.0
 30
0.0
  9
$UCSXDIR
 10
1.0
 20
0.0
 30
0.0
  9
$UCSYDIR
 10
0.0
 20
1.0
 30
0.0
  9
$PUCSNAME
  2

  9
$PUCSORG
 10
0.0
 20
0.0
 30
0.0
  9
$PUCSXDIR
 10
1.0
 20
0.0
 30
0.0
  9
$PUCSYDIR
 10
0.0
 20
1.0
 30
0.0
  9
$USERI1
 70
     0
  9
$USERI2
 70
     0
  9
$USERI3
 70
     0
  9
$USERI4
 70
     0
  9
$USERI5
 70
     0
  9
$USERR1
 40
0.0
  9
$USERR2
 40
0.0
  9
$USERR3
 40
0.0
  9
$USERR4
 40
0.0
  9
$USERR5
 40
0.0
  9
$WORLDVIEW
 70
     1
  9
$SHADEDGE
 70
     3
  9
$SHADEDIF
 70
    70
  9
$TILEMODE
 70
     1
  9
$MAXACTVP
 70
    16
  9
$PINSBASE
 10
0.0
 20
0.0
 30
0.0
  9
$PLIMCHECK
 70
     0
  9
$PEXTMIN
 10
1.000000E+20
 20
1.000000E+20
 30
1.000000E+20
  9
$PEXTMAX
 10
-1.000000E+20
 20
-1.000000E+20
 30
-1.000000E+20
  9
$PLIMMIN
 10
-123.0
 20
-87.0
  9
$PLIMMAX
 10
717.0
 20
507.0
  9
$UNITMODE
 70
     0
  9
$VISRETAIN
 70
     0
  9
$PLINEGEN
 70
     1
  9
$PSLTSCALE
 70
     0
  9
$TREEDEPTH
 70
  3020
  9
$DWGCODEPAGE
  3
dos850
  0
ENDSEC
  0
SECTION
  2
TABLES
  0
TABLE
  2
VPORT
 70
     1
  0
VPORT
  2
*ACTIVE
 70
     0
 10
0.0
 20
0.0
 11
1.0
 21
1.0
 12
420.0
 22
297.0
 13
0.0
 23
0.0
 14
1.0
 24
1.0
 15
0.0
 25
0.0
 16
0.0
 26
0.0
 36
1.0
 17
-123.0
 27
-87.0
 37
0.0
 40
594.0
 41
1.604229
 42
50.0
 43
0.0
 44
0.0
 50
0.0
 51
0.0
 71
     0
 72
   100
 73
     1
 74
     1
 75
     0
 76
     0
 77
     0
 78
     0
  0
ENDTAB
  0
TABLE
  2
LTYPE
 70
     4
  0
LTYPE
  2
CONTINUOUS
 70
    64
  3
Solid line
 72
    65
 73
     0
 40
0.0
  0
LTYPE
  2
DASHED
 70
    64
  3
__ __ __ __ __
 72
    65
 73
     2
 40
6.25
 49
5.0
 49
-1.25
  0
LTYPE
  2
DIVIDE
 70
    64
  3
__ . . __ . . __ . . __
 72
    65
 73
     6
 40
8.75
 49
5.0
 49
-1.25
 49
0.0
 49
-1.25
 49
0.0
 49
-1.25
  0
LTYPE
  2
DASHDOT
 70
    64
  3
__ . __ . __ . __ . __
 72
    65
 73
     4
 40
7.5
 49
5.0
 49
-1.25
 49
0.0
 49
-1.25
  0
ENDTAB
  0
TABLE
  2
LAYER
 70
    10
  0
LAYER
  2
0
 70
     0
 62
     7
  6
CONTINUOUS
  0
LAYER
  2
LC-INFO-1-2-MM-A3-0
 70
     1
 62
    -1
  6
CONTINUOUS
  0
LAYER
  2
LC-004-005-----0
 70
     0
 62
     2
  6
CONTINUOUS
  0
LAYER
  2
LC-006-003-MTH-0
 70
     0
 62
     2
  6
CONTINUOUS
  0
LAYER
  2
LC-007-003-MTG-0
 70
     0
 62
     2
  6
CONTINUOUS
  0
LAYER
  2
LC-005-003-----0
 70
     0
 62
     2
  6
CONTINUOUS
  0
LAYER
  2
LC-001-100-D02-0
 70
     0
 62
     7
  6
CONTINUOUS
  0
LAYER
  2
LC-003-100-D00-0
 70
     0
 62
     2
  6
DIVIDE
  0
LAYER
  2
LC-002-002-----0
 70
     0
 62
     1
  6
CONTINUOUS
  0
LAYER
  2
LC-000
 70
     0
 62
     7
  6
CONTINUOUS
  0
ENDTAB
  0
TABLE
  2
STYLE
 70
     4
  0
STYLE
  2
STANDARD
 70
     0
 40
0.0
 41
1.0
 50
0.0
 71
     0
 42
0.0
  3
txt
  4

  0
STYLE
  2
LC-STANDARD
 70
    64
 40
0.0
 41
1.0
 50
0.0
 71
     0
 42
3.5
  3
MONOTXT
  4

  0
STYLE
  2
LC-TXTSTYLE-150-400-0-0-D2
 70
    64
 40
0.0
 41
1.0
 50
15.0
 71
     0
 42
3.5
  3
MONOTXT
  4

  0
STYLE
  2
LC-TXTSTYLE-150-400-0-0-D3
 70
    64
 40
0.0
 41
1.0
 50
15.0
 71
     0
 42
3.5
  3
LC-STANDARD
  4

  0
ENDTAB
  0
TABLE
  2
VIEW
 70
     0
  0
ENDTAB
  0
TABLE
  2
UCS
 70
     0
  0
ENDTAB
  0
TABLE
  2
APPID
 70
     1
  0
APPID
  2
ACAD
 70
     0
  0
ENDTAB
  0
TABLE
  2
DIMSTYLE
 70
     3
  0
DIMSTYLE
  2
STANDARD
 70
     0
  3

  4

  5

  6

  7

 40
1.0
 41
0.18
 42
0.0625
 43
0.38
 44
0.18
 45
0.0
 46
0.0
 47
0.0
 48
0.0
 71
     0
 72
     0
 73
     1
 74
     1
 75
     0
 76
     0
 77
     0
 78
     0
140
0.18
141
0.09
142
0.0
143
25.4
144
1.0
145
0.0
146
1.0
147
0.09
170
     0
171
     2
172
     0
173
     0
174
     0
175
     0
176
     0
177
     0
178
     0
  0
DIMSTYLE
  2
LC-STANDARD
 70
     0
  3

  4

  5

  6

  7

 40
1.0
 41
3.5
 42
0.0
 43
7.5
 44
1.8
 45
0.0
 46
0.0
 47
0.0
 48
0.0
 71
     0
 72
     0
 73
     0
 74
     0
 75
     0
 76
     0
 77
     1
 78
     8
140
3.5
141
0.0
142
0.0
143
25.4
144
1.0
145
0.0
146
0.71
147
1.5
170
     0
171
     2
172
     1
173
     0
174
     0
175
     0
176
     0
177
     0
178
     3
  0
DIMSTYLE
  2
LC-DIM-L-0090-02-02
 70
     0
  3

  4

  5

  6

  7

 40
2.0
 41
3.5
 42
0.0
 43
7.5
 44
1.8
 45
0.0
 46
0.0
 47
0.0
 48
0.0
 71
     0
 72
     0
 73
     0
 74
     0
 75
     0
 76
     0
 77
     1
 78
     8
140
9.0
141
0.0
142
0.0
143
25.4
144
1.0
145
0.0
146
0.71
147
1.5
170
     0
171
     2
172
     0
173
     0
174
     0
175
     0
176
     2
177
     2
178
     6
  0
ENDTAB
  0
ENDSEC
  0
SECTION
  2
BLOCKS
  0
BLOCK
  8
0
  5
23
  2
BLK1
 70
    64
 10
0.0
 20
0.0
 30
0.0
  3
BLK1
  0
ENDBLK
  8
0
  5
24
  0
BLOCK
  8
0
  5
26
  2
BLK2
 70
    64
 10
0.0
 20
0.0
 30
0.0
  3
BLK2
  0
ENDBLK
  8
0
  5
27
  0
BLOCK
  8
0
  5
29
  2
BLK3
 70
    64
 10
0.0
 20
0.0
 30
0.0
  3
BLK3
  0
ENDBLK
  8
0
  5
2A
  0
BLOCK
  8
0
  5
2C
  2
BLK4
 70
    64
 10
0.0
 20
0.0
 30
0.0
  3
BLK4
  0
ENDBLK
  8
0
  5
2D
  0
BLOCK
  8
0
  5
2F
  2
BLK5
 70
    64
 10
0.0
 20
0.0
 30
0.0
  3
BLK5
  0
ENDBLK
  8
0
  5
30
  0
BLOCK
  8
0
  5
32
  2
BLK6
 70
    64
 10
0.0
 20
0.0
 30
0.0
  3
BLK6
  0
ENDBLK
  8
0
  5
33
  0
BLOCK
  8
0
  5
35
  2
BLK7
 70
    64
 10
0.0
 20
0.0
 30
0.0
  3
BLK7
  0
ENDBLK
  8
0
  5
36
  0
BLOCK
  8
0
  5
38
  2
BLK8
 70
    64
 10
0.0
 20
0.0
 30
0.0
  3
BLK8
  0
ENDBLK
  8
0
  5
39
  0
BLOCK
  8
0
  5
3B
  2
BLK9
 70
    64
 10
0.0
 20
0.0
 30
0.0
  3
BLK9
  0
ENDBLK
  8
0
  5
3C
  0
BLOCK
  8
0
  5
3E
  2
BLK10
 70
    64
 10
0.0
 20
0.0
 30
0.0
  3
BLK10
  0
ENDBLK
  8
0
  5
3F
  0
BLOCK
  8
0
  5
41
  2
BLK11
 70
    64
 10
0.0
 20
0.0
 30
0.0
  3
BLK11
  0
ENDBLK
  8
0
  5
42
  0
BLOCK
  8
0
  5
44
  2
BLK12
 70
    64
 10
0.0
 20
0.0
 30
0.0
  3
BLK12
  0
ENDBLK
  8
0
  5
45
  0
BLOCK
  8
0
  5
47
  2
BLK13
 70
    64
 10
0.0
 20
0.0
 30
0.0
  3
BLK13
  0
ENDBLK
  8
0
  5
48
  0
BLOCK
  8
0
  5
4A
  2
BLK14
 70
    64
 10
0.0
 20
0.0
 30
0.0
  3
BLK14
  0
ENDBLK
  8
0
  5
4B
  0
BLOCK
  8
0
  5
4D
  2
*X14
 70
    65
 10
176.72683
 20
346.541978
 30
0.0
  3
*X14
  0
LINE
  8
LC-004-005-----0
  6
CONTINUOUS
  5
4F
 10
189.083266
 20
365.28845
 30
0.0
 11
187.974266
 21
366.397451
 31
0.0
  0
LINE
  8
LC-004-005-----0
  6
CONTINUOUS
  5
50
 10
188.978677
 20
359.736185
 30
0.0
 11
182.172884
 21
366.541978
 31
0.0
  0
LINE
  8
LC-004-005-----0
  6
CONTINUOUS
  5
51
 10
188.837827
 20
357.048608
 30
0.0
 11
179.344457
 21
366.541978
 31
0.0
  0
LINE
  8
LC-004-005-----0
  6
CONTINUOUS
  5
52
 10
188.556127
 20
351.673453
 30
0.0
 11
176.781409
 21
363.448172
 31
0.0
  0
LINE
  8
LC-004-005-----0
  6
CONTINUOUS
  5
53
 10
188.415277
 20
348.985876
 30
0.0
 11
176.937839
 21
360.463315
 31
0.0
  0
LINE
  8
LC-004-005-----0
  6
CONTINUOUS
  5
54
 10
185.202321
 20
346.541978
 30
0.0
 11
177.250698
 21
354.493601
 31
0.0
  0
LINE
  8
LC-004-005-----0
  6
CONTINUOUS
  5
55
 10
182.373894
 20
346.541978
 30
0.0
 11
177.407128
 21
351.508744
 31
0.0
  0
ENDBLK
  8
0
  5
56
  0
BLOCK
  8
0
  5
58
  2
*X15
 70
    65
 10
383.22683
 20
346.541978
 30
0.0
  3
*X15
  0
LINE
  8
LC-004-005-----0
  6
CONTINUOUS
  5
59
 10
399.561638
 20
361.285259
 30
0.0
 11
394.304919
 21
366.541978
 31
0.0
  0
LINE
  8
LC-004-005-----0
  6
CONTINUOUS
  5
5A
 10
399.420788
 20
358.597681
 30
0.0
 11
391.476491
 21
366.541978
 31
0.0
  0
LINE
  8
LC-004-005-----0
  6
CONTINUOUS
  5
5B
 10
399.139088
 20
353.222527
 30
0.0
 11
385.819637
 21
366.541978
 31
0.0
  0
LINE
  8
LC-004-005-----0
  6
CONTINUOUS
  5
5C
 10
398.998238
 20
350.53495
 30
0.0
 11
383.699722
 21
365.833466
 31
0.0
  0
LINE
  8
LC-004-005-----0
  6
CONTINUOUS
  5
5D
 10
397.293454
 20
346.582879
 30
0.0
 11
383.439212
 21
360.437122
 31
0.0
  0
LINE
  8
LC-004-005-----0
  6
CONTINUOUS
  5
5E
 10
394.505929
 20
346.541978
 30
0.0
 11
383.595641
 21
357.452265
 31
0.0
  0
LINE
  8
LC-004-005-----0
  6
CONTINUOUS
  5
5F
 10
388.849074
 20
346.541978
 30
0.0
 11
383.908501
 21
351.482552
 31
0.0
  0
LINE
  8
LC-004-005-----0
  6
CONTINUOUS
  5
60
 10
386.020136
 20
346.542489
 30
0.0
 11
384.06493
 21
348.497695
 31
0.0
  0
ENDBLK
  8
0
  5
61
  0
BLOCK
  8
0
  5
63
  2
*X16
 70
    65
 10
389.7282
 20
316.341978
 30
0.0
  3
*X16
  0
LINE
  8
LC-004-005-----0
  6
DASHED
  5
65
 10
398.9782
 20
322.270717
 30
0.0
 11
393.2282
 21
328.020717
 31
0.0
  0
LINE
  8
LC-004-005-----0
  6
DASHED
  5
66
 10
398.9782
 20
319.442289
 30
0.0
 11
393.2282
 21
325.192289
 31
0.0
  0
LINE
  8
LC-004-005-----0
  6
CONTINUOUS
  5
67
 10
396.421657
 20
316.341978
 30
0.0
 11
390.590544
 21
322.173092
 31
0.0
  0
LINE
  8
LC-004-005-----0
  6
CONTINUOUS
  5
68
 10
393.59323
 20
316.341978
 30
0.0
 11
392.72956
 21
317.205648
 31
0.0
  0
ENDBLK
  8
0
  5
69
  0
BLOCK
  8
0
  5
6B
  2
*X17
 70
    65
 10
388.7282
 20
308.341978
 30
0.0
  3
*X17
  0
LINE
  8
LC-004-005-----0
  6
CONTINUOUS
  5
6C
 10
404.798817
 20
308.632295
 30
0.0
 11
405.470722
 21
309.304199
 31
0.0
  0
LINE
  8
LC-004-005-----0
  6
CONTINUOUS
  5
6D
 10
398.851646
 20
308.341978
 30
0.0
 11
405.843967
 21
315.334299
 31
0.0
  0
LINE
  8
LC-004-005-----0
  6
CONTINUOUS
  5
6E
 10
396.37571
 20
308.694469
 30
0.0
 11
405.891584
 21
318.210343
 31
0.0
  0
LINE
  8
LC-004-005-----0
  6
CONTINUOUS
  5
6F
 10
393.7282
 20
311.703814
 30
0.0
 11
405.986817
 21
323.96243
 31
0.0
  0
LINE
  8
LC-004-005-----0
  6
CONTINUOUS
  5
70
 10
393.7282
 20
314.532241
 30
0.0
 11
395.537938
 21
316.341978
 31
0.0
  0
LINE
  8
LC-004-005-----0
  6
CONTINUOUS
  5
71
 10
398.9782
 20
319.782241
 30
0.0
 11
406.034434
 21
326.838474
 31
0.0
  0
LINE
  8
LC-004-005-----0
  6
CONTINUOUS
  5
72
 10
417.737938
 20
338.541978
 30
0.0
 11
418.2282
 21
339.032241
 31
0.0
  0
LINE
  8
LC-004-005-----0
  6
CONTINUOUS
  5
73
 10
398.9782
 20
325.439095
 30
0.0
 11
406.129667
 21
332.590562
 31
0.0
  0
LINE
  8
LC-004-005-----0
  6
CONTINUOUS
  5
74
 10
412.081083
 20
338.541978
 30
0.0
 11
418.2282
 21
344.689095
 31
0.0
  0
LINE
  8
LC-004-005-----0
  6
CONTINUOUS
  5
75
 10
398.667174
 20
327.956496
 30
0.0
 11
406.177284
 21
335.466605
 31
0.0
  0
LINE
  8
LC-004-005-----0
  6
CONTINUOUS
  5
76
 10
409.252656
 20
338.541978
 30
0.0
 11
417.329088
 21
346.61841
 31
0.0
  0
LINE
  8
LC-004-005-----0
  6
CONTINUOUS
  5
77
 10
393.7282
 20
328.674376
 30
0.0
 11
415.801559
 21
350.747735
 31
0.0
  0
LINE
  8
LC-004-005-----0
  6
CONTINUOUS
  5
78
 10
393.7282
 20
331.502804
 30
0.0
 11
415.377589
 21
353.152192
 31
0.0
  0
LINE
  8
LC-004-005-----0
  6
CONTINUOUS
  5
79
 10
393.723909
 20
337.155366
 30
0.0
 11
414.529647
 21
357.961105
 31
0.0
  0
LINE
  8
LC-004-005-----0
  6
CONTINUOUS
  5
7A
 10
392.281158
 20
338.541043
 30
0.0
 11
400.38649
 21
346.646374
 31
0.0
  0
LINE
  8
LC-004-005-----0
  6
CONTINUOUS
  5
7B
 10
401.644373
 20
347.904258
 30
0.0
 11
414.105677
 21
360.365561
 31
0.0
  0
LINE
  8
LC-004-005-----0
  6
CONTINUOUS
  5
7C
 10
388.7282
 20
340.644939
 30
0.0
 11
394.625239
 21
346.541978
 31
0.0
  0
LINE
  8
LC-004-005-----0
  6
CONTINUOUS
  5
7D
 10
401.889483
 20
353.806222
 30
0.0
 11
413.257736
 21
365.174475
 31
0.0
  0
LINE
  8
LC-004-005-----0
  6
CONTINUOUS
  5
7E
 10
388.7282
 20
343.473366
 30
0.0
 11
391.796812
 21
346.541978
 31
0.0
  0
LINE
  8
LC-004-005-----0
  6
CONTINUOUS
  5
7F
 10
401.966763
 20
356.711929
 30
0.0
 11
411.796812
 21
366.541978
 31
0.0
  0
LINE
  8
LC-004-005-----0
  6
CONTINUOUS
  5
80
 10
402.121322
 20
362.523342
 30
0.0
 11
406.139958
 21
366.541978
 31
0.0
  0
LINE
  8
LC-004-005-----0
  6
CONTINUOUS
  5
81
 10
402.198601
 20
365.429048
 30
0.0
 11
403.311531
 21
366.541978
 31
0.0
  0
ENDBLK
  8
0
  5
82
  0
BLOCK
  8
0
  5
84
  2
*X18
 70
    65
 10
177.4782
 20
316.341978
 30
0.0
  3
*X18
  0
LINE
  8
LC-004-005-----0
  6
DASHED
  5
85
 10
185.68726
 20
320.601195
 30
0.0
 11
184.485286
 21
321.803169
 31
0.0
  0
LINE
  8
LC-004-005-----0
  6
DASHED
  5
86
 10
183.2282
 20
323.060255
 30
0.0
 11
178.204501
 21
328.083954
 31
0.0
  0
LINE
  8
LC-004-005-----0
  6
DASHED
  5
87
 10
184.651984
 20
318.808044
 30
0.0
 11
177.4782
 21
325.981828
 31
0.0
  0
LINE
  8
LC-004-005-----0
  6
CONTINUOUS
  5
88
 10
181.461196
 20
316.341978
 30
0.0
 11
177.4782
 21
320.324974
 31
0.0
  0
ENDBLK
  8
0
  5
89
  0
BLOCK
  8
0
  5
8B
  2
*X19
 70
    65
 10
213.904035
 20
331.478727
 30
0.0
  3
*X19
  0
LINE
  8
LC-004-005-----0
  6
CONTINUOUS
  5
8C
 10
226.826972
 20
331.478776
 30
0.0
 11
227.824049
 21
332.475853
 31
0.0
  0
LINE
  8
LC-004-005-----0
  6
CONTINUOUS
  5
8D
 10
224.296292
 20
331.776523
 30
0.0
 11
227.72686
 21
335.207091
 31
0.0
  0
LINE
  8
LC-004-005-----0
  6
CONTINUOUS
  5
8E
 10
221.773231
 20
332.081889
 30
0.0
 11
225.367417
 21
335.676075
 31
0.0
  0
LINE
  8
LC-004-005-----0
  6
CONTINUOUS
  5
8F
 10
219.25017
 20
332.387255
 30
0.0
 11
222.844356
 21
335.981441
 31
0.0
  0
LINE
  8
LC-004-005-----0
  6
CONTINUOUS
  5
90
 10
216.727109
 20
332.692621
 30
0.0
 11
220.321295
 21
336.286807
 31
0.0
  0
LINE
  8
LC-004-005-----0
  6
CONTINUOUS
  5
91
 10
214.317037
 20
333.110977
 30
0.0
 11
217.798234
 21
336.592173
 31
0.0
  0
LINE
  8
LC-004-005-----0
  6
CONTINUOUS
  5
92
 10
214.116849
 20
335.739215
 30
0.0
 11
215.275173
 21
336.897539
 31
0.0
  0
ENDBLK
  8
0
  5
93
  0
BLOCK
  8
0
  5
95
  2
*X20
 70
    65
 10
279.296519
 20
278.053438
 30
0.0
  3
*X20
  0
LINE
  8
LC-004-005-----0
  6
CONTINUOUS
  5
96
 10
297.117459
 20
279.881674
 30
0.0
 11
296.650368
 21
280.348765
 31
0.0
  0
LINE
  8
LC-004-005-----0
  6
CONTINUOUS
  5
97
 10
295.851072
 20
278.319634
 30
0.0
 11
293.917379
 21
280.253327
 31
0.0
  0
LINE
  8
LC-004-005-----0
  6
CONTINUOUS
  5
98
 10
293.118083
 20
278.224196
 30
0.0
 11
291.18439
 21
280.157889
 31
0.0
  0
LINE
  8
LC-004-005-----0
  6
CONTINUOUS
  5
99
 10
290.385094
 20
278.128758
 30
0.0
 11
288.451401
 21
280.062451
 31
0.0
  0
LINE
  8
LC-004-005-----0
  6
CONTINUOUS
  5
9A
 10
287.610414
 20
278.075011
 30
0.0
 11
285.536782
 21
280.148643
 31
0.0
  0
LINE
  8
LC-004-005-----0
  6
CONTINUOUS
  5
9B
 10
284.679642
 20
278.177356
 30
0.0
 11
282.60601
 21
280.250988
 31
0.0
  0
LINE
  8
LC-004-005-----0
  6
CONTINUOUS
  5
9C
 10
281.74887
 20
278.279701
 30
0.0
 11
279.675238
 21
280.353333
 31
0.0
  0
ENDBLK
  8
0
  5
9D
  0
BLOCK
  8
0
  5
9F
  2
*X21
 70
    65
 10
192.2282
 20
278.446894
 30
0.0
  3
*X21
  0
LINE
  8
LC-004-005-----0
  6
CONTINUOUS
  5
A0
 10
277.10526
 20
280.094884
 30
0.0
 11
276.744466
 21
280.455677
 31
0.0
  0
LINE
  8
LC-004-005-----0
  6
CONTINUOUS
  5
A1
 10
275.887326
 20
278.48439
 30
0.0
 11
273.813694
 21
280.558022
 31
0.0
  0
LINE
  8
LC-004-005-----0
  6
CONTINUOUS
  5
A2
 10
272.956554
 20
278.586735
 30
0.0
 11
270.882922
 21
280.660367
 31
0.0
  0
LINE
  8
LC-004-005-----0
  6
CONTINUOUS
  5
A3
 10
270.025782
 20
278.68908
 30
0.0
 11
267.95215
 21
280.762712
 31
0.0
  0
LINE
  8
LC-004-005-----0
  6
CONTINUOUS
  5
A4
 10
267.09501
 20
278.791425
 30
0.0
 11
265.021378
 21
280.865057
 31
0.0
  0
LINE
  8
LC-004-005-----0
  6
CONTINUOUS
  5
A5
 10
215.234485
 20
330.65195
 30
0.0
 11
211.587946
 21
334.29849
 31
0.0
  0
LINE
  8
LC-004-005-----0
  6
CONTINUOUS
  5
A6
 10
264.164238
 20
278.89377
 30
0.0
 11
262.090606
 21
280.967402
 31
0.0
  0
LINE
  8
LC-004-005-----0
  6
CONTINUOUS
  5
A7
 10
215.572722
 20
327.485286
 30
0.0
 11
208.421281
 21
334.636727
 31
0.0
  0
LINE
  8
LC-004-005-----0
  6
CONTINUOUS
  5
A8
 10
261.233466
 20
278.996114
 30
0.0
 11
259.159834
 21
281.069746
 31
0.0
  0
LINE
  8
LC-004-005-----0
  6
CONTINUOUS
  5
A9
 10
215.843903
 20
324.385678
 30
0.0
 11
212.543714
 21
327.685867
 31
0.0
  0
LINE
  8
LC-004-005-----0
  6
CONTINUOUS
  5
AA
 10
208.621862
 20
331.607718
 30
0.0
 11
205.321674
 21
334.907907
 31
0.0
  0
LINE
  8
LC-004-005-----0
  6
CONTINUOUS
  5
AB
 10
258.302694
 20
279.098459
 30
0.0
 11
256.229063
 21
281.172091
 31
0.0
  0
LINE
  8
LC-004-005-----0
  6
CONTINUOUS
  5
AC
 10
216.115083
 20
321.286071
 30
0.0
 11
212.814895
 21
324.586259
 31
0.0
  0
LINE
  8
LC-004-005-----0
  6
CONTINUOUS
  5
AD
 10
205.522255
 20
331.878899
 30
0.0
 11
202.222066
 21
335.179088
 31
0.0
  0
LINE
  8
LC-004-005-----0
  6
CONTINUOUS
  5
AE
 10
255.371923
 20
279.200804
 30
0.0
 11
253.298291
 21
281.274436
 31
0.0
  0
LINE
  8
LC-004-005-----0
  6
CONTINUOUS
  5
AF
 10
216.386264
 20
318.186463
 30
0.0
 11
213.086075
 21
321.486652
 31
0.0
  0
LINE
  8
LC-004-005-----0
  6
CONTINUOUS
  5
B0
 10
202.422647
 20
332.15008
 30
0.0
 11
199.122458
 21
335.450268
 31
0.0
  0
LINE
  8
LC-004-005-----0
  6
CONTINUOUS
  5
B1
 10
252.441151
 20
279.303149
 30
0.0
 11
250.367519
 21
281.376781
 31
0.0
  0
LINE
  8
LC-004-005-----0
  6
CONTINUOUS
  5
B2
 10
216.657444
 20
315.086855
 30
0.0
 11
213.357256
 21
318.387044
 31
0.0
  0
LINE
  8
LC-004-005-----0
  6
CONTINUOUS
  5
B3
 10
199.323039
 20
332.42126
 30
0.0
 11
196.022851
 21
335.721449
 31
0.0
  0
LINE
  8
LC-004-005-----0
  6
CONTINUOUS
  5
B4
 10
249.510379
 20
279.405494
 30
0.0
 11
247.436747
 21
281.479126
 31
0.0
  0
LINE
  8
LC-004-005-----0
  6
CONTINUOUS
  5
B5
 10
216.928625
 20
311.987248
 30
0.0
 11
213.628436
 21
315.287436
 31
0.0
  0
LINE
  8
LC-004-005-----0
  6
CONTINUOUS
  5
B6
 10
196.223432
 20
332.692441
 30
0.0
 11
192.923243
 21
335.992629
 31
0.0
  0
LINE
  8
LC-004-005-----0
  6
CONTINUOUS
  5
B7
 10
246.579607
 20
279.507838
 30
0.0
 11
244.505975
 21
281.58147
 31
0.0
  0
LINE
  8
LC-004-005-----0
  6
CONTINUOUS
  5
B8
 10
217.199805
 20
308.88764
 30
0.0
 11
213.899617
 21
312.187829
 31
0.0
  0
LINE
  8
LC-004-005-----0
  6
CONTINUOUS
  5
B9
 10
193.123824
 20
332.963621
 30
0.0
 11
192.2282
 21
333.859245
 31
0.0
  0
LINE
  8
LC-004-005-----0
  6
CONTINUOUS
  5
BA
 10
243.648835
 20
279.610183
 30
0.0
 11
241.575203
 21
281.683815
 31
0.0
  0
LINE
  8
LC-004-005-----0
  6
CONTINUOUS
  5
BB
 10
217.470986
 20
305.788032
 30
0.0
 11
214.170797
 21
309.088221
 31
0.0
  0
LINE
  8
LC-004-005-----0
  6
CONTINUOUS
  5
BC
 10
240.718063
 20
279.712528
 30
0.0
 11
238.644431
 21
281.78616
 31
0.0
  0
LINE
  8
LC-004-005-----0
  6
CONTINUOUS
  5
BD
 10
217.742166
 20
302.688425
 30
0.0
 11
214.441978
 21
305.988613
 31
0.0
  0
LINE
  8
LC-004-005-----0
  6
CONTINUOUS
  5
BE
 10
237.787291
 20
279.814873
 30
0.0
 11
235.713659
 21
281.888505
 31
0.0
  0
LINE
  8
LC-004-005-----0
  6
CONTINUOUS
  5
BF
 10
218.013347
 20
299.588817
 30
0.0
 11
214.713158
 21
302.889006
 31
0.0
  0
LINE
  8
LC-004-005-----0
  6
CONTINUOUS
  5
C0
 10
234.856519
 20
279.917218
 30
0.0
 11
232.782887
 21
281.99085
 31
0.0
  0
LINE
  8
LC-004-005-----0
  6
CONTINUOUS
  5
C1
 10
218.284527
 20
296.489209
 30
0.0
 11
214.984339
 21
299.789398
 31
0.0
  0
LINE
  8
LC-004-005-----0
  6
CONTINUOUS
  5
C2
 10
231.925747
 20
280.019563
 30
0.0
 11
229.852115
 21
282.093194
 31
0.0
  0
LINE
  8
LC-004-005-----0
  6
CONTINUOUS
  5
C3
 10
220.7282
 20
291.217109
 30
0.0
 11
215.255519
 21
296.68979
 31
0.0
  0
LINE
  8
LC-004-005-----0
  6
CONTINUOUS
  5
C4
 10
228.98901
 20
280.127872
 30
0.0
 11
226.359741
 21
282.757141
 31
0.0
  0
LINE
  8
LC-004-005-----0
  6
CONTINUOUS
  5
C5
 10
221.382334
 20
287.734548
 30
0.0
 11
218.753065
 21
290.363818
 31
0.0
  0
LINE
  8
LC-004-005-----0
  6
CONTINUOUS
  5
C6
 10
225.218542
 20
281.069913
 30
0.0
 11
219.695106
 21
286.593349
 31
0.0
  0
ENDBLK
  8
0
  5
C7
  0
BLOCK
  8
0
  5
C9
  2
*X22
 70
    65
 10
299.320771
 20
278.446894
 30
0.0
  3
*X22
  0
LINE
  8
LC-004-005-----0
  6
CONTINUOUS
  5
CA
 10
384.2282
 20
334.192289
 30
0.0
 11
382.516782
 21
335.903708
 31
0.0
  0
LINE
  8
LC-004-005-----0
  6
CONTINUOUS
  5
CB
 10
382.685089
 20
332.906973
 30
0.0
 11
379.915902
 21
335.67616
 31
0.0
  0
LINE
  8
LC-004-005-----0
  6
CONTINUOUS
  5
CC
 10
380.08421
 20
332.679426
 30
0.0
 11
377.315023
 21
335.448613
 31
0.0
  0
LINE
  8
LC-004-005-----0
  6
CONTINUOUS
  5
CD
 10
377.48333
 20
332.451878
 30
0.0
 11
374.714143
 21
335.221065
 31
0.0
  0
LINE
  8
LC-004-005-----0
  6
CONTINUOUS
  5
CE
 10
374.88245
 20
332.224331
 30
0.0
 11
372.113263
 21
334.993518
 31
0.0
  0
LINE
  8
LC-004-005-----0
  6
CONTINUOUS
  5
CF
 10
372.281571
 20
331.996783
 30
0.0
 11
369.512384
 21
334.76597
 31
0.0
  0
LINE
  8
LC-004-005-----0
  6
CONTINUOUS
  5
D0
 10
369.680691
 20
331.769236
 30
0.0
 11
366.911504
 21
334.538423
 31
0.0
  0
LINE
  8
LC-004-005-----0
  6
CONTINUOUS
  5
D1
 10
367.079811
 20
331.541688
 30
0.0
 11
364.447483
 21
334.174017
 31
0.0
  0
LINE
  8
LC-004-005-----0
  6
CONTINUOUS
  5
D2
 10
364.803032
 20
330.990041
 30
0.0
 11
362.677754
 21
333.115318
 31
0.0
  0
LINE
  8
LC-004-005-----0
  6
CONTINUOUS
  5
D3
 10
364.022589
 20
328.942057
 30
0.0
 11
361.499928
 21
331.464717
 31
0.0
  0
LINE
  8
LC-004-005-----0
  6
CONTINUOUS
  5
D4
 10
363.795041
 20
326.341177
 30
0.0
 11
361.025854
 21
329.110364
 31
0.0
  0
LINE
  8
LC-004-005-----0
  6
CONTINUOUS
  5
D5
 10
363.567494
 20
323.740297
 30
0.0
 11
360.798307
 21
326.509484
 31
0.0
  0
LINE
  8
LC-004-005-----0
  6
CONTINUOUS
  5
D6
 10
363.339947
 20
321.139418
 30
0.0
 11
360.570759
 21
323.908605
 31
0.0
  0
LINE
  8
LC-004-005-----0
  6
CONTINUOUS
  5
D7
 10
363.112399
 20
318.538538
 30
0.0
 11
360.343212
 21
321.307725
 31
0.0
  0
LINE
  8
LC-004-005-----0
  6
CONTINUOUS
  5
D8
 10
362.884852
 20
315.937658
 30
0.0
 11
360.115665
 21
318.706845
 31
0.0
  0
LINE
  8
LC-004-005-----0
  6
CONTINUOUS
  5
D9
 10
362.657304
 20
313.336779
 30
0.0
 11
359.888117
 21
316.105966
 31
0.0
  0
LINE
  8
LC-004-005-----0
  6
CONTINUOUS
  5
DA
 10
362.429757
 20
310.735899
 30
0.0
 11
359.66057
 21
313.505086
 31
0.0
  0
LINE
  8
LC-004-005-----0
  6
CONTINUOUS
  5
DB
 10
362.202209
 20
308.135019
 30
0.0
 11
359.433022
 21
310.904207
 31
0.0
  0
LINE
  8
LC-004-005-----0
  6
CONTINUOUS
  5
DC
 10
361.974662
 20
305.53414
 30
0.0
 11
359.205475
 21
308.303327
 31
0.0
  0
LINE
  8
LC-004-005-----0
  6
CONTINUOUS
  5
DD
 10
361.747114
 20
302.93326
 30
0.0
 11
358.977927
 21
305.702447
 31
0.0
  0
LINE
  8
LC-004-005-----0
  6
CONTINUOUS
  5
DE
 10
361.519567
 20
300.332381
 30
0.0
 11
358.75038
 21
303.101568
 31
0.0
  0
LINE
  8
LC-004-005-----0
  6
CONTINUOUS
  5
DF
 10
361.292019
 20
297.731501
 30
0.0
 11
358.522832
 21
300.500688
 31
0.0
  0
LINE
  8
LC-004-005-----0
  6
CONTINUOUS
  5
E0
 10
361.064472
 20
295.130621
 30
0.0
 11
358.295285
 21
297.899808
 31
0.0
  0
LINE
  8
LC-004-005-----0
  6
CONTINUOUS
  5
E1
 10
359.960995
 20
293.405671
 30
0.0
 11
358.067737
 21
295.298929
 31
0.0
  0
LINE
  8
LC-004-005-----0
  6
CONTINUOUS
  5
E2
 10
358.546782
 20
291.991457
 30
0.0
 11
356.76553
 21
293.772708
 31
0.0
  0
LINE
  8
LC-004-005-----0
  6
CONTINUOUS
  5
E3
 10
357.676104
 20
290.033707
 30
0.0
 11
355.7282
 21
291.981611
 31
0.0
  0
LINE
  8
LC-004-005-----0
  6
CONTINUOUS
  5
E4
 10
357.186812
 20
287.694572
 30
0.0
 11
355.551756
 21
289.329629
 31
0.0
  0
LINE
  8
LC-004-005-----0
  6
CONTINUOUS
  5
E5
 10
356.325343
 20
285.727614
 30
0.0
 11
354.842758
 21
287.210199
 31
0.0
  0
LINE
  8
LC-004-005-----0
  6
CONTINUOUS
  5
E6
 10
355.171775
 20
284.052756
 30
0.0
 11
353.750576
 21
285.473954
 31
0.0
  0
LINE
  8
LC-004-005-----0
  6
CONTINUOUS
  5
E7
 10
353.755654
 20
282.640449
 30
0.0
 11
352.334027
 21
284.062076
 31
0.0
  0
LINE
  8
LC-004-005-----0
  6
CONTINUOUS
  5
E8
 10
352.07678
 20
281.490896
 30
0.0
 11
350.592731
 21
282.974945
 31
0.0
  0
LINE
  8
LC-004-005-----0
  6
CONTINUOUS
  5
E9
 10
350.105084
 20
280.634165
 30
0.0
 11
348.466729
 21
282.27252
 31
0.0
  0
LINE
  8
LC-004-005-----0
  6
CONTINUOUS
  5
EA
 10
347.759375
 20
280.151447
 30
0.0
 11
345.844171
 21
282.066651
 31
0.0
  0
LINE
  8
LC-004-005-----0
  6
CONTINUOUS
  5
EB
 10
345.044875
 20
280.03752
 30
0.0
 11
343.111182
 21
281.971213
 31
0.0
  0
LINE
  8
LC-004-005-----0
  6
CONTINUOUS
  5
EC
 10
342.311886
 20
279.942081
 30
0.0
 11
340.378193
 21
281.875774
 31
0.0
  0
LINE
  8
LC-004-005-----0
  6
CONTINUOUS
  5
ED
 10
339.578897
 20
279.846643
 30
0.0
 11
337.645204
 21
281.780336
 31
0.0
  0
LINE
  8
LC-004-005-----0
  6
CONTINUOUS
  5
EE
 10
336.845908
 20
279.751205
 30
0.0
 11
334.912215
 21
281.684898
 31
0.0
  0
LINE
  8
LC-004-005-----0
  6
CONTINUOUS
  5
EF
 10
334.112919
 20
279.655767
 30
0.0
 11
332.179226
 21
281.58946
 31
0.0
  0
LINE
  8
LC-004-005-----0
  6
CONTINUOUS
  5
F0
 10
331.37993
 20
279.560329
 30
0.0
 11
329.446237
 21
281.494022
 31
0.0
  0
LINE
  8
LC-004-005-----0
  6
CONTINUOUS
  5
F1
 10
328.646941
 20
279.464891
 30
0.0
 11
326.713248
 21
281.398584
 31
0.0
  0
LINE
  8
LC-004-005-----0
  6
CONTINUOUS
  5
F2
 10
325.913952
 20
279.369453
 30
0.0
 11
323.980259
 21
281.303146
 31
0.0
  0
LINE
  8
LC-004-005-----0
  6
CONTINUOUS
  5
F3
 10
323.180963
 20
279.274015
 30
0.0
 11
321.24727
 21
281.207708
 31
0.0
  0
LINE
  8
LC-004-005-----0
  6
CONTINUOUS
  5
F4
 10
320.447974
 20
279.178577
 30
0.0
 11
318.514281
 21
281.11227
 31
0.0
  0
LINE
  8
LC-004-005-----0
  6
CONTINUOUS
  5
F5
 10
317.714985
 20
279.083139
 30
0.0
 11
315.781292
 21
281.016832
 31
0.0
  0
LINE
  8
LC-004-005-----0
  6
CONTINUOUS
  5
F6
 10
314.981996
 20
278.987701
 30
0.0
 11
313.048303
 21
280.921394
 31
0.0
  0
LINE
  8
LC-004-005-----0
  6
CONTINUOUS
  5
F7
 10
312.249006
 20
278.892263
 30
0.0
 11
310.315313
 21
280.825956
 31
0.0
  0
LINE
  8
LC-004-005-----0
  6
CONTINUOUS
  5
F8
 10
309.516017
 20
278.796824
 30
0.0
 11
307.582324
 21
280.730518
 31
0.0
  0
LINE
  8
LC-004-005-----0
  6
CONTINUOUS
  5
F9
 10
306.783028
 20
278.701386
 30
0.0
 11
304.849335
 21
280.635079
 31
0.0
  0
LINE
  8
LC-004-005-----0
  6
CONTINUOUS
  5
FA
 10
304.050039
 20
278.605948
 30
0.0
 11
302.116346
 21
280.539641
 31
0.0
  0
LINE
  8
LC-004-005-----0
  6
CONTINUOUS
  5
FB
 10
301.31705
 20
278.51051
 30
0.0
 11
299.383357
 21
280.444203
 31
0.0
  0
ENDBLK
  8
0
  5
FC
  0
BLOCK
  8
0
  5
FE
  2
*X23
 70
    65
 10
184.2282
 20
214.343379
 30
0.0
  3
*X23
  0
LINE
  8
LC-004-005-----0
  6
CONTINUOUS
  5
FF
 10
197.372816
 20
214.343379
 30
0.0
 11
197.7282
 21
214.698763
 31
0.0
  0
LINE
  8
LC-004-005-----0
  6
CONTINUOUS
  5
100
 10
194.583233
 20
214.382223
 30
0.0
 11
197.7282
 21
217.52719
 31
0.0
  0
LINE
  8
LC-004-005-----0
  6
CONTINUOUS
  5
101
 10
192.352523
 20
214.97994
 30
0.0
 11
197.7282
 21
220.355617
 31
0.0
  0
LINE
  8
LC-004-005-----0
  6
CONTINUOUS
  5
102
 10
190.7282
 20
216.184044
 30
0.0
 11
192.956367
 21
218.412212
 31
0.0
  0
LINE
  8
LC-004-005-----0
  6
CONTINUOUS
  5
103
 10
194.2282
 20
219.684044
 30
0.0
 11
197.7282
 21
223.184044
 31
0.0
  0
LINE
  8
LC-004-005-----0
  6
CONTINUOUS
  5
104
 10
194.2282
 20
222.512472
 30
0.0
 11
197.7282
 21
226.012472
 31
0.0
  0
LINE
  8
LC-004-005-----0
  6
CONTINUOUS
  5
105
 10
193.468276
 20
224.580975
 30
0.0
 11
197.7282
 21
228.840899
 31
0.0
  0
LINE
  8
LC-004-005-----0
  6
CONTINUOUS
  5
106
 10
191.237566
 20
225.178692
 30
0.0
 11
197.7282
 21
231.669326
 31
0.0
  0
LINE
  8
LC-004-005-----0
  6
CONTINUOUS
  5
107
 10
190.7282
 20
227.497753
 30
0.0
 11
191.161808
 21
227.931361
 31
0.0
  0
LINE
  8
LC-004-005-----0
  6
CONTINUOUS
  5
108
 10
194.2282
 20
230.997753
 30
0.0
 11
197.7282
 21
234.497753
 31
0.0
  0
LINE
  8
LC-004-005-----0
  6
CONTINUOUS
  5
109
 10
194.208678
 20
233.806658
 30
0.0
 11
197.7282
 21
237.32618
 31
0.0
  0
LINE
  8
LC-004-005-----0
  6
CONTINUOUS
  5
10A
 10
192.432187
 20
234.858594
 30
0.0
 11
197.7282
 21
240.154607
 31
0.0
  0
LINE
  8
LC-004-005-----0
  6
CONTINUOUS
  5
10B
 10
190.7282
 20
235.983034
 30
0.0
 11
193.230952
 21
238.485786
 31
0.0
  0
LINE
  8
LC-004-005-----0
  6
CONTINUOUS
  5
10C
 10
194.227478
 20
239.482312
 30
0.0
 11
197.7282
 21
242.983034
 31
0.0
  0
LINE
  8
LC-004-005-----0
  6
CONTINUOUS
  5
10D
 10
194.2282
 20
242.311461
 30
0.0
 11
197.7282
 21
245.811461
 31
0.0
  0
LINE
  8
LC-004-005-----0
  6
CONTINUOUS
  5
10E
 10
193.61887
 20
244.530558
 30
0.0
 11
197.7282
 21
248.639889
 31
0.0
  0
LINE
  8
LC-004-005-----0
  6
CONTINUOUS
  5
10F
 10
191.396098
 20
245.136213
 30
0.0
 11
197.7282
 21
251.468316
 31
0.0
  0
LINE
  8
LC-004-005-----0
  6
CONTINUOUS
  5
110
 10
190.7282
 20
247.296743
 30
0.0
 11
191.436393
 21
248.004936
 31
0.0
  0
LINE
  8
LC-004-005-----0
  6
CONTINUOUS
  5
111
 10
194.2282
 20
250.796743
 30
0.0
 11
197.7282
 21
254.296743
 31
0.0
  0
LINE
  8
LC-004-005-----0
  6
CONTINUOUS
  5
112
 10
194.228087
 20
253.625057
 30
0.0
 11
197.7282
 21
257.12517
 31
0.0
  0
LINE
  8
LC-004-005-----0
  6
CONTINUOUS
  5
113
 10
192.590719
 20
254.816116
 30
0.0
 11
197.7282
 21
259.953597
 31
0.0
  0
LINE
  8
LC-004-005-----0
  6
CONTINUOUS
  5
114
 10
190.7282
 20
255.782024
 30
0.0
 11
193.505806
 21
258.55963
 31
0.0
  0
LINE
  8
LC-004-005-----0
  6
CONTINUOUS
  5
115
 10
194.188895
 20
259.242719
 30
0.0
 11
197.7282
 21
262.782024
 31
0.0
  0
LINE
  8
LC-004-005-----0
  6
CONTINUOUS
  5
116
 10
194.2282
 20
262.110451
 30
0.0
 11
197.7282
 21
265.610451
 31
0.0
  0
LINE
  8
LC-004-005-----0
  6
CONTINUOUS
  5
117
 10
193.751498
 20
264.462176
 30
0.0
 11
197.7282
 21
268.438878
 31
0.0
  0
LINE
  8
LC-004-005-----0
  6
CONTINUOUS
  5
118
 10
191.55463
 20
265.093735
 30
0.0
 11
197.7282
 21
271.267306
 31
0.0
  0
LINE
  8
LC-004-005-----0
  6
CONTINUOUS
  5
119
 10
190.7282
 20
267.095733
 30
0.0
 11
191.710978
 21
268.07851
 31
0.0
  0
LINE
  8
LC-004-005-----0
  6
CONTINUOUS
  5
11A
 10
194.2282
 20
270.595733
 30
0.0
 11
197.7282
 21
274.095733
 31
0.0
  0
LINE
  8
LC-004-005-----0
  6
CONTINUOUS
  5
11B
 10
194.2282
 20
273.42416
 30
0.0
 11
197.7282
 21
276.92416
 31
0.0
  0
LINE
  8
LC-004-005-----0
  6
CONTINUOUS
  5
11C
 10
192.749251
 20
274.773637
 30
0.0
 11
197.7282
 21
279.752587
 31
0.0
  0
LINE
  8
LC-004-005-----0
  6
CONTINUOUS
  5
11D
 10
190.7282
 20
275.581014
 30
0.0
 11
197.7282
 21
282.581014
 31
0.0
  0
LINE
  8
LC-004-005-----0
  6
CONTINUOUS
  5
11E
 10
194.2282
 20
281.909441
 30
0.0
 11
197.7282
 21
285.409441
 31
0.0
  0
LINE
  8
LC-004-005-----0
  6
CONTINUOUS
  5
11F
 10
193.868491
 20
284.378159
 30
0.0
 11
197.7282
 21
288.237868
 31
0.0
  0
LINE
  8
LC-004-005-----0
  6
CONTINUOUS
  5
120
 10
191.713161
 20
285.051256
 30
0.0
 11
197.7282
 21
291.066295
 31
0.0
  0
LINE
  8
LC-004-005-----0
  6
CONTINUOUS
  5
121
 10
190.7282
 20
286.894723
 30
0.0
 11
191.985563
 21
288.152085
 31
0.0
  0
LINE
  8
LC-004-005-----0
  6
CONTINUOUS
  5
122
 10
194.2282
 20
290.394723
 30
0.0
 11
197.7282
 21
293.894723
 31
0.0
  0
LINE
  8
LC-004-005-----0
  6
CONTINUOUS
  5
123
 10
194.2282
 20
293.22315
 30
0.0
 11
197.7282
 21
296.72315
 31
0.0
  0
LINE
  8
LC-004-005-----0
  6
CONTINUOUS
  5
124
 10
192.907782
 20
294.731159
 30
0.0
 11
197.7282
 21
299.551577
 31
0.0
  0
LINE
  8
LC-004-005-----0
  6
CONTINUOUS
  5
125
 10
190.7282
 20
295.380004
 30
0.0
 11
197.7282
 21
302.380004
 31
0.0
  0
LINE
  8
LC-004-005-----0
  6
CONTINUOUS
  5
126
 10
194.2282
 20
301.708431
 30
0.0
 11
197.7282
 21
305.208431
 31
0.0
  0
LINE
  8
LC-004-005-----0
  6
CONTINUOUS
  5
127
 10
193.970944
 20
304.279602
 30
0.0
 11
197.7282
 21
308.036858
 31
0.0
  0
LINE
  8
LC-004-005-----0
  6
CONTINUOUS
  5
128
 10
191.871693
 20
305.008778
 30
0.0
 11
197.7282
 21
310.865285
 31
0.0
  0
LINE
  8
LC-004-005-----0
  6
CONTINUOUS
  5
129
 10
190.7282
 20
306.693712
 30
0.0
 11
192.260148
 21
308.22566
 31
0.0
  0
LINE
  8
LC-004-005-----0
  6
CONTINUOUS
  5
12A
 10
194.2282
 20
310.193712
 30
0.0
 11
197.7282
 21
313.693712
 31
0.0
  0
LINE
  8
LC-004-005-----0
  6
CONTINUOUS
  5
12B
 10
194.2282
 20
313.02214
 30
0.0
 11
197.378243
 21
316.172182
 31
0.0
  0
LINE
  8
LC-004-005-----0
  6
CONTINUOUS
  5
12C
 10
192.919612
 20
314.541978
 30
0.0
 11
195.419612
 21
317.041978
 31
0.0
  0
LINE
  8
LC-004-005-----0
  6
CONTINUOUS
  5
12D
 10
190.091185
 20
314.541978
 30
0.0
 11
192.591185
 21
317.041978
 31
0.0
  0
LINE
  8
LC-004-005-----0
  6
CONTINUOUS
  5
12E
 10
187.262757
 20
314.541978
 30
0.0
 11
190.038583
 21
317.317804
 31
0.0
  0
LINE
  8
LC-004-005-----0
  6
CONTINUOUS
  5
12F
 10
186.7282
 20
316.835848
 30
0.0
 11
189.7282
 21
319.835848
 31
0.0
  0
LINE
  8
LC-004-005-----0
  6
CONTINUOUS
  5
130
 10
186.7282
 20
319.664275
 30
0.0
 11
189.7282
 21
322.664275
 31
0.0
  0
LINE
  8
LC-004-005-----0
  6
CONTINUOUS
  5
131
 10
186.7282
 20
322.492702
 30
0.0
 11
189.7282
 21
325.492702
 31
0.0
  0
LINE
  8
LC-004-005-----0
  6
CONTINUOUS
  5
132
 10
186.7282
 20
325.321129
 30
0.0
 11
189.7282
 21
328.321129
 31
0.0
  0
LINE
  8
LC-004-005-----0
  6
CONTINUOUS
  5
133
 10
186.7282
 20
328.149557
 30
0.0
 11
189.7282
 21
331.149557
 31
0.0
  0
LINE
  8
LC-004-005-----0
  6
CONTINUOUS
  5
134
 10
186.7282
 20
330.977984
 30
0.0
 11
189.7282
 21
333.977984
 31
0.0
  0
LINE
  8
LC-004-005-----0
  6
CONTINUOUS
  5
135
 10
186.7282
 20
333.806411
 30
0.0
 11
189.7282
 21
336.806411
 31
0.0
  0
LINE
  8
LC-004-005-----0
  6
CONTINUOUS
  5
136
 10
185.63534
 20
335.541978
 30
0.0
 11
188.63534
 21
338.541978
 31
0.0
  0
ENDBLK
  8
0
  5
137
  0
BLOCK
  8
0
  5
139
  2
*X24
 70
    65
 10
378.7282
 20
214.343379
 30
0.0
  3
*X24
  0
LINE
  8
LC-004-005-----0
  6
CONTINUOUS
  5
13A
 10
384.898481
 20
215.192853
 30
0.0
 11
385.7282
 21
216.022573
 31
0.0
  0
LINE
  8
LC-004-005-----0
  6
CONTINUOUS
  5
13B
 10
381.22058
 20
214.343379
 30
0.0
 11
384.911272
 21
218.034071
 31
0.0
  0
LINE
  8
LC-004-005-----0
  6
CONTINUOUS
  5
13C
 10
378.7282
 20
214.679427
 30
0.0
 11
382.712393
 21
218.66362
 31
0.0
  0
LINE
  8
LC-004-005-----0
  6
CONTINUOUS
  5
13D
 10
378.7282
 20
217.507854
 30
0.0
 11
382.2282
 21
221.007854
 31
0.0
  0
LINE
  8
LC-004-005-----0
  6
CONTINUOUS
  5
13E
 10
378.7282
 20
220.336281
 30
0.0
 11
382.26283
 21
223.870911
 31
0.0
  0
LINE
  8
LC-004-005-----0
  6
CONTINUOUS
  5
13F
 10
382.967316
 20
224.575397
 30
0.0
 11
385.7282
 21
227.336281
 31
0.0
  0
LINE
  8
LC-004-005-----0
  6
CONTINUOUS
  5
140
 10
378.7282
 20
223.164708
 30
0.0
 11
383.875182
 21
228.311691
 31
0.0
  0
LINE
  8
LC-004-005-----0
  6
CONTINUOUS
  5
141
 10
378.7282
 20
225.993136
 30
0.0
 11
382.22856
 21
229.493496
 31
0.0
  0
LINE
  8
LC-004-005-----0
  6
CONTINUOUS
  5
142
 10
378.7282
 20
228.821563
 30
0.0
 11
382.2282
 21
232.321563
 31
0.0
  0
LINE
  8
LC-004-005-----0
  6
CONTINUOUS
  5
143
 10
385.036463
 20
235.129826
 30
0.0
 11
385.7282
 21
235.821563
 31
0.0
  0
LINE
  8
LC-004-005-----0
  6
CONTINUOUS
  5
144
 10
378.7282
 20
231.64999
 30
0.0
 11
385.069803
 21
237.991593
 31
0.0
  0
LINE
  8
LC-004-005-----0
  6
CONTINUOUS
  5
145
 10
378.7282
 20
234.478417
 30
0.0
 11
382.84602
 21
238.596237
 31
0.0
  0
LINE
  8
LC-004-005-----0
  6
CONTINUOUS
  5
146
 10
378.7282
 20
237.306844
 30
0.0
 11
382.2282
 21
240.806844
 31
0.0
  0
LINE
  8
LC-004-005-----0
  6
CONTINUOUS
  5
147
 10
378.7282
 20
240.135271
 30
0.0
 11
382.228527
 21
243.635598
 31
0.0
  0
LINE
  8
LC-004-005-----0
  6
CONTINUOUS
  5
148
 10
383.241904
 20
244.648975
 30
0.0
 11
385.7282
 21
247.135271
 31
0.0
  0
LINE
  8
LC-004-005-----0
  6
CONTINUOUS
  5
149
 10
378.7282
 20
242.963698
 30
0.0
 11
384.033714
 21
248.269212
 31
0.0
  0
LINE
  8
LC-004-005-----0
  6
CONTINUOUS
  5
14A
 10
378.7282
 20
245.792125
 30
0.0
 11
382.249779
 21
249.313704
 31
0.0
  0
LINE
  8
LC-004-005-----0
  6
CONTINUOUS
  5
14B
 10
378.7282
 20
248.620553
 30
0.0
 11
382.2282
 21
252.120553
 31
0.0
  0
LINE
  8
LC-004-005-----0
  6
CONTINUOUS
  5
14C
 10
385.311048
 20
255.2034
 30
0.0
 11
385.7282
 21
255.620553
 31
0.0
  0
LINE
  8
LC-004-005-----0
  6
CONTINUOUS
  5
14D
 10
378.7282
 20
251.44898
 30
0.0
 11
385.228335
 21
257.949114
 31
0.0
  0
LINE
  8
LC-004-005-----0
  6
CONTINUOUS
  5
14E
 10
378.7282
 20
254.277407
 30
0.0
 11
382.997625
 21
258.546831
 31
0.0
  0
LINE
  8
LC-004-005-----0
  6
CONTINUOUS
  5
14F
 10
378.7282
 20
257.105834
 30
0.0
 11
382.2282
 21
260.605834
 31
0.0
  0
LINE
  8
LC-004-005-----0
  6
CONTINUOUS
  5
150
 10
378.7282
 20
259.934261
 30
0.0
 11
382.2282
 21
263.434261
 31
0.0
  0
LINE
  8
LC-004-005-----0
  6
CONTINUOUS
  5
151
 10
383.516489
 20
264.72255
 30
0.0
 11
385.7282
 21
266.934261
 31
0.0
  0
LINE
  8
LC-004-005-----0
  6
CONTINUOUS
  5
152
 10
378.7282
 20
262.762688
 30
0.0
 11
384.192246
 21
268.226734
 31
0.0
  0
LINE
  8
LC-004-005-----0
  6
CONTINUOUS
  5
153
 10
378.7282
 20
265.591115
 30
0.0
 11
382.295851
 21
269.158766
 31
0.0
  0
LINE
  8
LC-004-005-----0
  6
CONTINUOUS
  5
154
 10
378.7282
 20
268.419542
 30
0.0
 11
382.2282
 21
271.919542
 31
0.0
  0
LINE
  8
LC-004-005-----0
  6
CONTINUOUS
  5
155
 10
385.585633
 20
275.276975
 30
0.0
 11
385.7282
 21
275.419542
 31
0.0
  0
LINE
  8
LC-004-005-----0
  6
CONTINUOUS
  5
156
 10
378.7282
 20
271.24797
 30
0.0
 11
385.386867
 21
277.906636
 31
0.0
  0
LINE
  8
LC-004-005-----0
  6
CONTINUOUS
  5
157
 10
378.7282
 20
274.076397
 30
0.0
 11
383.156157
 21
278.504353
 31
0.0
  0
LINE
  8
LC-004-005-----0
  6
CONTINUOUS
  5
158
 10
378.7282
 20
276.904824
 30
0.0
 11
382.2282
 21
280.404824
 31
0.0
  0
LINE
  8
LC-004-005-----0
  6
CONTINUOUS
  5
159
 10
378.7282
 20
279.733251
 30
0.0
 11
382.2282
 21
283.233251
 31
0.0
  0
LINE
  8
LC-004-005-----0
  6
CONTINUOUS
  5
15A
 10
383.791074
 20
284.796124
 30
0.0
 11
385.7282
 21
286.733251
 31
0.0
  0
LINE
  8
LC-004-005-----0
  6
CONTINUOUS
  5
15B
 10
378.7282
 20
282.561678
 30
0.0
 11
384.350778
 21
288.184255
 31
0.0
  0
LINE
  8
LC-004-005-----0
  6
CONTINUOUS
  5
15C
 10
378.7282
 20
285.390105
 30
0.0
 11
382.360803
 21
289.022708
 31
0.0
  0
LINE
  8
LC-004-005-----0
  6
CONTINUOUS
  5
15D
 10
378.7282
 20
288.218532
 30
0.0
 11
382.2282
 21
291.718532
 31
0.0
  0
LINE
  8
LC-004-005-----0
  6
CONTINUOUS
  5
15E
 10
378.7282
 20
291.046959
 30
0.0
 11
385.545398
 21
297.864158
 31
0.0
  0
LINE
  8
LC-004-005-----0
  6
CONTINUOUS
  5
15F
 10
378.7282
 20
293.875387
 30
0.0
 11
383.314688
 21
298.461875
 31
0.0
  0
LINE
  8
LC-004-005-----0
  6
CONTINUOUS
  5
160
 10
378.7282
 20
296.703814
 30
0.0
 11
382.2282
 21
300.203814
 31
0.0
  0
LINE
  8
LC-004-005-----0
  6
CONTINUOUS
  5
161
 10
378.7282
 20
299.532241
 30
0.0
 11
382.2282
 21
303.032241
 31
0.0
  0
LINE
  8
LC-004-005-----0
  6
CONTINUOUS
  5
162
 10
384.065659
 20
304.869699
 30
0.0
 11
385.7282
 21
306.532241
 31
0.0
  0
LINE
  8
LC-004-005-----0
  6
CONTINUOUS
  5
163
 10
378.7282
 20
302.360668
 30
0.0
 11
384.509309
 21
308.141777
 31
0.0
  0
LINE
  8
LC-004-005-----0
  6
CONTINUOUS
  5
164
 10
378.7282
 20
305.189095
 30
0.0
 11
382.441762
 21
308.902657
 31
0.0
  0
LINE
  8
LC-004-005-----0
  6
CONTINUOUS
  5
165
 10
388.081083
 20
314.541978
 30
0.0
 11
389.7282
 21
316.189095
 31
0.0
  0
LINE
  8
LC-004-005-----0
  6
CONTINUOUS
  5
166
 10
378.7282
 20
308.017522
 30
0.0
 11
382.2282
 21
311.517522
 31
0.0
  0
LINE
  8
LC-004-005-----0
  6
CONTINUOUS
  5
167
 10
385.252656
 20
314.541978
 30
0.0
 11
389.7282
 21
319.017522
 31
0.0
  0
LINE
  8
LC-004-005-----0
  6
CONTINUOUS
  5
168
 10
378.7282
 20
310.845949
 30
0.0
 11
384.924229
 21
317.041978
 31
0.0
  0
LINE
  8
LC-004-005-----0
  6
CONTINUOUS
  5
169
 10
386.7282
 20
318.845949
 30
0.0
 11
389.7282
 21
321.845949
 31
0.0
  0
LINE
  8
LC-004-005-----0
  6
CONTINUOUS
  5
16A
 10
378.7282
 20
313.674376
 30
0.0
 11
382.095802
 21
317.041978
 31
0.0
  0
LINE
  8
LC-004-005-----0
  6
CONTINUOUS
  5
16B
 10
386.7282
 20
321.674376
 30
0.0
 11
389.7282
 21
324.674376
 31
0.0
  0
LINE
  8
LC-004-005-----0
  6
CONTINUOUS
  5
16C
 10
386.7282
 20
324.502804
 30
0.0
 11
389.7282
 21
327.502804
 31
0.0
  0
LINE
  8
LC-004-005-----0
  6
CONTINUOUS
  5
16D
 10
386.7282
 20
327.331231
 30
0.0
 11
389.7282
 21
330.331231
 31
0.0
  0
LINE
  8
LC-004-005-----0
  6
CONTINUOUS
  5
16E
 10
386.7282
 20
330.159658
 30
0.0
 11
389.7282
 21
333.159658
 31
0.0
  0
LINE
  8
LC-004-005-----0
  6
CONTINUOUS
  5
16F
 10
392.110521
 20
335.541978
 30
0.0
 11
392.2282
 21
335.659658
 31
0.0
  0
LINE
  8
LC-004-005-----0
  6
CONTINUOUS
  5
170
 10
386.7282
 20
332.988085
 30
0.0
 11
391.255147
 21
337.515031
 31
0.0
  0
LINE
  8
LC-004-005-----0
  6
CONTINUOUS
  5
171
 10
386.7282
 20
335.816512
 30
0.0
 11
389.453666
 21
338.541978
 31
0.0
  0
ENDBLK
  8
0
  5
172
  0
BLOCK
  8
0
  5
174
  2
*X25
 70
    65
 10
189.727278
 20
219.048864
 30
0.0
  3
*X25
  0
LINE
  8
LC-004-005-----0
  6
CONTINUOUS
  5
175
 10
194.211169
 20
221.567618
 30
0.0
 11
192.246032
 21
223.532756
 31
0.0
  0
LINE
  8
LC-004-005-----0
  6
DASHED
  5
176
 10
193.397017
 20
219.553344
 30
0.0
 11
190.231757
 21
222.718603
 31
0.0
  0
LINE
  8
LC-004-005-----0
  6
DASHED
  5
177
 10
192.439329
 20
219.096818
 30
0.0
 11
189.775231
 21
221.760916
 31
0.0
  0
ENDBLK
  8
0
  5
178
  0
BLOCK
  8
0
  5
17A
  2
*X26
 70
    65
 10
202.9282
 20
170.343379
 30
0.0
  3
*X26
  0
LINE
  8
LC-004-005-----0
  6
DASHED
  5
17B
 10
206.494858
 20
171.100164
 30
0.0
 11
203.684985
 21
173.910036
 31
0.0
  0
LINE
  8
LC-004-005-----0
  6
DASHED
  5
17C
 10
205.687634
 20
170.493174
 30
0.0
 11
203.077995
 21
173.102813
 31
0.0
  0
ENDBLK
  8
0
  5
17D
  0
BLOCK
  8
0
  5
17F
  2
*X27
 70
    65
 10
382.229123
 20
219.048864
 30
0.0
  3
*X27
  0
LINE
  8
LC-004-005-----0
  6
CONTINUOUS
  5
180
 10
386.727499
 20
221.384333
 30
0.0
 11
384.564592
 21
223.54724
 31
0.0
  0
LINE
  8
LC-004-005-----0
  6
DASHED
  5
181
 10
385.803486
 20
219.479919
 30
0.0
 11
382.660178
 21
222.623227
 31
0.0
  0
LINE
  8
LC-004-005-----0
  6
DASHED
  5
182
 10
384.797664
 20
219.071527
 30
0.0
 11
382.251786
 21
221.617405
 31
0.0
  0
ENDBLK
  8
0
  5
183
  0
BLOCK
  8
0
  5
185
  2
*X28
 70
    65
 10
369.5282
 20
170.343379
 30
0.0
  3
*X28
  0
LINE
  8
LC-004-005-----0
  6
DASHED
  5
186
 10
373.210479
 20
171.261742
 30
0.0
 11
370.446564
 21
174.025658
 31
0.0
  0
LINE
  8
LC-004-005-----0
  6
DASHED
  5
187
 10
372.475861
 20
170.582147
 30
0.0
 11
369.766968
 21
173.29104
 31
0.0
  0
ENDBLK
  8
0
  5
188
  0
BLOCK
  8
0
  5
18A
  2
*X29
 70
    65
 10
200.2282
 20
64.903817
 30
0.0
  3
*X29
  0
LINE
  8
LC-004-005-----0
  6
CONTINUOUS
  5
18B
 10
205.7282
 20
181.766316
 30
0.0
 11
205.151137
 21
182.343379
 31
0.0
  0
LINE
  8
LC-004-005-----0
  6
CONTINUOUS
  5
18C
 10
209.4782
 20
175.187889
 30
0.0
 11
207.134825
 21
177.531264
 31
0.0
  0
LINE
  8
LC-004-005-----0
  6
CONTINUOUS
  5
18D
 10
205.7282
 20
178.937889
 30
0.0
 11
202.32271
 21
182.343379
 31
0.0
  0
LINE
  8
LC-004-005-----0
  6
CONTINUOUS
  5
18E
 10
209.4782
 20
172.359462
 30
0.0
 11
207.4282
 21
174.409462
 31
0.0
  0
LINE
  8
LC-004-005-----0
  6
CONTINUOUS
  5
18F
 10
207.323726
 20
174.513935
 30
0.0
 11
204.2282
 21
177.609462
 31
0.0
  0
LINE
  8
LC-004-005-----0
  6
CONTINUOUS
  5
190
 10
202.494283
 20
179.343379
 30
0.0
 11
200.2282
 21
181.609462
 31
0.0
  0
LINE
  8
LC-004-005-----0
  6
CONTINUOUS
  5
191
 10
209.4782
 20
169.531034
 30
0.0
 11
206.978247
 21
172.030988
 31
0.0
  0
LINE
  8
LC-004-005-----0
  6
CONTINUOUS
  5
192
 10
209.642218
 20
166.538589
 30
0.0
 11
206.286034
 21
169.894774
 31
0.0
  0
LINE
  8
LC-004-005-----0
  6
CONTINUOUS
  5
193
 10
308.290632
 20
65.061748
 30
0.0
 11
304.755098
 21
68.597282
 31
0.0
  0
LINE
  8
LC-004-005-----0
  6
CONTINUOUS
  5
194
 10
209.913399
 20
163.438982
 30
0.0
 11
207.163242
 21
166.189139
 31
0.0
  0
LINE
  8
LC-004-005-----0
  6
CONTINUOUS
  5
195
 10
206.727677
 20
166.624703
 30
0.0
 11
204.2282
 21
169.12418
 31
0.0
  0
LINE
  8
LC-004-005-----0
  6
CONTINUOUS
  5
196
 10
304.426929
 20
66.097025
 30
0.0
 11
300.891395
 21
69.632558
 31
0.0
  0
LINE
  8
LC-004-005-----0
  6
CONTINUOUS
  5
197
 10
210.184579
 20
160.339374
 30
0.0
 11
207.434422
 21
163.089531
 31
0.0
  0
LINE
  8
LC-004-005-----0
  6
CONTINUOUS
  5
198
 10
300.563226
 20
67.132301
 30
0.0
 11
297.027692
 21
70.667835
 31
0.0
  0
LINE
  8
LC-004-005-----0
  6
CONTINUOUS
  5
199
 10
210.45576
 20
157.239766
 30
0.0
 11
207.705603
 21
159.989924
 31
0.0
  0
LINE
  8
LC-004-005-----0
  6
CONTINUOUS
  5
19A
 10
296.699522
 20
68.167577
 30
0.0
 11
293.163988
 21
71.703111
 31
0.0
  0
LINE
  8
LC-004-005-----0
  6
CONTINUOUS
  5
19B
 10
210.72694
 20
154.140159
 30
0.0
 11
207.976783
 21
156.890316
 31
0.0
  0
LINE
  8
LC-004-005-----0
  6
CONTINUOUS
  5
19C
 10
292.835819
 20
69.202853
 30
0.0
 11
289.300285
 21
72.738387
 31
0.0
  0
LINE
  8
LC-004-005-----0
  6
CONTINUOUS
  5
19D
 10
210.998121
 20
151.040551
 30
0.0
 11
208.247964
 21
153.790708
 31
0.0
  0
LINE
  8
LC-004-005-----0
  6
CONTINUOUS
  5
19E
 10
288.972116
 20
70.238129
 30
0.0
 11
285.436582
 21
73.773663
 31
0.0
  0
LINE
  8
LC-004-005-----0
  6
CONTINUOUS
  5
19F
 10
211.269301
 20
147.940943
 30
0.0
 11
208.519144
 21
150.691101
 31
0.0
  0
LINE
  8
LC-004-005-----0
  6
CONTINUOUS
  5
1A0
 10
285.108412
 20
71.273405
 30
0.0
 11
281.572878
 21
74.808939
 31
0.0
  0
LINE
  8
LC-004-005-----0
  6
CONTINUOUS
  5
1A1
 10
211.540482
 20
144.841336
 30
0.0
 11
208.790325
 21
147.591493
 31
0.0
  0
LINE
  8
LC-004-005-----0
  6
CONTINUOUS
  5
1A2
 10
281.244709
 20
72.308682
 30
0.0
 11
277.709175
 21
75.844216
 31
0.0
  0
LINE
  8
LC-004-005-----0
  6
CONTINUOUS
  5
1A3
 10
211.811662
 20
141.741728
 30
0.0
 11
209.061505
 21
144.491885
 31
0.0
  0
LINE
  8
LC-004-005-----0
  6
CONTINUOUS
  5
1A4
 10
277.381006
 20
73.343958
 30
0.0
 11
273.845472
 21
76.879492
 31
0.0
  0
LINE
  8
LC-004-005-----0
  6
CONTINUOUS
  5
1A5
 10
212.082843
 20
138.642121
 30
0.0
 11
209.332686
 21
141.392278
 31
0.0
  0
LINE
  8
LC-004-005-----0
  6
CONTINUOUS
  5
1A6
 10
273.517302
 20
74.379234
 30
0.0
 11
269.981768
 21
77.914768
 31
0.0
  0
LINE
  8
LC-004-005-----0
  6
CONTINUOUS
  5
1A7
 10
212.354023
 20
135.542513
 30
0.0
 11
209.603866
 21
138.29267
 31
0.0
  0
LINE
  8
LC-004-005-----0
  6
CONTINUOUS
  5
1A8
 10
269.653599
 20
75.41451
 30
0.0
 11
266.118065
 21
78.950044
 31
0.0
  0
LINE
  8
LC-004-005-----0
  6
CONTINUOUS
  5
1A9
 10
212.625204
 20
132.442905
 30
0.0
 11
209.875047
 21
135.193062
 31
0.0
  0
LINE
  8
LC-004-005-----0
  6
CONTINUOUS
  5
1AA
 10
265.789896
 20
76.449786
 30
0.0
 11
262.254362
 21
79.98532
 31
0.0
  0
LINE
  8
LC-004-005-----0
  6
CONTINUOUS
  5
1AB
 10
212.896385
 20
129.343298
 30
0.0
 11
210.146227
 21
132.093455
 31
0.0
  0
LINE
  8
LC-004-005-----0
  6
CONTINUOUS
  5
1AC
 10
261.926192
 20
77.485063
 30
0.0
 11
258.390659
 21
81.020596
 31
0.0
  0
LINE
  8
LC-004-005-----0
  6
CONTINUOUS
  5
1AD
 10
213.167565
 20
126.24369
 30
0.0
 11
210.417408
 21
128.993847
 31
0.0
  0
LINE
  8
LC-004-005-----0
  6
CONTINUOUS
  5
1AE
 10
258.062489
 20
78.520339
 30
0.0
 11
254.526955
 21
82.055873
 31
0.0
  0
LINE
  8
LC-004-005-----0
  6
CONTINUOUS
  5
1AF
 10
213.438746
 20
123.144082
 30
0.0
 11
210.688588
 21
125.894239
 31
0.0
  0
LINE
  8
LC-004-005-----0
  6
CONTINUOUS
  5
1B0
 10
254.198786
 20
79.555615
 30
0.0
 11
250.663252
 21
83.091149
 31
0.0
  0
LINE
  8
LC-004-005-----0
  6
CONTINUOUS
  5
1B1
 10
213.709926
 20
120.044475
 30
0.0
 11
210.959769
 21
122.794632
 31
0.0
  0
LINE
  8
LC-004-005-----0
  6
CONTINUOUS
  5
1B2
 10
250.335083
 20
80.590891
 30
0.0
 11
246.799549
 21
84.126425
 31
0.0
  0
LINE
  8
LC-004-005-----0
  6
CONTINUOUS
  5
1B3
 10
213.981107
 20
116.944867
 30
0.0
 11
211.230949
 21
119.695024
 31
0.0
  0
LINE
  8
LC-004-005-----0
  6
CONTINUOUS
  5
1B4
 10
246.471379
 20
81.626167
 30
0.0
 11
242.935845
 21
85.161701
 31
0.0
  0
LINE
  8
LC-004-005-----0
  6
CONTINUOUS
  5
1B5
 10
214.252287
 20
113.845259
 30
0.0
 11
211.50213
 21
116.595416
 31
0.0
  0
LINE
  8
LC-004-005-----0
  6
CONTINUOUS
  5
1B6
 10
242.607676
 20
82.661443
 30
0.0
 11
239.072142
 21
86.196977
 31
0.0
  0
LINE
  8
LC-004-005-----0
  6
CONTINUOUS
  5
1B7
 10
214.523468
 20
110.745652
 30
0.0
 11
211.773311
 21
113.495809
 31
0.0
  0
LINE
  8
LC-004-005-----0
  6
CONTINUOUS
  5
1B8
 10
238.743973
 20
83.69672
 30
0.0
 11
235.208439
 21
87.232253
 31
0.0
  0
LINE
  8
LC-004-005-----0
  6
CONTINUOUS
  5
1B9
 10
214.794648
 20
107.646044
 30
0.0
 11
212.044491
 21
110.396201
 31
0.0
  0
LINE
  8
LC-004-005-----0
  6
CONTINUOUS
  5
1BA
 10
234.880269
 20
84.731996
 30
0.0
 11
231.344735
 21
88.26753
 31
0.0
  0
LINE
  8
LC-004-005-----0
  6
CONTINUOUS
  5
1BB
 10
215.065829
 20
104.546436
 30
0.0
 11
212.315672
 21
107.296593
 31
0.0
  0
LINE
  8
LC-004-005-----0
  6
CONTINUOUS
  5
1BC
 10
231.016566
 20
85.767272
 30
0.0
 11
227.481032
 21
89.302806
 31
0.0
  0
LINE
  8
LC-004-005-----0
  6
CONTINUOUS
  5
1BD
 10
215.337009
 20
101.446829
 30
0.0
 11
212.586852
 21
104.196986
 31
0.0
  0
LINE
  8
LC-004-005-----0
  6
CONTINUOUS
  5
1BE
 10
227.152863
 20
86.802548
 30
0.0
 11
223.617329
 21
90.338082
 31
0.0
  0
LINE
  8
LC-004-005-----0
  6
CONTINUOUS
  5
1BF
 10
215.667833
 20
98.287578
 30
0.0
 11
212.858033
 21
101.097378
 31
0.0
  0
LINE
  8
LC-004-005-----0
  6
CONTINUOUS
  5
1C0
 10
223.289159
 20
87.837824
 30
0.0
 11
213.189903
 21
97.937081
 31
0.0
  0
LINE
  8
LC-004-005-----0
  6
CONTINUOUS
  5
1C1
 10
218.420069
 20
89.878487
 30
0.0
 11
215.173254
 21
93.125302
 31
0.0
  0
ENDBLK
  8
0
  5
1C2
  0
BLOCK
  8
0
  5
1C4
  2
*X30
 70
    65
 10
277.157457
 20
144.651705
 30
0.0
  3
*X30
  0
LINE
  8
LC-004-005-----0
  6
CONTINUOUS
  5
1C5
 10
376.2282
 20
180.971943
 30
0.0
 11
374.856764
 21
182.343379
 31
0.0
  0
LINE
  8
LC-004-005-----0
  6
CONTINUOUS
  5
1C6
 10
375.028337
 20
179.343379
 30
0.0
 11
372.028337
 21
182.343379
 31
0.0
  0
LINE
  8
LC-004-005-----0
  6
CONTINUOUS
  5
1C7
 10
372.2282
 20
179.315089
 30
0.0
 11
370.7282
 21
180.815089
 31
0.0
  0
LINE
  8
LC-004-005-----0
  6
CONTINUOUS
  5
1C8
 10
372.2282
 20
176.486662
 30
0.0
 11
370.502051
 21
178.212812
 31
0.0
  0
LINE
  8
LC-004-005-----0
  6
CONTINUOUS
  5
1C9
 10
370.899169
 20
174.987266
 30
0.0
 11
368.7089
 21
177.177535
 31
0.0
  0
LINE
  8
LC-004-005-----0
  6
CONTINUOUS
  5
1CA
 10
369.0282
 20
174.029808
 30
0.0
 11
366.9782
 21
176.079808
 31
0.0
  0
LINE
  8
LC-004-005-----0
  6
CONTINUOUS
  5
1CB
 10
372.2282
 20
168.001381
 30
0.0
 11
370.394996
 21
169.834585
 31
0.0
  0
LINE
  8
LC-004-005-----0
  6
CONTINUOUS
  5
1CC
 10
369.0282
 20
171.201381
 30
0.0
 11
366.9782
 21
173.251381
 31
0.0
  0
LINE
  8
LC-004-005-----0
  6
CONTINUOUS
  5
1CD
 10
370.692161
 20
166.708993
 30
0.0
 11
366.9782
 21
170.422953
 31
0.0
  0
LINE
  8
LC-004-005-----0
  6
CONTINUOUS
  5
1CE
 10
368.244803
 20
166.327924
 30
0.0
 11
365.937147
 21
168.63558
 31
0.0
  0
LINE
  8
LC-004-005-----0
  6
CONTINUOUS
  5
1CF
 10
365.643923
 20
166.100377
 30
0.0
 11
363.336267
 21
168.408032
 31
0.0
  0
LINE
  8
LC-004-005-----0
  6
CONTINUOUS
  5
1D0
 10
363.043043
 20
165.872829
 30
0.0
 11
360.735387
 21
168.180485
 31
0.0
  0
LINE
  8
LC-004-005-----0
  6
CONTINUOUS
  5
1D1
 10
360.442164
 20
165.645282
 30
0.0
 11
358.134508
 21
167.952937
 31
0.0
  0
LINE
  8
LC-004-005-----0
  6
CONTINUOUS
  5
1D2
 10
357.841284
 20
165.417734
 30
0.0
 11
355.533628
 21
167.72539
 31
0.0
  0
LINE
  8
LC-004-005-----0
  6
CONTINUOUS
  5
1D3
 10
355.240404
 20
165.190187
 30
0.0
 11
352.932748
 21
167.497842
 31
0.0
  0
LINE
  8
LC-004-005-----0
  6
CONTINUOUS
  5
1D4
 10
352.639525
 20
164.962639
 30
0.0
 11
350.331869
 21
167.270295
 31
0.0
  0
LINE
  8
LC-004-005-----0
  6
CONTINUOUS
  5
1D5
 10
350.038645
 20
164.735092
 30
0.0
 11
347.730989
 21
167.042748
 31
0.0
  0
LINE
  8
LC-004-005-----0
  6
CONTINUOUS
  5
1D6
 10
347.437765
 20
164.507544
 30
0.0
 11
345.13011
 21
166.8152
 31
0.0
  0
LINE
  8
LC-004-005-----0
  6
CONTINUOUS
  5
1D7
 10
344.836886
 20
164.279997
 30
0.0
 11
342.52923
 21
166.587653
 31
0.0
  0
LINE
  8
LC-004-005-----0
  6
CONTINUOUS
  5
1D8
 10
342.236006
 20
164.052449
 30
0.0
 11
339.92835
 21
166.360105
 31
0.0
  0
LINE
  8
LC-004-005-----0
  6
CONTINUOUS
  5
1D9
 10
339.635126
 20
163.824902
 30
0.0
 11
337.327471
 21
166.132558
 31
0.0
  0
LINE
  8
LC-004-005-----0
  6
CONTINUOUS
  5
1DA
 10
337.034247
 20
163.597354
 30
0.0
 11
334.726591
 21
165.90501
 31
0.0
  0
LINE
  8
LC-004-005-----0
  6
CONTINUOUS
  5
1DB
 10
334.433367
 20
163.369807
 30
0.0
 11
332.125711
 21
165.677463
 31
0.0
  0
LINE
  8
LC-004-005-----0
  6
CONTINUOUS
  5
1DC
 10
331.832488
 20
163.142259
 30
0.0
 11
329.524832
 21
165.449915
 31
0.0
  0
LINE
  8
LC-004-005-----0
  6
CONTINUOUS
  5
1DD
 10
329.231608
 20
162.914712
 30
0.0
 11
326.923952
 21
165.222368
 31
0.0
  0
LINE
  8
LC-004-005-----0
  6
CONTINUOUS
  5
1DE
 10
326.630728
 20
162.687164
 30
0.0
 11
324.323072
 21
164.99482
 31
0.0
  0
LINE
  8
LC-004-005-----0
  6
CONTINUOUS
  5
1DF
 10
324.029849
 20
162.459617
 30
0.0
 11
321.722193
 21
164.767273
 31
0.0
  0
LINE
  8
LC-004-005-----0
  6
CONTINUOUS
  5
1E0
 10
321.428969
 20
162.232069
 30
0.0
 11
319.121313
 21
164.539725
 31
0.0
  0
LINE
  8
LC-004-005-----0
  6
CONTINUOUS
  5
1E1
 10
318.828089
 20
162.004522
 30
0.0
 11
316.520433
 21
164.312178
 31
0.0
  0
LINE
  8
LC-004-005-----0
  6
CONTINUOUS
  5
1E2
 10
316.22721
 20
161.776974
 30
0.0
 11
313.919554
 21
164.08463
 31
0.0
  0
LINE
  8
LC-004-005-----0
  6
CONTINUOUS
  5
1E3
 10
313.62633
 20
161.549427
 30
0.0
 11
311.318674
 21
163.857083
 31
0.0
  0
LINE
  8
LC-004-005-----0
  6
CONTINUOUS
  5
1E4
 10
311.02545
 20
161.321879
 30
0.0
 11
308.717795
 21
163.629535
 31
0.0
  0
LINE
  8
LC-004-005-----0
  6
CONTINUOUS
  5
1E5
 10
308.424571
 20
161.094332
 30
0.0
 11
306.116915
 21
163.401988
 31
0.0
  0
LINE
  8
LC-004-005-----0
  6
CONTINUOUS
  5
1E6
 10
305.823691
 20
160.866784
 30
0.0
 11
303.516035
 21
163.17444
 31
0.0
  0
LINE
  8
LC-004-005-----0
  6
CONTINUOUS
  5
1E7
 10
303.222812
 20
160.639237
 30
0.0
 11
300.915156
 21
162.946893
 31
0.0
  0
LINE
  8
LC-004-005-----0
  6
CONTINUOUS
  5
1E8
 10
300.621932
 20
160.411689
 30
0.0
 11
298.314276
 21
162.719345
 31
0.0
  0
LINE
  8
LC-004-005-----0
  6
CONTINUOUS
  5
1E9
 10
298.021052
 20
160.184142
 30
0.0
 11
295.713396
 21
162.491798
 31
0.0
  0
LINE
  8
LC-004-005-----0
  6
CONTINUOUS
  5
1EA
 10
295.420173
 20
159.956594
 30
0.0
 11
293.112517
 21
162.26425
 31
0.0
  0
LINE
  8
LC-004-005-----0
  6
CONTINUOUS
  5
1EB
 10
292.819293
 20
159.729047
 30
0.0
 11
290.511637
 21
162.036703
 31
0.0
  0
LINE
  8
LC-004-005-----0
  6
CONTINUOUS
  5
1EC
 10
290.218413
 20
159.5015
 30
0.0
 11
287.910757
 21
161.809155
 31
0.0
  0
LINE
  8
LC-004-005-----0
  6
CONTINUOUS
  5
1ED
 10
287.617534
 20
159.273952
 30
0.0
 11
285.343631
 21
161.547854
 31
0.0
  0
LINE
  8
LC-004-005-----0
  6
CONTINUOUS
  5
1EE
 10
285.144232
 20
158.918827
 30
0.0
 11
283.245099
 21
160.817959
 31
0.0
  0
LINE
  8
LC-004-005-----0
  6
CONTINUOUS
  5
1EF
 10
283.362405
 20
157.872226
 30
0.0
 11
281.593382
 21
159.64125
 31
0.0
  0
LINE
  8
LC-004-005-----0
  6
CONTINUOUS
  5
1F0
 10
282.173165
 20
156.23304
 30
0.0
 11
280.32633
 21
158.079874
 31
0.0
  0
LINE
  8
LC-004-005-----0
  6
CONTINUOUS
  5
1F1
 10
281.52205
 20
154.055727
 30
0.0
 11
279.480808
 21
156.096969
 31
0.0
  0
LINE
  8
LC-004-005-----0
  6
CONTINUOUS
  5
1F2
 10
287.29717
 20
145.45218
 30
0.0
 11
284.776598
 21
147.972752
 31
0.0
  0
LINE
  8
LC-004-005-----0
  6
CONTINUOUS
  5
1F3
 10
280.924333
 20
151.825017
 30
0.0
 11
278.883091
 21
153.866259
 31
0.0
  0
LINE
  8
LC-004-005-----0
  6
CONTINUOUS
  5
1F4
 10
284.448429
 20
145.472494
 30
0.0
 11
280.912895
 21
149.008028
 31
0.0
  0
LINE
  8
LC-004-005-----0
  6
CONTINUOUS
  5
1F5
 10
280.326616
 20
149.594307
 30
0.0
 11
278.285375
 21
151.635548
 31
0.0
  0
LINE
  8
LC-004-005-----0
  6
CONTINUOUS
  5
1F6
 10
280.584725
 20
146.507771
 30
0.0
 11
277.687658
 21
149.404838
 31
0.0
  0
ENDBLK
  8
0
  5
1F7
  0
BLOCK
  8
0
  5
1F9
  2
*X31
 70
    65
 10
286.55225
 20
63.230785
 30
0.0
  3
*X31
  0
LINE
  8
LC-004-005-----0
  6
CONTINUOUS
  5
1FA
 10
309.323174
 20
63.250014
 30
0.0
 11
311.772664
 21
65.699504
 31
0.0
  0
LINE
  8
LC-004-005-----0
  6
CONTINUOUS
  5
1FB
 10
308.725457
 20
65.480724
 30
0.0
 11
311.174947
 21
67.930214
 31
0.0
  0
LINE
  8
LC-004-005-----0
  6
CONTINUOUS
  5
1FC
 10
308.12774
 20
67.711434
 30
0.0
 11
310.57723
 21
70.160924
 31
0.0
  0
LINE
  8
LC-004-005-----0
  6
CONTINUOUS
  5
1FD
 10
307.530023
 20
69.942144
 30
0.0
 11
309.979513
 21
72.391634
 31
0.0
  0
LINE
  8
LC-004-005-----0
  6
CONTINUOUS
  5
1FE
 10
306.932306
 20
72.172855
 30
0.0
 11
309.381796
 21
74.622344
 31
0.0
  0
LINE
  8
LC-004-005-----0
  6
CONTINUOUS
  5
1FF
 10
306.334589
 20
74.403565
 30
0.0
 11
308.784079
 21
76.853054
 31
0.0
  0
LINE
  8
LC-004-005-----0
  6
CONTINUOUS
  5
200
 10
305.736872
 20
76.634275
 30
0.0
 11
308.186362
 21
79.083765
 31
0.0
  0
LINE
  8
LC-004-005-----0
  6
CONTINUOUS
  5
201
 10
305.139155
 20
78.864985
 30
0.0
 11
307.588645
 21
81.314475
 31
0.0
  0
LINE
  8
LC-004-005-----0
  6
CONTINUOUS
  5
202
 10
304.541438
 20
81.095695
 30
0.0
 11
306.990928
 21
83.545185
 31
0.0
  0
LINE
  8
LC-004-005-----0
  6
CONTINUOUS
  5
203
 10
303.943721
 20
83.326405
 30
0.0
 11
306.393211
 21
85.775895
 31
0.0
  0
LINE
  8
LC-004-005-----0
  6
CONTINUOUS
  5
204
 10
303.346004
 20
85.557115
 30
0.0
 11
305.795494
 21
88.006605
 31
0.0
  0
LINE
  8
LC-004-005-----0
  6
CONTINUOUS
  5
205
 10
302.748287
 20
87.787826
 30
0.0
 11
305.197777
 21
90.237315
 31
0.0
  0
LINE
  8
LC-004-005-----0
  6
CONTINUOUS
  5
206
 10
302.15057
 20
90.018536
 30
0.0
 11
304.60006
 21
92.468025
 31
0.0
  0
LINE
  8
LC-004-005-----0
  6
CONTINUOUS
  5
207
 10
301.552853
 20
92.249246
 30
0.0
 11
304.002343
 21
94.698736
 31
0.0
  0
LINE
  8
LC-004-005-----0
  6
CONTINUOUS
  5
208
 10
300.955136
 20
94.479956
 30
0.0
 11
303.404626
 21
96.929446
 31
0.0
  0
LINE
  8
LC-004-005-----0
  6
CONTINUOUS
  5
209
 10
300.357419
 20
96.710666
 30
0.0
 11
302.806909
 21
99.160156
 31
0.0
  0
LINE
  8
LC-004-005-----0
  6
CONTINUOUS
  5
20A
 10
299.759702
 20
98.941376
 30
0.0
 11
302.209192
 21
101.390866
 31
0.0
  0
LINE
  8
LC-004-005-----0
  6
CONTINUOUS
  5
20B
 10
299.161985
 20
101.172086
 30
0.0
 11
301.611475
 21
103.621576
 31
0.0
  0
LINE
  8
LC-004-005-----0
  6
CONTINUOUS
  5
20C
 10
298.564268
 20
103.402797
 30
0.0
 11
301.013758
 21
105.852286
 31
0.0
  0
LINE
  8
LC-004-005-----0
  6
CONTINUOUS
  5
20D
 10
297.966551
 20
105.633507
 30
0.0
 11
300.416041
 21
108.082996
 31
0.0
  0
LINE
  8
LC-004-005-----0
  6
CONTINUOUS
  5
20E
 10
297.368834
 20
107.864217
 30
0.0
 11
299.818324
 21
110.313707
 31
0.0
  0
LINE
  8
LC-004-005-----0
  6
CONTINUOUS
  5
20F
 10
296.771117
 20
110.094927
 30
0.0
 11
299.220607
 21
112.544417
 31
0.0
  0
LINE
  8
LC-004-005-----0
  6
CONTINUOUS
  5
210
 10
296.1734
 20
112.325637
 30
0.0
 11
298.62289
 21
114.775127
 31
0.0
  0
LINE
  8
LC-004-005-----0
  6
CONTINUOUS
  5
211
 10
295.575683
 20
114.556347
 30
0.0
 11
298.025173
 21
117.005837
 31
0.0
  0
LINE
  8
LC-004-005-----0
  6
CONTINUOUS
  5
212
 10
294.977966
 20
116.787057
 30
0.0
 11
297.427456
 21
119.236547
 31
0.0
  0
LINE
  8
LC-004-005-----0
  6
CONTINUOUS
  5
213
 10
294.380249
 20
119.017768
 30
0.0
 11
296.829739
 21
121.467257
 31
0.0
  0
LINE
  8
LC-004-005-----0
  6
CONTINUOUS
  5
214
 10
293.782532
 20
121.248478
 30
0.0
 11
296.232022
 21
123.697967
 31
0.0
  0
LINE
  8
LC-004-005-----0
  6
CONTINUOUS
  5
215
 10
293.184815
 20
123.479188
 30
0.0
 11
295.634305
 21
125.928678
 31
0.0
  0
LINE
  8
LC-004-005-----0
  6
CONTINUOUS
  5
216
 10
292.587098
 20
125.709898
 30
0.0
 11
295.036588
 21
128.159388
 31
0.0
  0
LINE
  8
LC-004-005-----0
  6
CONTINUOUS
  5
217
 10
291.989381
 20
127.940608
 30
0.0
 11
294.438871
 21
130.390098
 31
0.0
  0
LINE
  8
LC-004-005-----0
  6
CONTINUOUS
  5
218
 10
291.391664
 20
130.171318
 30
0.0
 11
293.841154
 21
132.620808
 31
0.0
  0
LINE
  8
LC-004-005-----0
  6
CONTINUOUS
  5
219
 10
290.793947
 20
132.402028
 30
0.0
 11
293.243437
 21
134.851518
 31
0.0
  0
LINE
  8
LC-004-005-----0
  6
CONTINUOUS
  5
21A
 10
290.19623
 20
134.632739
 30
0.0
 11
292.64572
 21
137.082228
 31
0.0
  0
LINE
  8
LC-004-005-----0
  6
CONTINUOUS
  5
21B
 10
289.598513
 20
136.863449
 30
0.0
 11
292.048003
 21
139.312938
 31
0.0
  0
LINE
  8
LC-004-005-----0
  6
CONTINUOUS
  5
21C
 10
289.000796
 20
139.094159
 30
0.0
 11
291.450286
 21
141.543649
 31
0.0
  0
LINE
  8
LC-004-005-----0
  6
CONTINUOUS
  5
21D
 10
288.40308
 20
141.324869
 30
0.0
 11
290.852569
 21
143.774359
 31
0.0
  0
LINE
  8
LC-004-005-----0
  6
CONTINUOUS
  5
21E
 10
287.805363
 20
143.555579
 30
0.0
 11
290.254852
 21
146.005069
 31
0.0
  0
LINE
  8
LC-004-005-----0
  6
CONTINUOUS
  5
21F
 10
287.207646
 20
145.786289
 30
0.0
 11
289.657135
 21
148.235779
 31
0.0
  0
LINE
  8
LC-004-005-----0
  6
CONTINUOUS
  5
220
 10
286.609929
 20
148.016999
 30
0.0
 11
286.925088
 21
148.332159
 31
0.0
  0
ENDBLK
  8
0
  5
221
  0
BLOCK
  8
0
  5
223
  2
BLK15
 70
    64
 10
0.0
 20
0.0
 30
0.0
  3
BLK15
  0
ENDBLK
  8
0
  5
224
  0
BLOCK
  8
0
  5
226
  2
*X33
 70
    65
 10
223.225941
 20
332.541978
 30
0.0
  3
*X33
  0
LINE
  8
LC-004-005-----0
  6
CONTINUOUS
  5
227
 10
353.051431
 20
365.369059
 30
0.0
 11
352.05754
 21
366.36295
 31
0.0
  0
LINE
  8
LC-004-005-----0
  6
CONTINUOUS
  5
228
 10
352.983639
 20
359.779996
 30
0.0
 11
346.221657
 21
366.541978
 31
0.0
  0
LINE
  8
LC-004-005-----0
  6
CONTINUOUS
  5
229
 10
352.842789
 20
357.092419
 30
0.0
 11
343.39323
 21
366.541978
 31
0.0
  0
LINE
  8
LC-004-005-----0
  6
CONTINUOUS
  5
22A
 10
352.561089
 20
351.717265
 30
0.0
 11
337.736376
 21
366.541978
 31
0.0
  0
LINE
  8
LC-004-005-----0
  6
CONTINUOUS
  5
22B
 10
352.420239
 20
349.029688
 30
0.0
 11
334.907949
 21
366.541978
 31
0.0
  0
LINE
  8
LC-004-005-----0
  6
CONTINUOUS
  5
22C
 10
350.391935
 20
345.401138
 30
0.0
 11
329.251095
 21
366.541978
 31
0.0
  0
LINE
  8
LC-004-005-----0
  6
CONTINUOUS
  5
22D
 10
348.684035
 20
344.280611
 30
0.0
 11
326.422668
 21
366.541978
 31
0.0
  0
LINE
  8
LC-004-005-----0
  6
CONTINUOUS
  5
22E
 10
344.08821
 20
343.219581
 30
0.0
 11
320.765813
 21
366.541978
 31
0.0
  0
LINE
  8
LC-004-005-----0
  6
CONTINUOUS
  5
22F
 10
341.790298
 20
342.689066
 30
0.0
 11
317.937386
 21
366.541978
 31
0.0
  0
LINE
  8
LC-004-005-----0
  6
CONTINUOUS
  5
230
 10
337.194474
 20
341.628036
 30
0.0
 11
312.280532
 21
366.541978
 31
0.0
  0
LINE
  8
LC-004-005-----0
  6
CONTINUOUS
  5
231
 10
334.896561
 20
341.097521
 30
0.0
 11
309.452105
 21
366.541978
 31
0.0
  0
LINE
  8
LC-004-005-----0
  6
CONTINUOUS
  5
232
 10
330.300737
 20
340.036492
 30
0.0
 11
303.795251
 21
366.541978
 31
0.0
  0
LINE
  8
LC-004-005-----0
  6
CONTINUOUS
  5
233
 10
328.002825
 20
339.505977
 30
0.0
 11
300.966823
 21
366.541978
 31
0.0
  0
LINE
  8
LC-004-005-----0
  6
CONTINUOUS
  5
234
 10
323.407
 20
338.444947
 30
0.0
 11
295.309969
 21
366.541978
 31
0.0
  0
LINE
  8
LC-004-005-----0
  6
CONTINUOUS
  5
235
 10
321.109088
 20
337.914432
 30
0.0
 11
292.481542
 21
366.541978
 31
0.0
  0
LINE
  8
LC-004-005-----0
  6
CONTINUOUS
  5
236
 10
316.513263
 20
336.853403
 30
0.0
 11
286.824688
 21
366.541978
 31
0.0
  0
LINE
  8
LC-004-005-----0
  6
CONTINUOUS
  5
237
 10
314.215351
 20
336.322888
 30
0.0
 11
283.996261
 21
366.541978
 31
0.0
  0
LINE
  8
LC-004-005-----0
  6
CONTINUOUS
  5
238
 10
309.619526
 20
335.261858
 30
0.0
 11
278.339406
 21
366.541978
 31
0.0
  0
LINE
  8
LC-004-005-----0
  6
CONTINUOUS
  5
239
 10
307.321614
 20
334.731343
 30
0.0
 11
275.510979
 21
366.541978
 31
0.0
  0
LINE
  8
LC-004-005-----0
  6
CONTINUOUS
  5
23A
 10
302.72579
 20
333.670314
 30
0.0
 11
269.854125
 21
366.541978
 31
0.0
  0
LINE
  8
LC-004-005-----0
  6
CONTINUOUS
  5
23B
 10
300.427877
 20
333.139799
 30
0.0
 11
267.025698
 21
366.541978
 31
0.0
  0
LINE
  8
LC-004-005-----0
  6
CONTINUOUS
  5
23C
 10
295.368844
 20
332.541978
 30
0.0
 11
261.368844
 21
366.541978
 31
0.0
  0
LINE
  8
LC-004-005-----0
  6
CONTINUOUS
  5
23D
 10
292.540417
 20
332.541978
 30
0.0
 11
258.540417
 21
366.541978
 31
0.0
  0
LINE
  8
LC-004-005-----0
  6
CONTINUOUS
  5
23E
 10
286.883562
 20
332.541978
 30
0.0
 11
252.883562
 21
366.541978
 31
0.0
  0
LINE
  8
LC-004-005-----0
  6
CONTINUOUS
  5
23F
 10
284.055135
 20
332.541978
 30
0.0
 11
250.055135
 21
366.541978
 31
0.0
  0
LINE
  8
LC-004-005-----0
  6
CONTINUOUS
  5
240
 10
278.330159
 20
332.6101
 30
0.0
 11
244.398281
 21
366.541978
 31
0.0
  0
LINE
  8
LC-004-005-----0
  6
CONTINUOUS
  5
241
 10
274.65273
 20
333.459101
 30
0.0
 11
241.569854
 21
366.541978
 31
0.0
  0
LINE
  8
LC-004-005-----0
  6
CONTINUOUS
  5
242
 10
267.297874
 20
335.157104
 30
0.0
 11
235.913
 21
366.541978
 31
0.0
  0
LINE
  8
LC-004-005-----0
  6
CONTINUOUS
  5
243
 10
263.620445
 20
336.006105
 30
0.0
 11
233.084572
 21
366.541978
 31
0.0
  0
LINE
  8
LC-004-005-----0
  6
CONTINUOUS
  5
244
 10
256.265589
 20
337.704108
 30
0.0
 11
227.427718
 21
366.541978
 31
0.0
  0
LINE
  8
LC-004-005-----0
  6
CONTINUOUS
  5
245
 10
252.58816
 20
338.553109
 30
0.0
 11
224.6763
 21
366.464969
 31
0.0
  0
LINE
  8
LC-004-005-----0
  6
CONTINUOUS
  5
246
 10
245.233304
 20
340.251111
 30
0.0
 11
223.349337
 21
362.135078
 31
0.0
  0
LINE
  8
LC-004-005-----0
  6
CONTINUOUS
  5
247
 10
241.555875
 20
341.100112
 30
0.0
 11
223.505767
 21
359.150221
 31
0.0
  0
LINE
  8
LC-004-005-----0
  6
CONTINUOUS
  5
248
 10
234.201019
 20
342.798115
 30
0.0
 11
223.818626
 21
353.180507
 31
0.0
  0
LINE
  8
LC-004-005-----0
  6
CONTINUOUS
  5
249
 10
230.52359
 20
343.647116
 30
0.0
 11
223.975056
 21
350.195651
 31
0.0
  0
ENDBLK
  8
0
  5
24A
  0
BLOCK
  8
0
  5
24C
  2
*X34
 70
    65
 10
129.7282
 20
50.343379
 30
0.0
  3
*X34
  0
LINE
  8
LC-004-005-----0
  6
CONTINUOUS
  5
24D
 10
458.2282
 20
53.717109
 30
0.0
 11
457.60193
 21
54.343379
 31
0.0
  0
LINE
  8
LC-004-005-----0
  6
CONTINUOUS
  5
24E
 10
457.707305
 20
51.409577
 30
0.0
 11
454.773503
 21
54.343379
 31
0.0
  0
LINE
  8
LC-004-005-----0
  6
CONTINUOUS
  5
24F
 10
455.476595
 20
50.81186
 30
0.0
 11
451.945076
 21
54.343379
 31
0.0
  0
LINE
  8
LC-004-005-----0
  6
CONTINUOUS
  5
250
 10
453.116649
 20
50.343379
 30
0.0
 11
449.116649
 21
54.343379
 31
0.0
  0
LINE
  8
LC-004-005-----0
  6
CONTINUOUS
  5
251
 10
450.288222
 20
50.343379
 30
0.0
 11
446.288222
 21
54.343379
 31
0.0
  0
LINE
  8
LC-004-005-----0
  6
CONTINUOUS
  5
252
 10
447.459795
 20
50.343379
 30
0.0
 11
443.459795
 21
54.343379
 31
0.0
  0
LINE
  8
LC-004-005-----0
  6
CONTINUOUS
  5
253
 10
444.631368
 20
50.343379
 30
0.0
 11
440.631368
 21
54.343379
 31
0.0
  0
LINE
  8
LC-004-005-----0
  6
CONTINUOUS
  5
254
 10
441.802941
 20
50.343379
 30
0.0
 11
437.802941
 21
54.343379
 31
0.0
  0
LINE
  8
LC-004-005-----0
  6
CONTINUOUS
  5
255
 10
438.974513
 20
50.343379
 30
0.0
 11
434.974513
 21
54.343379
 31
0.0
  0
LINE
  8
LC-004-005-----0
  6
CONTINUOUS
  5
256
 10
436.146086
 20
50.343379
 30
0.0
 11
432.146086
 21
54.343379
 31
0.0
  0
LINE
  8
LC-004-005-----0
  6
CONTINUOUS
  5
257
 10
433.317659
 20
50.343379
 30
0.0
 11
429.317659
 21
54.343379
 31
0.0
  0
LINE
  8
LC-004-005-----0
  6
CONTINUOUS
  5
258
 10
430.489232
 20
50.343379
 30
0.0
 11
426.489232
 21
54.343379
 31
0.0
  0
LINE
  8
LC-004-005-----0
  6
CONTINUOUS
  5
259
 10
427.660805
 20
50.343379
 30
0.0
 11
423.660805
 21
54.343379
 31
0.0
  0
LINE
  8
LC-004-005-----0
  6
CONTINUOUS
  5
25A
 10
424.832378
 20
50.343379
 30
0.0
 11
420.832378
 21
54.343379
 31
0.0
  0
LINE
  8
LC-004-005-----0
  6
CONTINUOUS
  5
25B
 10
422.003951
 20
50.343379
 30
0.0
 11
418.003951
 21
54.343379
 31
0.0
  0
LINE
  8
LC-004-005-----0
  6
CONTINUOUS
  5
25C
 10
419.175524
 20
50.343379
 30
0.0
 11
415.175524
 21
54.343379
 31
0.0
  0
LINE
  8
LC-004-005-----0
  6
CONTINUOUS
  5
25D
 10
416.347096
 20
50.343379
 30
0.0
 11
412.347096
 21
54.343379
 31
0.0
  0
LINE
  8
LC-004-005-----0
  6
CONTINUOUS
  5
25E
 10
413.518669
 20
50.343379
 30
0.0
 11
409.518669
 21
54.343379
 31
0.0
  0
LINE
  8
LC-004-005-----0
  6
CONTINUOUS
  5
25F
 10
410.690242
 20
50.343379
 30
0.0
 11
406.690242
 21
54.343379
 31
0.0
  0
LINE
  8
LC-004-005-----0
  6
CONTINUOUS
  5
260
 10
407.861815
 20
50.343379
 30
0.0
 11
403.861815
 21
54.343379
 31
0.0
  0
LINE
  8
LC-004-005-----0
  6
CONTINUOUS
  5
261
 10
405.033388
 20
50.343379
 30
0.0
 11
401.033388
 21
54.343379
 31
0.0
  0
LINE
  8
LC-004-005-----0
  6
CONTINUOUS
  5
262
 10
402.204961
 20
50.343379
 30
0.0
 11
398.204961
 21
54.343379
 31
0.0
  0
LINE
  8
LC-004-005-----0
  6
CONTINUOUS
  5
263
 10
399.376534
 20
50.343379
 30
0.0
 11
395.376534
 21
54.343379
 31
0.0
  0
LINE
  8
LC-004-005-----0
  6
CONTINUOUS
  5
264
 10
396.548107
 20
50.343379
 30
0.0
 11
392.548107
 21
54.343379
 31
0.0
  0
LINE
  8
LC-004-005-----0
  6
CONTINUOUS
  5
265
 10
393.719679
 20
50.343379
 30
0.0
 11
389.719679
 21
54.343379
 31
0.0
  0
LINE
  8
LC-004-005-----0
  6
CONTINUOUS
  5
266
 10
390.891252
 20
50.343379
 30
0.0
 11
386.891252
 21
54.343379
 31
0.0
  0
LINE
  8
LC-004-005-----0
  6
CONTINUOUS
  5
267
 10
388.062825
 20
50.343379
 30
0.0
 11
384.062825
 21
54.343379
 31
0.0
  0
LINE
  8
LC-004-005-----0
  6
CONTINUOUS
  5
268
 10
385.234398
 20
50.343379
 30
0.0
 11
381.234398
 21
54.343379
 31
0.0
  0
LINE
  8
LC-004-005-----0
  6
CONTINUOUS
  5
269
 10
382.405971
 20
50.343379
 30
0.0
 11
378.405971
 21
54.343379
 31
0.0
  0
LINE
  8
LC-004-005-----0
  6
CONTINUOUS
  5
26A
 10
379.577544
 20
50.343379
 30
0.0
 11
375.555426
 21
54.365497
 31
0.0
  0
LINE
  8
LC-004-005-----0
  6
CONTINUOUS
  5
26B
 10
376.749117
 20
50.343379
 30
0.0
 11
372.455818
 21
54.636678
 31
0.0
  0
LINE
  8
LC-004-005-----0
  6
CONTINUOUS
  5
26C
 10
373.756462
 20
50.507607
 30
0.0
 11
369.35621
 21
54.907858
 31
0.0
  0
LINE
  8
LC-004-005-----0
  6
CONTINUOUS
  5
26D
 10
189.2282
 20
235.035868
 30
0.0
 11
187.92069
 21
236.343379
 31
0.0
  0
LINE
  8
LC-004-005-----0
  6
CONTINUOUS
  5
26E
 10
370.656854
 20
50.778787
 30
0.0
 11
366.256603
 21
55.179039
 31
0.0
  0
LINE
  8
LC-004-005-----0
  6
CONTINUOUS
  5
26F
 10
189.2282
 20
232.207441
 30
0.0
 11
185.313273
 21
236.122369
 31
0.0
  0
LINE
  8
LC-004-005-----0
  6
CONTINUOUS
  5
270
 10
367.557247
 20
51.049968
 30
0.0
 11
363.156995
 21
55.450219
 31
0.0
  0
LINE
  8
LC-004-005-----0
  6
CONTINUOUS
  5
271
 10
189.2282
 20
229.379014
 30
0.0
 11
185.2282
 21
233.379014
 31
0.0
  0
LINE
  8
LC-004-005-----0
  6
CONTINUOUS
  5
272
 10
364.457639
 20
51.321148
 30
0.0
 11
360.057387
 21
55.7214
 31
0.0
  0
LINE
  8
LC-004-005-----0
  6
CONTINUOUS
  5
273
 10
189.2282
 20
226.550587
 30
0.0
 11
185.169837
 21
230.60895
 31
0.0
  0
LINE
  8
LC-004-005-----0
  6
CONTINUOUS
  5
274
 10
179.9782
 20
235.800587
 30
0.0
 11
179.435408
 21
236.343379
 31
0.0
  0
LINE
  8
LC-004-005-----0
  6
CONTINUOUS
  5
275
 10
361.358031
 20
51.592329
 30
0.0
 11
356.95778
 21
55.99258
 31
0.0
  0
LINE
  8
LC-004-005-----0
  6
CONTINUOUS
  5
276
 10
189.2282
 20
223.72216
 30
0.0
 11
182.606981
 21
230.343379
 31
0.0
  0
LINE
  8
LC-004-005-----0
  6
CONTINUOUS
  5
277
 10
179.9782
 20
232.97216
 30
0.0
 11
177.9782
 21
234.97216
 31
0.0
  0
LINE
  8
LC-004-005-----0
  6
CONTINUOUS
  5
278
 10
177.7282
 20
235.22216
 30
0.0
 11
176.606981
 21
236.343379
 31
0.0
  0
LINE
  8
LC-004-005-----0
  6
CONTINUOUS
  5
279
 10
358.258424
 20
51.863509
 30
0.0
 11
353.858172
 21
56.263761
 31
0.0
  0
LINE
  8
LC-004-005-----0
  6
CONTINUOUS
  5
27A
 10
189.2282
 20
220.893733
 30
0.0
 11
185.233055
 21
224.888878
 31
0.0
  0
LINE
  8
LC-004-005-----0
  6
CONTINUOUS
  5
27B
 10
182.778554
 20
227.343379
 30
0.0
 11
177.9782
 21
232.143733
 31
0.0
  0
LINE
  8
LC-004-005-----0
  6
CONTINUOUS
  5
27C
 10
177.7282
 20
232.393733
 30
0.0
 11
174.8782
 21
235.243733
 31
0.0
  0
LINE
  8
LC-004-005-----0
  6
CONTINUOUS
  5
27D
 10
174.308424
 20
235.813509
 30
0.0
 11
174.1782
 21
235.943733
 31
0.0
  0
LINE
  8
LC-004-005-----0
  6
CONTINUOUS
  5
27E
 10
355.158816
 20
52.13469
 30
0.0
 11
350.758564
 21
56.534941
 31
0.0
  0
LINE
  8
LC-004-005-----0
  6
CONTINUOUS
  5
27F
 10
197.973584
 20
209.319922
 30
0.0
 11
197.204743
 21
210.088763
 31
0.0
  0
LINE
  8
LC-004-005-----0
  6
CONTINUOUS
  5
280
 10
189.2282
 20
218.065306
 30
0.0
 11
185.233055
 21
222.060451
 31
0.0
  0
LINE
  8
LC-004-005-----0
  6
CONTINUOUS
  5
281
 10
179.950127
 20
227.343379
 30
0.0
 11
174.687362
 21
232.606144
 31
0.0
  0
LINE
  8
LC-004-005-----0
  6
CONTINUOUS
  5
282
 10
352.059208
 20
52.405871
 30
0.0
 11
347.658957
 21
56.806122
 31
0.0
  0
LINE
  8
LC-004-005-----0
  6
CONTINUOUS
  5
283
 10
198.2282
 20
206.236879
 30
0.0
 11
194.1217
 21
210.343379
 31
0.0
  0
LINE
  8
LC-004-005-----0
  6
CONTINUOUS
  5
284
 10
189.2282
 20
215.236879
 30
0.0
 11
185.233055
 21
219.232024
 31
0.0
  0
LINE
  8
LC-004-005-----0
  6
CONTINUOUS
  5
285
 10
177.537023
 20
226.928056
 30
0.0
 11
174.1782
 21
230.286879
 31
0.0
  0
LINE
  8
LC-004-005-----0
  6
CONTINUOUS
  5
286
 10
169.2782
 20
235.186879
 30
0.0
 11
168.1217
 21
236.343379
 31
0.0
  0
LINE
  8
LC-004-005-----0
  6
CONTINUOUS
  5
287
 10
348.959601
 20
52.677051
 30
0.0
 11
344.559349
 21
57.077303
 31
0.0
  0
LINE
  8
LC-004-005-----0
  6
CONTINUOUS
  5
288
 10
198.2282
 20
203.408451
 30
0.0
 11
191.293273
 21
210.343379
 31
0.0
  0
LINE
  8
LC-004-005-----0
  6
CONTINUOUS
  5
289
 10
189.2282
 20
212.408451
 30
0.0
 11
185.233055
 21
216.403597
 31
0.0
  0
LINE
  8
LC-004-005-----0
  6
CONTINUOUS
  5
28A
 10
177.482086
 20
224.154566
 30
0.0
 11
174.8782
 21
226.758451
 31
0.0
  0
LINE
  8
LC-004-005-----0
  6
CONTINUOUS
  5
28B
 10
168.5782
 20
233.058451
 30
0.0
 11
165.731972
 21
235.904679
 31
0.0
  0
LINE
  8
LC-004-005-----0
  6
CONTINUOUS
  5
28C
 10
345.859993
 20
52.948232
 30
0.0
 11
341.459742
 21
57.348483
 31
0.0
  0
LINE
  8
LC-004-005-----0
  6
CONTINUOUS
  5
28D
 10
198.2282
 20
200.580024
 30
0.0
 11
194.22953
 21
204.578694
 31
0.0
  0
LINE
  8
LC-004-005-----0
  6
CONTINUOUS
  5
28E
 10
192.464845
 20
206.343379
 30
0.0
 11
185.233055
 21
213.57517
 31
0.0
  0
LINE
  8
LC-004-005-----0
  6
CONTINUOUS
  5
28F
 10
177.432846
 20
221.375379
 30
0.0
 11
174.1782
 21
224.630024
 31
0.0
  0
LINE
  8
LC-004-005-----0
  6
CONTINUOUS
  5
290
 10
169.2782
 20
229.530024
 30
0.0
 11
168.752164
 21
230.056061
 31
0.0
  0
LINE
  8
LC-004-005-----0
  6
CONTINUOUS
  5
291
 10
168.5782
 20
230.230024
 30
0.0
 11
165.7282
 21
233.080024
 31
0.0
  0
LINE
  8
LC-004-005-----0
  6
CONTINUOUS
  5
292
 10
342.760385
 20
53.219412
 30
0.0
 11
338.360134
 21
57.619664
 31
0.0
  0
LINE
  8
LC-004-005-----0
  6
CONTINUOUS
  5
293
 10
198.2282
 20
197.751597
 30
0.0
 11
194.22953
 21
201.750267
 31
0.0
  0
LINE
  8
LC-004-005-----0
  6
CONTINUOUS
  5
294
 10
189.325529
 20
206.654268
 30
0.0
 11
185.54907
 21
210.430727
 31
0.0
  0
LINE
  8
LC-004-005-----0
  6
CONTINUOUS
  5
295
 10
177.383589
 20
218.596209
 30
0.0
 11
174.1782
 21
221.801597
 31
0.0
  0
LINE
  8
LC-004-005-----0
  6
CONTINUOUS
  5
296
 10
169.2782
 20
226.701597
 30
0.0
 11
165.532872
 21
230.446926
 31
0.0
  0
LINE
  8
LC-004-005-----0
  6
CONTINUOUS
  5
297
 10
162.7282
 20
233.251597
 30
0.0
 11
160.7282
 21
235.251597
 31
0.0
  0
LINE
  8
LC-004-005-----0
  6
CONTINUOUS
  5
298
 10
339.660778
 20
53.490593
 30
0.0
 11
335.260526
 21
57.890844
 31
0.0
  0
LINE
  8
LC-004-005-----0
  6
CONTINUOUS
  5
299
 10
198.2282
 20
194.92317
 30
0.0
 11
194.22953
 21
198.92184
 31
0.0
  0
LINE
  8
LC-004-005-----0
  6
CONTINUOUS
  5
29A
 10
177.071334
 20
216.080037
 30
0.0
 11
173.739337
 21
219.412033
 31
0.0
  0
LINE
  8
LC-004-005-----0
  6
CONTINUOUS
  5
29B
 10
169.2782
 20
223.87317
 30
0.0
 11
160.7282
 21
232.42317
 31
0.0
  0
LINE
  8
LC-004-005-----0
  6
CONTINUOUS
  5
29C
 10
336.56117
 20
53.761773
 30
0.0
 11
332.160919
 21
58.162025
 31
0.0
  0
LINE
  8
LC-004-005-----0
  6
CONTINUOUS
  5
29D
 10
198.2282
 20
192.094743
 30
0.0
 11
194.22953
 21
196.093413
 31
0.0
  0
LINE
  8
LC-004-005-----0
  6
CONTINUOUS
  5
29E
 10
174.979564
 20
215.343379
 30
0.0
 11
170.979564
 21
219.343379
 31
0.0
  0
LINE
  8
LC-004-005-----0
  6
CONTINUOUS
  5
29F
 10
169.2782
 20
221.044743
 30
0.0
 11
165.97081
 21
224.352134
 31
0.0
  0
LINE
  8
LC-004-005-----0
  6
CONTINUOUS
  5
2A0
 10
162.979564
 20
227.343379
 30
0.0
 11
159.979564
 21
230.343379
 31
0.0
  0
LINE
  8
LC-004-005-----0
  6
CONTINUOUS
  5
2A1
 10
333.461562
 20
54.032954
 30
0.0
 11
329.061311
 21
58.433205
 31
0.0
  0
LINE
  8
LC-004-005-----0
  6
CONTINUOUS
  5
2A2
 10
198.2282
 20
189.266316
 30
0.0
 11
194.22953
 21
193.264986
 31
0.0
  0
LINE
  8
LC-004-005-----0
  6
CONTINUOUS
  5
2A3
 10
172.151137
 20
215.343379
 30
0.0
 11
166.021831
 21
221.472685
 31
0.0
  0
LINE
  8
LC-004-005-----0
  6
CONTINUOUS
  5
2A4
 10
160.151137
 20
227.343379
 30
0.0
 11
157.151137
 21
230.343379
 31
0.0
  0
LINE
  8
LC-004-005-----0
  6
CONTINUOUS
  5
2A5
 10
153.158331
 20
234.336185
 30
0.0
 11
151.151137
 21
236.343379
 31
0.0
  0
LINE
  8
LC-004-005-----0
  6
CONTINUOUS
  5
2A6
 10
150.833471
 20
236.661045
 30
0.0
 11
150.699993
 21
236.794523
 31
0.0
  0
LINE
  8
LC-004-005-----0
  6
CONTINUOUS
  5
2A7
 10
330.361955
 20
54.304134
 30
0.0
 11
325.961703
 21
58.704386
 31
0.0
  0
LINE
  8
LC-004-005-----0
  6
CONTINUOUS
  5
2A8
 10
198.2282
 20
186.437889
 30
0.0
 11
194.22953
 21
190.436559
 31
0.0
  0
LINE
  8
LC-004-005-----0
  6
CONTINUOUS
  5
2A9
 10
169.32271
 20
215.343379
 30
0.0
 11
166.07287
 21
218.593219
 31
0.0
  0
LINE
  8
LC-004-005-----0
  6
CONTINUOUS
  5
2AA
 10
157.32271
 20
227.343379
 30
0.0
 11
154.32271
 21
230.343379
 31
0.0
  0
LINE
  8
LC-004-005-----0
  6
CONTINUOUS
  5
2AB
 10
154.193607
 20
230.472482
 30
0.0
 11
148.32271
 21
236.343379
 31
0.0
  0
LINE
  8
LC-004-005-----0
  6
CONTINUOUS
  5
2AC
 10
327.262347
 20
54.575315
 30
0.0
 11
322.862096
 21
58.975566
 31
0.0
  0
LINE
  8
LC-004-005-----0
  6
CONTINUOUS
  5
2AD
 10
198.2282
 20
183.609462
 30
0.0
 11
194.22953
 21
187.608132
 31
0.0
  0
LINE
  8
LC-004-005-----0
  6
CONTINUOUS
  5
2AE
 10
154.494283
 20
227.343379
 30
0.0
 11
150.731837
 21
231.105825
 31
0.0
  0
LINE
  8
LC-004-005-----0
  6
CONTINUOUS
  5
2AF
 10
148.494283
 20
233.343379
 30
0.0
 11
145.459568
 21
236.378094
 31
0.0
  0
LINE
  8
LC-004-005-----0
  6
CONTINUOUS
  5
2B0
 10
324.162739
 20
54.846495
 30
0.0
 11
319.762488
 21
59.246747
 31
0.0
  0
LINE
  8
LC-004-005-----0
  6
CONTINUOUS
  5
2B1
 10
202.7282
 20
176.281034
 30
0.0
 11
199.665856
 21
179.343379
 31
0.0
  0
LINE
  8
LC-004-005-----0
  6
CONTINUOUS
  5
2B2
 10
198.2282
 20
180.781034
 30
0.0
 11
194.22953
 21
184.779705
 31
0.0
  0
LINE
  8
LC-004-005-----0
  6
CONTINUOUS
  5
2B3
 10
145.665856
 20
233.343379
 30
0.0
 11
142.620277
 21
236.388958
 31
0.0
  0
LINE
  8
LC-004-005-----0
  6
CONTINUOUS
  5
2B4
 10
321.063132
 20
55.117676
 30
0.0
 11
316.66288
 21
59.517927
 31
0.0
  0
LINE
  8
LC-004-005-----0
  6
CONTINUOUS
  5
2B5
 10
202.7282
 20
173.452607
 30
0.0
 11
194.22953
 21
181.951277
 31
0.0
  0
LINE
  8
LC-004-005-----0
  6
CONTINUOUS
  5
2B6
 10
142.837428
 20
233.343379
 30
0.0
 11
138.756574
 21
237.424234
 31
0.0
  0
LINE
  8
LC-004-005-----0
  6
CONTINUOUS
  5
2B7
 10
138.276092
 20
237.904716
 30
0.0
 11
138.162779
 21
238.018028
 31
0.0
  0
LINE
  8
LC-004-005-----0
  6
CONTINUOUS
  5
2B8
 10
317.963524
 20
55.388856
 30
0.0
 11
313.563273
 21
59.789108
 31
0.0
  0
LINE
  8
LC-004-005-----0
  6
CONTINUOUS
  5
2B9
 10
202.7282
 20
170.62418
 30
0.0
 11
198.668413
 21
174.683968
 31
0.0
  0
LINE
  8
LC-004-005-----0
  6
CONTINUOUS
  5
2BA
 10
198.068789
 20
175.283592
 30
0.0
 11
194.289493
 21
179.062888
 31
0.0
  0
LINE
  8
LC-004-005-----0
  6
CONTINUOUS
  5
2BB
 10
139.135511
 20
234.216869
 30
0.0
 11
134.846642
 21
238.505738
 31
0.0
  0
LINE
  8
LC-004-005-----0
  6
CONTINUOUS
  5
2BC
 10
134.239571
 20
239.112809
 30
0.0
 11
134.212667
 21
239.139713
 31
0.0
  0
LINE
  8
LC-004-005-----0
  6
CONTINUOUS
  5
2BD
 10
314.863916
 20
55.660037
 30
0.0
 11
310.463665
 21
60.060288
 31
0.0
  0
LINE
  8
LC-004-005-----0
  6
CONTINUOUS
  5
2BE
 10
202.7282
 20
167.795753
 30
0.0
 11
198.7282
 21
171.795753
 31
0.0
  0
LINE
  8
LC-004-005-----0
  6
CONTINUOUS
  5
2BF
 10
135.271808
 20
235.252145
 30
0.0
 11
131.029167
 21
239.494786
 31
0.0
  0
LINE
  8
LC-004-005-----0
  6
CONTINUOUS
  5
2C0
 10
311.764309
 20
55.931217
 30
0.0
 11
307.364057
 21
60.331469
 31
0.0
  0
LINE
  8
LC-004-005-----0
  6
CONTINUOUS
  5
2C1
 10
202.7282
 20
164.967326
 30
0.0
 11
198.7282
 21
168.967326
 31
0.0
  0
LINE
  8
LC-004-005-----0
  6
CONTINUOUS
  5
2C2
 10
131.408105
 20
236.287422
 30
0.0
 11
129.7282
 21
237.967326
 31
0.0
  0
LINE
  8
LC-004-005-----0
  6
CONTINUOUS
  5
2C3
 10
308.664701
 20
56.202398
 30
0.0
 11
304.26445
 21
60.602649
 31
0.0
  0
LINE
  8
LC-004-005-----0
  6
CONTINUOUS
  5
2C4
 10
202.7282
 20
162.138899
 30
0.0
 11
198.7282
 21
166.138899
 31
0.0
  0
LINE
  8
LC-004-005-----0
  6
CONTINUOUS
  5
2C5
 10
305.565093
 20
56.473579
 30
0.0
 11
301.164842
 21
60.87383
 31
0.0
  0
LINE
  8
LC-004-005-----0
  6
CONTINUOUS
  5
2C6
 10
202.74655
 20
159.292122
 30
0.0
 11
198.7282
 21
163.310472
 31
0.0
  0
LINE
  8
LC-004-005-----0
  6
CONTINUOUS
  5
2C7
 10
302.465486
 20
56.744759
 30
0.0
 11
298.065234
 21
61.145011
 31
0.0
  0
LINE
  8
LC-004-005-----0
  6
CONTINUOUS
  5
2C8
 10
202.796798
 20
156.413447
 30
0.0
 11
198.7282
 21
160.482045
 31
0.0
  0
LINE
  8
LC-004-005-----0
  6
CONTINUOUS
  5
2C9
 10
299.365878
 20
57.01594
 30
0.0
 11
294.965627
 21
61.416191
 31
0.0
  0
LINE
  8
LC-004-005-----0
  6
CONTINUOUS
  5
2CA
 10
202.847045
 20
153.534773
 30
0.0
 11
198.775364
 21
157.606454
 31
0.0
  0
LINE
  8
LC-004-005-----0
  6
CONTINUOUS
  5
2CB
 10
296.26627
 20
57.28712
 30
0.0
 11
291.866019
 21
61.687372
 31
0.0
  0
LINE
  8
LC-004-005-----0
  6
CONTINUOUS
  5
2CC
 10
202.897292
 20
150.656098
 30
0.0
 11
198.825612
 21
154.727779
 31
0.0
  0
LINE
  8
LC-004-005-----0
  6
CONTINUOUS
  5
2CD
 10
293.166663
 20
57.558301
 30
0.0
 11
288.766411
 21
61.958552
 31
0.0
  0
LINE
  8
LC-004-005-----0
  6
CONTINUOUS
  5
2CE
 10
202.94754
 20
147.777424
 30
0.0
 11
198.875859
 21
151.849104
 31
0.0
  0
LINE
  8
LC-004-005-----0
  6
CONTINUOUS
  5
2CF
 10
290.067055
 20
57.829481
 30
0.0
 11
285.666804
 21
62.229733
 31
0.0
  0
LINE
  8
LC-004-005-----0
  6
CONTINUOUS
  5
2D0
 10
202.997787
 20
144.898749
 30
0.0
 11
198.926107
 21
148.97043
 31
0.0
  0
LINE
  8
LC-004-005-----0
  6
CONTINUOUS
  5
2D1
 10
286.967448
 20
58.100662
 30
0.0
 11
282.567196
 21
62.500913
 31
0.0
  0
LINE
  8
LC-004-005-----0
  6
CONTINUOUS
  5
2D2
 10
203.048035
 20
142.020074
 30
0.0
 11
198.976354
 21
146.091755
 31
0.0
  0
LINE
  8
LC-004-005-----0
  6
CONTINUOUS
  5
2D3
 10
283.86784
 20
58.371842
 30
0.0
 11
279.467588
 21
62.772094
 31
0.0
  0
LINE
  8
LC-004-005-----0
  6
CONTINUOUS
  5
2D4
 10
203.098282
 20
139.1414
 30
0.0
 11
199.026601
 21
143.213081
 31
0.0
  0
LINE
  8
LC-004-005-----0
  6
CONTINUOUS
  5
2D5
 10
280.768232
 20
58.643023
 30
0.0
 11
276.367981
 21
63.043274
 31
0.0
  0
LINE
  8
LC-004-005-----0
  6
CONTINUOUS
  5
2D6
 10
203.14853
 20
136.262725
 30
0.0
 11
199.076849
 21
140.334406
 31
0.0
  0
LINE
  8
LC-004-005-----0
  6
CONTINUOUS
  5
2D7
 10
277.668625
 20
58.914203
 30
0.0
 11
273.268373
 21
63.314455
 31
0.0
  0
LINE
  8
LC-004-005-----0
  6
CONTINUOUS
  5
2D8
 10
203.198777
 20
133.384051
 30
0.0
 11
199.127096
 21
137.455731
 31
0.0
  0
LINE
  8
LC-004-005-----0
  6
CONTINUOUS
  5
2D9
 10
274.569017
 20
59.185384
 30
0.0
 11
270.168765
 21
63.585635
 31
0.0
  0
LINE
  8
LC-004-005-----0
  6
CONTINUOUS
  5
2DA
 10
203.249025
 20
130.505376
 30
0.0
 11
199.177344
 21
134.577057
 31
0.0
  0
LINE
  8
LC-004-005-----0
  6
CONTINUOUS
  5
2DB
 10
271.469409
 20
59.456564
 30
0.0
 11
267.069158
 21
63.856816
 31
0.0
  0
LINE
  8
LC-004-005-----0
  6
CONTINUOUS
  5
2DC
 10
203.299272
 20
127.626702
 30
0.0
 11
199.227591
 21
131.698382
 31
0.0
  0
LINE
  8
LC-004-005-----0
  6
CONTINUOUS
  5
2DD
 10
268.369802
 20
59.727745
 30
0.0
 11
263.96955
 21
64.127996
 31
0.0
  0
LINE
  8
LC-004-005-----0
  6
CONTINUOUS
  5
2DE
 10
203.349519
 20
124.748027
 30
0.0
 11
199.277839
 21
128.819708
 31
0.0
  0
LINE
  8
LC-004-005-----0
  6
CONTINUOUS
  5
2DF
 10
265.270194
 20
59.998925
 30
0.0
 11
260.869942
 21
64.399177
 31
0.0
  0
LINE
  8
LC-004-005-----0
  6
CONTINUOUS
  5
2E0
 10
203.399767
 20
121.869352
 30
0.0
 11
199.328086
 21
125.941033
 31
0.0
  0
LINE
  8
LC-004-005-----0
  6
CONTINUOUS
  5
2E1
 10
262.170586
 20
60.270106
 30
0.0
 11
257.770335
 21
64.670357
 31
0.0
  0
LINE
  8
LC-004-005-----0
  6
CONTINUOUS
  5
2E2
 10
203.450014
 20
118.990678
 30
0.0
 11
199.378334
 21
123.062359
 31
0.0
  0
LINE
  8
LC-004-005-----0
  6
CONTINUOUS
  5
2E3
 10
259.070979
 20
60.541286
 30
0.0
 11
254.670727
 21
64.941538
 31
0.0
  0
LINE
  8
LC-004-005-----0
  6
CONTINUOUS
  5
2E4
 10
203.500262
 20
116.112003
 30
0.0
 11
199.428581
 21
120.183684
 31
0.0
  0
LINE
  8
LC-004-005-----0
  6
CONTINUOUS
  5
2E5
 10
255.971371
 20
60.812467
 30
0.0
 11
251.571119
 21
65.212718
 31
0.0
  0
LINE
  8
LC-004-005-----0
  6
CONTINUOUS
  5
2E6
 10
203.550509
 20
113.233329
 30
0.0
 11
199.478829
 21
117.305009
 31
0.0
  0
LINE
  8
LC-004-005-----0
  6
CONTINUOUS
  5
2E7
 10
252.871763
 20
61.083648
 30
0.0
 11
248.471512
 21
65.483899
 31
0.0
  0
LINE
  8
LC-004-005-----0
  6
CONTINUOUS
  5
2E8
 10
203.600757
 20
110.354654
 30
0.0
 11
199.529076
 21
114.426335
 31
0.0
  0
LINE
  8
LC-004-005-----0
  6
CONTINUOUS
  5
2E9
 10
249.772156
 20
61.354828
 30
0.0
 11
245.371904
 21
65.75508
 31
0.0
  0
LINE
  8
LC-004-005-----0
  6
CONTINUOUS
  5
2EA
 10
203.651004
 20
107.47598
 30
0.0
 11
199.579323
 21
111.54766
 31
0.0
  0
LINE
  8
LC-004-005-----0
  6
CONTINUOUS
  5
2EB
 10
246.672548
 20
61.626009
 30
0.0
 11
242.272297
 21
66.02626
 31
0.0
  0
LINE
  8
LC-004-005-----0
  6
CONTINUOUS
  5
2EC
 10
203.701252
 20
104.597305
 30
0.0
 11
199.629571
 21
108.668986
 31
0.0
  0
LINE
  8
LC-004-005-----0
  6
CONTINUOUS
  5
2ED
 10
243.57294
 20
61.897189
 30
0.0
 11
239.172689
 21
66.297441
 31
0.0
  0
LINE
  8
LC-004-005-----0
  6
CONTINUOUS
  5
2EE
 10
203.751499
 20
101.71863
 30
0.0
 11
199.679818
 21
105.790311
 31
0.0
  0
LINE
  8
LC-004-005-----0
  6
CONTINUOUS
  5
2EF
 10
240.473333
 20
62.16837
 30
0.0
 11
236.073081
 21
66.568621
 31
0.0
  0
LINE
  8
LC-004-005-----0
  6
CONTINUOUS
  5
2F0
 10
203.801747
 20
98.839956
 30
0.0
 11
199.730066
 21
102.911637
 31
0.0
  0
LINE
  8
LC-004-005-----0
  6
CONTINUOUS
  5
2F1
 10
237.373725
 20
62.43955
 30
0.0
 11
232.973474
 21
66.839802
 31
0.0
  0
LINE
  8
LC-004-005-----0
  6
CONTINUOUS
  5
2F2
 10
203.851994
 20
95.961281
 30
0.0
 11
199.780313
 21
100.032962
 31
0.0
  0
LINE
  8
LC-004-005-----0
  6
CONTINUOUS
  5
2F3
 10
234.274117
 20
62.710731
 30
0.0
 11
229.873866
 21
67.110982
 31
0.0
  0
LINE
  8
LC-004-005-----0
  6
CONTINUOUS
  5
2F4
 10
203.902241
 20
93.082607
 30
0.0
 11
199.830561
 21
97.154287
 31
0.0
  0
LINE
  8
LC-004-005-----0
  6
CONTINUOUS
  5
2F5
 10
231.17451
 20
62.981911
 30
0.0
 11
226.774258
 21
67.382163
 31
0.0
  0
LINE
  8
LC-004-005-----0
  6
CONTINUOUS
  5
2F6
 10
203.952489
 20
90.203932
 30
0.0
 11
199.880808
 21
94.275613
 31
0.0
  0
LINE
  8
LC-004-005-----0
  6
CONTINUOUS
  5
2F7
 10
229.6716
 20
61.656394
 30
0.0
 11
223.674651
 21
67.653343
 31
0.0
  0
LINE
  8
LC-004-005-----0
  6
CONTINUOUS
  5
2F8
 10
204.002736
 20
87.325257
 30
0.0
 11
199.931056
 21
91.396938
 31
0.0
  0
LINE
  8
LC-004-005-----0
  6
CONTINUOUS
  5
2F9
 10
229.623076
 20
58.87649
 30
0.0
 11
226.783764
 21
61.715803
 31
0.0
  0
LINE
  8
LC-004-005-----0
  6
CONTINUOUS
  5
2FA
 10
224.975294
 20
63.524272
 30
0.0
 11
220.575043
 21
67.924524
 31
0.0
  0
LINE
  8
LC-004-005-----0
  6
CONTINUOUS
  5
2FB
 10
204.052984
 20
84.446583
 30
0.0
 11
199.981303
 21
88.518264
 31
0.0
  0
LINE
  8
LC-004-005-----0
  6
CONTINUOUS
  5
2FC
 10
229.574553
 20
56.096587
 30
0.0
 11
226.834011
 21
58.837128
 31
0.0
  0
LINE
  8
LC-004-005-----0
  6
CONTINUOUS
  5
2FD
 10
221.875687
 20
63.795453
 30
0.0
 11
217.475435
 21
68.195704
 31
0.0
  0
LINE
  8
LC-004-005-----0
  6
CONTINUOUS
  5
2FE
 10
204.103231
 20
81.567908
 30
0.0
 11
200.031551
 21
85.639589
 31
0.0
  0
LINE
  8
LC-004-005-----0
  6
CONTINUOUS
  5
2FF
 10
229.526029
 20
53.316683
 30
0.0
 11
226.884259
 21
55.958454
 31
0.0
  0
LINE
  8
LC-004-005-----0
  6
CONTINUOUS
  5
300
 10
218.776079
 20
64.066633
 30
0.0
 11
214.375828
 21
68.466885
 31
0.0
  0
LINE
  8
LC-004-005-----0
  6
CONTINUOUS
  5
301
 10
204.153479
 20
78.689234
 30
0.0
 11
200.081798
 21
82.760914
 31
0.0
  0
LINE
  8
LC-004-005-----0
  6
CONTINUOUS
  5
302
 10
229.173135
 20
50.841151
 30
0.0
 11
226.934506
 21
53.079779
 31
0.0
  0
LINE
  8
LC-004-005-----0
  6
CONTINUOUS
  5
303
 10
215.676471
 20
64.337814
 30
0.0
 11
211.27622
 21
68.738065
 31
0.0
  0
LINE
  8
LC-004-005-----0
  6
CONTINUOUS
  5
304
 10
204.203726
 20
75.810559
 30
0.0
 11
200.132045
 21
79.88224
 31
0.0
  0
LINE
  8
LC-004-005-----0
  6
CONTINUOUS
  5
305
 10
212.576864
 20
64.608994
 30
0.0
 11
207.772677
 21
69.413182
 31
0.0
  0
LINE
  8
LC-004-005-----0
  6
CONTINUOUS
  5
306
 10
204.803795
 20
72.382063
 30
0.0
 11
200.182293
 21
77.003565
 31
0.0
  0
LINE
  8
LC-004-005-----0
  6
CONTINUOUS
  5
307
 10
209.477256
 20
64.880175
 30
0.0
 11
200.253203
 21
74.104229
 31
0.0
  0
LINE
  8
LC-004-005-----0
  6
CONTINUOUS
  5
308
 10
205.276535
 20
66.252469
 30
0.0
 11
201.662317
 21
69.866687
 31
0.0
  0
ENDBLK
  8
0
  5
309
  0
BLOCK
  8
0
  5
30B
  2
*X35
 70
    65
 10
372.2282
 20
156.343379
 30
0.0
  3
*X35
  0
LINE
  8
LC-004-005-----0
  6
CONTINUOUS
  5
30C
 10
446.7282
 20
237.751164
 30
0.0
 11
445.078122
 21
239.401242
 31
0.0
  0
LINE
  8
LC-004-005-----0
  6
CONTINUOUS
  5
30D
 10
445.296902
 20
236.354035
 30
0.0
 11
442.847412
 21
238.803525
 31
0.0
  0
LINE
  8
LC-004-005-----0
  6
CONTINUOUS
  5
30E
 10
443.066192
 20
235.756318
 30
0.0
 11
440.222909
 21
238.599601
 31
0.0
  0
LINE
  8
LC-004-005-----0
  6
CONTINUOUS
  5
30F
 10
440.835481
 20
235.158601
 30
0.0
 11
438.161091
 21
237.832992
 31
0.0
  0
LINE
  8
LC-004-005-----0
  6
CONTINUOUS
  5
310
 10
438.604771
 20
234.560884
 30
0.0
 11
436.099272
 21
237.066384
 31
0.0
  0
LINE
  8
LC-004-005-----0
  6
CONTINUOUS
  5
311
 10
436.374061
 20
233.963167
 30
0.0
 11
433.924571
 21
236.412657
 31
0.0
  0
LINE
  8
LC-004-005-----0
  6
CONTINUOUS
  5
312
 10
434.143351
 20
233.36545
 30
0.0
 11
431.165422
 21
236.343379
 31
0.0
  0
LINE
  8
LC-004-005-----0
  6
CONTINUOUS
  5
313
 10
430.813957
 20
236.694845
 30
0.0
 11
430.705222
 21
236.80358
 31
0.0
  0
LINE
  8
LC-004-005-----0
  6
CONTINUOUS
  5
314
 10
431.336995
 20
233.343379
 30
0.0
 11
428.336995
 21
236.343379
 31
0.0
  0
LINE
  8
LC-004-005-----0
  6
CONTINUOUS
  5
315
 10
428.508568
 20
233.343379
 30
0.0
 11
425.464797
 21
236.387151
 31
0.0
  0
LINE
  8
LC-004-005-----0
  6
CONTINUOUS
  5
316
 10
425.9956
 20
233.02792
 30
0.0
 11
423.591656
 21
235.431864
 31
0.0
  0
LINE
  8
LC-004-005-----0
  6
CONTINUOUS
  5
317
 10
425.724564
 20
230.470529
 30
0.0
 11
422.993939
 21
233.201154
 31
0.0
  0
LINE
  8
LC-004-005-----0
  6
CONTINUOUS
  5
318
 10
424.989088
 20
228.377578
 30
0.0
 11
422.396222
 21
230.970444
 31
0.0
  0
LINE
  8
LC-004-005-----0
  6
CONTINUOUS
  5
319
 10
423.162677
 20
227.375561
 30
0.0
 11
420.19486
 21
230.343379
 31
0.0
  0
LINE
  8
LC-004-005-----0
  6
CONTINUOUS
  5
31A
 10
415.7282
 20
234.810038
 30
0.0
 11
414.195904
 21
236.342335
 31
0.0
  0
LINE
  8
LC-004-005-----0
  6
CONTINUOUS
  5
31B
 10
420.366432
 20
227.343379
 30
0.0
 11
417.366432
 21
230.343379
 31
0.0
  0
LINE
  8
LC-004-005-----0
  6
CONTINUOUS
  5
31C
 10
415.7282
 20
231.981611
 30
0.0
 11
413.7282
 21
233.981611
 31
0.0
  0
LINE
  8
LC-004-005-----0
  6
CONTINUOUS
  5
31D
 10
417.538005
 20
227.343379
 30
0.0
 11
413.7282
 21
231.153184
 31
0.0
  0
LINE
  8
LC-004-005-----0
  6
CONTINUOUS
  5
31E
 10
410.7282
 20
234.153184
 30
0.0
 11
408.538005
 21
236.343379
 31
0.0
  0
LINE
  8
LC-004-005-----0
  6
CONTINUOUS
  5
31F
 10
414.709578
 20
227.343379
 30
0.0
 11
411.709578
 21
230.343379
 31
0.0
  0
LINE
  8
LC-004-005-----0
  6
CONTINUOUS
  5
320
 10
410.7282
 20
231.324757
 30
0.0
 11
407.824309
 21
234.228649
 31
0.0
  0
LINE
  8
LC-004-005-----0
  6
CONTINUOUS
  5
321
 10
411.881151
 20
227.343379
 30
0.0
 11
407.226186
 21
231.998344
 31
0.0
  0
LINE
  8
LC-004-005-----0
  6
CONTINUOUS
  5
322
 10
410.512716
 20
225.883387
 30
0.0
 11
407.8782
 21
228.517903
 31
0.0
  0
LINE
  8
LC-004-005-----0
  6
CONTINUOUS
  5
323
 10
407.4445
 20
228.951603
 30
0.0
 11
407.1782
 21
229.217903
 31
0.0
  0
LINE
  8
LC-004-005-----0
  6
CONTINUOUS
  5
324
 10
402.2782
 20
234.117903
 30
0.0
 11
401.729895
 21
234.666208
 31
0.0
  0
LINE
  8
LC-004-005-----0
  6
CONTINUOUS
  5
325
 10
401.5782
 20
234.817903
 30
0.0
 11
400.052724
 21
236.343379
 31
0.0
  0
LINE
  8
LC-004-005-----0
  6
CONTINUOUS
  5
326
 10
410.46348
 20
223.104196
 30
0.0
 11
407.1782
 21
226.389476
 31
0.0
  0
LINE
  8
LC-004-005-----0
  6
CONTINUOUS
  5
327
 10
401.948675
 20
231.619001
 30
0.0
 11
398.7282
 21
234.839476
 31
0.0
  0
LINE
  8
LC-004-005-----0
  6
CONTINUOUS
  5
328
 10
398.4782
 20
235.089476
 30
0.0
 11
397.224297
 21
236.343379
 31
0.0
  0
LINE
  8
LC-004-005-----0
  6
CONTINUOUS
  5
329
 10
410.414227
 20
220.325022
 30
0.0
 11
407.1782
 21
223.561049
 31
0.0
  0
LINE
  8
LC-004-005-----0
  6
CONTINUOUS
  5
32A
 10
402.2782
 20
228.461049
 30
0.0
 11
402.167019
 21
228.57223
 31
0.0
  0
LINE
  8
LC-004-005-----0
  6
CONTINUOUS
  5
32B
 10
401.5782
 20
229.161049
 30
0.0
 11
398.7282
 21
232.011049
 31
0.0
  0
LINE
  8
LC-004-005-----0
  6
CONTINUOUS
  5
32C
 10
398.4782
 20
232.261049
 30
0.0
 11
396.4782
 21
234.261049
 31
0.0
  0
LINE
  8
LC-004-005-----0
  6
CONTINUOUS
  5
32D
 10
390.2282
 20
240.511049
 30
0.0
 11
389.39587
 21
241.343379
 31
0.0
  0
LINE
  8
LC-004-005-----0
  6
CONTINUOUS
  5
32E
 10
410.364966
 20
217.545856
 30
0.0
 11
407.1782
 21
220.732621
 31
0.0
  0
LINE
  8
LC-004-005-----0
  6
CONTINUOUS
  5
32F
 10
402.2782
 20
225.632621
 30
0.0
 11
396.4782
 21
231.432621
 31
0.0
  0
LINE
  8
LC-004-005-----0
  6
CONTINUOUS
  5
330
 10
390.2282
 20
237.682621
 30
0.0
 11
388.2282
 21
239.682621
 31
0.0
  0
LINE
  8
LC-004-005-----0
  6
CONTINUOUS
  5
331
 10
409.527046
 20
215.555349
 30
0.0
 11
405.739015
 21
219.343379
 31
0.0
  0
LINE
  8
LC-004-005-----0
  6
CONTINUOUS
  5
332
 10
402.2782
 20
222.804194
 30
0.0
 11
398.939081
 21
226.143313
 31
0.0
  0
LINE
  8
LC-004-005-----0
  6
CONTINUOUS
  5
333
 10
397.739015
 20
227.343379
 30
0.0
 11
394.739015
 21
230.343379
 31
0.0
  0
LINE
  8
LC-004-005-----0
  6
CONTINUOUS
  5
334
 10
391.2282
 20
233.854194
 30
0.0
 11
388.2282
 21
236.854194
 31
0.0
  0
LINE
  8
LC-004-005-----0
  6
CONTINUOUS
  5
335
 10
406.910588
 20
215.343379
 30
0.0
 11
402.910588
 21
219.343379
 31
0.0
  0
LINE
  8
LC-004-005-----0
  6
CONTINUOUS
  5
336
 10
402.2782
 20
219.975767
 30
0.0
 11
398.990095
 21
223.263873
 31
0.0
  0
LINE
  8
LC-004-005-----0
  6
CONTINUOUS
  5
337
 10
394.910588
 20
227.343379
 30
0.0
 11
391.910588
 21
230.343379
 31
0.0
  0
LINE
  8
LC-004-005-----0
  6
CONTINUOUS
  5
338
 10
391.2282
 20
231.025767
 30
0.0
 11
387.2282
 21
235.025767
 31
0.0
  0
LINE
  8
LC-004-005-----0
  6
CONTINUOUS
  5
339
 10
404.082161
 20
215.343379
 30
0.0
 11
399.041117
 21
220.384423
 31
0.0
  0
LINE
  8
LC-004-005-----0
  6
CONTINUOUS
  5
33A
 10
392.091352
 20
227.334188
 30
0.0
 11
387.2282
 21
232.19734
 31
0.0
  0
LINE
  8
LC-004-005-----0
  6
CONTINUOUS
  5
33B
 10
458.2282
 20
158.368913
 30
0.0
 11
457.178144
 21
159.41897
 31
0.0
  0
LINE
  8
LC-004-005-----0
  6
CONTINUOUS
  5
33C
 10
401.253734
 20
215.343379
 30
0.0
 11
399.092157
 21
217.504957
 31
0.0
  0
LINE
  8
LC-004-005-----0
  6
CONTINUOUS
  5
33D
 10
391.223346
 20
225.373767
 30
0.0
 11
387.2282
 21
229.368913
 31
0.0
  0
LINE
  8
LC-004-005-----0
  6
CONTINUOUS
  5
33E
 10
457.425307
 20
156.343379
 30
0.0
 11
453.425307
 21
160.343379
 31
0.0
  0
LINE
  8
LC-004-005-----0
  6
CONTINUOUS
  5
33F
 10
391.223346
 20
222.54534
 30
0.0
 11
387.2282
 21
226.540486
 31
0.0
  0
LINE
  8
LC-004-005-----0
  6
CONTINUOUS
  5
340
 10
454.59688
 20
156.343379
 30
0.0
 11
450.59688
 21
160.343379
 31
0.0
  0
LINE
  8
LC-004-005-----0
  6
CONTINUOUS
  5
341
 10
391.223346
 20
219.716913
 30
0.0
 11
387.2282
 21
223.712059
 31
0.0
  0
LINE
  8
LC-004-005-----0
  6
CONTINUOUS
  5
342
 10
451.768453
 20
156.343379
 30
0.0
 11
447.768453
 21
160.343379
 31
0.0
  0
LINE
  8
LC-004-005-----0
  6
CONTINUOUS
  5
343
 10
391.223346
 20
216.888486
 30
0.0
 11
387.2282
 21
220.883632
 31
0.0
  0
LINE
  8
LC-004-005-----0
  6
CONTINUOUS
  5
344
 10
448.940026
 20
156.343379
 30
0.0
 11
444.940026
 21
160.343379
 31
0.0
  0
LINE
  8
LC-004-005-----0
  6
CONTINUOUS
  5
345
 10
391.223346
 20
214.060059
 30
0.0
 11
387.2282
 21
218.055204
 31
0.0
  0
LINE
  8
LC-004-005-----0
  6
CONTINUOUS
  5
346
 10
446.111598
 20
156.343379
 30
0.0
 11
442.111598
 21
160.343379
 31
0.0
  0
LINE
  8
LC-004-005-----0
  6
CONTINUOUS
  5
347
 10
391.134839
 20
211.320138
 30
0.0
 11
387.2282
 21
215.226777
 31
0.0
  0
LINE
  8
LC-004-005-----0
  6
CONTINUOUS
  5
348
 10
443.283171
 20
156.343379
 30
0.0
 11
439.283171
 21
160.343379
 31
0.0
  0
LINE
  8
LC-004-005-----0
  6
CONTINUOUS
  5
349
 10
390.368779
 20
209.257772
 30
0.0
 11
387.2282
 21
212.39835
 31
0.0
  0
LINE
  8
LC-004-005-----0
  6
CONTINUOUS
  5
34A
 10
440.454744
 20
156.343379
 30
0.0
 11
436.454744
 21
160.343379
 31
0.0
  0
LINE
  8
LC-004-005-----0
  6
CONTINUOUS
  5
34B
 10
389.064192
 20
207.733931
 30
0.0
 11
386.433453
 21
210.36467
 31
0.0
  0
LINE
  8
LC-004-005-----0
  6
CONTINUOUS
  5
34C
 10
437.626317
 20
156.343379
 30
0.0
 11
433.626317
 21
160.343379
 31
0.0
  0
LINE
  8
LC-004-005-----0
  6
CONTINUOUS
  5
34D
 10
387.26781
 20
206.701886
 30
0.0
 11
383.626317
 21
210.343379
 31
0.0
  0
LINE
  8
LC-004-005-----0
  6
CONTINUOUS
  5
34E
 10
434.79789
 20
156.343379
 30
0.0
 11
430.79789
 21
160.343379
 31
0.0
  0
LINE
  8
LC-004-005-----0
  6
CONTINUOUS
  5
34F
 10
384.79789
 20
206.343379
 30
0.0
 11
380.79789
 21
210.343379
 31
0.0
  0
LINE
  8
LC-004-005-----0
  6
CONTINUOUS
  5
350
 10
431.969463
 20
156.343379
 30
0.0
 11
427.969463
 21
160.343379
 31
0.0
  0
LINE
  8
LC-004-005-----0
  6
CONTINUOUS
  5
351
 10
382.402872
 20
205.90997
 30
0.0
 11
378.690548
 21
209.622294
 31
0.0
  0
LINE
  8
LC-004-005-----0
  6
CONTINUOUS
  5
352
 10
429.141036
 20
156.343379
 30
0.0
 11
425.141036
 21
160.343379
 31
0.0
  0
LINE
  8
LC-004-005-----0
  6
CONTINUOUS
  5
353
 10
382.22687
 20
203.257544
 30
0.0
 11
378.2282
 21
207.256215
 31
0.0
  0
LINE
  8
LC-004-005-----0
  6
CONTINUOUS
  5
354
 10
426.312609
 20
156.343379
 30
0.0
 11
422.312609
 21
160.343379
 31
0.0
  0
LINE
  8
LC-004-005-----0
  6
CONTINUOUS
  5
355
 10
382.22687
 20
200.429117
 30
0.0
 11
378.2282
 21
204.427787
 31
0.0
  0
LINE
  8
LC-004-005-----0
  6
CONTINUOUS
  5
356
 10
423.484181
 20
156.343379
 30
0.0
 11
419.484181
 21
160.343379
 31
0.0
  0
LINE
  8
LC-004-005-----0
  6
CONTINUOUS
  5
357
 10
382.22687
 20
197.60069
 30
0.0
 11
378.2282
 21
201.59936
 31
0.0
  0
LINE
  8
LC-004-005-----0
  6
CONTINUOUS
  5
358
 10
420.655754
 20
156.343379
 30
0.0
 11
416.655754
 21
160.343379
 31
0.0
  0
LINE
  8
LC-004-005-----0
  6
CONTINUOUS
  5
359
 10
382.22687
 20
194.772263
 30
0.0
 11
378.2282
 21
198.770933
 31
0.0
  0
LINE
  8
LC-004-005-----0
  6
CONTINUOUS
  5
35A
 10
417.827327
 20
156.343379
 30
0.0
 11
413.827327
 21
160.343379
 31
0.0
  0
LINE
  8
LC-004-005-----0
  6
CONTINUOUS
  5
35B
 10
382.22687
 20
191.943836
 30
0.0
 11
378.2282
 21
195.942506
 31
0.0
  0
LINE
  8
LC-004-005-----0
  6
CONTINUOUS
  5
35C
 10
414.9989
 20
156.343379
 30
0.0
 11
410.9989
 21
160.343379
 31
0.0
  0
LINE
  8
LC-004-005-----0
  6
CONTINUOUS
  5
35D
 10
382.22687
 20
189.115409
 30
0.0
 11
378.2282
 21
193.114079
 31
0.0
  0
LINE
  8
LC-004-005-----0
  6
CONTINUOUS
  5
35E
 10
412.170473
 20
156.343379
 30
0.0
 11
408.170473
 21
160.343379
 31
0.0
  0
LINE
  8
LC-004-005-----0
  6
CONTINUOUS
  5
35F
 10
382.22687
 20
186.286982
 30
0.0
 11
378.2282
 21
190.285652
 31
0.0
  0
LINE
  8
LC-004-005-----0
  6
CONTINUOUS
  5
360
 10
409.342046
 20
156.343379
 30
0.0
 11
405.342046
 21
160.343379
 31
0.0
  0
LINE
  8
LC-004-005-----0
  6
CONTINUOUS
  5
361
 10
382.22687
 20
183.458554
 30
0.0
 11
378.2282
 21
187.457225
 31
0.0
  0
LINE
  8
LC-004-005-----0
  6
CONTINUOUS
  5
362
 10
406.513619
 20
156.343379
 30
0.0
 11
402.513619
 21
160.343379
 31
0.0
  0
LINE
  8
LC-004-005-----0
  6
CONTINUOUS
  5
363
 10
382.22687
 20
180.630127
 30
0.0
 11
378.2282
 21
184.628798
 31
0.0
  0
LINE
  8
LC-004-005-----0
  6
CONTINUOUS
  5
364
 10
403.685192
 20
156.343379
 30
0.0
 11
399.685192
 21
160.343379
 31
0.0
  0
LINE
  8
LC-004-005-----0
  6
CONTINUOUS
  5
365
 10
381.918245
 20
178.110325
 30
0.0
 11
378.2282
 21
181.80037
 31
0.0
  0
LINE
  8
LC-004-005-----0
  6
CONTINUOUS
  5
366
 10
400.856764
 20
156.343379
 30
0.0
 11
396.856764
 21
160.343379
 31
0.0
  0
LINE
  8
LC-004-005-----0
  6
CONTINUOUS
  5
367
 10
380.827432
 20
176.372712
 30
0.0
 11
377.843329
 21
179.356814
 31
0.0
  0
LINE
  8
LC-004-005-----0
  6
CONTINUOUS
  5
368
 10
398.028337
 20
156.343379
 30
0.0
 11
394.028337
 21
160.343379
 31
0.0
  0
LINE
  8
LC-004-005-----0
  6
CONTINUOUS
  5
369
 10
379.028337
 20
175.343379
 30
0.0
 11
375.028337
 21
179.343379
 31
0.0
  0
LINE
  8
LC-004-005-----0
  6
CONTINUOUS
  5
36A
 10
395.19991
 20
156.343379
 30
0.0
 11
391.19991
 21
160.343379
 31
0.0
  0
LINE
  8
LC-004-005-----0
  6
CONTINUOUS
  5
36B
 10
377.7282
 20
173.815089
 30
0.0
 11
373.7282
 21
177.815089
 31
0.0
  0
LINE
  8
LC-004-005-----0
  6
CONTINUOUS
  5
36C
 10
392.371483
 20
156.343379
 30
0.0
 11
388.371483
 21
160.343379
 31
0.0
  0
LINE
  8
LC-004-005-----0
  6
CONTINUOUS
  5
36D
 10
377.7282
 20
170.986662
 30
0.0
 11
373.7282
 21
174.986662
 31
0.0
  0
LINE
  8
LC-004-005-----0
  6
CONTINUOUS
  5
36E
 10
389.543056
 20
156.343379
 30
0.0
 11
385.543056
 21
160.343379
 31
0.0
  0
LINE
  8
LC-004-005-----0
  6
CONTINUOUS
  5
36F
 10
377.7282
 20
168.158235
 30
0.0
 11
373.7282
 21
172.158235
 31
0.0
  0
LINE
  8
LC-004-005-----0
  6
CONTINUOUS
  5
370
 10
386.714629
 20
156.343379
 30
0.0
 11
382.714629
 21
160.343379
 31
0.0
  0
LINE
  8
LC-004-005-----0
  6
CONTINUOUS
  5
371
 10
377.7282
 20
165.329808
 30
0.0
 11
373.7282
 21
169.329808
 31
0.0
  0
LINE
  8
LC-004-005-----0
  6
CONTINUOUS
  5
372
 10
383.886202
 20
156.343379
 30
0.0
 11
379.886202
 21
160.343379
 31
0.0
  0
LINE
  8
LC-004-005-----0
  6
CONTINUOUS
  5
373
 10
377.7282
 20
162.501381
 30
0.0
 11
373.7282
 21
166.501381
 31
0.0
  0
LINE
  8
LC-004-005-----0
  6
CONTINUOUS
  5
374
 10
381.057775
 20
156.343379
 30
0.0
 11
373.7282
 21
163.672953
 31
0.0
  0
LINE
  8
LC-004-005-----0
  6
CONTINUOUS
  5
375
 10
378.229347
 20
156.343379
 30
0.0
 11
373.7282
 21
160.844526
 31
0.0
  0
LINE
  8
LC-004-005-----0
  6
CONTINUOUS
  5
376
 10
375.40092
 20
156.343379
 30
0.0
 11
373.688274
 21
158.056025
 31
0.0
  0
ENDBLK
  8
0
  5
377
  0
BLOCK
  8
0
  5
379
  2
*D36
 70
    65
 10
0.0
 20
0.0
 30
0.0
  3
*D36
  0
LINE
  8
LC-006-003-MTH-0
  6
CONTINUOUS
  5
37B
 10
158.2282
 20
346.541978
 30
0.0
 11
158.2282
 21
442.8
 31
0.0
  0
LINE
  8
LC-006-003-MTH-0
  6
CONTINUOUS
  5
37C
 10
418.2282
 20
346.541978
 30
0.0
 11
418.2282
 21
442.8
 31
0.0
  0
LINE
  8
LC-007-003-MTG-0
  6
CONTINUOUS
  5
37E
 10
158.2282
 20
432.0
 30
0.0
 11
418.2282
 21
432.0
 31
0.0
  0
LINE
  8
LC-005-003-----0
  6
CONTINUOUS
  5
380
 10
176.074208
 20
434.349471
 30
0.0
 11
158.2282
 21
432.0
 31
0.0
  0
LINE
  8
LC-005-003-----0
  6
CONTINUOUS
  5
381
 10
158.2282
 20
432.0
 30
0.0
 11
176.074208
 21
429.650529
 31
0.0
  0
LINE
  8
LC-005-003-----0
  6
CONTINUOUS
  5
382
 10
176.074208
 20
429.650529
 30
0.0
 11
176.074208
 21
434.349471
 31
0.0
  0
LINE
  8
LC-005-003-----0
  6
CONTINUOUS
  5
383
 10
176.114246
 20
433.738609
 30
0.0
 11
162.9082
 21
432.0
 31
0.0
  0
LINE
  8
LC-005-003-----0
  6
CONTINUOUS
  5
384
 10
162.9082
 20
432.0
 30
0.0
 11
176.114246
 21
430.261391
 31
0.0
  0
LINE
  8
LC-005-003-----0
  6
CONTINUOUS
  5
385
 10
176.154284
 20
433.127746
 30
0.0
 11
167.5882
 21
432.0
 31
0.0
  0
LINE
  8
LC-005-003-----0
  6
CONTINUOUS
  5
386
 10
167.5882
 20
432.0
 30
0.0
 11
176.154284
 21
430.872254
 31
0.0
  0
LINE
  8
LC-005-003-----0
  6
CONTINUOUS
  5
387
 10
176.194322
 20
432.516884
 30
0.0
 11
172.2682
 21
432.0
 31
0.0
  0
LINE
  8
LC-005-003-----0
  6
CONTINUOUS
  5
388
 10
172.2682
 20
432.0
 30
0.0
 11
176.194322
 21
431.483116
 31
0.0
  0
LINE
  8
LC-005-003-----0
  6
CONTINUOUS
  5
389
 10
400.382193
 20
429.650529
 30
0.0
 11
418.2282
 21
432.0
 31
0.0
  0
LINE
  8
LC-005-003-----0
  6
CONTINUOUS
  5
38A
 10
418.2282
 20
432.0
 30
0.0
 11
400.382193
 21
434.349471
 31
0.0
  0
LINE
  8
LC-005-003-----0
  6
CONTINUOUS
  5
38B
 10
400.382193
 20
434.349471
 30
0.0
 11
400.382193
 21
429.650529
 31
0.0
  0
LINE
  8
LC-005-003-----0
  6
CONTINUOUS
  5
38C
 10
400.342155
 20
430.261391
 30
0.0
 11
413.5482
 21
432.0
 31
0.0
  0
LINE
  8
LC-005-003-----0
  6
CONTINUOUS
  5
38D
 10
413.5482
 20
432.0
 30
0.0
 11
400.342155
 21
433.738609
 31
0.0
  0
LINE
  8
LC-005-003-----0
  6
CONTINUOUS
  5
38E
 10
400.302117
 20
430.872254
 30
0.0
 11
408.8682
 21
432.0
 31
0.0
  0
LINE
  8
LC-005-003-----0
  6
CONTINUOUS
  5
38F
 10
408.8682
 20
432.0
 30
0.0
 11
400.302117
 21
433.127746
 31
0.0
  0
LINE
  8
LC-005-003-----0
  6
CONTINUOUS
  5
390
 10
400.262079
 20
431.483116
 30
0.0
 11
404.1882
 21
432.0
 31
0.0
  0
LINE
  8
LC-005-003-----0
  6
CONTINUOUS
  5
391
 10
404.1882
 20
432.0
 30
0.0
 11
400.262079
 21
432.516884
 31
0.0
  0
TEXT
  8
LC-005-003-----0
  6
CONTINUOUS
 62
     6
  5
393
 10
271.889588
 20
442.431999
 30
0.0
 40
18.0
  1
260
 41
0.9
 51
15.0
  7
LC-TXTSTYLE-150-400-0-0-D0
 72
     1
 11
291.023446
 21
442.431999
 31
0.0
  0
ENDBLK
  8
0
  5
394
  0
BLOCK
  8
0
  5
396
  2
*D37
 70
    65
 10
0.0
 20
0.0
 30
0.0
  3
*D37
  0
LINE
  8
LC-006-003-MTH-0
  6
CONTINUOUS
  5
397
 10
176.729571
 20
364.437306
 30
0.0
 11
176.729571
 21
406.8
 31
0.0
  0
LINE
  8
LC-006-003-MTH-0
  6
CONTINUOUS
  5
398
 10
399.72683
 20
364.437306
 30
0.0
 11
399.72683
 21
406.8
 31
0.0
  0
LINE
  8
LC-007-003-MTG-0
  6
CONTINUOUS
  5
399
 10
176.729571
 20
396.0
 30
0.0
 11
399.72683
 21
396.0
 31
0.0
  0
LINE
  8
LC-005-003-----0
  6
CONTINUOUS
  5
39A
 10
194.575578
 20
398.349471
 30
0.0
 11
176.729571
 21
396.0
 31
0.0
  0
LINE
  8
LC-005-003-----0
  6
CONTINUOUS
  5
39B
 10
176.729571
 20
396.0
 30
0.0
 11
194.575578
 21
393.650529
 31
0.0
  0
LINE
  8
LC-005-003-----0
  6
CONTINUOUS
  5
39C
 10
194.575578
 20
393.650529
 30
0.0
 11
194.575578
 21
398.349471
 31
0.0
  0
LINE
  8
LC-005-003-----0
  6
CONTINUOUS
  5
39D
 10
194.615616
 20
397.738609
 30
0.0
 11
181.409571
 21
396.0
 31
0.0
  0
LINE
  8
LC-005-003-----0
  6
CONTINUOUS
  5
39E
 10
181.409571
 20
396.0
 30
0.0
 11
194.615616
 21
394.261391
 31
0.0
  0
LINE
  8
LC-005-003-----0
  6
CONTINUOUS
  5
39F
 10
194.655654
 20
397.127746
 30
0.0
 11
186.089571
 21
396.0
 31
0.0
  0
LINE
  8
LC-005-003-----0
  6
CONTINUOUS
  5
3A0
 10
186.089571
 20
396.0
 30
0.0
 11
194.655654
 21
394.872254
 31
0.0
  0
LINE
  8
LC-005-003-----0
  6
CONTINUOUS
  5
3A1
 10
194.695692
 20
396.516884
 30
0.0
 11
190.769571
 21
396.0
 31
0.0
  0
LINE
  8
LC-005-003-----0
  6
CONTINUOUS
  5
3A2
 10
190.769571
 20
396.0
 30
0.0
 11
194.695692
 21
395.483116
 31
0.0
  0
LINE
  8
LC-005-003-----0
  6
CONTINUOUS
  5
3A3
 10
381.880822
 20
393.650529
 30
0.0
 11
399.72683
 21
396.0
 31
0.0
  0
LINE
  8
LC-005-003-----0
  6
CONTINUOUS
  5
3A4
 10
399.72683
 20
396.0
 30
0.0
 11
381.880822
 21
398.349471
 31
0.0
  0
LINE
  8
LC-005-003-----0
  6
CONTINUOUS
  5
3A5
 10
381.880822
 20
398.349471
 30
0.0
 11
381.880822
 21
393.650529
 31
0.0
  0
LINE
  8
LC-005-003-----0
  6
CONTINUOUS
  5
3A6
 10
381.840784
 20
394.261391
 30
0.0
 11
395.04683
 21
396.0
 31
0.0
  0
LINE
  8
LC-005-003-----0
  6
CONTINUOUS
  5
3A7
 10
395.04683
 20
396.0
 30
0.0
 11
381.840784
 21
397.738609
 31
0.0
  0
LINE
  8
LC-005-003-----0
  6
CONTINUOUS
  5
3A8
 10
381.800746
 20
394.872254
 30
0.0
 11
390.36683
 21
396.0
 31
0.0
  0
LINE
  8
LC-005-003-----0
  6
CONTINUOUS
  5
3A9
 10
390.36683
 20
396.0
 30
0.0
 11
381.800746
 21
397.127746
 31
0.0
  0
LINE
  8
LC-005-003-----0
  6
CONTINUOUS
  5
3AA
 10
381.760708
 20
395.483116
 30
0.0
 11
385.68683
 21
396.0
 31
0.0
  0
LINE
  8
LC-005-003-----0
  6
CONTINUOUS
  5
3AB
 10
385.68683
 20
396.0
 30
0.0
 11
381.760708
 21
396.516884
 31
0.0
  0
TEXT
  8
LC-005-003-----0
  6
CONTINUOUS
 62
     6
  5
3AC
 10
271.889588
 20
406.431999
 30
0.0
 40
18.0
  1
226
 51
15.0
  7
LC-TXTSTYLE-150-400-0-0-D0
 72
     1
 11
291.023446
 21
406.431999
 31
0.0
  0
ENDBLK
  8
0
  5
3AD
  0
BLOCK
  8
0
  5
3AF
  2
*D38
 70
    65
 10
0.0
 20
0.0
 30
0.0
  3
*D38
  0
LINE
  8
LC-006-003-MTH-0
  6
CONTINUOUS
  5
3B0
 10
129.7282
 20
239.843379
 30
0.0
 11
129.7282
 21
478.8
 31
0.0
  0
LINE
  8
LC-006-003-MTH-0
  6
CONTINUOUS
  5
3B1
 10
446.7282
 20
239.843379
 30
0.0
 11
446.7282
 21
478.8
 31
0.0
  0
LINE
  8
LC-007-003-MTG-0
  6
CONTINUOUS
  5
3B2
 10
129.7282
 20
468.0
 30
0.0
 11
446.7282
 21
468.0
 31
0.0
  0
LINE
  8
LC-005-003-----0
  6
CONTINUOUS
  5
3B3
 10
147.574208
 20
470.349471
 30
0.0
 11
129.7282
 21
468.0
 31
0.0
  0
LINE
  8
LC-005-003-----0
  6
CONTINUOUS
  5
3B4
 10
129.7282
 20
468.0
 30
0.0
 11
147.574208
 21
465.650529
 31
0.0
  0
LINE
  8
LC-005-003-----0
  6
CONTINUOUS
  5
3B5
 10
147.574208
 20
465.650529
 30
0.0
 11
147.574208
 21
470.349471
 31
0.0
  0
LINE
  8
LC-005-003-----0
  6
CONTINUOUS
  5
3B6
 10
147.614246
 20
469.738609
 30
0.0
 11
134.4082
 21
468.0
 31
0.0
  0
LINE
  8
LC-005-003-----0
  6
CONTINUOUS
  5
3B7
 10
134.4082
 20
468.0
 30
0.0
 11
147.614246
 21
466.261391
 31
0.0
  0
LINE
  8
LC-005-003-----0
  6
CONTINUOUS
  5
3B8
 10
147.654284
 20
469.127746
 30
0.0
 11
139.0882
 21
468.0
 31
0.0
  0
LINE
  8
LC-005-003-----0
  6
CONTINUOUS
  5
3B9
 10
139.0882
 20
468.0
 30
0.0
 11
147.654284
 21
466.872254
 31
0.0
  0
LINE
  8
LC-005-003-----0
  6
CONTINUOUS
  5
3BA
 10
147.694322
 20
468.516884
 30
0.0
 11
143.7682
 21
468.0
 31
0.0
  0
LINE
  8
LC-005-003-----0
  6
CONTINUOUS
  5
3BB
 10
143.7682
 20
468.0
 30
0.0
 11
147.694322
 21
467.483116
 31
0.0
  0
LINE
  8
LC-005-003-----0
  6
CONTINUOUS
  5
3BC
 10
428.882193
 20
465.650529
 30
0.0
 11
446.7282
 21
468.0
 31
0.0
  0
LINE
  8
LC-005-003-----0
  6
CONTINUOUS
  5
3BD
 10
446.7282
 20
468.0
 30
0.0
 11
428.882193
 21
470.349471
 31
0.0
  0
LINE
  8
LC-005-003-----0
  6
CONTINUOUS
  5
3BE
 10
428.882193
 20
470.349471
 30
0.0
 11
428.882193
 21
465.650529
 31
0.0
  0
LINE
  8
LC-005-003-----0
  6
CONTINUOUS
  5
3BF
 10
428.842155
 20
466.261391
 30
0.0
 11
442.0482
 21
468.0
 31
0.0
  0
LINE
  8
LC-005-003-----0
  6
CONTINUOUS
  5
3C0
 10
442.0482
 20
468.0
 30
0.0
 11
428.842155
 21
469.738609
 31
0.0
  0
LINE
  8
LC-005-003-----0
  6
CONTINUOUS
  5
3C1
 10
428.802117
 20
466.872254
 30
0.0
 11
437.3682
 21
468.0
 31
0.0
  0
LINE
  8
LC-005-003-----0
  6
CONTINUOUS
  5
3C2
 10
437.3682
 20
468.0
 30
0.0
 11
428.802117
 21
469.127746
 31
0.0
  0
LINE
  8
LC-005-003-----0
  6
CONTINUOUS
  5
3C3
 10
428.762079
 20
467.483116
 30
0.0
 11
432.6882
 21
468.0
 31
0.0
  0
LINE
  8
LC-005-003-----0
  6
CONTINUOUS
  5
3C4
 10
432.6882
 20
468.0
 30
0.0
 11
428.762079
 21
468.516884
 31
0.0
  0
TEXT
  8
LC-005-003-----0
  6
CONTINUOUS
 62
     6
  5
3C5
 10
266.532107
 20
478.431999
 30
0.0
 40
18.0
  1
Ø315
 51
15.0
  7
LC-TXTSTYLE-150-400-0-0-D0
 72
     1
 11
291.023446
 21
478.431999
 31
0.0
  0
ENDBLK
  8
0
  5
3C6
  0
BLOCK
  8
0
  5
3C8
  2
*D39
 70
    65
 10
0.0
 20
0.0
 30
0.0
  3
*D39
  0
LINE
  8
LC-006-003-MTH-0
  6
CONTINUOUS
  5
3C9
 10
377.7282
 20
160.343379
 30
0.0
 11
377.7282
 21
190.8
 31
0.0
  0
LINE
  8
LC-006-003-MTH-0
  6
CONTINUOUS
  5
3CA
 10
458.2282
 20
156.343379
 30
0.0
 11
458.2282
 21
190.8
 31
0.0
  0
LINE
  8
LC-007-003-MTG-0
  6
CONTINUOUS
  5
3CB
 10
377.7282
 20
180.0
 30
0.0
 11
458.2282
 21
180.0
 31
0.0
  0
LINE
  8
LC-005-003-----0
  6
CONTINUOUS
  5
3CC
 10
395.574208
 20
182.349471
 30
0.0
 11
377.7282
 21
180.0
 31
0.0
  0
LINE
  8
LC-005-003-----0
  6
CONTINUOUS
  5
3CD
 10
377.7282
 20
180.0
 30
0.0
 11
395.574208
 21
177.650529
 31
0.0
  0
LINE
  8
LC-005-003-----0
  6
CONTINUOUS
  5
3CE
 10
395.574208
 20
177.650529
 30
0.0
 11
395.574208
 21
182.349471
 31
0.0
  0
LINE
  8
LC-005-003-----0
  6
CONTINUOUS
  5
3CF
 10
395.614246
 20
181.738609
 30
0.0
 11
382.4082
 21
180.0
 31
0.0
  0
LINE
  8
LC-005-003-----0
  6
CONTINUOUS
  5
3D0
 10
382.4082
 20
180.0
 30
0.0
 11
395.614246
 21
178.261391
 31
0.0
  0
LINE
  8
LC-005-003-----0
  6
CONTINUOUS
  5
3D1
 10
395.654284
 20
181.127746
 30
0.0
 11
387.0882
 21
180.0
 31
0.0
  0
LINE
  8
LC-005-003-----0
  6
CONTINUOUS
  5
3D2
 10
387.0882
 20
180.0
 30
0.0
 11
395.654284
 21
178.872254
 31
0.0
  0
LINE
  8
LC-005-003-----0
  6
CONTINUOUS
  5
3D3
 10
395.694322
 20
180.516884
 30
0.0
 11
391.7682
 21
180.0
 31
0.0
  0
LINE
  8
LC-005-003-----0
  6
CONTINUOUS
  5
3D4
 10
391.7682
 20
180.0
 30
0.0
 11
395.694322
 21
179.483116
 31
0.0
  0
LINE
  8
LC-005-003-----0
  6
CONTINUOUS
  5
3D5
 10
440.382193
 20
177.650529
 30
0.0
 11
458.2282
 21
180.0
 31
0.0
  0
LINE
  8
LC-005-003-----0
  6
CONTINUOUS
  5
3D6
 10
458.2282
 20
180.0
 30
0.0
 11
440.382193
 21
182.349471
 31
0.0
  0
LINE
  8
LC-005-003-----0
  6
CONTINUOUS
  5
3D7
 10
440.382193
 20
182.349471
 30
0.0
 11
440.382193
 21
177.650529
 31
0.0
  0
LINE
  8
LC-005-003-----0
  6
CONTINUOUS
  5
3D8
 10
440.342155
 20
178.261391
 30
0.0
 11
453.5482
 21
180.0
 31
0.0
  0
LINE
  8
LC-005-003-----0
  6
CONTINUOUS
  5
3D9
 10
453.5482
 20
180.0
 30
0.0
 11
440.342155
 21
181.738609
 31
0.0
  0
LINE
  8
LC-005-003-----0
  6
CONTINUOUS
  5
3DA
 10
440.302117
 20
178.872254
 30
0.0
 11
448.8682
 21
180.0
 31
0.0
  0
LINE
  8
LC-005-003-----0
  6
CONTINUOUS
  5
3DB
 10
448.8682
 20
180.0
 30
0.0
 11
440.302117
 21
181.127746
 31
0.0
  0
LINE
  8
LC-005-003-----0
  6
CONTINUOUS
  5
3DC
 10
440.262079
 20
179.483116
 30
0.0
 11
444.1882
 21
180.0
 31
0.0
  0
LINE
  8
LC-005-003-----0
  6
CONTINUOUS
  5
3DD
 10
444.1882
 20
180.0
 30
0.0
 11
440.262079
 21
180.516884
 31
0.0
  0
TEXT
  8
LC-005-003-----0
  6
CONTINUOUS
 62
     6
  5
3DE
 10
398.323052
 20
190.431999
 30
0.0
 40
18.0
  1
80,5
 51
15.0
  7
LC-TXTSTYLE-150-400-0-0-D0
 72
     1
 11
420.773446
 21
190.431999
 31
0.0
  0
ENDBLK
  8
0
  5
3DF
  0
BLOCK
  8
0
  5
3E1
  2
*D40
 70
    65
 10
0.0
 20
0.0
 30
0.0
  3
*D40
  0
LINE
  8
LC-006-003-MTH-0
  6
CONTINUOUS
  5
3E2
 10
453.7282
 20
50.343379
 30
0.0
 11
514.8
 21
50.343379
 31
0.0
  0
LINE
  8
LC-006-003-MTH-0
  6
CONTINUOUS
  5
3E3
 10
453.7282
 20
160.343379
 30
0.0
 11
514.8
 21
160.343379
 31
0.0
  0
LINE
  8
LC-007-003-MTG-0
  6
CONTINUOUS
  5
3E4
 10
504.0
 20
50.343379
 30
0.0
 11
504.0
 21
160.343379
 31
0.0
  0
LINE
  8
LC-005-003-----0
  6
CONTINUOUS
  5
3E5
 10
501.650529
 20
68.189387
 30
0.0
 11
504.0
 21
50.343379
 31
0.0
  0
LINE
  8
LC-005-003-----0
  6
CONTINUOUS
  5
3E6
 10
504.0
 20
50.343379
 30
0.0
 11
506.349471
 21
68.189387
 31
0.0
  0
LINE
  8
LC-005-003-----0
  6
CONTINUOUS
  5
3E7
 10
506.349471
 20
68.189387
 30
0.0
 11
501.650529
 21
68.189387
 31
0.0
  0
LINE
  8
LC-005-003-----0
  6
CONTINUOUS
  5
3E8
 10
502.261391
 20
68.229425
 30
0.0
 11
504.0
 21
55.023379
 31
0.0
  0
LINE
  8
LC-005-003-----0
  6
CONTINUOUS
  5
3E9
 10
504.0
 20
55.023379
 30
0.0
 11
505.738609
 21
68.229425
 31
0.0
  0
LINE
  8
LC-005-003-----0
  6
CONTINUOUS
  5
3EA
 10
502.872254
 20
68.269463
 30
0.0
 11
504.0
 21
59.703379
 31
0.0
  0
LINE
  8
LC-005-003-----0
  6
CONTINUOUS
  5
3EB
 10
504.0
 20
59.703379
 30
0.0
 11
505.127746
 21
68.269463
 31
0.0
  0
LINE
  8
LC-005-003-----0
  6
CONTINUOUS
  5
3EC
 10
503.483116
 20
68.309501
 30
0.0
 11
504.0
 21
64.383379
 31
0.0
  0
LINE
  8
LC-005-003-----0
  6
CONTINUOUS
  5
3ED
 10
504.0
 20
64.383379
 30
0.0
 11
504.516884
 21
68.309501
 31
0.0
  0
LINE
  8
LC-005-003-----0
  6
CONTINUOUS
  5
3EE
 10
506.349471
 20
142.497372
 30
0.0
 11
504.0
 21
160.343379
 31
0.0
  0
LINE
  8
LC-005-003-----0
  6
CONTINUOUS
  5
3EF
 10
504.0
 20
160.343379
 30
0.0
 11
501.650529
 21
142.497372
 31
0.0
  0
LINE
  8
LC-005-003-----0
  6
CONTINUOUS
  5
3F0
 10
501.650529
 20
142.497372
 30
0.0
 11
506.349471
 21
142.497372
 31
0.0
  0
LINE
  8
LC-005-003-----0
  6
CONTINUOUS
  5
3F1
 10
505.738609
 20
142.457334
 30
0.0
 11
504.0
 21
155.663379
 31
0.0
  0
LINE
  8
LC-005-003-----0
  6
CONTINUOUS
  5
3F2
 10
504.0
 20
155.663379
 30
0.0
 11
502.261391
 21
142.457334
 31
0.0
  0
LINE
  8
LC-005-003-----0
  6
CONTINUOUS
  5
3F3
 10
505.127746
 20
142.417296
 30
0.0
 11
504.0
 21
150.983379
 31
0.0
  0
LINE
  8
LC-005-003-----0
  6
CONTINUOUS
  5
3F4
 10
504.0
 20
150.983379
 30
0.0
 11
502.872254
 21
142.417296
 31
0.0
  0
LINE
  8
LC-005-003-----0
  6
CONTINUOUS
  5
3F5
 10
504.516884
 20
142.377258
 30
0.0
 11
504.0
 21
146.303379
 31
0.0
  0
LINE
  8
LC-005-003-----0
  6
CONTINUOUS
  5
3F6
 10
504.0
 20
146.303379
 30
0.0
 11
503.483116
 21
142.377258
 31
0.0
  0
TEXT
  8
LC-005-003-----0
  6
CONTINUOUS
 62
     6
  5
3F7
 10
493.568001
 20
74.463034
 30
0.0
 40
18.0
  1
DN100
 50
90.0
 51
15.0
  7
LC-TXTSTYLE-150-400-0-0-D0
 72
     1
 11
493.568001
 21
108.138625
 31
0.0
  0
ENDBLK
  8
0
  5
3F8
  0
BLOCK
  8
0
  5
3FA
  2
*D41
 70
    65
 10
0.0
 20
0.0
 30
0.0
  3
*D41
  0
LINE
  8
LC-006-003-MTH-0
  6
CONTINUOUS
  5
3FB
 10
129.7282
 20
239.843379
 30
0.0
 11
61.2
 21
239.843379
 31
0.0
  0
LINE
  8
LC-006-003-MTH-0
  6
CONTINUOUS
  5
3FC
 10
163.439793
 20
366.541978
 30
0.0
 11
61.2
 21
366.541978
 31
0.0
  0
LINE
  8
LC-007-003-MTG-0
  6
CONTINUOUS
  5
3FD
 10
72.0
 20
239.843379
 30
0.0
 11
72.0
 21
366.541978
 31
0.0
  0
LINE
  8
LC-005-003-----0
  6
CONTINUOUS
  5
3FE
 10
69.650529
 20
257.689387
 30
0.0
 11
72.0
 21
239.843379
 31
0.0
  0
LINE
  8
LC-005-003-----0
  6
CONTINUOUS
  5
3FF
 10
72.0
 20
239.843379
 30
0.0
 11
74.349471
 21
257.689387
 31
0.0
  0
LINE
  8
LC-005-003-----0
  6
CONTINUOUS
  5
400
 10
74.349471
 20
257.689387
 30
0.0
 11
69.650529
 21
257.689387
 31
0.0
  0
LINE
  8
LC-005-003-----0
  6
CONTINUOUS
  5
401
 10
70.261391
 20
257.729425
 30
0.0
 11
72.0
 21
244.523379
 31
0.0
  0
LINE
  8
LC-005-003-----0
  6
CONTINUOUS
  5
402
 10
72.0
 20
244.523379
 30
0.0
 11
73.738609
 21
257.729425
 31
0.0
  0
LINE
  8
LC-005-003-----0
  6
CONTINUOUS
  5
403
 10
70.872254
 20
257.769463
 30
0.0
 11
72.0
 21
249.203379
 31
0.0
  0
LINE
  8
LC-005-003-----0
  6
CONTINUOUS
  5
404
 10
72.0
 20
249.203379
 30
0.0
 11
73.127746
 21
257.769463
 31
0.0
  0
LINE
  8
LC-005-003-----0
  6
CONTINUOUS
  5
405
 10
71.483116
 20
257.809501
 30
0.0
 11
72.0
 21
253.883379
 31
0.0
  0
LINE
  8
LC-005-003-----0
  6
CONTINUOUS
  5
406
 10
72.0
 20
253.883379
 30
0.0
 11
72.516884
 21
257.809501
 31
0.0
  0
LINE
  8
LC-005-003-----0
  6
CONTINUOUS
  5
407
 10
74.349471
 20
348.695971
 30
0.0
 11
72.0
 21
366.541978
 31
0.0
  0
LINE
  8
LC-005-003-----0
  6
CONTINUOUS
  5
408
 10
72.0
 20
366.541978
 30
0.0
 11
69.650529
 21
348.695971
 31
0.0
  0
LINE
  8
LC-005-003-----0
  6
CONTINUOUS
  5
409
 10
69.650529
 20
348.695971
 30
0.0
 11
74.349471
 21
348.695971
 31
0.0
  0
LINE
  8
LC-005-003-----0
  6
CONTINUOUS
  5
40A
 10
73.738609
 20
348.655932
 30
0.0
 11
72.0
 21
361.861978
 31
0.0
  0
LINE
  8
LC-005-003-----0
  6
CONTINUOUS
  5
40B
 10
72.0
 20
361.861978
 30
0.0
 11
70.261391
 21
348.655932
 31
0.0
  0
LINE
  8
LC-005-003-----0
  6
CONTINUOUS
  5
40C
 10
73.127746
 20
348.615894
 30
0.0
 11
72.0
 21
357.181978
 31
0.0
  0
LINE
  8
LC-005-003-----0
  6
CONTINUOUS
  5
40D
 10
72.0
 20
357.181978
 30
0.0
 11
70.872254
 21
348.615894
 31
0.0
  0
LINE
  8
LC-005-003-----0
  6
CONTINUOUS
  5
40E
 10
72.516884
 20
348.575856
 30
0.0
 11
72.0
 21
352.501978
 31
0.0
  0
LINE
  8
LC-005-003-----0
  6
CONTINUOUS
  5
40F
 10
72.0
 20
352.501978
 30
0.0
 11
71.483116
 21
348.575856
 31
0.0
  0
TEXT
  8
LC-005-003-----0
  6
CONTINUOUS
 62
     6
  5
410
 10
61.568001
 20
264.212334
 30
0.0
 40
18.0
  1
55-135
 50
90.0
 51
15.0
  7
LC-TXTSTYLE-150-400-0-0-D0
 72
     1
 11
61.568001
 21
305.987924
 31
0.0
  0
ENDBLK
  8
0
  5
411
  0
BLOCK
  8
0
  5
413
  2
*D42
 70
    65
 10
0.0
 20
0.0
 30
0.0
  3
*D42
  0
LINE
  8
LC-006-003-MTH-0
  6
CONTINUOUS
  5
414
 10
158.2282
 20
338.541978
 30
0.0
 11
97.2
 21
338.541978
 31
0.0
  0
LINE
  8
LC-006-003-MTH-0
  6
CONTINUOUS
  5
415
 10
163.439793
 20
366.541978
 30
0.0
 11
97.2
 21
366.541978
 31
0.0
  0
LINE
  8
LC-005-003-----0
  6
CONTINUOUS
  5
416
 10
110.349471
 20
320.695971
 30
0.0
 11
108.0
 21
338.541978
 31
0.0
  0
LINE
  8
LC-005-003-----0
  6
CONTINUOUS
  5
417
 10
108.0
 20
338.541978
 30
0.0
 11
105.650529
 21
320.695971
 31
0.0
  0
LINE
  8
LC-005-003-----0
  6
CONTINUOUS
  5
418
 10
105.650529
 20
320.695971
 30
0.0
 11
110.349471
 21
320.695971
 31
0.0
  0
LINE
  8
LC-005-003-----0
  6
CONTINUOUS
  5
419
 10
109.738609
 20
320.655932
 30
0.0
 11
108.0
 21
333.861978
 31
0.0
  0
LINE
  8
LC-005-003-----0
  6
CONTINUOUS
  5
41A
 10
108.0
 20
333.861978
 30
0.0
 11
106.261391
 21
320.655932
 31
0.0
  0
LINE
  8
LC-005-003-----0
  6
CONTINUOUS
  5
41B
 10
109.127746
 20
320.615894
 30
0.0
 11
108.0
 21
329.181978
 31
0.0
  0
LINE
  8
LC-005-003-----0
  6
CONTINUOUS
  5
41C
 10
108.0
 20
329.181978
 30
0.0
 11
106.872254
 21
320.615894
 31
0.0
  0
LINE
  8
LC-005-003-----0
  6
CONTINUOUS
  5
41D
 10
108.516884
 20
320.575856
 30
0.0
 11
108.0
 21
324.501978
 31
0.0
  0
LINE
  8
LC-005-003-----0
  6
CONTINUOUS
  5
41E
 10
108.0
 20
324.501978
 30
0.0
 11
107.483116
 21
320.575856
 31
0.0
  0
LINE
  8
LC-005-003-----0
  6
CONTINUOUS
  5
41F
 10
105.650529
 20
384.387986
 30
0.0
 11
108.0
 21
366.541978
 31
0.0
  0
LINE
  8
LC-005-003-----0
  6
CONTINUOUS
  5
420
 10
108.0
 20
366.541978
 30
0.0
 11
110.349471
 21
384.387986
 31
0.0
  0
LINE
  8
LC-005-003-----0
  6
CONTINUOUS
  5
421
 10
110.349471
 20
384.387986
 30
0.0
 11
105.650529
 21
384.387986
 31
0.0
  0
LINE
  8
LC-005-003-----0
  6
CONTINUOUS
  5
422
 10
106.261391
 20
384.428024
 30
0.0
 11
108.0
 21
371.221978
 31
0.0
  0
LINE
  8
LC-005-003-----0
  6
CONTINUOUS
  5
423
 10
108.0
 20
371.221978
 30
0.0
 11
109.738609
 21
384.428024
 31
0.0
  0
LINE
  8
LC-005-003-----0
  6
CONTINUOUS
  5
424
 10
106.872254
 20
384.468062
 30
0.0
 11
108.0
 21
375.901978
 31
0.0
  0
LINE
  8
LC-005-003-----0
  6
CONTINUOUS
  5
425
 10
108.0
 20
375.901978
 30
0.0
 11
109.127746
 21
384.468062
 31
0.0
  0
LINE
  8
LC-005-003-----0
  6
CONTINUOUS
  5
426
 10
107.483116
 20
384.5081
 30
0.0
 11
108.0
 21
380.581978
 31
0.0
  0
LINE
  8
LC-005-003-----0
  6
CONTINUOUS
  5
427
 10
108.0
 20
380.581978
 30
0.0
 11
108.516884
 21
384.5081
 31
0.0
  0
LINE
  8
LC-007-003-MTG-0
  6
CONTINUOUS
  5
428
 10
108.0
 20
313.341978
 30
0.0
 11
108.0
 21
424.544498
 31
0.0
  0
TEXT
  8
LC-005-003-----0
  6
CONTINUOUS
 62
     6
  5
429
 10
97.568001
 20
393.817224
 30
0.0
 40
18.0
  1
28
 50
90.0
 51
15.0
  7
LC-TXTSTYLE-150-400-0-0-D0
  0
ENDBLK
  8
0
  5
42A
  0
BLOCK
  8
0
  5
42C
  2
*D43
 70
    65
 10
0.0
 20
0.0
 30
0.0
  3
*D43
  0
LINE
  8
LC-006-003-MTH-0
  6
CONTINUOUS
  5
42D
 10
288.2282
 20
57.99036
 30
0.0
 11
288.2282
 21
3.2
 31
0.0
  0
LINE
  8
LC-006-003-MTH-0
  6
CONTINUOUS
  5
42E
 10
458.2282
 20
54.343379
 30
0.0
 11
458.2282
 21
3.2
 31
0.0
  0
LINE
  8
LC-007-003-MTG-0
  6
CONTINUOUS
  5
42F
 10
288.2282
 20
14.0
 30
0.0
 11
458.2282
 21
14.0
 31
0.0
  0
LINE
  8
LC-005-003-----0
  6
CONTINUOUS
  5
430
 10
306.074208
 20
16.349471
 30
0.0
 11
288.2282
 21
14.0
 31
0.0
  0
LINE
  8
LC-005-003-----0
  6
CONTINUOUS
  5
431
 10
288.2282
 20
14.0
 30
0.0
 11
306.074208
 21
11.650529
 31
0.0
  0
LINE
  8
LC-005-003-----0
  6
CONTINUOUS
  5
432
 10
306.074208
 20
11.650529
 30
0.0
 11
306.074208
 21
16.349471
 31
0.0
  0
LINE
  8
LC-005-003-----0
  6
CONTINUOUS
  5
433
 10
306.114246
 20
15.738609
 30
0.0
 11
292.9082
 21
14.0
 31
0.0
  0
LINE
  8
LC-005-003-----0
  6
CONTINUOUS
  5
434
 10
292.9082
 20
14.0
 30
0.0
 11
306.114246
 21
12.261391
 31
0.0
  0
LINE
  8
LC-005-003-----0
  6
CONTINUOUS
  5
435
 10
306.154284
 20
15.127746
 30
0.0
 11
297.5882
 21
14.0
 31
0.0
  0
LINE
  8
LC-005-003-----0
  6
CONTINUOUS
  5
436
 10
297.5882
 20
14.0
 30
0.0
 11
306.154284
 21
12.872254
 31
0.0
  0
LINE
  8
LC-005-003-----0
  6
CONTINUOUS
  5
437
 10
306.194322
 20
14.516884
 30
0.0
 11
302.2682
 21
14.0
 31
0.0
  0
LINE
  8
LC-005-003-----0
  6
CONTINUOUS
  5
438
 10
302.2682
 20
14.0
 30
0.0
 11
306.194322
 21
13.483116
 31
0.0
  0
LINE
  8
LC-005-003-----0
  6
CONTINUOUS
  5
439
 10
440.382193
 20
11.650529
 30
0.0
 11
458.2282
 21
14.0
 31
0.0
  0
LINE
  8
LC-005-003-----0
  6
CONTINUOUS
  5
43A
 10
458.2282
 20
14.0
 30
0.0
 11
440.382193
 21
16.349471
 31
0.0
  0
LINE
  8
LC-005-003-----0
  6
CONTINUOUS
  5
43B
 10
440.382193
 20
16.349471
 30
0.0
 11
440.382193
 21
11.650529
 31
0.0
  0
LINE
  8
LC-005-003-----0
  6
CONTINUOUS
  5
43C
 10
440.342155
 20
12.261391
 30
0.0
 11
453.5482
 21
14.0
 31
0.0
  0
LINE
  8
LC-005-003-----0
  6
CONTINUOUS
  5
43D
 10
453.5482
 20
14.0
 30
0.0
 11
440.342155
 21
15.738609
 31
0.0
  0
LINE
  8
LC-005-003-----0
  6
CONTINUOUS
  5
43E
 10
440.302117
 20
12.872254
 30
0.0
 11
448.8682
 21
14.0
 31
0.0
  0
LINE
  8
LC-005-003-----0
  6
CONTINUOUS
  5
43F
 10
448.8682
 20
14.0
 30
0.0
 11
440.302117
 21
15.127746
 31
0.0
  0
LINE
  8
LC-005-003-----0
  6
CONTINUOUS
  5
440
 10
440.262079
 20
13.483116
 30
0.0
 11
444.1882
 21
14.0
 31
0.0
  0
LINE
  8
LC-005-003-----0
  6
CONTINUOUS
  5
441
 10
444.1882
 20
14.0
 30
0.0
 11
440.262079
 21
14.516884
 31
0.0
  0
TEXT
  8
LC-005-003-----0
  6
CONTINUOUS
 62
     6
  5
442
 10
356.889588
 20
24.431999
 30
0.0
 40
18.0
  1
170
 51
15.0
  7
LC-TXTSTYLE-150-400-0-0-D0
 72
     1
 11
376.023446
 21
24.431999
 31
0.0
  0
ENDBLK
  8
0
  5
443
  0
BLOCK
  8
0
  5
445
  2
*D44
 70
    65
 10
0.0
 20
0.0
 30
0.0
  3
*D44
  0
LINE
  8
LC-006-003-MTH-0
  6
CONTINUOUS
  5
446
 10
458.2282
 20
105.343379
 30
0.0
 11
556.8
 21
105.343379
 31
0.0
  0
LINE
  8
LC-006-003-MTH-0
  6
CONTINUOUS
  5
447
 10
446.7282
 20
239.843379
 30
0.0
 11
556.8
 21
239.843379
 31
0.0
  0
LINE
  8
LC-007-003-MTG-0
  6
CONTINUOUS
  5
448
 10
546.0
 20
105.343379
 30
0.0
 11
546.0
 21
239.843379
 31
0.0
  0
LINE
  8
LC-005-003-----0
  6
CONTINUOUS
  5
449
 10
543.650529
 20
123.189387
 30
0.0
 11
546.0
 21
105.343379
 31
0.0
  0
LINE
  8
LC-005-003-----0
  6
CONTINUOUS
  5
44A
 10
546.0
 20
105.343379
 30
0.0
 11
548.349471
 21
123.189387
 31
0.0
  0
LINE
  8
LC-005-003-----0
  6
CONTINUOUS
  5
44B
 10
548.349471
 20
123.189387
 30
0.0
 11
543.650529
 21
123.189387
 31
0.0
  0
LINE
  8
LC-005-003-----0
  6
CONTINUOUS
  5
44C
 10
544.261391
 20
123.229425
 30
0.0
 11
546.0
 21
110.023379
 31
0.0
  0
LINE
  8
LC-005-003-----0
  6
CONTINUOUS
  5
44D
 10
546.0
 20
110.023379
 30
0.0
 11
547.738609
 21
123.229425
 31
0.0
  0
LINE
  8
LC-005-003-----0
  6
CONTINUOUS
  5
44E
 10
544.872254
 20
123.269463
 30
0.0
 11
546.0
 21
114.703379
 31
0.0
  0
LINE
  8
LC-005-003-----0
  6
CONTINUOUS
  5
44F
 10
546.0
 20
114.703379
 30
0.0
 11
547.127746
 21
123.269463
 31
0.0
  0
LINE
  8
LC-005-003-----0
  6
CONTINUOUS
  5
450
 10
545.483116
 20
123.309501
 30
0.0
 11
546.0
 21
119.383379
 31
0.0
  0
LINE
  8
LC-005-003-----0
  6
CONTINUOUS
  5
451
 10
546.0
 20
119.383379
 30
0.0
 11
546.516884
 21
123.309501
 31
0.0
  0
LINE
  8
LC-005-003-----0
  6
CONTINUOUS
  5
452
 10
548.349471
 20
221.997372
 30
0.0
 11
546.0
 21
239.843379
 31
0.0
  0
LINE
  8
LC-005-003-----0
  6
CONTINUOUS
  5
453
 10
546.0
 20
239.843379
 30
0.0
 11
543.650529
 21
221.997372
 31
0.0
  0
LINE
  8
LC-005-003-----0
  6
CONTINUOUS
  5
454
 10
543.650529
 20
221.997372
 30
0.0
 11
548.349471
 21
221.997372
 31
0.0
  0
LINE
  8
LC-005-003-----0
  6
CONTINUOUS
  5
455
 10
547.738609
 20
221.957334
 30
0.0
 11
546.0
 21
235.163379
 31
0.0
  0
LINE
  8
LC-005-003-----0
  6
CONTINUOUS
  5
456
 10
546.0
 20
235.163379
 30
0.0
 11
544.261391
 21
221.957334
 31
0.0
  0
LINE
  8
LC-005-003-----0
  6
CONTINUOUS
  5
457
 10
547.127746
 20
221.917296
 30
0.0
 11
546.0
 21
230.483379
 31
0.0
  0
LINE
  8
LC-005-003-----0
  6
CONTINUOUS
  5
458
 10
546.0
 20
230.483379
 30
0.0
 11
544.872254
 21
221.917296
 31
0.0
  0
LINE
  8
LC-005-003-----0
  6
CONTINUOUS
  5
459
 10
546.516884
 20
221.877258
 30
0.0
 11
546.0
 21
225.803379
 31
0.0
  0
LINE
  8
LC-005-003-----0
  6
CONTINUOUS
  5
45A
 10
546.0
 20
225.803379
 30
0.0
 11
545.483116
 21
221.877258
 31
0.0
  0
TEXT
  8
LC-005-003-----0
  6
CONTINUOUS
 62
     6
  5
45B
 10
535.568001
 20
156.254767
 30
0.0
 40
18.0
  1
135
 50
90.0
 51
15.0
  7
LC-TXTSTYLE-150-400-0-0-D0
 72
     1
 11
535.568001
 21
175.388625
 31
0.0
  0
ENDBLK
  8
0
  5
45C
  0
ENDSEC
  0
SECTION
  2
ENTITIES
  0
VIEWPORT
  8
LC-000
  5
99B
 67
     1
 68
     1
 10
420.0
 20
297.0
 30
0.0
 40
840.0
 41
594.0
 69
     1
1001
ACAD
1000
MVIEW
1002
{
1070
    16
1010
0.0
1020
0.0
1030
0.0
1010
0.0
1020
0.0
1030
1.0
1040
0.0
1040
594.0
1040
420.0
1040
297.0
1040
50.0
1040
0.0
1040
0.0
1070
     0
1070
   100
1070
     1
1070
     1
1070
     0
1070
     0
1070
     0
1070
     0
1040
0.0
1040
0.0
1040
0.0
1040
1.0
1040
1.0
1040
0.0
1040
0.0
1070
     0
1002
{
1002
}
1002
}
  0
VIEWPORT
  8
0
  5
99C
 67
     1
 68
     1
 10
0.0
 20
0.0
 30
0.0
 40
0.0
 41
0.0
 69
     1
1001
ACAD
1000
MVIEW
1002
{
1070
    16
1010
0.0
1020
0.0
1030
0.0
1010
0.0
1020
0.0
1030
1.0
1040
0.0
1040
594.0
1040
0.0
1040
0.0
1040
50.0
1040
0.0
1040
0.0
1070
     0
1070
   100
1070
     0
1070
     1
1070
     0
1070
     0
1070
     0
1070
     0
1040
0.0
1040
0.0
1040
0.0
1040
0.5
1040
0.5
1040
0.5
1040
0.5
1070
     0
1002
{
1002
}
1002
}
  0
INSERT
  8
0
  5
45E
  2
BLK1
 10
0.0
 20
0.0
 30
0.0
  0
INSERT
  8
0
  5
45F
  2
BLK2
 10
0.0
 20
0.0
 30
0.0
  0
INSERT
  8
0
  5
460
  2
BLK3
 10
0.0
 20
0.0
 30
0.0
  0
INSERT
  8
0
  5
461
  2
BLK4
 10
0.0
 20
0.0
 30
0.0
  0
INSERT
  8
0
  5
462
  2
BLK5
 10
0.0
 20
0.0
 30
0.0
  0
INSERT
  8
0
  5
463
  2
BLK6
 10
0.0
 20
0.0
 30
0.0
  0
INSERT
  8
0
  5
464
  2
BLK7
 10
0.0
 20
0.0
 30
0.0
  0
INSERT
  8
0
  5
465
  2
BLK8
 10
0.0
 20
0.0
 30
0.0
  0
INSERT
  8
0
  5
466
  2
BLK9
 10
0.0
 20
0.0
 30
0.0
  0
INSERT
  8
0
  5
467
  2
BLK10
 10
0.0
 20
0.0
 30
0.0
  0
INSERT
  8
0
  5
468
  2
BLK11
 10
0.0
 20
0.0
 30
0.0
  0
INSERT
  8
0
  5
469
  2
BLK12
 10
0.0
 20
0.0
 30
0.0
  0
INSERT
  8
0
  5
46A
  2
BLK13
 10
0.0
 20
0.0
 30
0.0
  0
INSERT
  8
0
  5
46D
  2
BLK14
 10
0.0
 20
0.0
 30
0.0
  0
INSERT
  8
0
  5
46E
  2
*X14
 10
176.72683
 20
346.541978
 30
0.0
  0
INSERT
  8
0
  5
46F
  2
*X15
 10
383.22683
 20
346.541978
 30
0.0
  0
INSERT
  8
0
  5
470
  2
*X16
 10
389.7282
 20
316.341978
 30
0.0
  0
INSERT
  8
0
  5
471
  2
*X17
 10
388.7282
 20
308.341978
 30
0.0
  0
INSERT
  8
0
  5
472
  2
*X18
 10
177.4782
 20
316.341978
 30
0.0
  0
INSERT
  8
0
  5
473
  2
*X19
 10
213.904035
 20
331.478727
 30
0.0
  0
INSERT
  8
0
  5
474
  2
*X20
 10
279.296519
 20
278.053438
 30
0.0
  0
INSERT
  8
0
  5
475
  2
*X21
 10
192.2282
 20
278.446894
 30
0.0
  0
INSERT
  8
0
  5
476
  2
*X22
 10
299.320771
 20
278.446894
 30
0.0
  0
INSERT
  8
0
  5
477
  2
*X23
 10
184.2282
 20
214.343379
 30
0.0
  0
INSERT
  8
0
  5
478
  2
*X24
 10
378.7282
 20
214.343379
 30
0.0
  0
INSERT
  8
0
  5
479
  2
*X25
 10
189.727278
 20
219.048864
 30
0.0
  0
INSERT
  8
0
  5
47A
  2
*X26
 10
202.9282
 20
170.343379
 30
0.0
  0
INSERT
  8
0
  5
47B
  2
*X27
 10
382.229123
 20
219.048864
 30
0.0
  0
INSERT
  8
0
  5
47C
  2
*X28
 10
369.5282
 20
170.343379
 30
0.0
  0
INSERT
  8
0
  5
47D
  2
*X29
 10
200.2282
 20
64.903817
 30
0.0
  0
INSERT
  8
0
  5
47E
  2
*X30
 10
277.157457
 20
144.651705
 30
0.0
  0
INSERT
  8
0
  5
47F
  2
*X31
 10
286.55225
 20
63.230785
 30
0.0
  0
INSERT
  8
0
  5
480
  2
BLK15
 10
0.0
 20
0.0
 30
0.0
  0
INSERT
  8
0
  5
481
  2
*X33
 10
223.225941
 20
332.541978
 30
0.0
  0
INSERT
  8
0
  5
482
  2
*X34
 10
129.7282
 20
50.343379
 30
0.0
  0
INSERT
  8
0
  5
483
  2
*X35
 10
372.2282
 20
156.343379
 30
0.0
  0
DIMENSION
  8
0
  5
484
  2
*D36
 10
288.2282
 20
432.0
 30
0.0
 11
288.2282
 21
432.0
 31
0.0
  1
260
 13
158.2282
 23
346.541978
 33
0.0
 14
418.2282
 24
346.541978
 34
0.0
  3
LC-DIM-L-0090-02-02
  0
DIMENSION
  8
0
  5
485
  2
*D37
 10
288.2282
 20
396.0
 30
0.0
 11
288.2282
 21
396.0
 31
0.0
  1
226
 13
176.729571
 23
364.437306
 33
0.0
 14
399.72683
 24
364.437306
 34
0.0
  3
LC-DIM-L-0090-02-02
  0
DIMENSION
  8
0
  5
486
  2
*D38
 10
288.2282
 20
468.0
 30
0.0
 11
288.2282
 21
468.0
 31
0.0
  1
%%c315
 13
129.7282
 23
239.843379
 33
0.0
 14
446.7282
 24
239.843379
 34
0.0
  3
LC-DIM-L-0090-02-02
  0
DIMENSION
  8
0
  5
487
  2
*D39
 10
417.9782
 20
180.0
 30
0.0
 11
417.9782
 21
180.0
 31
0.0
  1
80,5
 13
377.7282
 23
160.343379
 33
0.0
 14
458.2282
 24
156.343379
 34
0.0
  3
LC-DIM-L-0090-02-02
  0
DIMENSION
  8
0
  5
488
  2
*D40
 10
504.0
 20
105.343379
 30
0.0
 11
504.0
 21
105.343379
 31
0.0
  1
DN100
 13
453.7282
 23
160.343379
 33
0.0
 14
453.7282
 24
50.343379
 34
0.0
 50
90.0
  3
LC-DIM-L-0090-02-02
  0
DIMENSION
  8
0
  5
489
  2
*D41
 10
72.0
 20
303.192679
 30
0.0
 11
72.0
 21
303.192679
 31
0.0
  1
55-135
 13
129.7282
 23
239.843379
 33
0.0
 14
163.439793
 24
366.541978
 34
0.0
 50
90.0
  3
LC-DIM-L-0090-02-02
  0
DIMENSION
  8
0
  5
48A
  2
*D42
 10
108.0
 20
352.541978
 30
0.0
 11
108.0
 21
352.541978
 31
0.0
  1
28
 13
163.439793
 23
366.541978
 33
0.0
 14
158.2282
 24
338.541978
 34
0.0
 50
90.0
  3
LC-DIM-L-0090-02-02
  0
DIMENSION
  8
0
  5
48B
  2
*D43
 10
373.2282
 20
14.0
 30
0.0
 11
373.2282
 21
14.0
 31
0.0
 13
288.2282
 23
57.99036
 33
0.0
 14
458.2282
 24
54.343379
 34
0.0
  3
LC-DIM-L-0090-02-02
  0
DIMENSION
  8
0
  5
48C
  2
*D44
 10
546.0
 20
172.593379
 30
0.0
 11
546.0
 21
172.593379
 31
0.0
  1
135
 13
446.7282
 23
239.843379
 33
0.0
 14
458.2282
 24
105.343379
 34
0.0
 50
90.0
  3
LC-DIM-L-0090-02-02
  0
LINE
  8
LC-002-002-----0
  6
CONTINUOUS
  5
48E
 10
194.2282
 20
239.843379
 30
0.0
 11
129.7282
 21
239.843379
 31
0.0
  0
LINE
  8
LC-002-002-----0
  6
CONTINUOUS
  5
48F
 10
190.7282
 20
236.343379
 30
0.0
 11
188.7282
 21
236.343379
 31
0.0
  0
LINE
  8
LC-002-002-----0
  6
CONTINUOUS
  5
490
 10
204.2282
 20
178.343379
 30
0.0
 11
202.7282
 21
178.343379
 31
0.0
  0
LINE
  8
LC-002-002-----0
  6
CONTINUOUS
  5
491
 10
298.738576
 20
114.343379
 30
0.0
 11
332.325021
 21
114.343379
 31
0.0
  0
LINE
  8
LC-002-002-----0
  6
CONTINUOUS
  5
492
 10
300.346272
 20
108.343379
 30
0.0
 11
342.794158
 21
108.343379
 31
0.0
  0
LINE
  8
LC-002-002-----0
  6
CONTINUOUS
  5
493
 10
311.698805
 20
65.975147
 30
0.0
 11
341.598208
 21
63.359288
 31
0.0
  0
LINE
  8
LC-002-002-----0
  6
CONTINUOUS
  5
494
 10
269.052085
 20
75.575685
 30
0.0
 11
267.515399
 21
69.840694
 31
0.0
  0
LINE
  8
LC-002-002-----0
  6
CONTINUOUS
  5
495
 10
263.25653
 20
77.1286
 30
0.0
 11
261.172202
 21
69.349783
 31
0.0
  0
LINE
  8
LC-003-100-D00-0
  5
496
 10
404.7282
 20
214.134167
 30
0.0
 11
404.7282
 21
240.600299
 31
0.0
  0
LINE
  8
LC-002-002-----0
  6
CONTINUOUS
  5
497
 10
406.992556
 20
219.843303
 30
0.0
 11
402.463845
 21
219.843303
 31
0.0
  0
LINE
  8
LC-002-002-----0
  6
CONTINUOUS
  5
498
 10
171.7282
 20
214.479596
 30
0.0
 11
171.7282
 21
236.989873
 31
0.0
  0
LINE
  8
LC-002-002-----0
  6
CONTINUOUS
  5
499
 10
194.22953
 20
179.958688
 30
0.0
 11
194.22953
 21
205.343379
 31
0.0
  0
LINE
  8
LC-002-002-----0
  6
CONTINUOUS
  5
49A
 10
198.2282
 20
208.343379
 30
0.0
 11
198.2282
 21
179.843379
 31
0.0
  0
LINE
  8
LC-002-002-----0
  6
CONTINUOUS
  5
49B
 10
185.233055
 20
226.343379
 30
0.0
 11
185.233055
 21
212.343379
 31
0.0
  0
LINE
  8
LC-002-002-----0
  6
CONTINUOUS
  5
49C
 10
189.2282
 20
211.343379
 30
0.0
 11
189.2282
 21
235.843379
 31
0.0
  0
LINE
  8
LC-002-002-----0
  6
CONTINUOUS
  5
49D
 10
145.2282
 20
233.343379
 30
0.0
 11
149.73181
 21
233.343379
 31
0.0
  0
LINE
  8
LC-002-002-----0
  6
CONTINUOUS
  5
49E
 10
200.222873
 20
74.67875
 30
0.0
 11
198.7282
 21
160.308472
 31
0.0
  0
LINE
  8
LC-002-002-----0
  6
CONTINUOUS
  5
49F
 10
204.222263
 20
74.748559
 30
0.0
 11
202.7282
 21
160.343379
 31
0.0
  0
LINE
  8
LC-002-002-----0
  6
CONTINUOUS
  5
4A0
 10
196.2282
 20
210.343379
 30
0.0
 11
190.2282
 21
210.343379
 31
0.0
  0
LINE
  8
LC-002-002-----0
  6
CONTINUOUS
  5
4A1
 10
150.731837
 20
232.343379
 30
0.0
 11
150.731837
 21
230.343379
 31
0.0
  0
LINE
  8
LC-002-002-----0
  6
CONTINUOUS
  5
4A2
 10
153.731918
 20
227.343379
 30
0.0
 11
165.4266
 21
227.343379
 31
0.0
  0
LINE
  8
LC-002-002-----0
  6
CONTINUOUS
  5
4A3
 10
176.306606
 20
215.343379
 30
0.0
 11
167.149794
 21
215.343379
 31
0.0
  0
LINE
  8
LC-002-002-----0
  6
CONTINUOUS
  5
4A4
 10
178.0298
 20
227.343379
 30
0.0
 11
184.233008
 21
227.343379
 31
0.0
  0
LINE
  8
LC-002-002-----0
  6
CONTINUOUS
  5
4A5
 10
193.22953
 20
206.343379
 30
0.0
 11
191.233355
 21
206.343379
 31
0.0
  0
LINE
  8
LC-002-002-----0
  6
CONTINUOUS
  5
4A6
 10
387.2282
 20
211.343379
 30
0.0
 11
387.2282
 21
214.343379
 31
0.0
  0
LINE
  8
LC-002-002-----0
  6
CONTINUOUS
  5
4A7
 10
380.2282
 20
210.343379
 30
0.0
 11
386.2282
 21
210.343379
 31
0.0
  0
LINE
  8
LC-002-002-----0
  6
CONTINUOUS
  5
4A8
 10
382.22687
 20
184.342049
 30
0.0
 11
382.22687
 21
205.343379
 31
0.0
  0
LINE
  8
LC-002-002-----0
  6
CONTINUOUS
  5
4A9
 10
382.22687
 20
179.958688
 30
0.0
 11
382.22687
 21
184.342049
 31
0.0
  0
LINE
  8
LC-002-002-----0
  6
CONTINUOUS
  5
4AA
 10
431.2282
 20
233.343379
 30
0.0
 11
434.06098
 21
233.343379
 31
0.0
  0
LINE
  8
LC-002-002-----0
  6
CONTINUOUS
  5
4AB
 10
426.72459
 20
233.343379
 30
0.0
 11
431.2282
 21
233.343379
 31
0.0
  0
LINE
  8
LC-002-002-----0
  6
CONTINUOUS
  5
4AC
 10
385.223346
 20
206.343379
 30
0.0
 11
383.22687
 21
206.343379
 31
0.0
  0
LINE
  8
LC-002-002-----0
  6
CONTINUOUS
  5
4AD
 10
425.724564
 20
230.343379
 30
0.0
 11
425.724564
 21
232.343379
 31
0.0
  0
LINE
  8
LC-002-002-----0
  6
CONTINUOUS
  5
4AE
 10
411.0298
 20
227.343379
 30
0.0
 11
422.724483
 21
227.343379
 31
0.0
  0
LINE
  8
LC-002-002-----0
  6
CONTINUOUS
  5
4AF
 10
409.306606
 20
215.343379
 30
0.0
 11
400.149794
 21
215.343379
 31
0.0
  0
LINE
  8
LC-002-002-----0
  6
CONTINUOUS
  5
4B0
 10
392.223392
 20
227.343379
 30
0.0
 11
398.4266
 21
227.343379
 31
0.0
  0
LINE
  8
LC-002-002-----0
  6
CONTINUOUS
  5
4B1
 10
391.223346
 20
212.343379
 30
0.0
 11
391.223346
 21
226.343379
 31
0.0
  0
LINE
  8
LC-002-002-----0
  6
CONTINUOUS
  5
4B2
 10
389.7282
 20
241.343379
 30
0.0
 11
388.708298
 21
241.343379
 31
0.0
  0
LINE
  8
LC-002-002-----0
  6
CONTINUOUS
  5
4B3
 10
129.7282
 20
236.737551
 30
0.0
 11
129.7282
 21
239.843379
 31
0.0
  0
LINE
  8
LC-002-002-----0
  6
CONTINUOUS
  5
4B4
 10
147.439525
 20
236.343379
 30
0.0
 11
147.016875
 21
236.343379
 31
0.0
  0
LINE
  8
LC-002-002-----0
  6
CONTINUOUS
  5
4B5
 10
147.7282
 20
236.843379
 30
0.0
 11
147.439525
 21
236.343379
 31
0.0
  0
LINE
  8
LC-002-002-----0
  6
CONTINUOUS
  5
4B6
 10
147.016875
 20
236.343379
 30
0.0
 11
146.7282
 21
236.843379
 31
0.0
  0
LINE
  8
LC-002-002-----0
  6
CONTINUOUS
  5
4B7
 10
441.2282
 20
238.887297
 30
0.0
 11
441.636449
 21
238.479048
 31
0.0
  0
LINE
  8
LC-002-002-----0
  6
CONTINUOUS
  5
4B8
 10
441.078771
 20
238.329619
 30
0.0
 11
441.2282
 21
238.887297
 31
0.0
  0
LINE
  8
LC-002-002-----0
  6
CONTINUOUS
  5
4B9
 10
148.016875
 20
236.343379
 30
0.0
 11
147.7282
 21
236.843379
 31
0.0
  0
LINE
  8
LC-002-002-----0
  6
CONTINUOUS
  5
4BA
 10
148.439525
 20
236.343379
 30
0.0
 11
148.016875
 21
236.343379
 31
0.0
  0
LINE
  8
LC-002-002-----0
  6
CONTINUOUS
  5
4BB
 10
149.439525
 20
236.343379
 30
0.0
 11
149.016875
 21
236.343379
 31
0.0
  0
LINE
  8
LC-002-002-----0
  6
CONTINUOUS
  5
4BC
 10
150.439525
 20
236.343379
 30
0.0
 11
150.016875
 21
236.343379
 31
0.0
  0
LINE
  8
LC-002-002-----0
  6
CONTINUOUS
  5
4BD
 10
160.7282
 20
230.343379
 30
0.0
 11
154.2282
 21
230.343379
 31
0.0
  0
LINE
  8
LC-002-002-----0
  6
CONTINUOUS
  5
4BE
 10
152.620505
 20
236.343379
 30
0.0
 11
151.016875
 21
236.343379
 31
0.0
  0
LINE
  8
LC-002-002-----0
  6
CONTINUOUS
  5
4BF
 10
154.2282
 20
230.343379
 30
0.0
 11
152.620505
 21
236.343379
 31
0.0
  0
LINE
  8
LC-002-002-----0
  6
CONTINUOUS
  5
4C0
 10
161.2282
 20
236.343379
 30
0.0
 11
152.620505
 21
236.343379
 31
0.0
  0
LINE
  8
LC-002-002-----0
  6
CONTINUOUS
  5
4C1
 10
162.7282
 20
235.843379
 30
0.0
 11
162.7282
 21
230.843379
 31
0.0
  0
LINE
  8
LC-002-002-----0
  6
CONTINUOUS
  5
4C2
 10
162.7282
 20
235.843379
 30
0.0
 11
165.7282
 21
235.843379
 31
0.0
  0
LINE
  8
LC-002-002-----0
  6
CONTINUOUS
  5
4C3
 10
162.2282
 20
236.343379
 30
0.0
 11
161.2282
 21
236.343379
 31
0.0
  0
LINE
  8
LC-002-002-----0
  6
CONTINUOUS
  5
4C4
 10
162.2282
 20
236.343379
 30
0.0
 11
166.2282
 21
236.343379
 31
0.0
  0
LINE
  8
LC-002-002-----0
  6
CONTINUOUS
  5
4C5
 10
160.7282
 20
235.843379
 30
0.0
 11
160.7282
 21
230.343379
 31
0.0
  0
LINE
  8
LC-002-002-----0
  6
CONTINUOUS
  5
4C6
 10
163.2282
 20
230.343379
 30
0.0
 11
165.2282
 21
230.343379
 31
0.0
  0
LINE
  8
LC-002-002-----0
  6
CONTINUOUS
  5
4C7
 10
458.2282
 20
54.343379
 30
0.0
 11
458.2282
 21
51.549151
 31
0.0
  0
LINE
  8
LC-002-002-----0
  6
CONTINUOUS
  5
4C8
 10
226.754915
 20
63.368576
 30
0.0
 11
226.96105
 21
51.5591
 31
0.0
  0
LINE
  8
LC-002-002-----0
  6
CONTINUOUS
  5
4C9
 10
229.495351
 20
51.5591
 30
0.0
 11
229.696993
 21
63.111177
 31
0.0
  0
LINE
  8
LC-002-002-----0
  6
CONTINUOUS
  5
4CA
 10
227.960898
 20
50.576552
 30
0.0
 11
228.495503
 21
50.576552
 31
0.0
  0
LINE
  8
LC-002-002-----0
  6
CONTINUOUS
  5
4CB
 10
375.633593
 20
50.343379
 30
0.0
 11
229.696993
 21
63.111177
 31
0.0
  0
LINE
  8
LC-002-002-----0
  6
CONTINUOUS
  5
4CC
 10
458.2282
 20
51.549151
 30
0.0
 11
453.7282
 21
50.343379
 31
0.0
  0
LINE
  8
LC-002-002-----0
  6
CONTINUOUS
  5
4CD
 10
162.7282
 20
230.843379
 30
0.0
 11
165.7282
 21
230.843379
 31
0.0
  0
LINE
  8
LC-002-002-----0
  6
CONTINUOUS
  5
4CE
 10
431.439525
 20
236.343379
 30
0.0
 11
431.016875
 21
236.343379
 31
0.0
  0
LINE
  8
LC-002-002-----0
  6
CONTINUOUS
  5
4CF
 10
433.666022
 20
236.343379
 30
0.0
 11
432.016875
 21
236.343379
 31
0.0
  0
LINE
  8
LC-002-002-----0
  6
CONTINUOUS
  5
4D0
 10
430.7282
 20
236.843379
 30
0.0
 11
431.016875
 21
236.343379
 31
0.0
  0
LINE
  8
LC-002-002-----0
  6
CONTINUOUS
  5
4D1
 10
197.048751
 20
175.343379
 30
0.0
 11
197.7282
 21
175.343379
 31
0.0
  0
LINE
  8
LC-002-002-----0
  6
CONTINUOUS
  5
4D2
 10
201.7282
 20
179.343379
 30
0.0
 11
198.7282
 21
179.343379
 31
0.0
  0
LINE
  8
LC-002-002-----0
  6
CONTINUOUS
  5
4D3
 10
378.2282
 20
208.343379
 30
0.0
 11
378.2282
 21
179.843379
 31
0.0
  0
LINE
  8
LC-002-002-----0
  6
CONTINUOUS
  5
4D4
 10
197.7282
 20
209.666255
 30
0.0
 11
197.7282
 21
213.343379
 31
0.0
  0
LINE
  8
LC-002-002-----0
  6
CONTINUOUS
  5
4D5
 10
286.7282
 20
213.343379
 30
0.0
 11
287.2282
 21
213.343379
 31
0.0
  0
LINE
  8
LC-002-002-----0
  6
CONTINUOUS
  5
4D6
 10
398.7282
 20
230.410366
 30
0.0
 11
398.7282
 21
235.843379
 31
0.0
  0
LINE
  8
LC-002-002-----0
  6
CONTINUOUS
  5
4D7
 10
379.7282
 20
214.343379
 30
0.0
 11
387.2282
 21
214.343379
 31
0.0
  0
LINE
  8
LC-002-002-----0
  6
CONTINUOUS
  5
4D8
 10
289.2282
 20
214.343379
 30
0.0
 11
287.2282
 21
214.343379
 31
0.0
  0
LINE
  8
LC-002-002-----0
  6
CONTINUOUS
  5
4D9
 10
287.2282
 20
213.343379
 30
0.0
 11
287.2282
 21
214.343379
 31
0.0
  0
LINE
  8
LC-002-002-----0
  6
CONTINUOUS
  5
4DA
 10
289.2282
 20
213.343379
 30
0.0
 11
289.2282
 21
214.343379
 31
0.0
  0
LINE
  8
LC-002-002-----0
  6
CONTINUOUS
  5
4DB
 10
289.2282
 20
213.343379
 30
0.0
 11
287.2282
 21
213.343379
 31
0.0
  0
LINE
  8
LC-002-002-----0
  6
CONTINUOUS
  5
4DC
 10
169.4813
 20
218.843303
 30
0.0
 11
169.2282
 21
233.343379
 31
0.0
  0
LINE
  8
LC-002-002-----0
  6
CONTINUOUS
  5
4DD
 10
169.990026
 20
218.343379
 30
0.0
 11
173.466374
 21
218.343379
 31
0.0
  0
LINE
  8
LC-002-002-----0
  6
CONTINUOUS
  5
4DE
 10
169.990026
 20
218.343379
 30
0.0
 11
169.4813
 21
218.843303
 31
0.0
  0
LINE
  8
LC-002-002-----0
  6
CONTINUOUS
  5
4DF
 10
173.975101
 20
218.843303
 30
0.0
 11
169.4813
 21
218.843303
 31
0.0
  0
LINE
  8
LC-002-002-----0
  6
CONTINUOUS
  5
4E0
 10
173.466374
 20
218.343379
 30
0.0
 11
173.975101
 21
218.843303
 31
0.0
  0
LINE
  8
LC-002-002-----0
  6
CONTINUOUS
  5
4E1
 10
173.975101
 20
218.843303
 30
0.0
 11
174.2282
 21
233.343379
 31
0.0
  0
LINE
  8
LC-002-002-----0
  6
CONTINUOUS
  5
4E2
 10
185.2282
 20
230.843379
 30
0.0
 11
185.2282
 21
235.843379
 31
0.0
  0
LINE
  8
LC-002-002-----0
  6
CONTINUOUS
  5
4E3
 10
184.7282
 20
230.343379
 30
0.0
 11
180.4782
 21
230.343379
 31
0.0
  0
LINE
  8
LC-002-002-----0
  6
CONTINUOUS
  5
4E4
 10
179.9782
 20
230.843379
 30
0.0
 11
179.9782
 21
235.843379
 31
0.0
  0
LINE
  8
LC-002-002-----0
  6
CONTINUOUS
  5
4E5
 10
177.9782
 20
230.843379
 30
0.0
 11
177.7282
 21
230.843379
 31
0.0
  0
LINE
  8
LC-002-002-----0
  6
CONTINUOUS
  5
4E6
 10
177.7282
 20
235.843379
 30
0.0
 11
177.9782
 21
235.843379
 31
0.0
  0
LINE
  8
LC-002-002-----0
  6
CONTINUOUS
  5
4E7
 10
177.9782
 20
230.843379
 30
0.0
 11
177.9782
 21
235.843379
 31
0.0
  0
LINE
  8
LC-002-002-----0
  6
CONTINUOUS
  5
4E8
 10
177.2282
 20
236.343379
 30
0.0
 11
178.4782
 21
236.343379
 31
0.0
  0
LINE
  8
LC-002-002-----0
  6
CONTINUOUS
  5
4E9
 10
174.7282
 20
236.343379
 30
0.0
 11
177.2282
 21
236.343379
 31
0.0
  0
LINE
  8
LC-002-002-----0
  6
CONTINUOUS
  5
4EA
 10
168.7282
 20
236.343379
 30
0.0
 11
174.7282
 21
236.343379
 31
0.0
  0
LINE
  8
LC-002-002-----0
  6
CONTINUOUS
  5
4EB
 10
174.2282
 20
235.843379
 30
0.0
 11
174.2282
 21
233.343379
 31
0.0
  0
LINE
  8
LC-002-002-----0
  6
CONTINUOUS
  5
4EC
 10
166.2282
 20
236.343379
 30
0.0
 11
168.7282
 21
236.343379
 31
0.0
  0
LINE
  8
LC-002-002-----0
  6
CONTINUOUS
  5
4ED
 10
169.2282
 20
235.843379
 30
0.0
 11
169.2282
 21
233.343379
 31
0.0
  0
LINE
  8
LC-002-002-----0
  6
CONTINUOUS
  5
4EE
 10
165.7282
 20
230.843379
 30
0.0
 11
165.7282
 21
235.843379
 31
0.0
  0
LINE
  8
LC-002-002-----0
  6
CONTINUOUS
  5
4EF
 10
169.2282
 20
235.843379
 30
0.0
 11
174.2282
 21
235.843379
 31
0.0
  0
LINE
  8
LC-002-002-----0
  6
CONTINUOUS
  5
4F0
 10
178.4782
 20
236.343379
 30
0.0
 11
179.4782
 21
236.343379
 31
0.0
  0
LINE
  8
LC-002-002-----0
  6
CONTINUOUS
  5
4F1
 10
177.7282
 20
230.410366
 30
0.0
 11
177.7282
 21
235.843379
 31
0.0
  0
LINE
  8
LC-002-002-----0
  6
CONTINUOUS
  5
4F2
 10
185.2282
 20
230.843379
 30
0.0
 11
179.9782
 21
230.843379
 31
0.0
  0
LINE
  8
LC-002-002-----0
  6
CONTINUOUS
  5
4F3
 10
196.7282
 20
214.343379
 30
0.0
 11
189.2282
 21
214.343379
 31
0.0
  0
LINE
  8
LC-002-002-----0
  6
CONTINUOUS
  5
4F4
 10
203.31054
 20
214.343379
 30
0.0
 11
196.7282
 21
214.343379
 31
0.0
  0
LINE
  8
LC-002-002-----0
  6
CONTINUOUS
  5
4F5
 10
286.7282
 20
213.343379
 30
0.0
 11
286.7282
 21
213.843379
 31
0.0
  0
LINE
  8
LC-002-002-----0
  6
CONTINUOUS
  5
4F6
 10
428.7282
 20
236.843379
 30
0.0
 11
429.016875
 21
236.343379
 31
0.0
  0
LINE
  8
LC-002-002-----0
  6
CONTINUOUS
  5
4F7
 10
427.7282
 20
236.843379
 30
0.0
 11
428.016875
 21
236.343379
 31
0.0
  0
LINE
  8
LC-002-002-----0
  6
CONTINUOUS
  5
4F8
 10
425.439525
 20
236.343379
 30
0.0
 11
425.7282
 21
236.843379
 31
0.0
  0
LINE
  8
LC-002-002-----0
  6
CONTINUOUS
  5
4F9
 10
428.439525
 20
236.343379
 30
0.0
 11
428.7282
 21
236.843379
 31
0.0
  0
LINE
  8
LC-002-002-----0
  6
CONTINUOUS
  5
4FA
 10
426.7282
 20
236.843379
 30
0.0
 11
427.016875
 21
236.343379
 31
0.0
  0
LINE
  8
LC-002-002-----0
  6
CONTINUOUS
  5
4FB
 10
425.7282
 20
236.843379
 30
0.0
 11
426.016875
 21
236.343379
 31
0.0
  0
LINE
  8
LC-002-002-----0
  6
CONTINUOUS
  5
4FC
 10
429.7282
 20
236.843379
 30
0.0
 11
430.016875
 21
236.343379
 31
0.0
  0
LINE
  8
LC-002-002-----0
  6
CONTINUOUS
  5
4FD
 10
188.7282
 20
236.343379
 30
0.0
 11
185.7282
 21
236.343379
 31
0.0
  0
LINE
  8
LC-002-002-----0
  6
CONTINUOUS
  5
4FE
 10
185.2282
 20
235.843379
 30
0.0
 11
179.9782
 21
235.843379
 31
0.0
  0
LINE
  8
LC-002-002-----0
  6
CONTINUOUS
  5
4FF
 10
185.7282
 20
236.343379
 30
0.0
 11
179.4782
 21
236.343379
 31
0.0
  0
LINE
  8
LC-002-002-----0
  6
CONTINUOUS
  5
500
 10
373.7282
 20
178.343379
 30
0.0
 11
373.7282
 21
160.343379
 31
0.0
  0
LINE
  8
LC-002-002-----0
  6
CONTINUOUS
  5
501
 10
202.7282
 20
178.343379
 30
0.0
 11
202.7282
 21
160.343379
 31
0.0
  0
LINE
  8
LC-002-002-----0
  6
CONTINUOUS
  5
502
 10
428.439525
 20
236.343379
 30
0.0
 11
428.016875
 21
236.343379
 31
0.0
  0
LINE
  8
LC-002-002-----0
  6
CONTINUOUS
  5
503
 10
429.439525
 20
236.343379
 30
0.0
 11
429.016875
 21
236.343379
 31
0.0
  0
LINE
  8
LC-002-002-----0
  6
CONTINUOUS
  5
504
 10
430.439525
 20
236.343379
 30
0.0
 11
430.016875
 21
236.343379
 31
0.0
  0
LINE
  8
LC-002-002-----0
  6
CONTINUOUS
  5
505
 10
429.439525
 20
236.343379
 30
0.0
 11
429.7282
 21
236.843379
 31
0.0
  0
LINE
  8
LC-002-002-----0
  6
CONTINUOUS
  5
506
 10
427.439525
 20
236.343379
 30
0.0
 11
427.016875
 21
236.343379
 31
0.0
  0
LINE
  8
LC-002-002-----0
  6
CONTINUOUS
  5
507
 10
425.439525
 20
236.343379
 30
0.0
 11
423.835895
 21
236.343379
 31
0.0
  0
LINE
  8
LC-002-002-----0
  6
CONTINUOUS
  5
508
 10
426.439525
 20
236.343379
 30
0.0
 11
426.016875
 21
236.343379
 31
0.0
  0
LINE
  8
LC-002-002-----0
  6
CONTINUOUS
  5
509
 10
422.2282
 20
230.343379
 30
0.0
 11
415.7282
 21
230.343379
 31
0.0
  0
LINE
  8
LC-002-002-----0
  6
CONTINUOUS
  5
50A
 10
413.7282
 20
235.843379
 30
0.0
 11
413.7282
 21
230.843379
 31
0.0
  0
LINE
  8
LC-002-002-----0
  6
CONTINUOUS
  5
50B
 10
410.7282
 20
230.843379
 30
0.0
 11
413.7282
 21
230.843379
 31
0.0
  0
LINE
  8
LC-002-002-----0
  6
CONTINUOUS
  5
50C
 10
410.7282
 20
235.843379
 30
0.0
 11
413.7282
 21
235.843379
 31
0.0
  0
LINE
  8
LC-002-002-----0
  6
CONTINUOUS
  5
50D
 10
423.835895
 20
236.343379
 30
0.0
 11
415.2282
 21
236.343379
 31
0.0
  0
LINE
  8
LC-002-002-----0
  6
CONTINUOUS
  5
50E
 10
415.2282
 20
236.343379
 30
0.0
 11
414.2282
 21
236.343379
 31
0.0
  0
LINE
  8
LC-002-002-----0
  6
CONTINUOUS
  5
50F
 10
410.2282
 20
236.343379
 30
0.0
 11
414.2282
 21
236.343379
 31
0.0
  0
LINE
  8
LC-002-002-----0
  6
CONTINUOUS
  5
510
 10
415.7282
 20
235.843379
 30
0.0
 11
415.7282
 21
230.343379
 31
0.0
  0
LINE
  8
LC-002-002-----0
  6
CONTINUOUS
  5
511
 10
422.2282
 20
230.343379
 30
0.0
 11
423.835895
 21
236.343379
 31
0.0
  0
LINE
  8
LC-002-002-----0
  6
CONTINUOUS
  5
512
 10
411.2282
 20
230.343379
 30
0.0
 11
413.2282
 21
230.343379
 31
0.0
  0
LINE
  8
LC-002-002-----0
  6
CONTINUOUS
  5
513
 10
407.7282
 20
236.343379
 30
0.0
 11
410.2282
 21
236.343379
 31
0.0
  0
LINE
  8
LC-002-002-----0
  6
CONTINUOUS
  5
514
 10
398.4782
 20
230.843379
 30
0.0
 11
398.4782
 21
235.843379
 31
0.0
  0
LINE
  8
LC-002-002-----0
  6
CONTINUOUS
  5
515
 10
399.2282
 20
236.343379
 30
0.0
 11
401.7282
 21
236.343379
 31
0.0
  0
LINE
  8
LC-002-002-----0
  6
CONTINUOUS
  5
516
 10
398.4782
 20
230.843379
 30
0.0
 11
398.7282
 21
230.843379
 31
0.0
  0
LINE
  8
LC-002-002-----0
  6
CONTINUOUS
  5
517
 10
397.9782
 20
236.343379
 30
0.0
 11
399.2282
 21
236.343379
 31
0.0
  0
LINE
  8
LC-002-002-----0
  6
CONTINUOUS
  5
518
 10
402.972571
 20
219.343379
 30
0.0
 11
406.483829
 21
219.343379
 31
0.0
  0
LINE
  8
LC-002-002-----0
  6
CONTINUOUS
  5
519
 10
406.483829
 20
219.343379
 30
0.0
 11
406.992556
 21
219.843303
 31
0.0
  0
LINE
  8
LC-002-002-----0
  6
CONTINUOUS
  5
51A
 10
402.972571
 20
219.343379
 30
0.0
 11
402.463845
 21
219.843303
 31
0.0
  0
LINE
  8
LC-002-002-----0
  6
CONTINUOUS
  5
51B
 10
410.7282
 20
230.843379
 30
0.0
 11
410.7282
 21
235.843379
 31
0.0
  0
LINE
  8
LC-002-002-----0
  6
CONTINUOUS
  5
51C
 10
407.7282
 20
236.343379
 30
0.0
 11
401.7282
 21
236.343379
 31
0.0
  0
LINE
  8
LC-002-002-----0
  6
CONTINUOUS
  5
51D
 10
402.2282
 20
233.343379
 30
0.0
 11
402.2282
 21
235.843379
 31
0.0
  0
LINE
  8
LC-002-002-----0
  6
CONTINUOUS
  5
51E
 10
407.2282
 20
233.343379
 30
0.0
 11
407.2282
 21
235.843379
 31
0.0
  0
LINE
  8
LC-002-002-----0
  6
CONTINUOUS
  5
51F
 10
407.2282
 20
235.843379
 30
0.0
 11
402.2282
 21
235.843379
 31
0.0
  0
LINE
  8
LC-002-002-----0
  6
CONTINUOUS
  5
520
 10
402.463845
 20
219.843303
 30
0.0
 11
402.2282
 21
233.343379
 31
0.0
  0
LINE
  8
LC-002-002-----0
  6
CONTINUOUS
  5
521
 10
406.992556
 20
219.843303
 30
0.0
 11
407.2282
 21
233.343379
 31
0.0
  0
LINE
  8
LC-002-002-----0
  6
CONTINUOUS
  5
522
 10
396.9782
 20
236.343379
 30
0.0
 11
397.9782
 21
236.343379
 31
0.0
  0
LINE
  8
LC-002-002-----0
  6
CONTINUOUS
  5
523
 10
388.208298
 20
236.343379
 30
0.0
 11
387.7282
 21
236.343379
 31
0.0
  0
LINE
  8
LC-001-100-D02-0
  6
CONTINUOUS
  5
524
 10
388.208397
 20
236.343379
 30
0.0
 11
388.208298
 21
236.343379
 31
0.0
  0
LINE
  8
LC-002-002-----0
  6
CONTINUOUS
  5
525
 10
390.7282
 20
236.343379
 30
0.0
 11
390.2282
 21
236.343379
 31
0.0
  0
LINE
  8
LC-002-002-----0
  6
CONTINUOUS
  5
526
 10
388.2282
 20
236.343379
 30
0.0
 11
385.7282
 21
236.343379
 31
0.0
  0
LINE
  8
LC-002-002-----0
  6
CONTINUOUS
  5
527
 10
391.2282
 20
230.843379
 30
0.0
 11
391.2282
 21
235.843379
 31
0.0
  0
LINE
  8
LC-002-002-----0
  6
CONTINUOUS
  5
528
 10
396.4782
 20
230.843379
 30
0.0
 11
391.2282
 21
230.843379
 31
0.0
  0
LINE
  8
LC-002-002-----0
  6
CONTINUOUS
  5
529
 10
396.4782
 20
230.843379
 30
0.0
 11
396.4782
 21
235.843379
 31
0.0
  0
LINE
  8
LC-002-002-----0
  6
CONTINUOUS
  5
52A
 10
395.9782
 20
230.343379
 30
0.0
 11
391.7282
 21
230.343379
 31
0.0
  0
LINE
  8
LC-002-002-----0
  6
CONTINUOUS
  5
52B
 10
378.7282
 20
175.343379
 30
0.0
 11
379.40765
 21
175.343379
 31
0.0
  0
LINE
  8
LC-002-002-----0
  6
CONTINUOUS
  5
52C
 10
378.7282
 20
213.343379
 30
0.0
 11
378.7282
 21
209.666255
 31
0.0
  0
LINE
  8
LC-002-002-----0
  6
CONTINUOUS
  5
52D
 10
387.2282
 20
214.343379
 30
0.0
 11
387.2282
 21
235.843379
 31
0.0
  0
LINE
  8
LC-001-100-D02-0
  6
CONTINUOUS
  5
52E
 10
373.145861
 20
214.343379
 30
0.0
 11
379.7282
 21
214.343379
 31
0.0
  0
LINE
  8
LC-002-002-----0
  6
CONTINUOUS
  5
52F
 10
226.754915
 20
63.368576
 30
0.0
 11
209.349792
 21
64.891327
 31
0.0
  0
LINE
  8
LC-002-002-----0
  6
CONTINUOUS
  5
530
 10
289.2282
 20
213.343379
 30
0.0
 11
289.7282
 21
213.343379
 31
0.0
  0
LINE
  8
LC-002-002-----0
  6
CONTINUOUS
  5
531
 10
289.7282
 20
212.343379
 30
0.0
 11
289.7282
 21
210.343379
 31
0.0
  0
LINE
  8
LC-002-002-----0
  6
CONTINUOUS
  5
532
 10
286.7282
 20
210.343379
 30
0.0
 11
286.7282
 21
212.343379
 31
0.0
  0
LINE
  8
LC-002-002-----0
  6
CONTINUOUS
  5
533
 10
287.2282
 20
209.672493
 30
0.0
 11
287.2282
 21
213.343379
 31
0.0
  0
LINE
  8
LC-002-002-----0
  6
CONTINUOUS
  5
534
 10
289.2282
 20
213.343379
 30
0.0
 11
289.2282
 21
209.672493
 31
0.0
  0
LINE
  8
LC-002-002-----0
  6
CONTINUOUS
  5
535
 10
289.7282
 20
213.343379
 30
0.0
 11
289.7282
 21
212.343379
 31
0.0
  0
LINE
  8
LC-002-002-----0
  6
CONTINUOUS
  5
536
 10
286.7282
 20
212.343379
 30
0.0
 11
286.7282
 21
213.343379
 31
0.0
  0
LINE
  8
LC-002-002-----0
  6
CONTINUOUS
  5
537
 10
289.7282
 20
213.343379
 30
0.0
 11
289.7282
 21
213.843379
 31
0.0
  0
LINE
  8
LC-002-002-----0
  6
CONTINUOUS
  5
538
 10
377.7282
 20
179.343379
 30
0.0
 11
374.7282
 21
179.343379
 31
0.0
  0
LINE
  8
LC-002-002-----0
  6
CONTINUOUS
  5
539
 10
377.7282
 20
174.343379
 30
0.0
 11
377.7282
 21
160.343379
 31
0.0
  0
LINE
  8
LC-002-002-----0
  6
CONTINUOUS
  5
53A
 10
286.7282
 20
210.082509
 30
0.0
 11
286.7282
 21
210.343379
 31
0.0
  0
LINE
  8
LC-002-002-----0
  6
CONTINUOUS
  5
53B
 10
289.7282
 20
210.343379
 30
0.0
 11
289.7282
 21
210.082509
 31
0.0
  0
LINE
  8
LC-002-002-----0
  6
CONTINUOUS
  5
53C
 10
396.9782
 20
236.343379
 30
0.0
 11
390.7282
 21
236.343379
 31
0.0
  0
LINE
  8
LC-002-002-----0
  6
CONTINUOUS
  5
53D
 10
426.439525
 20
236.343379
 30
0.0
 11
426.7282
 21
236.843379
 31
0.0
  0
LINE
  8
LC-002-002-----0
  6
CONTINUOUS
  5
53E
 10
427.439525
 20
236.343379
 30
0.0
 11
427.7282
 21
236.843379
 31
0.0
  0
LINE
  8
LC-002-002-----0
  6
CONTINUOUS
  5
53F
 10
430.439525
 20
236.343379
 30
0.0
 11
430.7282
 21
236.843379
 31
0.0
  0
LINE
  8
LC-002-002-----0
  6
CONTINUOUS
  5
540
 10
382.22687
 20
184.342049
 30
0.0
 11
388.39753
 21
190.512708
 31
0.0
  0
LINE
  8
LC-002-002-----0
  6
CONTINUOUS
  5
541
 10
431.7282
 20
236.843379
 30
0.0
 11
432.016875
 21
236.343379
 31
0.0
  0
LINE
  8
LC-002-002-----0
  6
CONTINUOUS
  5
542
 10
267.515399
 20
69.840694
 30
0.0
 11
301.576838
 21
66.860704
 31
0.0
  0
LINE
  8
LC-002-002-----0
  6
CONTINUOUS
  5
543
 10
375.808236
 20
54.343379
 30
0.0
 11
209.698415
 21
68.876105
 31
0.0
  0
LINE
  8
LC-002-002-----0
  6
CONTINUOUS
  5
544
 10
458.2282
 20
54.343379
 30
0.0
 11
375.808236
 21
54.343379
 31
0.0
  0
LINE
  8
LC-002-002-----0
  6
CONTINUOUS
  5
545
 10
431.439525
 20
236.343379
 30
0.0
 11
431.7282
 21
236.843379
 31
0.0
  0
LINE
  8
LC-002-002-----0
  6
CONTINUOUS
  5
546
 10
434.06098
 20
233.343379
 30
0.0
 11
446.7282
 21
236.737551
 31
0.0
  0
LINE
  8
LC-002-002-----0
  6
CONTINUOUS
  5
547
 10
458.2282
 20
156.343379
 30
0.0
 11
373.65838
 21
156.343379
 31
0.0
  0
LINE
  8
LC-002-002-----0
  6
CONTINUOUS
  5
548
 10
458.2282
 20
159.137608
 30
0.0
 11
458.2282
 21
156.343379
 31
0.0
  0
LINE
  8
LC-002-002-----0
  6
CONTINUOUS
  5
549
 10
458.2282
 20
159.137608
 30
0.0
 11
453.7282
 21
160.343379
 31
0.0
  0
LINE
  8
LC-002-002-----0
  6
CONTINUOUS
  5
54A
 10
344.115294
 20
108.308474
 30
0.0
 11
342.794158
 21
108.343379
 31
0.0
  0
LINE
  8
LC-002-002-----0
  6
CONTINUOUS
  5
54B
 10
333.390879
 20
116.308474
 30
0.0
 11
298.212031
 21
116.308474
 31
0.0
  0
LINE
  8
LC-002-002-----0
  6
CONTINUOUS
  5
54C
 10
453.7282
 20
160.343379
 30
0.0
 11
377.7282
 21
160.343379
 31
0.0
  0
LINE
  8
LC-002-002-----0
  6
CONTINUOUS
  5
54D
 10
373.65838
 20
156.343379
 30
0.0
 11
373.7282
 21
160.343379
 31
0.0
  0
LINE
  8
LC-002-002-----0
  6
CONTINUOUS
  5
54E
 10
198.7282
 20
174.343379
 30
0.0
 11
198.7282
 21
160.308472
 31
0.0
  0
LINE
  8
LC-002-002-----0
  6
CONTINUOUS
  5
54F
 10
458.2282
 20
156.343379
 30
0.0
 11
458.2282
 21
54.343379
 31
0.0
  0
LINE
  8
LC-002-002-----0
  6
CONTINUOUS
  5
550
 10
150.7282
 20
236.843379
 30
0.0
 11
150.439525
 21
236.343379
 31
0.0
  0
LINE
  8
LC-002-002-----0
  6
CONTINUOUS
  5
551
 10
149.7282
 20
236.843379
 30
0.0
 11
149.439525
 21
236.343379
 31
0.0
  0
LINE
  8
LC-002-002-----0
  6
CONTINUOUS
  5
552
 10
148.7282
 20
236.843379
 30
0.0
 11
148.439525
 21
236.343379
 31
0.0
  0
LINE
  8
LC-002-002-----0
  6
CONTINUOUS
  5
553
 10
150.016875
 20
236.343379
 30
0.0
 11
149.7282
 21
236.843379
 31
0.0
  0
LINE
  8
LC-002-002-----0
  6
CONTINUOUS
  5
554
 10
149.016875
 20
236.343379
 30
0.0
 11
148.7282
 21
236.843379
 31
0.0
  0
LINE
  8
LC-002-002-----0
  6
CONTINUOUS
  5
555
 10
151.016875
 20
236.343379
 30
0.0
 11
150.7282
 21
236.843379
 31
0.0
  0
LINE
  8
LC-002-002-----0
  6
CONTINUOUS
  5
556
 10
433.666022
 20
236.343379
 30
0.0
 11
436.078771
 21
236.989873
 31
0.0
  0
LINE
  8
LC-002-002-----0
  6
CONTINUOUS
  5
557
 10
440.2282
 20
238.619348
 30
0.0
 11
440.636449
 21
238.211099
 31
0.0
  0
LINE
  8
LC-002-002-----0
  6
CONTINUOUS
  5
558
 10
440.078771
 20
238.06167
 30
0.0
 11
440.2282
 21
238.619348
 31
0.0
  0
LINE
  8
LC-002-002-----0
  6
CONTINUOUS
  5
559
 10
438.2282
 20
238.083449
 30
0.0
 11
438.636449
 21
237.675201
 31
0.0
  0
LINE
  8
LC-002-002-----0
  6
CONTINUOUS
  5
55A
 10
438.078771
 20
237.525772
 30
0.0
 11
438.2282
 21
238.083449
 31
0.0
  0
LINE
  8
LC-002-002-----0
  6
CONTINUOUS
  5
55B
 10
438.636449
 20
237.675201
 30
0.0
 11
439.078771
 21
237.793721
 31
0.0
  0
LINE
  8
LC-002-002-----0
  6
CONTINUOUS
  5
55C
 10
431.7282
 20
236.843379
 30
0.0
 11
430.7282
 21
236.843379
 31
0.0
  0
LINE
  8
LC-002-002-----0
  6
CONTINUOUS
  5
55D
 10
430.7282
 20
236.843379
 30
0.0
 11
429.7282
 21
236.843379
 31
0.0
  0
LINE
  8
LC-002-002-----0
  6
CONTINUOUS
  5
55E
 10
148.7282
 20
236.843379
 30
0.0
 11
147.7282
 21
236.843379
 31
0.0
  0
LINE
  8
LC-002-002-----0
  6
CONTINUOUS
  5
55F
 10
150.7282
 20
236.843379
 30
0.0
 11
149.7282
 21
236.843379
 31
0.0
  0
LINE
  8
LC-002-002-----0
  6
CONTINUOUS
  5
560
 10
427.7282
 20
236.843379
 30
0.0
 11
426.7282
 21
236.843379
 31
0.0
  0
LINE
  8
LC-002-002-----0
  6
CONTINUOUS
  5
561
 10
426.7282
 20
236.843379
 30
0.0
 11
425.7282
 21
236.843379
 31
0.0
  0
LINE
  8
LC-002-002-----0
  6
CONTINUOUS
  5
562
 10
429.7282
 20
236.843379
 30
0.0
 11
428.7282
 21
236.843379
 31
0.0
  0
LINE
  8
LC-002-002-----0
  6
CONTINUOUS
  5
563
 10
428.7282
 20
236.843379
 30
0.0
 11
427.7282
 21
236.843379
 31
0.0
  0
LINE
  8
LC-002-002-----0
  6
CONTINUOUS
  5
564
 10
149.7282
 20
236.843379
 30
0.0
 11
148.7282
 21
236.843379
 31
0.0
  0
LINE
  8
LC-002-002-----0
  6
CONTINUOUS
  5
565
 10
147.7282
 20
236.843379
 30
0.0
 11
146.7282
 21
236.843379
 31
0.0
  0
LINE
  8
LC-002-002-----0
  6
CONTINUOUS
  5
566
 10
436.078771
 20
236.989873
 30
0.0
 11
436.2282
 21
237.547551
 31
0.0
  0
LINE
  8
LC-002-002-----0
  6
CONTINUOUS
  5
567
 10
436.636449
 20
237.139302
 30
0.0
 11
437.078771
 21
237.257822
 31
0.0
  0
LINE
  8
LC-002-002-----0
  6
CONTINUOUS
  5
568
 10
436.2282
 20
237.547551
 30
0.0
 11
436.636449
 21
237.139302
 31
0.0
  0
LINE
  8
LC-002-002-----0
  6
CONTINUOUS
  5
569
 10
437.078771
 20
237.257822
 30
0.0
 11
437.2282
 21
237.8155
 31
0.0
  0
LINE
  8
LC-002-002-----0
  6
CONTINUOUS
  5
56A
 10
437.2282
 20
237.8155
 30
0.0
 11
437.636449
 21
237.407252
 31
0.0
  0
LINE
  8
LC-002-002-----0
  6
CONTINUOUS
  5
56B
 10
437.636449
 20
237.407252
 30
0.0
 11
438.078771
 21
237.525772
 31
0.0
  0
LINE
  8
LC-002-002-----0
  6
CONTINUOUS
  5
56C
 10
439.078771
 20
237.793721
 30
0.0
 11
439.2282
 21
238.351398
 31
0.0
  0
LINE
  8
LC-002-002-----0
  6
CONTINUOUS
  5
56D
 10
439.2282
 20
238.351398
 30
0.0
 11
439.636449
 21
237.94315
 31
0.0
  0
LINE
  8
LC-002-002-----0
  6
CONTINUOUS
  5
56E
 10
439.636449
 20
237.94315
 30
0.0
 11
440.078771
 21
238.06167
 31
0.0
  0
LINE
  8
LC-002-002-----0
  6
CONTINUOUS
  5
56F
 10
440.636449
 20
238.211099
 30
0.0
 11
441.078771
 21
238.329619
 31
0.0
  0
LINE
  8
LC-002-002-----0
  6
CONTINUOUS
  5
570
 10
441.636449
 20
238.479048
 30
0.0
 11
442.078771
 21
238.597568
 31
0.0
  0
LINE
  8
LC-002-002-----0
  6
CONTINUOUS
  5
571
 10
442.636449
 20
238.746998
 30
0.0
 11
443.078771
 21
238.865518
 31
0.0
  0
LINE
  8
LC-002-002-----0
  6
CONTINUOUS
  5
572
 10
443.636449
 20
239.014947
 30
0.0
 11
444.078771
 21
239.133467
 31
0.0
  0
LINE
  8
LC-002-002-----0
  6
CONTINUOUS
  5
573
 10
145.2282
 20
233.343379
 30
0.0
 11
194.2282
 21
184.343379
 31
0.0
  0
LINE
  8
LC-002-002-----0
  6
CONTINUOUS
  5
574
 10
142.790378
 20
236.343379
 30
0.0
 11
140.37763
 21
236.989873
 31
0.0
  0
LINE
  8
LC-002-002-----0
  6
CONTINUOUS
  5
575
 10
145.439525
 20
236.343379
 30
0.0
 11
145.016875
 21
236.343379
 31
0.0
  0
LINE
  8
LC-002-002-----0
  6
CONTINUOUS
  5
576
 10
145.7282
 20
236.843379
 30
0.0
 11
144.7282
 21
236.843379
 31
0.0
  0
LINE
  8
LC-002-002-----0
  6
CONTINUOUS
  5
577
 10
145.7282
 20
236.843379
 30
0.0
 11
145.439525
 21
236.343379
 31
0.0
  0
LINE
  8
LC-002-002-----0
  6
CONTINUOUS
  5
578
 10
146.439525
 20
236.343379
 30
0.0
 11
146.016875
 21
236.343379
 31
0.0
  0
LINE
  8
LC-002-002-----0
  6
CONTINUOUS
  5
579
 10
146.7282
 20
236.843379
 30
0.0
 11
145.7282
 21
236.843379
 31
0.0
  0
LINE
  8
LC-002-002-----0
  6
CONTINUOUS
  5
57A
 10
144.439525
 20
236.343379
 30
0.0
 11
142.790378
 21
236.343379
 31
0.0
  0
LINE
  8
LC-002-002-----0
  6
CONTINUOUS
  5
57B
 10
145.016875
 20
236.343379
 30
0.0
 11
144.7282
 21
236.843379
 31
0.0
  0
LINE
  8
LC-002-002-----0
  6
CONTINUOUS
  5
57C
 10
146.016875
 20
236.343379
 30
0.0
 11
145.7282
 21
236.843379
 31
0.0
  0
LINE
  8
LC-002-002-----0
  6
CONTINUOUS
  5
57D
 10
144.7282
 20
236.843379
 30
0.0
 11
144.439525
 21
236.343379
 31
0.0
  0
LINE
  8
LC-002-002-----0
  6
CONTINUOUS
  5
57E
 10
142.395421
 20
233.343379
 30
0.0
 11
145.2282
 21
233.343379
 31
0.0
  0
LINE
  8
LC-002-002-----0
  6
CONTINUOUS
  5
57F
 10
140.37763
 20
236.989873
 30
0.0
 11
140.2282
 21
237.547551
 31
0.0
  0
LINE
  8
LC-002-002-----0
  6
CONTINUOUS
  5
580
 10
140.2282
 20
237.547551
 30
0.0
 11
139.819952
 21
237.139302
 31
0.0
  0
LINE
  8
LC-002-002-----0
  6
CONTINUOUS
  5
581
 10
139.819952
 20
237.139302
 30
0.0
 11
139.37763
 21
237.257822
 31
0.0
  0
LINE
  8
LC-002-002-----0
  6
CONTINUOUS
  5
582
 10
139.2282
 20
237.8155
 30
0.0
 11
138.819952
 21
237.407252
 31
0.0
  0
LINE
  8
LC-002-002-----0
  6
CONTINUOUS
  5
583
 10
138.819952
 20
237.407252
 30
0.0
 11
138.37763
 21
237.525772
 31
0.0
  0
LINE
  8
LC-002-002-----0
  6
CONTINUOUS
  5
584
 10
138.2282
 20
238.083449
 30
0.0
 11
137.819952
 21
237.675201
 31
0.0
  0
LINE
  8
LC-002-002-----0
  6
CONTINUOUS
  5
585
 10
137.819952
 20
237.675201
 30
0.0
 11
137.37763
 21
237.793721
 31
0.0
  0
LINE
  8
LC-002-002-----0
  6
CONTINUOUS
  5
586
 10
137.2282
 20
238.351398
 30
0.0
 11
136.819952
 21
237.94315
 31
0.0
  0
LINE
  8
LC-002-002-----0
  6
CONTINUOUS
  5
587
 10
136.2282
 20
238.619348
 30
0.0
 11
135.819952
 21
238.211099
 31
0.0
  0
LINE
  8
LC-002-002-----0
  6
CONTINUOUS
  5
588
 10
136.37763
 20
238.06167
 30
0.0
 11
136.2282
 21
238.619348
 31
0.0
  0
LINE
  8
LC-002-002-----0
  6
CONTINUOUS
  5
589
 10
135.2282
 20
238.887297
 30
0.0
 11
134.819952
 21
238.479048
 31
0.0
  0
LINE
  8
LC-002-002-----0
  6
CONTINUOUS
  5
58A
 10
135.37763
 20
238.329619
 30
0.0
 11
135.2282
 21
238.887297
 31
0.0
  0
LINE
  8
LC-002-002-----0
  6
CONTINUOUS
  5
58B
 10
132.819952
 20
239.014947
 30
0.0
 11
132.37763
 21
239.133467
 31
0.0
  0
LINE
  8
LC-002-002-----0
  6
CONTINUOUS
  5
58C
 10
133.819952
 20
238.746998
 30
0.0
 11
133.37763
 21
238.865518
 31
0.0
  0
LINE
  8
LC-002-002-----0
  6
CONTINUOUS
  5
58D
 10
134.819952
 20
238.479048
 30
0.0
 11
134.37763
 21
238.597568
 31
0.0
  0
LINE
  8
LC-002-002-----0
  6
CONTINUOUS
  5
58E
 10
135.819952
 20
238.211099
 30
0.0
 11
135.37763
 21
238.329619
 31
0.0
  0
LINE
  8
LC-002-002-----0
  6
CONTINUOUS
  5
58F
 10
136.819952
 20
237.94315
 30
0.0
 11
136.37763
 21
238.06167
 31
0.0
  0
LINE
  8
LC-002-002-----0
  6
CONTINUOUS
  5
590
 10
137.37763
 20
237.793721
 30
0.0
 11
137.2282
 21
238.351398
 31
0.0
  0
LINE
  8
LC-002-002-----0
  6
CONTINUOUS
  5
591
 10
138.37763
 20
237.525772
 30
0.0
 11
138.2282
 21
238.083449
 31
0.0
  0
LINE
  8
LC-002-002-----0
  6
CONTINUOUS
  5
592
 10
139.37763
 20
237.257822
 30
0.0
 11
139.2282
 21
237.8155
 31
0.0
  0
LINE
  8
LC-002-002-----0
  6
CONTINUOUS
  5
593
 10
453.7282
 20
50.343379
 30
0.0
 11
375.633593
 21
50.343379
 31
0.0
  0
LINE
  8
LC-002-002-----0
  6
CONTINUOUS
  5
594
 10
134.2282
 20
239.155246
 30
0.0
 11
133.819952
 21
238.746998
 31
0.0
  0
LINE
  8
LC-002-002-----0
  6
CONTINUOUS
  5
595
 10
442.2282
 20
239.155246
 30
0.0
 11
442.636449
 21
238.746998
 31
0.0
  0
LINE
  8
LC-002-002-----0
  6
CONTINUOUS
  5
596
 10
134.37763
 20
238.597568
 30
0.0
 11
134.2282
 21
239.155246
 31
0.0
  0
LINE
  8
LC-002-002-----0
  6
CONTINUOUS
  5
597
 10
442.078771
 20
238.597568
 30
0.0
 11
442.2282
 21
239.155246
 31
0.0
  0
LINE
  8
LC-002-002-----0
  6
CONTINUOUS
  5
598
 10
446.7282
 20
236.737551
 30
0.0
 11
446.7282
 21
239.843379
 31
0.0
  0
LINE
  8
LC-002-002-----0
  6
CONTINUOUS
  5
599
 10
142.395421
 20
233.343379
 30
0.0
 11
129.7282
 21
236.737551
 31
0.0
  0
LINE
  8
LC-001-100-D02-0
  6
CONTINUOUS
  5
59A
 10
388.208298
 20
236.343379
 30
0.0
 11
388.208298
 21
240.843379
 31
0.0
  0
LINE
  8
LC-002-002-----0
  6
CONTINUOUS
  5
59B
 10
388.208397
 20
236.343379
 30
0.0
 11
388.208397
 21
240.843379
 31
0.0
  0
LINE
  8
LC-002-002-----0
  6
CONTINUOUS
  5
59C
 10
444.078771
 20
239.133467
 30
0.0
 11
444.2282
 21
239.691144
 31
0.0
  0
LINE
  8
LC-002-002-----0
  6
CONTINUOUS
  5
59D
 10
443.2282
 20
239.423195
 30
0.0
 11
443.636449
 21
239.014947
 31
0.0
  0
LINE
  8
LC-002-002-----0
  6
CONTINUOUS
  5
59E
 10
133.37763
 20
238.865518
 30
0.0
 11
133.2282
 21
239.423195
 31
0.0
  0
LINE
  8
LC-002-002-----0
  6
CONTINUOUS
  5
59F
 10
443.078771
 20
238.865518
 30
0.0
 11
443.2282
 21
239.423195
 31
0.0
  0
LINE
  8
LC-002-002-----0
  6
CONTINUOUS
  5
5A0
 10
132.37763
 20
239.133467
 30
0.0
 11
132.2282
 21
239.691144
 31
0.0
  0
LINE
  8
LC-002-002-----0
  6
CONTINUOUS
  5
5A1
 10
133.2282
 20
239.423195
 30
0.0
 11
132.819952
 21
239.014947
 31
0.0
  0
LINE
  8
LC-002-002-----0
  6
CONTINUOUS
  5
5A2
 10
131.819952
 20
239.282896
 30
0.0
 11
129.7282
 21
239.843379
 31
0.0
  0
LINE
  8
LC-002-002-----0
  6
CONTINUOUS
  5
5A3
 10
132.2282
 20
239.691144
 30
0.0
 11
131.819952
 21
239.282896
 31
0.0
  0
LINE
  8
LC-002-002-----0
  6
CONTINUOUS
  5
5A4
 10
444.2282
 20
239.691144
 30
0.0
 11
444.636449
 21
239.282896
 31
0.0
  0
LINE
  8
LC-002-002-----0
  6
CONTINUOUS
  5
5A5
 10
444.636449
 20
239.282896
 30
0.0
 11
446.7282
 21
239.843379
 31
0.0
  0
LINE
  8
LC-002-002-----0
  6
CONTINUOUS
  5
5A6
 10
446.7282
 20
239.843379
 30
0.0
 11
390.2282
 21
239.843379
 31
0.0
  0
LINE
  8
LC-002-002-----0
  6
CONTINUOUS
  5
5A7
 10
390.2282
 20
236.343379
 30
0.0
 11
390.2282
 21
240.843379
 31
0.0
  0
LINE
  8
LC-002-002-----0
  6
CONTINUOUS
  5
5A8
 10
146.7282
 20
236.843379
 30
0.0
 11
146.439525
 21
236.343379
 31
0.0
  0
ARC
  8
LC-002-002-----0
  6
CONTINUOUS
  5
5A9
 10
388.708298
 20
240.843379
 30
0.0
 40
0.5
 50
90.0
 51
180.0
  0
ARC
  8
LC-002-002-----0
  6
CONTINUOUS
  5
5AA
 10
389.7282
 20
240.843379
 30
0.0
 40
0.5
 50
0.0
 51
90.0
  0
ARC
  8
LC-002-002-----0
  6
CONTINUOUS
  5
5AB
 10
162.2282
 20
235.843379
 30
0.0
 40
0.5
 50
0.0
 51
90.0
  0
ARC
  8
LC-002-002-----0
  6
CONTINUOUS
  5
5AC
 10
228.495503
 20
51.576552
 30
0.0
 40
1.0
 50
270.0
 51
359.0
  0
ARC
  8
LC-002-002-----0
  6
CONTINUOUS
  5
5AD
 10
227.960898
 20
51.576552
 30
0.0
 40
1.0
 50
181.0
 51
270.0
  0
ARC
  8
LC-002-002-----0
  6
CONTINUOUS
  5
5AE
 10
165.2282
 20
230.843379
 30
0.0
 40
0.5
 50
270.0
 51
0.0
  0
ARC
  8
LC-002-002-----0
  6
CONTINUOUS
  5
5AF
 10
163.2282
 20
230.843379
 30
0.0
 40
0.5
 50
180.0
 51
270.0
  0
ARC
  8
LC-002-002-----0
  6
CONTINUOUS
  5
5B0
 10
161.2282
 20
235.843379
 30
0.0
 40
0.5
 50
90.0
 51
180.0
  0
ARC
  8
LC-002-002-----0
  6
CONTINUOUS
  5
5B1
 10
197.7282
 20
174.343379
 30
0.0
 40
1.0
 50
0.0
 51
90.0
  0
ARC
  8
LC-002-002-----0
  6
CONTINUOUS
  5
5B2
 10
377.2282
 20
179.843379
 30
0.0
 40
5.0
 50
295.841933
 51
1.321463
  0
ARC
  8
LC-002-002-----0
  6
CONTINUOUS
  5
5B3
 10
199.2282
 20
179.843379
 30
0.0
 40
5.0
 50
178.678537
 51
244.158067
  0
ARC
  8
LC-002-002-----0
  6
CONTINUOUS
  5
5B4
 10
201.7282
 20
178.343379
 30
0.0
 40
1.0
 50
0.0
 51
90.0
  0
ARC
  8
LC-002-002-----0
  6
CONTINUOUS
  5
5B5
 10
196.2282
 20
208.343379
 30
0.0
 40
2.0
 50
0.0
 51
90.0
  0
ARC
  8
LC-002-002-----0
  6
CONTINUOUS
  5
5B6
 10
198.7282
 20
179.843379
 30
0.0
 40
0.5
 50
180.0
 51
270.0
  0
ARC
  8
LC-002-002-----0
  6
CONTINUOUS
  5
5B7
 10
287.2282
 20
213.843379
 30
0.0
 40
0.5
 50
90.0
 51
180.0
  0
ARC
  8
LC-002-002-----0
  6
CONTINUOUS
  5
5B8
 10
177.4782
 20
230.843379
 30
0.0
 40
0.5
 50
300.0
 51
0.0
  0
ARC
  8
LC-002-002-----0
  6
CONTINUOUS
  5
5B9
 10
178.4782
 20
235.843379
 30
0.0
 40
0.5
 50
90.0
 51
180.0
  0
ARC
  8
LC-002-002-----0
  6
CONTINUOUS
  5
5BA
 10
177.2282
 20
235.843379
 30
0.0
 40
0.5
 50
0.0
 51
90.0
  0
ARC
  8
LC-002-002-----0
  6
CONTINUOUS
  5
5BB
 10
168.7282
 20
235.843379
 30
0.0
 40
0.5
 50
0.0
 51
90.0
  0
ARC
  8
LC-002-002-----0
  6
CONTINUOUS
  5
5BC
 10
166.2282
 20
235.843379
 30
0.0
 40
0.5
 50
90.0
 51
180.0
  0
ARC
  8
LC-002-002-----0
  6
CONTINUOUS
  5
5BD
 10
174.7282
 20
235.843379
 30
0.0
 40
0.5
 50
90.0
 51
180.0
  0
ARC
  8
LC-002-002-----0
  6
CONTINUOUS
  5
5BE
 10
180.4782
 20
230.843379
 30
0.0
 40
0.5
 50
180.0
 51
270.0
  0
ARC
  8
LC-002-002-----0
  6
CONTINUOUS
  5
5BF
 10
184.7282
 20
230.843379
 30
0.0
 40
0.5
 50
270.0
 51
0.0
  0
ARC
  8
LC-002-002-----0
  6
CONTINUOUS
  5
5C0
 10
196.7282
 20
213.343379
 30
0.0
 40
1.0
 50
0.0
 51
90.0
  0
ARC
  8
LC-002-002-----0
  6
CONTINUOUS
  5
5C1
 10
188.7282
 20
235.843379
 30
0.0
 40
0.5
 50
0.0
 51
90.0
  0
ARC
  8
LC-002-002-----0
  6
CONTINUOUS
  5
5C2
 10
399.2282
 20
235.843379
 30
0.0
 40
0.5
 50
90.0
 51
180.0
  0
ARC
  8
LC-002-002-----0
  6
CONTINUOUS
  5
5C3
 10
185.7282
 20
235.843379
 30
0.0
 40
0.5
 50
90.0
 51
180.0
  0
ARC
  8
LC-002-002-----0
  6
CONTINUOUS
  5
5C4
 10
179.4782
 20
235.843379
 30
0.0
 40
0.5
 50
0.0
 51
90.0
  0
ARC
  8
LC-002-002-----0
  6
CONTINUOUS
  5
5C5
 10
414.2282
 20
235.843379
 30
0.0
 40
0.5
 50
90.0
 51
180.0
  0
ARC
  8
LC-002-002-----0
  6
CONTINUOUS
  5
5C6
 10
415.2282
 20
235.843379
 30
0.0
 40
0.5
 50
0.0
 51
90.0
  0
ARC
  8
LC-002-002-----0
  6
CONTINUOUS
  5
5C7
 10
413.2282
 20
230.843379
 30
0.0
 40
0.5
 50
270.0
 51
0.0
  0
ARC
  8
LC-002-002-----0
  6
CONTINUOUS
  5
5C8
 10
398.9782
 20
230.843379
 30
0.0
 40
0.5
 50
180.0
 51
240.0
  0
ARC
  8
LC-002-002-----0
  6
CONTINUOUS
  5
5C9
 10
410.2282
 20
235.843379
 30
0.0
 40
0.5
 50
0.0
 51
90.0
  0
ARC
  8
LC-002-002-----0
  6
CONTINUOUS
  5
5CA
 10
411.2282
 20
230.843379
 30
0.0
 40
0.5
 50
180.0
 51
270.0
  0
ARC
  8
LC-002-002-----0
  6
CONTINUOUS
  5
5CB
 10
397.9782
 20
235.843379
 30
0.0
 40
0.5
 50
0.0
 51
90.0
  0
ARC
  8
LC-002-002-----0
  6
CONTINUOUS
  5
5CC
 10
401.7282
 20
235.843379
 30
0.0
 40
0.5
 50
0.0
 51
90.0
  0
ARC
  8
LC-002-002-----0
  6
CONTINUOUS
  5
5CD
 10
407.7282
 20
235.843379
 30
0.0
 40
0.5
 50
90.0
 51
180.0
  0
ARC
  8
LC-002-002-----0
  6
CONTINUOUS
  5
5CE
 10
396.9782
 20
235.843379
 30
0.0
 40
0.5
 50
90.0
 51
180.0
  0
ARC
  8
LC-002-002-----0
  6
CONTINUOUS
  5
5CF
 10
395.9782
 20
230.843379
 30
0.0
 40
0.5
 50
270.0
 51
0.0
  0
ARC
  8
LC-002-002-----0
  6
CONTINUOUS
  5
5D0
 10
391.7282
 20
230.843379
 30
0.0
 40
0.5
 50
180.0
 51
270.0
  0
ARC
  8
LC-002-002-----0
  6
CONTINUOUS
  5
5D1
 10
390.7282
 20
235.843379
 30
0.0
 40
0.5
 50
0.0
 51
90.0
  0
ARC
  8
LC-002-002-----0
  6
CONTINUOUS
  5
5D2
 10
377.7282
 20
179.843379
 30
0.0
 40
0.5
 50
270.0
 51
0.0
  0
ARC
  8
LC-002-002-----0
  6
CONTINUOUS
  5
5D3
 10
378.7282
 20
174.343379
 30
0.0
 40
1.0
 50
90.0
 51
180.0
  0
ARC
  8
LC-002-002-----0
  6
CONTINUOUS
  5
5D4
 10
380.2282
 20
208.343379
 30
0.0
 40
2.0
 50
90.0
 51
180.0
  0
ARC
  8
LC-002-002-----0
  6
CONTINUOUS
  5
5D5
 10
379.7282
 20
213.343379
 30
0.0
 40
1.0
 50
90.0
 51
180.0
  0
ARC
  8
LC-002-002-----0
  6
CONTINUOUS
  5
5D6
 10
289.2282
 20
213.843379
 30
0.0
 40
0.5
 50
0.0
 51
90.0
  0
ARC
  8
LC-002-002-----0
  6
CONTINUOUS
  5
5D7
 10
374.7282
 20
178.343379
 30
0.0
 40
1.0
 50
90.0
 51
180.0
  0
ARC
  8
LC-001-100-D02-0
  6
CONTINUOUS
  5
5D8
 10
387.7282
 20
235.843379
 30
0.0
 40
0.5
 50
90.0
 51
180.0
  0
ARC
  8
LC-002-002-----0
  6
CONTINUOUS
  5
5D9
 10
255.376647
 20
70.902697
 30
0.0
 40
6.0
 50
265.0
 51
345.0
  0
LINE
  8
LC-002-002-----0
  6
CONTINUOUS
  5
5DA
 10
260.72291
 20
77.807481
 30
0.0
 11
258.668053
 21
70.325166
 31
0.0
  0
ARC
  8
LC-002-002-----0
  6
CONTINUOUS
  5
5DB
 10
149.730756
 20
232.343298
 30
0.0
 40
1.001081
 50
0.004631
 51
8.359013
  0
LINE
  8
LC-002-002-----0
  6
CONTINUOUS
  5
5DC
 10
150.721202
 20
232.488831
 30
0.0
 11
150.707907
 21
232.560833
 31
0.0
  0
LINE
  8
LC-002-002-----0
  6
CONTINUOUS
  5
5DD
 10
150.707907
 20
232.560833
 30
0.0
 11
150.689378
 21
232.63167
 31
0.0
  0
ARC
  8
LC-002-002-----0
  6
CONTINUOUS
  5
5DE
 10
149.789409
 20
232.364212
 30
0.0
 40
0.938871
 50
16.551217
 51
23.249034
  0
ARC
  8
LC-002-002-----0
  6
CONTINUOUS
  5
5DF
 10
149.769931
 20
232.36274
 30
0.0
 40
0.95737
 50
22.869856
 51
31.037138
  0
LINE
  8
LC-002-002-----0
  6
CONTINUOUS
  5
5E0
 10
150.590237
 20
232.856353
 30
0.0
 11
150.545174
 21
232.925165
 31
0.0
  0
ARC
  8
LC-002-002-----0
  6
CONTINUOUS
  5
5E1
 10
149.73108
 20
232.342726
 30
0.0
 40
1.000991
 50
35.581582
 51
44.996487
  0
LINE
  8
LC-002-002-----0
  6
CONTINUOUS
  5
5E2
 10
150.438931
 20
233.05049
 30
0.0
 11
150.365709
 21
233.11681
 31
0.0
  0
ARC
  8
LC-002-002-----0
  6
CONTINUOUS
  5
5E3
 10
149.730359
 20
232.341158
 30
0.0
 40
1.002649
 50
50.678511
 51
61.926153
  0
ARC
  8
LC-002-002-----0
  6
CONTINUOUS
  5
5E4
 10
149.731748
 20
232.343179
 30
0.0
 40
1.000212
 50
61.941865
 51
73.244214
  0
LINE
  8
LC-002-002-----0
  6
CONTINUOUS
  5
5E5
 10
150.020102
 20
233.300924
 30
0.0
 11
149.949265
 21
233.319451
 31
0.0
  0
LINE
  8
LC-002-002-----0
  6
CONTINUOUS
  5
5E6
 10
149.949265
 20
233.319451
 30
0.0
 11
149.877262
 21
233.332745
 31
0.0
  0
ARC
  8
LC-002-002-----0
  6
CONTINUOUS
  5
5E7
 10
149.726779
 20
232.274514
 30
0.0
 40
1.068877
 50
81.906703
 51
89.730319
  0
ARC
  8
LC-002-002-----0
  6
CONTINUOUS
  5
5E8
 10
153.735078
 20
230.343622
 30
0.0
 40
3.003242
 50
180.004631
 51
188.359117
  0
LINE
  8
LC-002-002-----0
  6
CONTINUOUS
  5
5E9
 10
150.763742
 20
229.907019
 30
0.0
 11
150.80671
 21
229.67733
 31
0.0
  0
LINE
  8
LC-002-002-----0
  6
CONTINUOUS
  5
5EA
 10
150.80671
 20
229.67733
 30
0.0
 11
150.859214
 21
229.478497
 31
0.0
  0
ARC
  8
LC-002-002-----0
  6
CONTINUOUS
  5
5EB
 10
153.733999
 20
230.344204
 30
0.0
 40
3.002305
 50
196.759049
 51
203.796257
  0
LINE
  8
LC-002-002-----0
  6
CONTINUOUS
  5
5EC
 10
150.986932
 20
229.132817
 30
0.0
 11
151.066723
 21
228.966019
 31
0.0
  0
LINE
  8
LC-002-002-----0
  6
CONTINUOUS
  5
5ED
 10
151.066723
 20
228.966019
 30
0.0
 11
151.156639
 21
228.804452
 31
0.0
  0
ARC
  8
LC-002-002-----0
  6
CONTINUOUS
  5
5EE
 10
153.736298
 20
230.346606
 30
0.0
 40
3.005475
 50
210.871529
 51
220.278516
  0
LINE
  8
LC-002-002-----0
  6
CONTINUOUS
  5
5EF
 10
151.443389
 20
228.403555
 30
0.0
 11
151.610554
 21
228.222045
 31
0.0
  0
ARC
  8
LC-002-002-----0
  6
CONTINUOUS
  5
5F0
 10
153.632509
 20
230.231031
 30
0.0
 40
2.85032
 50
224.815664
 51
232.23904
  0
LINE
  8
LC-002-002-----0
  6
CONTINUOUS
  5
5F1
 10
151.887062
 20
227.977646
 30
0.0
 11
152.045025
 21
227.862543
 31
0.0
  0
LINE
  8
LC-002-002-----0
  6
CONTINUOUS
  5
5F2
 10
152.045025
 20
227.862543
 30
0.0
 11
152.192983
 21
227.76815
 31
0.0
  0
ARC
  8
LC-002-002-----0
  6
CONTINUOUS
  5
5F3
 10
153.811002
 20
230.496557
 30
0.0
 40
3.172096
 50
239.330906
 51
246.010997
  0
LINE
  8
LC-002-002-----0
  6
CONTINUOUS
  5
5F4
 10
152.521351
 20
227.598455
 30
0.0
 11
152.701483
 21
227.525887
 31
0.0
  0
LINE
  8
LC-002-002-----0
  6
CONTINUOUS
  5
5F5
 10
152.701483
 20
227.525887
 30
0.0
 11
152.867036
 21
227.470746
 31
0.0
  0
ARC
  8
LC-002-002-----0
  6
CONTINUOUS
  5
5F6
 10
153.77711
 20
230.5464
 30
0.0
 40
3.207473
 50
253.516711
 51
261.365337
  0
LINE
  8
LC-002-002-----0
  6
CONTINUOUS
  5
5F7
 10
153.295561
 20
227.375282
 30
0.0
 11
153.513157
 21
227.351365
 31
0.0
  0
LINE
  8
LC-002-002-----0
  6
CONTINUOUS
  5
5F8
 10
153.513157
 20
227.351365
 30
0.0
 11
153.731918
 21
227.343379
 31
0.0
  0
LINE
  8
LC-002-002-----0
  6
CONTINUOUS
  5
5F9
 10
166.112751
 20
216.343227
 30
0.0
 11
166.015262
 21
221.843303
 31
0.0
  0
LINE
  8
LC-002-002-----0
  6
CONTINUOUS
  5
5FA
 10
166.015262
 20
221.843303
 30
0.0
 11
165.971024
 21
224.340051
 31
0.0
  0
LINE
  8
LC-002-002-----0
  6
CONTINUOUS
  5
5FB
 10
165.971024
 20
224.340051
 30
0.0
 11
165.926522
 21
226.852234
 31
0.0
  0
LINE
  8
LC-002-002-----0
  6
CONTINUOUS
  5
5FC
 10
167.149794
 20
215.343379
 30
0.0
 11
166.80976
 21
215.670349
 31
0.0
  0
LINE
  8
LC-002-002-----0
  6
CONTINUOUS
  5
5FD
 10
166.80976
 20
215.670349
 30
0.0
 11
166.630797
 21
215.84281
 31
0.0
  0
LINE
  8
LC-002-002-----0
  6
CONTINUOUS
  5
5FE
 10
166.630797
 20
215.84281
 30
0.0
 11
166.290838
 21
216.171019
 31
0.0
  0
LINE
  8
LC-002-002-----0
  6
CONTINUOUS
  5
5FF
 10
166.290838
 20
216.171019
 30
0.0
 11
166.112751
 21
216.343227
 31
0.0
  0
LINE
  8
LC-002-002-----0
  6
CONTINUOUS
  5
600
 10
177.34365
 20
216.343227
 30
0.0
 11
176.992924
 21
216.004255
 31
0.0
  0
LINE
  8
LC-002-002-----0
  6
CONTINUOUS
  5
601
 10
176.992924
 20
216.004255
 30
0.0
 11
176.825603
 21
215.84281
 31
0.0
  0
LINE
  8
LC-002-002-----0
  6
CONTINUOUS
  5
602
 10
176.825603
 20
215.84281
 30
0.0
 11
176.473695
 21
215.503924
 31
0.0
  0
LINE
  8
LC-002-002-----0
  6
CONTINUOUS
  5
603
 10
176.473695
 20
215.503924
 30
0.0
 11
176.306606
 21
215.343379
 31
0.0
  0
LINE
  8
LC-002-002-----0
  6
CONTINUOUS
  5
604
 10
177.529879
 20
226.852234
 30
0.0
 11
177.441139
 21
221.843303
 31
0.0
  0
LINE
  8
LC-002-002-----0
  6
CONTINUOUS
  5
605
 10
177.441139
 20
221.843303
 30
0.0
 11
177.392152
 21
219.079279
 31
0.0
  0
LINE
  8
LC-002-002-----0
  6
CONTINUOUS
  5
606
 10
177.392152
 20
219.079279
 30
0.0
 11
177.34365
 21
216.343227
 31
0.0
  0
ARC
  8
LC-002-002-----0
  6
CONTINUOUS
  5
607
 10
184.231995
 20
226.343298
 30
0.0
 40
1.00106
 50
0.004632
 51
8.359348
  0
LINE
  8
LC-002-002-----0
  6
CONTINUOUS
  5
608
 10
185.222419
 20
226.488833
 30
0.0
 11
185.209123
 21
226.560837
 31
0.0
  0
LINE
  8
LC-002-002-----0
  6
CONTINUOUS
  5
609
 10
185.209123
 20
226.560837
 30
0.0
 11
185.190594
 21
226.631675
 31
0.0
  0
ARC
  8
LC-002-002-----0
  6
CONTINUOUS
  5
60A
 10
184.231389
 20
226.342708
 30
0.0
 40
1.001787
 50
16.765272
 51
26.151525
  0
LINE
  8
LC-002-002-----0
  6
CONTINUOUS
  5
60B
 10
185.130624
 20
226.784243
 30
0.0
 11
185.091449
 21
226.856358
 31
0.0
  0
ARC
  8
LC-002-002-----0
  6
CONTINUOUS
  5
60C
 10
184.231569
 20
226.342296
 30
0.0
 40
1.001825
 50
30.872271
 51
40.27935
  0
LINE
  8
LC-002-002-----0
  6
CONTINUOUS
  5
60D
 10
184.995863
 20
226.989991
 30
0.0
 11
184.94014
 21
227.050494
 31
0.0
  0
ARC
  8
LC-002-002-----0
  6
CONTINUOUS
  5
60E
 10
184.230623
 20
226.340399
 30
0.0
 40
1.003817
 50
45.023351
 51
56.285017
  0
ARC
  8
LC-002-002-----0
  6
CONTINUOUS
  5
60F
 10
184.232337
 20
226.342041
 30
0.0
 40
1.0015
 50
56.314446
 51
67.575123
  0
LINE
  8
LC-002-002-----0
  6
CONTINUOUS
  5
610
 10
184.614381
 20
227.267808
 30
0.0
 11
184.521305
 21
227.300924
 31
0.0
  0
ARC
  8
LC-002-002-----0
  6
CONTINUOUS
  5
611
 10
184.245809
 20
226.400752
 30
0.0
 40
0.941386
 50
72.983384
 51
81.899376
  0
LINE
  8
LC-002-002-----0
  6
CONTINUOUS
  5
612
 10
184.378462
 20
227.332745
 30
0.0
 11
184.3013
 21
227.341045
 31
0.0
  0
LINE
  8
LC-002-002-----0
  6
CONTINUOUS
  5
613
 10
184.3013
 20
227.341045
 30
0.0
 11
184.233008
 21
227.343379
 31
0.0
  0
ARC
  8
LC-002-002-----0
  6
CONTINUOUS
  5
614
 10
191.207688
 20
211.992932
 30
0.0
 40
5.649611
 50
261.376955
 51
270.2603
  0
LINE
  8
LC-002-002-----0
  6
CONTINUOUS
  5
615
 10
190.360625
 20
206.407183
 30
0.0
 11
189.955984
 21
206.480914
 31
0.0
  0
LINE
  8
LC-002-002-----0
  6
CONTINUOUS
  5
616
 10
189.955984
 20
206.480914
 30
0.0
 11
189.503557
 21
206.598111
 31
0.0
  0
ARC
  8
LC-002-002-----0
  6
CONTINUOUS
  5
617
 10
191.129438
 20
212.062665
 30
0.0
 40
5.701302
 50
246.018362
 51
253.43056
  0
LINE
  8
LC-002-002-----0
  6
CONTINUOUS
  5
618
 10
188.812179
 20
206.853524
 30
0.0
 11
188.496205
 21
207.004017
 31
0.0
  0
LINE
  8
LC-002-002-----0
  6
CONTINUOUS
  5
619
 10
188.496205
 20
207.004017
 30
0.0
 11
188.155434
 21
207.192906
 31
0.0
  0
ARC
  8
LC-002-002-----0
  6
CONTINUOUS
  5
61A
 10
191.239626
 20
212.352638
 30
0.0
 40
6.011247
 50
229.724749
 51
239.131435
  0
LINE
  8
LC-002-002-----0
  6
CONTINUOUS
  5
61B
 10
187.353594
 20
207.766372
 30
0.0
 11
186.990552
 21
208.100685
 31
0.0
  0
ARC
  8
LC-002-002-----0
  6
CONTINUOUS
  5
61C
 10
191.236645
 20
212.346682
 30
0.0
 40
6.004815
 50
217.952524
 51
224.99935
  0
LINE
  8
LC-002-002-----0
  6
CONTINUOUS
  5
61D
 10
186.501725
 20
208.653671
 30
0.0
 11
186.271499
 21
208.969587
 31
0.0
  0
LINE
  8
LC-002-002-----0
  6
CONTINUOUS
  5
61E
 10
186.271499
 20
208.969587
 30
0.0
 11
186.082696
 21
209.265492
 31
0.0
  0
ARC
  8
LC-002-002-----0
  6
CONTINUOUS
  5
61F
 10
191.539059
 20
212.501649
 30
0.0
 40
6.343864
 50
203.991541
 51
210.672089
  0
LINE
  8
LC-002-002-----0
  6
CONTINUOUS
  5
620
 10
185.74327
 20
209.922223
 30
0.0
 11
185.604921
 21
210.263978
 31
0.0
  0
LINE
  8
LC-002-002-----0
  6
CONTINUOUS
  5
621
 10
185.604921
 20
210.263978
 30
0.0
 11
185.487825
 21
210.613584
 31
0.0
  0
ARC
  8
LC-002-002-----0
  6
CONTINUOUS
  5
622
 10
191.638536
 20
212.433781
 30
0.0
 40
6.414388
 50
188.635778
 51
196.485215
  0
LINE
  8
LC-002-002-----0
  6
CONTINUOUS
  5
623
 10
185.296869
 20
211.470644
 30
0.0
 11
185.24903
 21
211.905847
 31
0.0
  0
LINE
  8
LC-002-002-----0
  6
CONTINUOUS
  5
624
 10
185.24903
 20
211.905847
 30
0.0
 11
185.233055
 21
212.343379
 31
0.0
  0
ARC
  8
LC-002-002-----0
  6
CONTINUOUS
  5
625
 10
426.725644
 20
232.343298
 30
0.0
 40
1.001081
 50
171.640987
 51
179.995369
  0
LINE
  8
LC-002-002-----0
  6
CONTINUOUS
  5
626
 10
425.735199
 20
232.488831
 30
0.0
 11
425.748494
 21
232.560833
 31
0.0
  0
LINE
  8
LC-002-002-----0
  6
CONTINUOUS
  5
627
 10
425.748494
 20
232.560833
 30
0.0
 11
425.767022
 21
232.63167
 31
0.0
  0
ARC
  8
LC-002-002-----0
  6
CONTINUOUS
  5
628
 10
426.666991
 20
232.364212
 30
0.0
 40
0.938871
 50
156.750966
 51
163.448783
  0
ARC
  8
LC-002-002-----0
  6
CONTINUOUS
  5
629
 10
426.68647
 20
232.36274
 30
0.0
 40
0.95737
 50
148.962862
 51
157.130144
  0
LINE
  8
LC-002-002-----0
  6
CONTINUOUS
  5
62A
 10
425.866164
 20
232.856353
 30
0.0
 11
425.911226
 21
232.925165
 31
0.0
  0
ARC
  8
LC-002-002-----0
  6
CONTINUOUS
  5
62B
 10
426.72532
 20
232.342726
 30
0.0
 40
1.000991
 50
135.003513
 51
144.418418
  0
LINE
  8
LC-002-002-----0
  6
CONTINUOUS
  5
62C
 10
426.017469
 20
233.05049
 30
0.0
 11
426.090692
 21
233.11681
 31
0.0
  0
ARC
  8
LC-002-002-----0
  6
CONTINUOUS
  5
62D
 10
426.726041
 20
232.341158
 30
0.0
 40
1.002649
 50
118.073847
 51
129.321489
  0
ARC
  8
LC-002-002-----0
  6
CONTINUOUS
  5
62E
 10
426.724652
 20
232.343179
 30
0.0
 40
1.000212
 50
106.755786
 51
118.058135
  0
LINE
  8
LC-002-002-----0
  6
CONTINUOUS
  5
62F
 10
426.436298
 20
233.300924
 30
0.0
 11
426.507136
 21
233.319451
 31
0.0
  0
LINE
  8
LC-002-002-----0
  6
CONTINUOUS
  5
630
 10
426.507136
 20
233.319451
 30
0.0
 11
426.579139
 21
233.332745
 31
0.0
  0
ARC
  8
LC-002-002-----0
  6
CONTINUOUS
  5
631
 10
426.729621
 20
232.274514
 30
0.0
 40
1.068877
 50
90.269681
 51
98.093297
  0
ARC
  8
LC-002-002-----0
  6
CONTINUOUS
  5
632
 10
422.721322
 20
230.343622
 30
0.0
 40
3.003242
 50
351.640883
 51
359.995369
  0
LINE
  8
LC-002-002-----0
  6
CONTINUOUS
  5
633
 10
425.692658
 20
229.907019
 30
0.0
 11
425.649691
 21
229.67733
 31
0.0
  0
LINE
  8
LC-002-002-----0
  6
CONTINUOUS
  5
634
 10
425.649691
 20
229.67733
 30
0.0
 11
425.597186
 21
229.478497
 31
0.0
  0
ARC
  8
LC-002-002-----0
  6
CONTINUOUS
  5
635
 10
422.722402
 20
230.344204
 30
0.0
 40
3.002305
 50
336.203743
 51
343.240951
  0
LINE
  8
LC-002-002-----0
  6
CONTINUOUS
  5
636
 10
425.469469
 20
229.132817
 30
0.0
 11
425.389677
 21
228.966019
 31
0.0
  0
LINE
  8
LC-002-002-----0
  6
CONTINUOUS
  5
637
 10
425.389677
 20
228.966019
 30
0.0
 11
425.299762
 21
228.804452
 31
0.0
  0
ARC
  8
LC-002-002-----0
  6
CONTINUOUS
  5
638
 10
422.720103
 20
230.346606
 30
0.0
 40
3.005475
 50
319.721484
 51
329.128471
  0
LINE
  8
LC-002-002-----0
  6
CONTINUOUS
  5
639
 10
425.013012
 20
228.403555
 30
0.0
 11
424.845847
 21
228.222045
 31
0.0
  0
ARC
  8
LC-002-002-----0
  6
CONTINUOUS
  5
63A
 10
422.823892
 20
230.231031
 30
0.0
 40
2.85032
 50
307.76096
 51
315.184336
  0
LINE
  8
LC-002-002-----0
  6
CONTINUOUS
  5
63B
 10
424.569338
 20
227.977646
 30
0.0
 11
424.411375
 21
227.862543
 31
0.0
  0
LINE
  8
LC-002-002-----0
  6
CONTINUOUS
  5
63C
 10
424.411375
 20
227.862543
 30
0.0
 11
424.263418
 21
227.76815
 31
0.0
  0
ARC
  8
LC-002-002-----0
  6
CONTINUOUS
  5
63D
 10
422.645399
 20
230.496557
 30
0.0
 40
3.172096
 50
293.989003
 51
300.669094
  0
LINE
  8
LC-002-002-----0
  6
CONTINUOUS
  5
63E
 10
423.93505
 20
227.598455
 30
0.0
 11
423.754917
 21
227.525887
 31
0.0
  0
LINE
  8
LC-002-002-----0
  6
CONTINUOUS
  5
63F
 10
423.754917
 20
227.525887
 30
0.0
 11
423.589365
 21
227.470746
 31
0.0
  0
ARC
  8
LC-002-002-----0
  6
CONTINUOUS
  5
640
 10
422.67929
 20
230.5464
 30
0.0
 40
3.207473
 50
278.634663
 51
286.483289
  0
LINE
  8
LC-002-002-----0
  6
CONTINUOUS
  5
641
 10
423.16084
 20
227.375282
 30
0.0
 11
422.943243
 21
227.351365
 31
0.0
  0
LINE
  8
LC-002-002-----0
  6
CONTINUOUS
  5
642
 10
422.943243
 20
227.351365
 30
0.0
 11
422.724483
 21
227.343379
 31
0.0
  0
LINE
  8
LC-002-002-----0
  6
CONTINUOUS
  5
643
 10
410.34365
 20
216.343227
 30
0.0
 11
410.441139
 21
221.843303
 31
0.0
  0
LINE
  8
LC-002-002-----0
  6
CONTINUOUS
  5
644
 10
410.441139
 20
221.843303
 30
0.0
 11
410.485377
 21
224.340051
 31
0.0
  0
LINE
  8
LC-002-002-----0
  6
CONTINUOUS
  5
645
 10
410.485377
 20
224.340051
 30
0.0
 11
410.529879
 21
226.852234
 31
0.0
  0
LINE
  8
LC-002-002-----0
  6
CONTINUOUS
  5
646
 10
399.112751
 20
216.343227
 30
0.0
 11
399.463477
 21
216.004255
 31
0.0
  0
LINE
  8
LC-002-002-----0
  6
CONTINUOUS
  5
647
 10
399.463477
 20
216.004255
 30
0.0
 11
399.630797
 21
215.84281
 31
0.0
  0
LINE
  8
LC-002-002-----0
  6
CONTINUOUS
  5
648
 10
399.982706
 20
215.503924
 30
0.0
 11
400.149794
 21
215.343379
 31
0.0
  0
LINE
  8
LC-002-002-----0
  6
CONTINUOUS
  5
649
 10
409.306606
 20
215.343379
 30
0.0
 11
409.646641
 21
215.670349
 31
0.0
  0
LINE
  8
LC-001-100-D02-0
  6
CONTINUOUS
  5
64A
 10
409.646641
 20
215.670349
 30
0.0
 11
409.825603
 21
215.84281
 31
0.0
  0
LINE
  8
LC-002-002-----0
  6
CONTINUOUS
  5
64B
 10
409.825603
 20
215.84281
 30
0.0
 11
410.165563
 21
216.171019
 31
0.0
  0
LINE
  8
LC-001-100-D02-0
  6
CONTINUOUS
  5
64C
 10
410.165563
 20
216.171019
 30
0.0
 11
410.34365
 21
216.343227
 31
0.0
  0
LINE
  8
LC-002-002-----0
  6
CONTINUOUS
  5
64D
 10
398.926522
 20
226.852234
 30
0.0
 11
399.015262
 21
221.843303
 31
0.0
  0
LINE
  8
LC-002-002-----0
  6
CONTINUOUS
  5
64E
 10
399.015262
 20
221.843303
 30
0.0
 11
399.064248
 21
219.079279
 31
0.0
  0
LINE
  8
LC-002-002-----0
  6
CONTINUOUS
  5
64F
 10
399.064248
 20
219.079279
 30
0.0
 11
399.112751
 21
216.343227
 31
0.0
  0
ARC
  8
LC-002-002-----0
  6
CONTINUOUS
  5
650
 10
392.224406
 20
226.343298
 30
0.0
 40
1.00106
 50
171.640652
 51
179.995368
  0
LINE
  8
LC-002-002-----0
  6
CONTINUOUS
  5
651
 10
391.233981
 20
226.488833
 30
0.0
 11
391.247277
 21
226.560837
 31
0.0
  0
LINE
  8
LC-002-002-----0
  6
CONTINUOUS
  5
652
 10
391.247277
 20
226.560837
 30
0.0
 11
391.265807
 21
226.631675
 31
0.0
  0
ARC
  8
LC-002-002-----0
  6
CONTINUOUS
  5
653
 10
392.225012
 20
226.342708
 30
0.0
 40
1.001787
 50
153.848475
 51
163.234728
  0
LINE
  8
LC-002-002-----0
  6
CONTINUOUS
  5
654
 10
391.325776
 20
226.784243
 30
0.0
 11
391.364951
 21
226.856358
 31
0.0
  0
ARC
  8
LC-002-002-----0
  6
CONTINUOUS
  5
655
 10
392.224831
 20
226.342296
 30
0.0
 40
1.001825
 50
139.72065
 51
149.127729
  0
LINE
  8
LC-002-002-----0
  6
CONTINUOUS
  5
656
 10
391.460537
 20
226.989991
 30
0.0
 11
391.516261
 21
227.050494
 31
0.0
  0
ARC
  8
LC-002-002-----0
  6
CONTINUOUS
  5
657
 10
392.225778
 20
226.340399
 30
0.0
 40
1.003817
 50
123.714983
 51
134.976649
  0
ARC
  8
LC-002-002-----0
  6
CONTINUOUS
  5
658
 10
392.224063
 20
226.342041
 30
0.0
 40
1.0015
 50
112.424877
 51
123.685554
  0
LINE
  8
LC-002-002-----0
  6
CONTINUOUS
  5
659
 10
391.842019
 20
227.267808
 30
0.0
 11
391.935096
 21
227.300924
 31
0.0
  0
ARC
  8
LC-002-002-----0
  6
CONTINUOUS
  5
65A
 10
392.210592
 20
226.400752
 30
0.0
 40
0.941386
 50
98.100624
 51
107.016616
  0
LINE
  8
LC-002-002-----0
  6
CONTINUOUS
  5
65B
 10
392.077939
 20
227.332745
 30
0.0
 11
392.155101
 21
227.341045
 31
0.0
  0
LINE
  8
LC-002-002-----0
  6
CONTINUOUS
  5
65C
 10
392.155101
 20
227.341045
 30
0.0
 11
392.223392
 21
227.343379
 31
0.0
  0
LINE
  8
LC-002-002-----0
  6
CONTINUOUS
  5
65D
 10
367.872853
 20
61.454822
 30
0.0
 11
367.266796
 21
62.603775
 31
0.0
  0
LINE
  8
LC-002-002-----0
  6
CONTINUOUS
  5
65E
 10
367.266796
 20
62.603775
 30
0.0
 11
364.225003
 21
68.778165
 31
0.0
  0
ARC
  8
LC-002-002-----0
  6
CONTINUOUS
  5
65F
 10
465.707851
 20
115.838139
 30
0.0
 40
111.863353
 50
198.415623
 51
204.878259
  0
LINE
  8
LC-002-002-----0
  6
CONTINUOUS
  5
660
 10
359.573031
 20
80.499639
 30
0.0
 11
358.209547
 21
85.067879
 31
0.0
  0
LINE
  8
LC-002-002-----0
  6
CONTINUOUS
  5
661
 10
358.209547
 20
85.067879
 30
0.0
 11
357.138942
 21
89.557411
 31
0.0
  0
ARC
  8
LC-002-002-----0
  6
CONTINUOUS
  5
662
 10
427.903966
 20
104.313251
 30
0.0
 40
72.28709
 50
183.92377
 51
191.778474
  0
LINE
  8
LC-002-002-----0
  6
CONTINUOUS
  5
663
 10
355.786318
 20
99.366704
 30
0.0
 11
355.637785
 21
104.339444
 31
0.0
  0
LINE
  8
LC-002-002-----0
  6
CONTINUOUS
  5
664
 10
355.637785
 20
104.339444
 30
0.0
 11
355.855887
 21
109.314749
 31
0.0
  0
ARC
  8
LC-002-002-----0
  6
CONTINUOUS
  5
665
 10
427.252155
 20
103.517652
 30
0.0
 40
71.631232
 50
167.494637
 51
175.357991
  0
LINE
  8
LC-002-002-----0
  6
CONTINUOUS
  5
666
 10
357.320321
 20
119.028033
 30
0.0
 11
358.931327
 21
125.198056
 31
0.0
  0
ARC
  8
LC-002-002-----0
  6
CONTINUOUS
  5
667
 10
456.142279
 20
95.651589
 30
0.0
 40
101.601982
 50
155.308108
 51
163.093784
  0
LINE
  8
LC-002-002-----0
  6
CONTINUOUS
  5
668
 10
363.83004
 20
138.09465
 30
0.0
 11
366.727736
 21
144.090738
 31
0.0
  0
LINE
  8
LC-002-002-----0
  6
CONTINUOUS
  5
669
 10
366.727736
 20
144.090738
 30
0.0
 11
370.101742
 21
150.330951
 31
0.0
  0
ARC
  8
LC-002-002-----0
  6
CONTINUOUS
  5
66A
 10
538.463565
 20
54.728254
 30
0.0
 40
193.611928
 50
149.01333
 51
150.410326
  0
LINE
  8
LC-002-002-----0
  6
CONTINUOUS
  5
66B
 10
372.482556
 20
154.407156
 30
0.0
 11
372.91773
 21
155.129138
 31
0.0
  0
LINE
  8
LC-002-002-----0
  6
CONTINUOUS
  5
66C
 10
372.91773
 20
155.129138
 30
0.0
 11
373.358943
 21
155.85462
 31
0.0
  0
LINE
  8
LC-002-002-----0
  6
CONTINUOUS
  5
66D
 10
373.358943
 20
155.85462
 30
0.0
 11
373.583142
 21
156.220839
 31
0.0
  0
LINE
  8
LC-002-002-----0
  6
CONTINUOUS
  5
66E
 10
373.583142
 20
156.220839
 30
0.0
 11
373.620751
 21
156.282115
 31
0.0
  0
LINE
  8
LC-002-002-----0
  6
CONTINUOUS
  5
66F
 10
373.620751
 20
156.282115
 30
0.0
 11
373.65838
 21
156.343379
 31
0.0
  0
ARC
  8
LC-002-002-----0
  6
CONTINUOUS
  5
670
 10
287.233701
 20
210.115202
 30
0.0
 40
0.442743
 50
267.922491
 51
269.288088
  0
LINE
  8
LC-002-002-----0
  6
CONTINUOUS
  5
671
 10
287.217651
 20
209.67275
 30
0.0
 11
287.190867
 21
209.674532
 31
0.0
  0
ARC
  8
LC-002-002-----0
  6
CONTINUOUS
  5
672
 10
287.232949
 20
210.116752
 30
0.0
 40
0.444218
 50
256.863563
 51
264.564067
  0
LINE
  8
LC-002-002-----0
  6
CONTINUOUS
  5
673
 10
287.131991
 20
209.684159
 30
0.0
 11
287.107325
 21
209.690538
 31
0.0
  0
ARC
  8
LC-002-002-----0
  6
CONTINUOUS
  5
674
 10
287.241071
 20
210.159855
 30
0.0
 40
0.488002
 50
247.150318
 51
254.093591
  0
LINE
  8
LC-002-002-----0
  6
CONTINUOUS
  5
675
 10
287.051572
 20
209.710148
 30
0.0
 11
287.026799
 21
209.721221
 31
0.0
  0
ARC
  8
LC-002-002-----0
  6
CONTINUOUS
  5
676
 10
287.26243
 20
210.218699
 30
0.0
 40
0.55046
 50
237.646353
 51
244.65537
  0
LINE
  8
LC-002-002-----0
  6
CONTINUOUS
  5
677
 10
286.967855
 20
209.753692
 30
0.0
 11
286.940643
 21
209.771776
 31
0.0
  0
ARC
  8
LC-002-002-----0
  6
CONTINUOUS
  5
678
 10
287.333194
 20
210.327287
 30
0.0
 40
0.680213
 50
229.925505
 51
234.753163
  0
ARC
  8
LC-002-002-----0
  6
CONTINUOUS
  5
679
 10
287.353414
 20
210.345953
 30
0.0
 40
0.707521
 50
226.0708
 51
229.645629
  0
LINE
  8
LC-002-002-----0
  6
CONTINUOUS
  5
67A
 10
286.862557
 20
209.836397
 30
0.0
 11
286.848851
 21
209.850087
 31
0.0
  0
ARC
  8
LC-002-002-----0
  6
CONTINUOUS
  5
67B
 10
287.263809
 20
210.254925
 30
0.0
 40
0.579727
 50
219.697338
 51
224.292772
  0
LINE
  8
LC-002-002-----0
  6
CONTINUOUS
  5
67C
 10
286.81775
 20
209.884635
 30
0.0
 11
286.806273
 21
209.898882
 31
0.0
  0
ARC
  8
LC-002-002-----0
  6
CONTINUOUS
  5
67D
 10
287.196377
 20
210.204468
 30
0.0
 40
0.495544
 50
213.131704
 51
218.073246
  0
LINE
  8
LC-002-002-----0
  6
CONTINUOUS
  5
67E
 10
286.7814
 20
209.933621
 30
0.0
 11
286.767682
 21
209.955995
 31
0.0
  0
LINE
  8
LC-002-002-----0
  6
CONTINUOUS
  5
67F
 10
286.767682
 20
209.955995
 30
0.0
 11
286.754083
 21
209.981913
 31
0.0
  0
ARC
  8
LC-002-002-----0
  6
CONTINUOUS
  5
680
 10
287.027748
 20
210.113259
 30
0.0
 40
0.303553
 50
196.143691
 51
205.638727
  0
LINE
  8
LC-002-002-----0
  6
CONTINUOUS
  5
681
 10
286.736165
 20
210.028857
 30
0.0
 11
286.730308
 21
210.055638
 31
0.0
  0
LINE
  8
LC-002-002-----0
  6
CONTINUOUS
  5
682
 10
286.730308
 20
210.055638
 30
0.0
 11
286.7282
 21
210.082509
 31
0.0
  0
ARC
  8
LC-002-002-----0
  6
CONTINUOUS
  5
683
 10
289.530592
 20
210.084426
 30
0.0
 40
0.197618
 50
343.664009
 51
359.444124
  0
LINE
  8
LC-002-002-----0
  6
CONTINUOUS
  5
684
 10
289.720232
 20
210.028842
 30
0.0
 11
289.70911
 21
209.997126
 31
0.0
  0
ARC
  8
LC-002-002-----0
  6
CONTINUOUS
  5
685
 10
289.352466
 20
210.147768
 30
0.0
 40
0.387153
 50
326.416427
 51
337.101435
  0
LINE
  8
LC-002-002-----0
  6
CONTINUOUS
  5
686
 10
289.674996
 20
209.933613
 30
0.0
 11
289.665236
 21
209.919245
 31
0.0
  0
ARC
  8
LC-002-002-----0
  6
CONTINUOUS
  5
687
 10
289.246418
 20
210.21344
 30
0.0
 40
0.51182
 50
320.026903
 51
324.914283
  0
LINE
  8
LC-002-002-----0
  6
CONTINUOUS
  5
688
 10
289.638649
 20
209.884633
 30
0.0
 11
289.62625
 21
209.870217
 31
0.0
  0
ARC
  8
LC-002-002-----0
  6
CONTINUOUS
  5
689
 10
289.184046
 20
210.261523
 30
0.0
 40
0.590479
 50
313.94824
 51
318.494461
  0
LINE
  8
LC-002-002-----0
  6
CONTINUOUS
  5
68A
 10
289.593843
 20
209.836397
 30
0.0
 11
289.571843
 21
209.816049
 31
0.0
  0
LINE
  8
LC-002-002-----0
  6
CONTINUOUS
  5
68B
 10
289.571843
 20
209.816049
 30
0.0
 11
289.544955
 21
209.793566
 31
0.0
  0
ARC
  8
LC-002-002-----0
  6
CONTINUOUS
  5
68C
 10
289.127691
 20
210.322805
 30
0.0
 40
0.673945
 50
304.108524
 51
308.25309
  0
LINE
  8
LC-002-002-----0
  6
CONTINUOUS
  5
68D
 10
289.505614
 20
209.764793
 30
0.0
 11
289.488532
 21
209.753683
 31
0.0
  0
ARC
  8
LC-002-002-----0
  6
CONTINUOUS
  5
68E
 10
289.158327
 20
210.283405
 30
0.0
 40
0.624212
 50
295.757651
 51
301.937566
  0
LINE
  8
LC-002-002-----0
  6
CONTINUOUS
  5
68F
 10
289.429588
 20
209.721214
 30
0.0
 11
289.404815
 21
209.710142
 31
0.0
  0
ARC
  8
LC-002-002-----0
  6
CONTINUOUS
  5
690
 10
289.199694
 20
210.204312
 30
0.0
 40
0.535049
 50
286.2104
 51
292.542434
  0
LINE
  8
LC-002-002-----0
  6
CONTINUOUS
  5
691
 10
289.349062
 20
209.690534
 30
0.0
 11
289.324396
 21
209.684155
 31
0.0
  0
ARC
  8
LC-002-002-----0
  6
CONTINUOUS
  5
692
 10
289.222841
 20
210.119476
 30
0.0
 40
0.447009
 50
272.037796
 51
283.131531
  0
LINE
  8
LC-002-002-----0
  6
CONTINUOUS
  5
693
 10
289.238736
 20
209.672749
 30
0.0
 11
289.233468
 21
209.67259
 31
0.0
  0
LINE
  8
LC-002-002-----0
  6
CONTINUOUS
  5
694
 10
289.233468
 20
209.67259
 30
0.0
 11
289.2282
 21
209.672493
 31
0.0
  0
ARC
  8
LC-002-002-----0
  6
CONTINUOUS
  5
695
 10
288.226452
 20
290.101341
 30
0.0
 40
80.435086
 50
270.001245
 51
270.713587
  0
LINE
  8
LC-002-002-----0
  6
CONTINUOUS
  5
696
 10
288.2282
 20
209.666255
 30
0.0
 11
287.728328
 21
209.667819
 31
0.0
  0
LINE
  8
LC-002-002-----0
  6
CONTINUOUS
  5
697
 10
287.728328
 20
209.667819
 30
0.0
 11
287.2282
 21
209.672493
 31
0.0
  0
ARC
  8
LC-002-002-----0
  6
CONTINUOUS
  5
698
 10
334.556918
 20
62.970358
 30
0.0
 40
8.365852
 50
356.931715
 51
3.509643
  0
ARC
  8
LC-002-002-----0
  6
CONTINUOUS
  5
699
 10
334.599185
 20
62.975316
 30
0.0
 40
8.323914
 50
350.494557
 51
356.882064
  0
ARC
  8
LC-002-002-----0
  6
CONTINUOUS
  5
69A
 10
334.909151
 20
62.931229
 30
0.0
 40
8.010927
 50
344.072287
 51
350.439437
  0
ARC
  8
LC-002-002-----0
  6
CONTINUOUS
  5
69B
 10
335.532254
 20
62.762263
 30
0.0
 40
7.365382
 50
337.42686
 51
344.006043
  0
ARC
  8
LC-002-002-----0
  6
CONTINUOUS
  5
69C
 10
336.428115
 20
62.39999
 30
0.0
 40
6.399097
 50
330.23381
 51
337.342981
  0
ARC
  8
LC-002-002-----0
  6
CONTINUOUS
  5
69D
 10
327.562198
 20
64.623118
 30
0.0
 40
14.772334
 50
343.155486
 51
344.514751
  0
ARC
  8
LC-002-002-----0
  6
CONTINUOUS
  5
69E
 10
323.188507
 20
65.843259
 30
0.0
 40
19.313025
 50
344.490673
 51
345.536305
  0
ARC
  8
LC-002-002-----0
  6
CONTINUOUS
  5
69F
 10
322.708207
 20
65.971635
 30
0.0
 40
19.810167
 50
345.523739
 51
346.531527
  0
ARC
  8
LC-002-002-----0
  6
CONTINUOUS
  5
6A0
 10
325.772106
 20
65.240138
 30
0.0
 40
16.660157
 50
346.523844
 51
347.70601
  0
ARC
  8
LC-002-002-----0
  6
CONTINUOUS
  5
6A1
 10
329.238713
 20
64.485724
 30
0.0
 40
13.112412
 50
347.701537
 51
349.203696
  0
ARC
  8
LC-002-002-----0
  6
CONTINUOUS
  5
6A2
 10
331.332657
 20
64.08735
 30
0.0
 40
10.980909
 50
349.198942
 51
351.046369
  0
ARC
  8
LC-002-002-----0
  6
CONTINUOUS
  5
6A3
 10
331.711433
 20
64.030434
 30
0.0
 40
10.59789
 50
351.031619
 51
353.087209
  0
ARC
  8
LC-002-002-----0
  6
CONTINUOUS
  5
6A4
 10
330.143504
 20
64.228316
 30
0.0
 40
12.17824
 50
353.050844
 51
355.063894
  0
LINE
  8
LC-002-002-----0
  6
CONTINUOUS
  5
6A5
 10
342.276579
 20
63.180442
 30
0.0
 11
342.295669
 21
63.419735
 31
0.0
  0
LINE
  8
LC-002-002-----0
  6
CONTINUOUS
  5
6A6
 10
342.295669
 20
63.419735
 30
0.0
 11
342.51314
 21
63.440287
 31
0.0
  0
LINE
  8
LC-002-002-----0
  6
CONTINUOUS
  5
6A7
 10
342.51314
 20
63.440287
 30
0.0
 11
342.617327
 21
63.450684
 31
0.0
  0
LINE
  8
LC-002-002-----0
  6
CONTINUOUS
  5
6A8
 10
342.617327
 20
63.450684
 30
0.0
 11
342.814683
 21
63.471773
 31
0.0
  0
LINE
  8
LC-002-002-----0
  6
CONTINUOUS
  5
6A9
 10
342.814683
 20
63.471773
 30
0.0
 11
342.90708
 21
63.482486
 31
0.0
  0
ARC
  8
LC-002-002-----0
  6
CONTINUOUS
  5
6AA
 10
264.039759
 20
81.69134
 30
0.0
 40
12.571601
 50
244.704364
 51
246.825472
  0
ARC
  8
LC-002-002-----0
  6
CONTINUOUS
  5
6AB
 10
266.034839
 20
86.333348
 30
0.0
 40
17.624178
 50
246.801698
 51
248.323798
  0
ARC
  8
LC-002-002-----0
  6
CONTINUOUS
  5
6AC
 10
268.14483
 20
91.642617
 30
0.0
 40
23.337356
 50
248.324412
 51
249.432637
  0
ARC
  8
LC-002-002-----0
  6
CONTINUOUS
  5
6AD
 10
270.544219
 20
98.059499
 30
0.0
 40
30.188151
 50
249.447542
 51
250.234635
  0
ARC
  8
LC-002-002-----0
  6
CONTINUOUS
  5
6AE
 10
257.027671
 20
71.975917
 30
0.0
 40
5.481372
 50
284.526951
 51
288.325527
  0
ARC
  8
LC-002-002-----0
  6
CONTINUOUS
  5
6AF
 10
256.876631
 20
72.543552
 30
0.0
 40
6.068747
 50
281.164759
 51
284.563092
  0
ARC
  8
LC-002-002-----0
  6
CONTINUOUS
  5
6B0
 10
256.928415
 20
72.285964
 30
0.0
 40
5.806007
 50
277.724
 51
281.155608
  0
ARC
  8
LC-002-002-----0
  6
CONTINUOUS
  5
6B1
 10
256.996235
 20
71.811436
 30
0.0
 40
5.326671
 50
274.084339
 51
277.687137
  0
ARC
  8
LC-002-002-----0
  6
CONTINUOUS
  5
6B2
 10
257.002155
 20
71.791082
 30
0.0
 40
5.305948
 50
270.473962
 51
274.036226
  0
ARC
  8
LC-002-002-----0
  6
CONTINUOUS
  5
6B3
 10
256.994723
 20
73.066477
 30
0.0
 40
6.581362
 50
267.480627
 51
270.446814
  0
ARC
  8
LC-002-002-----0
  6
CONTINUOUS
  5
6B4
 10
257.229748
 20
78.520344
 30
0.0
 40
12.040289
 50
265.718678
 51
267.504126
  0
LINE
  8
LC-002-002-----0
  6
CONTINUOUS
  5
6B5
 10
256.330897
 20
66.513653
 30
0.0
 11
256.12151
 21
66.529523
 31
0.0
  0
LINE
  8
LC-002-002-----0
  6
CONTINUOUS
  5
6B6
 10
258.751098
 20
66.77253
 30
0.0
 11
258.808187
 21
66.607595
 31
0.0
  0
ARC
  8
LC-002-002-----0
  6
CONTINUOUS
  5
6B7
 10
254.951444
 20
65.282326
 30
0.0
 40
4.078088
 50
16.792349
 51
18.963947
  0
ARC
  8
LC-002-002-----0
  6
CONTINUOUS
  5
6B8
 10
257.193628
 20
65.961633
 30
0.0
 40
1.735263
 50
12.360195
 51
16.707694
  0
ARC
  8
LC-002-002-----0
  6
CONTINUOUS
  5
6B9
 10
258.025871
 20
66.147402
 30
0.0
 40
0.882551
 50
5.133508
 51
12.144917
  0
ARC
  8
LC-002-002-----0
  6
CONTINUOUS
  5
6BA
 10
258.426909
 20
66.187157
 30
0.0
 40
0.479579
 50
354.434817
 51
4.69007
  0
ARC
  8
LC-002-002-----0
  6
CONTINUOUS
  5
6BB
 10
258.621403
 20
66.172159
 30
0.0
 40
0.284574
 50
340.122933
 51
353.642704
  0
ARC
  8
LC-002-002-----0
  6
CONTINUOUS
  5
6BC
 10
258.702384
 20
66.147143
 30
0.0
 40
0.199953
 50
323.904249
 51
338.974113
  0
ARC
  8
LC-002-002-----0
  6
CONTINUOUS
  5
6BD
 10
258.724251
 20
66.136084
 30
0.0
 40
0.175812
 50
309.490955
 51
322.618218
  0
ARC
  8
LC-002-002-----0
  6
CONTINUOUS
  5
6BE
 10
254.866484
 20
65.114721
 30
0.0
 40
0.189623
 50
266.138232
 51
297.724693
  0
ARC
  8
LC-002-002-----0
  6
CONTINUOUS
  5
6BF
 10
254.744476
 20
65.37947
 30
0.0
 40
0.480977
 50
295.917703
 51
312.643862
  0
ARC
  8
LC-002-002-----0
  6
CONTINUOUS
  5
6C0
 10
254.2303
 20
65.983067
 30
0.0
 40
1.273663
 50
311.263417
 51
319.708902
  0
ARC
  8
LC-002-002-----0
  6
CONTINUOUS
  5
6C1
 10
252.945945
 20
67.113247
 30
0.0
 40
2.98435
 50
319.103917
 51
323.679383
  0
LINE
  8
LC-002-002-----0
  6
CONTINUOUS
  5
6C2
 10
255.350481
 20
65.345608
 30
0.0
 11
255.441958
 21
65.472179
 31
0.0
  0
ARC
  8
LC-002-002-----0
  6
CONTINUOUS
  5
6C3
 10
247.222617
 20
71.232009
 30
0.0
 40
10.036594
 50
324.978556
 51
327.029459
  0
ARC
  8
LC-002-002-----0
  6
CONTINUOUS
  5
6C4
 10
235.787495
 20
78.700295
 30
0.0
 40
23.694432
 50
326.926835
 51
327.942185
  0
LINE
  8
LC-002-002-----0
  6
CONTINUOUS
  5
6C5
 10
255.868833
 20
66.123889
 30
0.0
 11
256.12151
 21
66.529523
 31
0.0
  0
ARC
  8
LC-002-002-----0
  6
CONTINUOUS
  5
6C6
 10
252.33976
 20
72.262207
 30
0.0
 40
8.440487
 50
319.428373
 51
321.81256
  0
ARC
  8
LC-002-002-----0
  6
CONTINUOUS
  5
6C7
 10
249.916438
 20
74.179273
 30
0.0
 40
11.530402
 50
321.769753
 51
323.522243
  0
ARC
  8
LC-002-002-----0
  6
CONTINUOUS
  5
6C8
 10
249.474394
 20
74.512941
 30
0.0
 40
12.084214
 50
323.496175
 51
325.148863
  0
ARC
  8
LC-002-002-----0
  6
CONTINUOUS
  5
6C9
 10
251.345204
 20
73.214234
 30
0.0
 40
9.806813
 50
325.129597
 51
327.133857
  0
ARC
  8
LC-002-002-----0
  6
CONTINUOUS
  5
6CA
 10
253.578317
 20
71.773422
 30
0.0
 40
7.149234
 50
327.120514
 51
329.850446
  0
ARC
  8
LC-002-002-----0
  6
CONTINUOUS
  5
6CB
 10
255.056757
 20
70.915711
 30
0.0
 40
5.440008
 50
329.841151
 51
333.487879
  0
ARC
  8
LC-002-002-----0
  6
CONTINUOUS
  5
6CC
 10
255.692235
 20
70.600496
 30
0.0
 40
4.73065
 50
333.468484
 51
337.892859
  0
ARC
  8
LC-002-002-----0
  6
CONTINUOUS
  5
6CD
 10
255.532574
 20
70.670676
 30
0.0
 40
4.904986
 50
337.835231
 51
342.549721
  0
ARC
  8
LC-002-002-----0
  6
CONTINUOUS
  5
6CE
 10
254.411251
 20
71.035984
 30
0.0
 40
6.084264
 50
342.434495
 51
346.831284
  0
LINE
  8
LC-002-002-----0
  6
CONTINUOUS
  5
6CF
 10
260.335519
 20
69.649872
 30
0.0
 11
260.493083
 21
69.593658
 31
0.0
  0
LINE
  8
LC-002-002-----0
  6
CONTINUOUS
  5
6D0
 10
260.493083
 20
69.593658
 30
0.0
 11
260.638631
 21
69.542402
 31
0.0
  0
LINE
  8
LC-002-002-----0
  6
CONTINUOUS
  5
6D1
 10
260.638631
 20
69.542402
 30
0.0
 11
260.770392
 21
69.496429
 31
0.0
  0
LINE
  8
LC-002-002-----0
  6
CONTINUOUS
  5
6D2
 10
260.770392
 20
69.496429
 30
0.0
 11
260.886596
 21
69.456063
 31
0.0
  0
LINE
  8
LC-002-002-----0
  6
CONTINUOUS
  5
6D3
 10
260.886596
 20
69.456063
 30
0.0
 11
260.985472
 21
69.421633
 31
0.0
  0
LINE
  8
LC-002-002-----0
  6
CONTINUOUS
  5
6D4
 10
260.985472
 20
69.421633
 30
0.0
 11
261.065245
 21
69.393463
 31
0.0
  0
ARC
  8
LC-002-002-----0
  6
CONTINUOUS
  5
6D5
 10
259.811028
 20
65.879669
 30
0.0
 40
3.730926
 50
69.393134
 51
70.356441
  0
ARC
  8
LC-002-002-----0
  6
CONTINUOUS
  5
6D6
 10
260.850252
 20
68.643032
 30
0.0
 40
0.778611
 50
66.526916
 51
69.404527
  0
ARC
  8
LC-002-002-----0
  6
CONTINUOUS
  5
6D7
 10
261.1454
 20
69.320264
 30
0.0
 40
0.039872
 50
47.760911
 51
67.921155
  0
LINE
  8
LC-002-002-----0
  6
CONTINUOUS
  5
6D8
 10
256.12151
 20
66.529523
 30
0.0
 11
256.623895
 21
67.337465
 31
0.0
  0
ARC
  8
LC-002-002-----0
  6
CONTINUOUS
  5
6D9
 10
301.366184
 20
39.321698
 30
0.0
 40
52.789731
 50
146.755398
 51
147.946908
  0
LINE
  8
LC-002-002-----0
  6
CONTINUOUS
  5
6DA
 10
257.216137
 20
68.26179
 30
0.0
 11
257.541588
 21
68.750581
 31
0.0
  0
ARC
  8
LC-002-002-----0
  6
CONTINUOUS
  5
6DB
 10
287.169054
 20
48.758152
 30
0.0
 40
35.741908
 50
143.962195
 51
145.988768
  0
LINE
  8
LC-002-002-----0
  6
CONTINUOUS
  5
6DC
 10
258.267111
 20
69.785793
 30
0.0
 11
258.668053
 21
70.325166
 31
0.0
  0
ARC
  8
LC-002-002-----0
  6
CONTINUOUS
  5
6DD
 10
210.17386
 20
74.067957
 30
0.0
 40
9.213557
 50
258.724835
 51
264.868561
  0
LINE
  8
LC-002-002-----0
  6
CONTINUOUS
  5
6DE
 10
208.372416
 20
65.032226
 30
0.0
 11
207.888465
 21
65.143389
 31
0.0
  0
LINE
  8
LC-002-002-----0
  6
CONTINUOUS
  5
6DF
 10
207.888465
 20
65.143389
 30
0.0
 11
207.411788
 21
65.280273
 31
0.0
  0
ARC
  8
LC-002-002-----0
  6
CONTINUOUS
  5
6E0
 10
210.451096
 20
74.814154
 30
0.0
 40
10.006612
 50
246.639354
 51
252.318224
  0
LINE
  8
LC-002-002-----0
  6
CONTINUOUS
  5
6E1
 10
206.4833
 20
65.627812
 30
0.0
 11
206.017778
 21
65.844357
 31
0.0
  0
LINE
  8
LC-002-002-----0
  6
CONTINUOUS
  5
6E2
 10
206.017778
 20
65.844357
 30
0.0
 11
205.599212
 21
66.064748
 31
0.0
  0
ARC
  8
LC-002-002-----0
  6
CONTINUOUS
  5
6E3
 10
210.754104
 20
75.296741
 30
0.0
 40
10.573675
 50
228.798433
 51
240.822206
  0
LINE
  8
LC-002-002-----0
  6
CONTINUOUS
  5
6E4
 10
203.789117
 20
67.34114
 30
0.0
 11
202.990687
 21
68.114595
 31
0.0
  0
ARC
  8
LC-002-002-----0
  6
CONTINUOUS
  5
6E5
 10
210.493922
 20
75.14771
 30
0.0
 40
10.284126
 50
217.295548
 51
223.147645
  0
LINE
  8
LC-002-002-----0
  6
CONTINUOUS
  5
6E6
 10
202.312688
 20
68.916285
 30
0.0
 11
201.954354
 21
69.412638
 31
0.0
  0
ARC
  8
LC-002-002-----0
  6
CONTINUOUS
  5
6E7
 10
210.641404
 20
75.320941
 30
0.0
 40
10.505851
 50
205.114585
 51
214.220704
  0
LINE
  8
LC-002-002-----0
  6
CONTINUOUS
  5
6E8
 10
201.128769
 20
70.861944
 30
0.0
 11
200.75475
 21
71.775965
 31
0.0
  0
LINE
  8
LC-002-002-----0
  6
CONTINUOUS
  5
6E9
 10
200.75475
 20
71.775965
 30
0.0
 11
200.474829
 21
72.721886
 31
0.0
  0
ARC
  8
LC-002-002-----0
  6
CONTINUOUS
  5
6EA
 10
209.117438
 20
74.821174
 30
0.0
 40
8.893914
 50
187.274996
 51
193.652726
  0
LINE
  8
LC-002-002-----0
  6
CONTINUOUS
  5
6EB
 10
200.295122
 20
73.694922
 30
0.0
 11
200.246621
 21
74.168495
 31
0.0
  0
LINE
  8
LC-002-002-----0
  6
CONTINUOUS
  5
6EC
 10
200.246621
 20
74.168495
 30
0.0
 11
200.222873
 21
74.67875
 31
0.0
  0
LINE
  8
LC-002-002-----0
  6
CONTINUOUS
  5
6ED
 10
341.598208
 20
63.359288
 30
0.0
 11
341.952498
 21
63.389363
 31
0.0
  0
LINE
  8
LC-002-002-----0
  6
CONTINUOUS
  5
6EE
 10
341.952498
 20
63.389363
 30
0.0
 11
342.126124
 21
63.404495
 31
0.0
  0
LINE
  8
LC-002-002-----0
  6
CONTINUOUS
  5
6EF
 10
342.126124
 20
63.404495
 30
0.0
 11
342.295669
 21
63.419735
 31
0.0
  0
LINE
  8
LC-002-002-----0
  6
CONTINUOUS
  5
6F0
 10
367.872853
 20
61.454822
 30
0.0
 11
363.194899
 21
61.834745
 31
0.0
  0
LINE
  8
LC-002-002-----0
  6
CONTINUOUS
  5
6F1
 10
363.194899
 20
61.834745
 30
0.0
 11
357.952018
 21
62.260554
 31
0.0
  0
LINE
  8
LC-002-002-----0
  6
CONTINUOUS
  5
6F2
 10
357.952018
 20
62.260554
 30
0.0
 11
354.647731
 21
62.52892
 31
0.0
  0
LINE
  8
LC-002-002-----0
  6
CONTINUOUS
  5
6F3
 10
354.647731
 20
62.52892
 30
0.0
 11
348.470439
 21
63.030631
 31
0.0
  0
LINE
  8
LC-002-002-----0
  6
CONTINUOUS
  5
6F4
 10
348.470439
 20
63.030631
 30
0.0
 11
342.90708
 21
63.482486
 31
0.0
  0
ARC
  8
LC-002-002-----0
  6
CONTINUOUS
  5
6F5
 10
350.418737
 20
62.054238
 30
0.0
 40
8.884481
 50
191.10869
 51
192.24349
  0
ARC
  8
LC-002-002-----0
  6
CONTINUOUS
  5
6F6
 10
351.527294
 20
62.296478
 30
0.0
 40
10.019195
 50
192.252885
 51
193.193192
  0
ARC
  8
LC-002-002-----0
  6
CONTINUOUS
  5
6F7
 10
351.928323
 20
62.3937
 30
0.0
 40
10.431829
 50
193.210364
 51
194.035345
  0
ARC
  8
LC-002-002-----0
  6
CONTINUOUS
  5
6F8
 10
352.261378
 20
62.481035
 30
0.0
 40
10.776122
 50
194.056376
 51
194.781795
  0
LINE
  8
LC-002-002-----0
  6
CONTINUOUS
  5
6F9
 10
341.841896
 20
59.731631
 30
0.0
 11
341.874771
 21
59.609705
 31
0.0
  0
LINE
  8
LC-002-002-----0
  6
CONTINUOUS
  5
6FA
 10
341.874771
 20
59.609705
 30
0.0
 11
341.907722
 21
59.491306
 31
0.0
  0
LINE
  8
LC-002-002-----0
  6
CONTINUOUS
  5
6FB
 10
341.907722
 20
59.491306
 30
0.0
 11
341.942794
 21
59.366697
 31
0.0
  0
LINE
  8
LC-002-002-----0
  6
CONTINUOUS
  5
6FC
 10
341.942794
 20
59.366697
 30
0.0
 11
341.982906
 21
59.223083
 31
0.0
  0
ARC
  8
LC-002-002-----0
  6
CONTINUOUS
  5
6FD
 10
315.456423
 20
67.183877
 30
0.0
 40
26.263788
 50
342.299385
 51
343.906696
  0
ARC
  8
LC-002-002-----0
  6
CONTINUOUS
  5
6FE
 10
296.642745
 20
72.658537
 30
0.0
 40
45.857798
 50
343.850571
 51
344.868881
  0
LINE
  8
LC-002-002-----0
  6
CONTINUOUS
  5
6FF
 10
340.910699
 20
60.688329
 30
0.0
 11
341.022289
 21
61.104803
 31
0.0
  0
LINE
  8
LC-002-002-----0
  6
CONTINUOUS
  5
700
 10
341.022289
 20
61.104803
 30
0.0
 11
341.308847
 21
62.211835
 31
0.0
  0
LINE
  8
LC-002-002-----0
  6
CONTINUOUS
  5
701
 10
341.308847
 20
62.211835
 30
0.0
 11
341.598208
 21
63.359288
 31
0.0
  0
ARC
  8
LC-002-002-----0
  6
CONTINUOUS
  5
702
 10
336.396063
 20
64.634518
 30
0.0
 40
6.823575
 50
319.150218
 51
321.023275
  0
ARC
  8
LC-002-002-----0
  6
CONTINUOUS
  5
703
 10
335.059748
 20
65.786989
 30
0.0
 40
8.588206
 50
317.728197
 51
319.165524
  0
ARC
  8
LC-002-002-----0
  6
CONTINUOUS
  5
704
 10
335.293586
 20
65.572802
 30
0.0
 40
8.271102
 50
316.314592
 51
317.736506
  0
ARC
  8
LC-002-002-----0
  6
CONTINUOUS
  5
705
 10
336.747114
 20
64.183799
 30
0.0
 40
6.260612
 50
314.524964
 51
316.319155
  0
ARC
  8
LC-002-002-----0
  6
CONTINUOUS
  5
706
 10
338.0217
 20
62.888157
 30
0.0
 40
4.443126
 50
312.053589
 51
314.522648
  0
ARC
  8
LC-002-002-----0
  6
CONTINUOUS
  5
707
 10
338.643243
 20
62.199618
 30
0.0
 40
3.515547
 50
308.864349
 51
312.048588
  0
ARC
  8
LC-002-002-----0
  6
CONTINUOUS
  5
708
 10
338.698854
 20
62.128858
 30
0.0
 40
3.425556
 50
305.340304
 51
308.882745
  0
ARC
  8
LC-002-002-----0
  6
CONTINUOUS
  5
709
 10
338.23085
 20
62.779494
 30
0.0
 40
4.227012
 50
302.096135
 51
305.413733
  0
ARC
  8
LC-002-002-----0
  6
CONTINUOUS
  5
70A
 10
339.585174
 20
57.688962
 30
0.0
 40
0.175819
 50
265.725935
 51
298.583216
  0
ARC
  8
LC-002-002-----0
  6
CONTINUOUS
  5
70B
 10
339.49941
 20
57.859873
 30
0.0
 40
0.366989
 50
297.574956
 51
317.716158
  0
ARC
  8
LC-002-002-----0
  6
CONTINUOUS
  5
70C
 10
339.12397
 20
58.233316
 30
0.0
 40
0.896314
 50
316.202068
 51
327.157267
  0
ARC
  8
LC-002-002-----0
  6
CONTINUOUS
  5
70D
 10
338.248065
 20
58.830099
 30
0.0
 40
1.95605
 50
326.385091
 51
332.791654
  0
LINE
  8
LC-002-002-----0
  6
CONTINUOUS
  5
70E
 10
339.987678
 20
57.935739
 30
0.0
 11
340.045839
 21
58.052161
 31
0.0
  0
ARC
  8
LC-002-002-----0
  6
CONTINUOUS
  5
70F
 10
335.472479
 20
60.224432
 30
0.0
 40
5.063041
 50
334.59305
 51
337.938609
  0
ARC
  8
LC-002-002-----0
  6
CONTINUOUS
  5
710
 10
332.315938
 20
61.526537
 30
0.0
 40
8.477563
 50
337.795522
 51
340.09819
  0
ARC
  8
LC-002-002-----0
  6
CONTINUOUS
  5
711
 10
327.828862
 20
63.170903
 30
0.0
 40
13.256429
 50
340.017289
 51
341.672314
  0
LINE
  8
LC-002-002-----0
  6
CONTINUOUS
  5
712
 10
340.412841
 20
59.002403
 30
0.0
 11
340.476836
 21
59.198548
 31
0.0
  0
ARC
  8
LC-002-002-----0
  6
CONTINUOUS
  5
713
 10
337.337597
 20
61.895462
 30
0.0
 40
5.359152
 50
324.404183
 51
330.088803
  0
ARC
  8
LC-002-002-----0
  6
CONTINUOUS
  5
714
 10
338.062396
 20
61.384015
 30
0.0
 40
4.472095
 50
317.920134
 51
324.327315
  0
ARC
  8
LC-002-002-----0
  6
CONTINUOUS
  5
715
 10
338.699758
 20
60.816802
 30
0.0
 40
3.618916
 50
310.416711
 51
317.822822
  0
ARC
  8
LC-002-002-----0
  6
CONTINUOUS
  5
716
 10
339.192818
 20
60.247343
 30
0.0
 40
2.865694
 50
301.565637
 51
310.293031
  0
ARC
  8
LC-002-002-----0
  6
CONTINUOUS
  5
717
 10
339.513635
 20
59.736805
 30
0.0
 40
2.262764
 50
291.057111
 51
301.411287
  0
ARC
  8
LC-002-002-----0
  6
CONTINUOUS
  5
718
 10
339.670801
 20
59.344613
 30
0.0
 40
1.8403
 50
278.775117
 51
290.877882
  0
ARC
  8
LC-002-002-----0
  6
CONTINUOUS
  5
719
 10
339.710271
 20
59.120178
 30
0.0
 40
1.612479
 50
265.083336
 51
278.605643
  0
ARC
  8
LC-002-002-----0
  6
CONTINUOUS
  5
71A
 10
360.769503
 20
57.686724
 30
0.0
 40
8.040905
 50
21.711562
 51
27.944504
  0
LINE
  8
LC-002-002-----0
  6
CONTINUOUS
  5
71B
 10
368.239969
 20
60.66133
 30
0.0
 11
368.364799
 21
60.317104
 31
0.0
  0
ARC
  8
LC-002-002-----0
  6
CONTINUOUS
  5
71C
 10
362.78158
 20
58.437001
 30
0.0
 40
5.891275
 50
11.837288
 51
18.610527
  0
LINE
  8
LC-002-002-----0
  6
CONTINUOUS
  5
71D
 10
368.547572
 20
59.645497
 30
0.0
 11
368.615575
 21
59.255947
 31
0.0
  0
ARC
  8
LC-002-002-----0
  6
CONTINUOUS
  5
71E
 10
363.789206
 20
58.58674
 30
0.0
 40
4.872543
 50
356.566258
 51
7.894099
  0
ARC
  8
LC-002-002-----0
  6
CONTINUOUS
  5
71F
 10
364.762388
 20
58.547111
 30
0.0
 40
3.898779
 50
343.290538
 51
356.290997
  0
LINE
  8
LC-002-002-----0
  6
CONTINUOUS
  5
720
 10
368.496541
 20
57.426139
 30
0.0
 11
368.344599
 21
57.025749
 31
0.0
  0
ARC
  8
LC-002-002-----0
  6
CONTINUOUS
  5
721
 10
365.656104
 20
58.250188
 30
0.0
 40
2.954193
 50
319.321112
 51
335.513749
  0
LINE
  8
LC-002-002-----0
  6
CONTINUOUS
  5
722
 10
367.896489
 20
56.324589
 30
0.0
 11
367.601276
 21
56.031188
 31
0.0
  0
ARC
  8
LC-002-002-----0
  6
CONTINUOUS
  5
723
 10
365.773887
 20
58.168126
 30
0.0
 40
2.811736
 50
300.902527
 51
310.535189
  0
LINE
  8
LC-002-002-----0
  6
CONTINUOUS
  5
724
 10
367.217936
 20
55.755538
 30
0.0
 11
366.985975
 21
55.630061
 31
0.0
  0
LINE
  8
LC-002-002-----0
  6
CONTINUOUS
  5
725
 10
366.985975
 20
55.630061
 30
0.0
 11
366.716565
 21
55.514696
 31
0.0
  0
ARC
  8
LC-002-002-----0
  6
CONTINUOUS
  5
726
 10
365.487571
 20
58.808205
 30
0.0
 40
3.515342
 50
277.896655
 51
290.463385
  0
LINE
  8
LC-002-002-----0
  6
CONTINUOUS
  5
727
 10
365.970532
 20
55.326198
 30
0.0
 11
365.794924
 21
55.304468
 31
0.0
  0
LINE
  8
LC-002-002-----0
  6
CONTINUOUS
  5
728
 10
365.794924
 20
55.304468
 30
0.0
 11
365.613798
 21
55.2897
 31
0.0
  0
ARC
  8
LC-002-002-----0
  6
CONTINUOUS
  5
729
 10
365.321127
 20
60.179741
 30
0.0
 40
4.898792
 50
269.174689
 51
273.425088
  0
LINE
  8
LC-002-002-----0
  6
CONTINUOUS
  5
72A
 10
365.250565
 20
55.281457
 30
0.0
 11
365.047795
 21
55.288239
 31
0.0
  0
LINE
  8
LC-002-002-----0
  6
CONTINUOUS
  5
72B
 10
365.047795
 20
55.288239
 30
0.0
 11
364.849858
 21
55.302113
 31
0.0
  0
ARC
  8
LC-002-002-----0
  6
CONTINUOUS
  5
72C
 10
210.171158
 20
74.232083
 30
0.0
 40
5.3768
 50
256.502363
 51
264.955885
  0
LINE
  8
LC-002-002-----0
  6
CONTINUOUS
  5
72D
 10
208.916185
 20
69.003792
 30
0.0
 11
208.535613
 21
69.109473
 31
0.0
  0
ARC
  8
LC-002-002-----0
  6
CONTINUOUS
  5
72E
 10
210.18028
 20
74.351805
 30
0.0
 40
5.494268
 50
246.375697
 51
252.581886
  0
LINE
  8
LC-002-002-----0
  6
CONTINUOUS
  5
72F
 10
207.97852
 20
69.317997
 30
0.0
 11
207.723427
 21
69.435955
 31
0.0
  0
LINE
  8
LC-002-002-----0
  6
CONTINUOUS
  5
730
 10
207.723427
 20
69.435955
 30
0.0
 11
207.448067
 21
69.580158
 31
0.0
  0
ARC
  8
LC-002-002-----0
  6
CONTINUOUS
  5
731
 10
210.647572
 20
75.2881
 30
0.0
 40
6.543503
 50
234.599312
 51
240.727812
  0
LINE
  8
LC-002-002-----0
  6
CONTINUOUS
  5
732
 10
206.85698
 20
69.954354
 30
0.0
 11
206.617394
 21
70.134067
 31
0.0
  0
ARC
  8
LC-002-002-----0
  6
CONTINUOUS
  5
733
 10
210.384728
 20
74.947237
 30
0.0
 40
6.112235
 50
226.050235
 51
231.949222
  0
LINE
  8
LC-002-002-----0
  6
CONTINUOUS
  5
734
 10
206.14267
 20
70.546743
 30
0.0
 11
205.882952
 21
70.810066
 31
0.0
  0
ARC
  8
LC-002-002-----0
  6
CONTINUOUS
  5
735
 10
210.384893
 20
75.029935
 30
0.0
 40
6.170475
 50
217.295543
 51
223.147643
  0
LINE
  8
LC-002-002-----0
  6
CONTINUOUS
  5
736
 10
205.476153
 20
71.291081
 30
0.0
 11
205.261152
 21
71.588892
 31
0.0
  0
ARC
  8
LC-002-002-----0
  6
CONTINUOUS
  5
737
 10
210.804042
 20
75.333668
 30
0.0
 40
6.689318
 50
207.990421
 51
214.042949
  0
LINE
  8
LC-002-002-----0
  6
CONTINUOUS
  5
738
 10
204.8972
 20
72.19421
 30
0.0
 11
204.765801
 21
72.458476
 31
0.0
  0
ARC
  8
LC-002-002-----0
  6
CONTINUOUS
  5
739
 10
210.148247
 20
74.980211
 30
0.0
 40
5.943894
 50
195.972101
 51
205.103604
  0
ARC
  8
LC-002-002-----0
  6
CONTINUOUS
  5
73A
 10
209.775515
 20
74.872594
 30
0.0
 40
5.555938
 50
186.191006
 51
195.962841
  0
LINE
  8
LC-002-002-----0
  6
CONTINUOUS
  5
73B
 10
204.25198
 20
74.273424
 30
0.0
 11
204.222263
 21
74.748559
 31
0.0
  0
LINE
  8
LC-002-002-----0
  6
CONTINUOUS
  5
73C
 10
258.668053
 20
70.325166
 30
0.0
 11
249.731956
 21
71.051127
 31
0.0
  0
LINE
  8
LC-002-002-----0
  6
CONTINUOUS
  5
73D
 10
249.731956
 20
71.051127
 30
0.0
 11
241.55257
 21
71.715629
 31
0.0
  0
LINE
  8
LC-001-100-D02-0
  6
CONTINUOUS
  5
73E
 10
226.268561
 20
72.957355
 30
0.0
 11
219.191575
 21
73.53233
 31
0.0
  0
LINE
  8
LC-002-002-----0
  6
CONTINUOUS
  5
73F
 10
245.642255
 20
71.383285
 30
0.0
 11
212.614442
 21
74.066704
 31
0.0
  0
LINE
  8
LC-002-002-----0
  6
CONTINUOUS
  5
740
 10
212.614442
 20
74.066704
 30
0.0
 11
204.794822
 21
74.702039
 31
0.0
  0
LINE
  8
LC-002-002-----0
  6
CONTINUOUS
  5
741
 10
204.794822
 20
74.702039
 30
0.0
 11
204.508543
 21
74.725299
 31
0.0
  0
LINE
  8
LC-002-002-----0
  6
CONTINUOUS
  5
742
 10
204.508543
 20
74.725299
 30
0.0
 11
204.222263
 21
74.748559
 31
0.0
  0
LINE
  8
LC-002-002-----0
  6
CONTINUOUS
  5
743
 10
342.794158
 20
108.343379
 30
0.0
 11
341.398273
 21
109.59085
 31
0.0
  0
ARC
  8
LC-002-002-----0
  6
CONTINUOUS
  5
744
 10
304.984212
 20
68.395448
 30
0.0
 40
54.982224
 50
48.525406
 51
50.438956
  0
ARC
  8
LC-002-002-----0
  6
CONTINUOUS
  5
745
 10
320.575686
 20
87.260494
 30
0.0
 40
30.508075
 50
50.44843
 51
53.770727
  0
ARC
  8
LC-002-002-----0
  6
CONTINUOUS
  5
746
 10
327.060622
 20
96.091619
 30
0.0
 40
19.551663
 50
53.805237
 51
58.725604
  0
ARC
  8
LC-002-002-----0
  6
CONTINUOUS
  5
747
 10
330.228648
 20
101.273461
 30
0.0
 40
13.478162
 50
58.800406
 51
65.515029
  0
ARC
  8
LC-002-002-----0
  6
CONTINUOUS
  5
748
 10
331.710273
 20
104.474296
 30
0.0
 40
9.951136
 50
65.640439
 51
74.205514
  0
ARC
  8
LC-002-002-----0
  6
CONTINUOUS
  5
749
 10
332.244429
 20
106.277293
 30
0.0
 40
8.070854
 50
74.370463
 51
84.464498
  0
LINE
  8
LC-002-002-----0
  6
CONTINUOUS
  5
74A
 10
333.022964
 20
114.31051
 30
0.0
 11
332.325021
 21
114.343379
 31
0.0
  0
ARC
  8
LC-002-002-----0
  6
CONTINUOUS
  5
74B
 10
332.324088
 20
114.927963
 30
0.0
 40
0.584585
 50
270.091439
 51
288.346861
  0
ARC
  8
LC-002-002-----0
  6
CONTINUOUS
  5
74C
 10
332.287117
 20
115.040733
 30
0.0
 40
0.70326
 50
288.313962
 51
304.528344
  0
ARC
  8
LC-002-002-----0
  6
CONTINUOUS
  5
74D
 10
332.146797
 20
115.253973
 30
0.0
 40
0.958487
 50
304.213552
 51
317.427867
  0
ARC
  8
LC-002-002-----0
  6
CONTINUOUS
  5
74E
 10
331.863658
 20
115.525675
 30
0.0
 40
1.350836
 50
317.065632
 51
327.575022
  0
ARC
  8
LC-002-002-----0
  6
CONTINUOUS
  5
74F
 10
331.441301
 20
115.805273
 30
0.0
 40
1.857288
 50
327.280695
 51
335.768933
  0
ARC
  8
LC-002-002-----0
  6
CONTINUOUS
  5
750
 10
330.927572
 20
116.046255
 30
0.0
 40
2.424676
 50
335.55845
 51
342.652401
  0
ARC
  8
LC-002-002-----0
  6
CONTINUOUS
  5
751
 10
330.403805
 20
116.217598
 30
0.0
 40
2.975717
 50
342.510319
 51
348.68768
  0
ARC
  8
LC-002-002-----0
  6
CONTINUOUS
  5
752
 10
329.965169
 20
116.3109
 30
0.0
 40
3.424137
 50
348.596528
 51
354.211779
  0
ARC
  8
LC-002-002-----0
  6
CONTINUOUS
  5
753
 10
329.697019
 20
116.3415
 30
0.0
 40
3.694008
 50
354.159034
 51
359.487753
  0
ARC
  8
LC-002-002-----0
  6
CONTINUOUS
  5
754
 10
333.394251
 20
99.204776
 30
0.0
 40
17.103698
 50
83.222427
 51
90.011295
  0
ARC
  8
LC-002-002-----0
  6
CONTINUOUS
  5
755
 10
333.544009
 20
100.199862
 30
0.0
 40
16.097923
 50
75.953024
 51
83.333745
  0
ARC
  8
LC-002-002-----0
  6
CONTINUOUS
  5
756
 10
334.261275
 20
103.033871
 30
0.0
 40
13.174569
 50
67.097868
 51
75.987615
  0
ARC
  8
LC-002-002-----0
  6
CONTINUOUS
  5
757
 10
335.347572
 20
105.665781
 30
0.0
 40
10.327415
 50
58.726618
 51
66.967141
  0
ARC
  8
LC-002-002-----0
  6
CONTINUOUS
  5
758
 10
336.383185
 20
107.389228
 30
0.0
 40
8.316781
 50
48.734321
 51
58.660884
  0
ARC
  8
LC-002-002-----0
  6
CONTINUOUS
  5
759
 10
337.286739
 20
108.435604
 30
0.0
 40
6.934331
 50
36.961168
 51
48.643652
  0
ARC
  8
LC-002-002-----0
  6
CONTINUOUS
  5
75A
 10
337.804751
 20
108.835802
 30
0.0
 40
6.279794
 50
23.870424
 51
36.885365
  0
ARC
  8
LC-002-002-----0
  6
CONTINUOUS
  5
75B
 10
337.674171
 20
108.775975
 30
0.0
 40
6.423415
 50
10.511372
 51
23.887079
  0
ARC
  8
LC-002-002-----0
  6
CONTINUOUS
  5
75C
 10
336.635738
 20
108.560335
 30
0.0
 40
7.483795
 50
358.071395
 51
10.684239
  0
ARC
  8
LC-002-002-----0
  6
CONTINUOUS
  5
75D
 10
261.527988
 20
69.245683
 30
0.0
 40
0.370702
 50
123.924453
 51
163.691018
  0
ARC
  8
LC-002-002-----0
  6
CONTINUOUS
  5
75E
 10
261.923138
 20
68.726869
 30
0.0
 40
1.022453
 50
105.877407
 51
126.073166
  0
ARC
  8
LC-002-002-----0
  6
CONTINUOUS
  5
75F
 10
262.559889
 20
66.855404
 30
0.0
 40
2.998405
 50
98.219742
 51
107.797491
  0
ARC
  8
LC-002-002-----0
  6
CONTINUOUS
  5
760
 10
263.253173
 20
62.71147
 30
0.0
 40
7.199497
 50
93.836154
 51
98.965487
  0
ARC
  8
LC-002-002-----0
  6
CONTINUOUS
  5
761
 10
263.838704
 20
55.149252
 30
0.0
 40
14.784153
 50
91.131765
 51
94.139531
  0
ARC
  8
LC-002-002-----0
  6
CONTINUOUS
  5
762
 10
264.157585
 20
42.276325
 30
0.0
 40
27.660942
 50
89.425211
 51
91.265484
  0
ARC
  8
LC-002-002-----0
  6
CONTINUOUS
  5
763
 10
263.98323
 20
19.596216
 30
0.0
 40
50.341688
 50
88.374209
 51
89.485732
  0
LINE
  8
LC-002-002-----0
  6
CONTINUOUS
  5
764
 10
265.411504
 20
69.917638
 30
0.0
 11
266.448162
 21
69.883263
 31
0.0
  0
LINE
  8
LC-002-002-----0
  6
CONTINUOUS
  5
765
 10
266.448162
 20
69.883263
 30
0.0
 11
267.515399
 21
69.840694
 31
0.0
  0
LINE
  8
LC-002-002-----0
  6
CONTINUOUS
  5
766
 10
267.515399
 20
69.840694
 30
0.0
 11
267.363162
 21
68.100614
 31
0.0
  0
LINE
  8
LC-002-002-----0
  6
CONTINUOUS
  5
767
 10
267.363162
 20
68.100614
 30
0.0
 11
267.31483
 21
67.548179
 31
0.0
  0
LINE
  8
LC-002-002-----0
  6
CONTINUOUS
  5
768
 10
267.31483
 20
67.548179
 30
0.0
 11
267.22477
 21
66.518797
 31
0.0
  0
LINE
  8
LC-002-002-----0
  6
CONTINUOUS
  5
769
 10
267.22477
 20
66.518797
 30
0.0
 11
267.145628
 21
65.614198
 31
0.0
  0
LINE
  8
LC-002-002-----0
  6
CONTINUOUS
  5
76A
 10
267.145628
 20
65.614198
 30
0.0
 11
267.12391
 21
65.365955
 31
0.0
  0
LINE
  8
LC-002-002-----0
  6
CONTINUOUS
  5
76B
 10
267.12391
 20
65.365955
 30
0.0
 11
267.08826
 21
64.958478
 31
0.0
  0
LINE
  8
LC-002-002-----0
  6
CONTINUOUS
  5
76C
 10
267.08826
 20
64.958478
 30
0.0
 11
267.058787
 21
64.621596
 31
0.0
  0
LINE
  8
LC-002-002-----0
  6
CONTINUOUS
  5
76D
 10
267.058787
 20
64.621596
 30
0.0
 11
267.030442
 21
64.297609
 31
0.0
  0
LINE
  8
LC-002-002-----0
  6
CONTINUOUS
  5
76E
 10
267.030442
 20
64.297609
 30
0.0
 11
267.015115
 21
64.122419
 31
0.0
  0
LINE
  8
LC-002-002-----0
  6
CONTINUOUS
  5
76F
 10
267.015115
 20
64.122419
 30
0.0
 11
266.992464
 21
63.863526
 31
0.0
  0
LINE
  8
LC-002-002-----0
  6
CONTINUOUS
  5
770
 10
342.90708
 20
63.482486
 30
0.0
 11
343.510565
 21
85.799816
 31
0.0
  0
LINE
  8
LC-002-002-----0
  6
CONTINUOUS
  5
771
 10
343.510565
 20
85.799816
 30
0.0
 11
344.115294
 21
108.308474
 31
0.0
  0
LINE
  8
LC-002-002-----0
  6
CONTINUOUS
  5
772
 10
341.598208
 20
63.359288
 30
0.0
 11
342.197626
 21
85.83472
 31
0.0
  0
LINE
  8
LC-002-002-----0
  6
CONTINUOUS
  5
773
 10
342.197626
 20
85.83472
 30
0.0
 11
342.794158
 21
108.343379
 31
0.0
  0
ARC
  8
LC-002-002-----0
  6
CONTINUOUS
  5
774
 10
178.0298
 20
226.843379
 30
0.0
 40
0.5
 50
90.0
 51
178.985257
  0
ARC
  8
LC-002-002-----0
  6
CONTINUOUS
  5
775
 10
165.4266
 20
226.843379
 30
0.0
 40
0.5
 50
1.014743
 51
90.0
  0
ARC
  8
LC-002-002-----0
  6
CONTINUOUS
  5
776
 10
398.4266
 20
226.843379
 30
0.0
 40
0.5
 50
1.014743
 51
90.0
  0
ARC
  8
LC-002-002-----0
  6
CONTINUOUS
  5
777
 10
411.0298
 20
226.843379
 30
0.0
 40
0.5
 50
90.0
 51
178.985257
  0
ARC
  8
LC-002-002-----0
  6
CONTINUOUS
  5
778
 10
190.2282
 20
211.343379
 30
0.0
 40
1.0
 50
180.0
 51
270.0
  0
ARC
  8
LC-002-002-----0
  6
CONTINUOUS
  5
779
 10
193.22953
 20
205.343379
 30
0.0
 40
1.0
 50
0.0
 51
90.0
  0
ARC
  8
LC-002-002-----0
  6
CONTINUOUS
  5
77A
 10
383.22687
 20
205.343379
 30
0.0
 40
1.0
 50
90.0
 51
180.0
  0
ARC
  8
LC-002-002-----0
  6
CONTINUOUS
  5
77B
 10
386.2282
 20
211.343379
 30
0.0
 40
1.0
 50
270.0
 51
0.0
  0
LINE
  8
LC-002-002-----0
  6
CONTINUOUS
  5
77C
 10
263.411796
 20
336.053438
 30
0.0
 11
222.249488
 21
336.053438
 31
0.0
  0
LINE
  8
LC-002-002-----0
  6
CONTINUOUS
  5
77D
 10
227.2282
 20
327.053438
 30
0.0
 11
233.2282
 21
327.053438
 31
0.0
  0
LINE
  8
LC-002-002-----0
  6
CONTINUOUS
  5
77E
 10
220.694867
 20
327.053438
 30
0.0
 11
224.694867
 21
327.053438
 31
0.0
  0
LINE
  8
LC-002-002-----0
  6
CONTINUOUS
  5
77F
 10
257.2282
 20
327.053438
 30
0.0
 11
243.2282
 21
327.053438
 31
0.0
  0
LINE
  8
LC-002-002-----0
  6
CONTINUOUS
  5
780
 10
360.845897
 20
327.053438
 30
0.0
 11
361.093351
 21
329.881859
 31
0.0
  0
LINE
  8
LC-002-002-----0
  6
CONTINUOUS
  5
781
 10
359.842077
 20
327.053438
 30
0.0
 11
360.845897
 21
327.053438
 31
0.0
  0
LINE
  8
LC-002-002-----0
  6
CONTINUOUS
  5
782
 10
351.761534
 20
327.053438
 30
0.0
 11
355.761534
 21
327.053438
 31
0.0
  0
LINE
  8
LC-002-002-----0
  6
CONTINUOUS
  5
783
 10
343.2282
 20
327.053438
 30
0.0
 11
349.2282
 21
327.053438
 31
0.0
  0
LINE
  8
LC-002-002-----0
  6
CONTINUOUS
  5
784
 10
319.2282
 20
327.053438
 30
0.0
 11
333.2282
 21
327.053438
 31
0.0
  0
LINE
  8
LC-002-002-----0
  6
CONTINUOUS
  5
785
 10
215.610504
 20
327.053438
 30
0.0
 11
218.410141
 21
295.053438
 31
0.0
  0
LINE
  8
LC-002-002-----0
  6
CONTINUOUS
  5
786
 10
215.610504
 20
327.053438
 30
0.0
 11
216.614324
 21
327.053438
 31
0.0
  0
LINE
  8
LC-002-002-----0
  6
CONTINUOUS
  5
787
 10
294.2282
 20
321.053438
 30
0.0
 11
294.2282
 21
327.053438
 31
0.0
  0
LINE
  8
LC-002-002-----0
  6
CONTINUOUS
  5
788
 10
294.2282
 20
321.053438
 30
0.0
 11
290.54328
 21
324.145453
 31
0.0
  0
LINE
  8
LC-002-002-----0
  6
CONTINUOUS
  5
789
 10
294.2282
 20
316.053438
 30
0.0
 11
294.2282
 21
295.053438
 31
0.0
  0
LINE
  8
LC-002-002-----0
  6
CONTINUOUS
  5
78A
 10
294.2282
 20
316.053438
 30
0.0
 11
286.139356
 21
323.900131
 31
0.0
  0
LINE
  8
LC-002-002-----0
  6
CONTINUOUS
  5
78B
 10
365.900014
 20
331.438469
 30
0.0
 11
384.2282
 21
333.041978
 31
0.0
  0
LINE
  8
LC-002-002-----0
  6
CONTINUOUS
  5
78C
 10
372.38732
 20
331.089704
 30
0.0
 11
374.572896
 21
318.694682
 31
0.0
  0
LINE
  8
LC-001-100-D02-0
  6
CONTINUOUS
  5
78D
 10
376.542512
 20
317.041978
 30
0.0
 11
382.2282
 21
317.041978
 31
0.0
  0
LINE
  8
LC-002-002-----0
  6
CONTINUOUS
  5
78E
 10
384.2282
 20
319.041978
 30
0.0
 11
384.2282
 21
333.041978
 31
0.0
  0
LINE
  8
LC-002-002-----0
  6
CONTINUOUS
  5
78F
 10
384.2282
 20
336.053438
 30
0.0
 11
365.638546
 21
334.427054
 31
0.0
  0
LINE
  8
LC-003-100-D00-0
  6
CONTINUOUS
 62
     7
  5
790
 10
384.2282
 20
333.041978
 30
0.0
 11
384.2282
 21
333.041978
 31
0.0
  0
LINE
  8
LC-002-002-----0
  6
CONTINUOUS
  5
791
 10
358.046259
 20
295.053438
 30
0.0
 11
360.845897
 21
327.053438
 31
0.0
  0
LINE
  8
LC-002-002-----0
  6
CONTINUOUS
  5
792
 10
357.04244
 20
295.053438
 30
0.0
 11
358.046259
 21
295.053438
 31
0.0
  0
LINE
  8
LC-002-002-----0
  6
CONTINUOUS
  5
793
 10
288.2282
 20
295.053438
 30
0.0
 11
294.2282
 21
295.053438
 31
0.0
  0
LINE
  8
LC-002-002-----0
  6
CONTINUOUS
  5
794
 10
294.2282
 20
295.053438
 30
0.0
 11
306.2282
 21
295.053438
 31
0.0
  0
LINE
  8
LC-002-002-----0
  6
CONTINUOUS
  5
795
 10
319.2282
 20
295.053438
 30
0.0
 11
319.2282
 21
327.053438
 31
0.0
  0
LINE
  8
LC-002-002-----0
  6
CONTINUOUS
  5
796
 10
306.2282
 20
295.053438
 30
0.0
 11
319.2282
 21
295.053438
 31
0.0
  0
LINE
  8
LC-002-002-----0
  6
CONTINUOUS
  5
797
 10
343.2282
 20
295.053438
 30
0.0
 11
343.2282
 21
327.053438
 31
0.0
  0
LINE
  8
LC-002-002-----0
  6
CONTINUOUS
  5
798
 10
333.2282
 20
295.053438
 30
0.0
 11
343.2282
 21
295.053438
 31
0.0
  0
LINE
  8
LC-002-002-----0
  6
CONTINUOUS
  5
799
 10
333.2282
 20
295.053438
 30
0.0
 11
333.2282
 21
327.053438
 31
0.0
  0
LINE
  8
LC-002-002-----0
  6
CONTINUOUS
  5
79A
 10
331.2282
 20
295.053438
 30
0.0
 11
333.2282
 21
295.053438
 31
0.0
  0
LINE
  8
LC-002-002-----0
  6
CONTINUOUS
  5
79B
 10
331.2282
 20
327.053438
 30
0.0
 11
331.2282
 21
295.053438
 31
0.0
  0
LINE
  8
LC-002-002-----0
  6
CONTINUOUS
  5
79C
 10
319.2282
 20
295.053438
 30
0.0
 11
331.2282
 21
295.053438
 31
0.0
  0
LINE
  8
LC-002-002-----0
  6
CONTINUOUS
  5
79D
 10
355.2282
 20
295.053438
 30
0.0
 11
355.761534
 21
327.053438
 31
0.0
  0
LINE
  8
LC-002-002-----0
  6
CONTINUOUS
  5
79E
 10
351.2282
 20
295.053438
 30
0.0
 11
355.2282
 21
295.053438
 31
0.0
  0
LINE
  8
LC-002-002-----0
  6
CONTINUOUS
  5
79F
 10
349.2282
 20
295.053438
 30
0.0
 11
349.2282
 21
327.053438
 31
0.0
  0
LINE
  8
LC-002-002-----0
  6
CONTINUOUS
  5
7A0
 10
343.2282
 20
295.053438
 30
0.0
 11
349.2282
 21
295.053438
 31
0.0
  0
LINE
  8
LC-002-002-----0
  6
CONTINUOUS
  5
7A1
 10
351.2282
 20
295.053438
 30
0.0
 11
351.761534
 21
327.053438
 31
0.0
  0
LINE
  8
LC-002-002-----0
  6
CONTINUOUS
  5
7A2
 10
349.2282
 20
295.053438
 30
0.0
 11
351.2282
 21
295.053438
 31
0.0
  0
LINE
  8
LC-002-002-----0
  6
CONTINUOUS
  5
7A3
 10
357.04244
 20
295.053438
 30
0.0
 11
359.842077
 21
327.053438
 31
0.0
  0
LINE
  8
LC-002-002-----0
  6
CONTINUOUS
  5
7A4
 10
355.2282
 20
295.053438
 30
0.0
 11
357.04244
 21
295.053438
 31
0.0
  0
LINE
  8
LC-002-002-----0
  6
CONTINUOUS
  5
7A5
 10
299.320771
 20
280.442018
 30
0.0
 11
299.495321
 21
278.446894
 31
0.0
  0
LINE
  8
LC-002-002-----0
  6
CONTINUOUS
  5
7A6
 10
296.984261
 20
278.359206
 30
0.0
 11
297.159881
 21
280.366558
 31
0.0
  0
LINE
  8
LC-002-002-----0
  6
CONTINUOUS
  5
7A7
 10
384.2282
 20
336.053438
 30
0.0
 11
313.044604
 21
336.053438
 31
0.0
  0
LINE
  8
LC-002-002-----0
  6
CONTINUOUS
  5
7A8
 10
288.2282
 20
278.053438
 30
0.0
 11
296.984261
 21
278.359206
 31
0.0
  0
LINE
  8
LC-001-100-D02-0
  6
CONTINUOUS
  5
7A9
 10
357.7282
 20
291.103008
 30
0.0
 11
357.7282
 21
291.172876
 31
0.0
  0
LINE
  8
LC-002-002-----0
  6
CONTINUOUS
  5
7AA
 10
288.2282
 20
280.054657
 30
0.0
 11
297.159881
 21
280.366558
 31
0.0
  0
LINE
  8
LC-002-002-----0
  6
CONTINUOUS
  5
7AB
 10
357.7282
 20
291.172876
 30
0.0
 11
361.004887
 21
294.449562
 31
0.0
  0
LINE
  8
LC-002-002-----0
  6
CONTINUOUS
  5
7AC
 10
355.7282
 20
291.103008
 30
0.0
 11
355.7282
 21
292.735378
 31
0.0
  0
LINE
  8
LC-002-002-----0
  6
CONTINUOUS
  5
7AD
 10
355.7282
 20
292.735378
 30
0.0
 11
288.2282
 21
292.735378
 31
0.0
  0
LINE
  8
LC-002-002-----0
  6
CONTINUOUS
  5
7AE
 10
299.320771
 20
280.442018
 30
0.0
 11
347.042296
 21
282.10849
 31
0.0
  0
LINE
  8
LC-002-002-----0
  6
CONTINUOUS
  5
7AF
 10
297.159881
 20
280.366558
 30
0.0
 11
299.320771
 21
280.442018
 31
0.0
  0
LINE
  8
LC-002-002-----0
  6
CONTINUOUS
  5
7B0
 10
299.495321
 20
278.446894
 30
0.0
 11
347.112095
 21
280.109708
 31
0.0
  0
LINE
  8
LC-002-002-----0
  6
CONTINUOUS
  5
7B1
 10
296.984261
 20
278.359206
 30
0.0
 11
299.495321
 21
278.446894
 31
0.0
  0
LINE
  8
LC-001-100-D02-0
  6
DASHDOT
 62
     2
  5
7B3
 10
298.243627
 20
277.641335
 30
0.0
 11
298.243627
 21
280.650633
 31
0.0
  0
LINE
  8
LC-002-002-----0
  6
CONTINUOUS
  5
7B4
 10
192.2282
 20
333.041978
 30
0.0
 11
210.556387
 21
331.438469
 31
0.0
  0
LINE
  8
LC-002-002-----0
  6
CONTINUOUS
  5
7B5
 10
201.883504
 20
318.694682
 30
0.0
 11
204.069081
 21
331.089704
 31
0.0
  0
LINE
  8
LC-001-100-D02-0
  6
CONTINUOUS
  5
7B6
 10
194.2282
 20
317.041978
 30
0.0
 11
199.913889
 21
317.041978
 31
0.0
  0
LINE
  8
LC-002-002-----0
  6
CONTINUOUS
  5
7B7
 10
192.2282
 20
333.041978
 30
0.0
 11
192.2282
 21
319.041978
 31
0.0
  0
LINE
  8
LC-002-002-----0
  6
CONTINUOUS
  5
7B8
 10
210.817854
 20
334.427054
 30
0.0
 11
192.2282
 21
336.053438
 31
0.0
  0
LINE
  8
LC-002-002-----0
  6
CONTINUOUS
  5
7B9
 10
192.2282
 20
336.053438
 30
0.0
 11
192.2282
 21
333.041978
 31
0.0
  0
LINE
  8
LC-002-002-----0
  6
CONTINUOUS
  5
7BA
 10
215.363049
 20
329.881859
 30
0.0
 11
215.610504
 21
327.053438
 31
0.0
  0
LINE
  8
LC-002-002-----0
  6
CONTINUOUS
  5
7BB
 10
218.410141
 20
295.053438
 30
0.0
 11
219.413961
 21
295.053438
 31
0.0
  0
LINE
  8
LC-002-002-----0
  6
CONTINUOUS
  5
7BC
 10
282.2282
 20
295.053438
 30
0.0
 11
282.2282
 21
324.765023
 31
0.0
  0
LINE
  8
LC-002-002-----0
  6
CONTINUOUS
  5
7BD
 10
282.2282
 20
295.053438
 30
0.0
 11
288.2282
 21
295.053438
 31
0.0
  0
LINE
  8
LC-002-002-----0
  6
CONTINUOUS
  5
7BE
 10
270.2282
 20
295.053438
 30
0.0
 11
270.2282
 21
326.217383
 31
0.0
  0
LINE
  8
LC-002-002-----0
  6
CONTINUOUS
  5
7BF
 10
270.2282
 20
295.053438
 30
0.0
 11
282.2282
 21
295.053438
 31
0.0
  0
LINE
  8
LC-002-002-----0
  6
CONTINUOUS
  5
7C0
 10
257.2282
 20
327.053438
 30
0.0
 11
257.2282
 21
295.053438
 31
0.0
  0
LINE
  8
LC-002-002-----0
  6
CONTINUOUS
  5
7C1
 10
257.2282
 20
295.053438
 30
0.0
 11
270.2282
 21
295.053438
 31
0.0
  0
LINE
  8
LC-002-002-----0
  6
CONTINUOUS
  5
7C2
 10
233.2282
 20
327.053438
 30
0.0
 11
233.2282
 21
295.053438
 31
0.0
  0
LINE
  8
LC-002-002-----0
  6
CONTINUOUS
  5
7C3
 10
233.2282
 20
295.053438
 30
0.0
 11
243.2282
 21
295.053438
 31
0.0
  0
LINE
  8
LC-002-002-----0
  6
CONTINUOUS
  5
7C4
 10
243.2282
 20
327.053438
 30
0.0
 11
243.2282
 21
295.053438
 31
0.0
  0
LINE
  8
LC-002-002-----0
  6
CONTINUOUS
  5
7C5
 10
243.2282
 20
295.053438
 30
0.0
 11
245.2282
 21
295.053438
 31
0.0
  0
LINE
  8
LC-002-002-----0
  6
CONTINUOUS
  5
7C6
 10
245.2282
 20
295.053438
 30
0.0
 11
257.2282
 21
295.053438
 31
0.0
  0
LINE
  8
LC-002-002-----0
  6
CONTINUOUS
  5
7C7
 10
220.694867
 20
327.053438
 30
0.0
 11
221.2282
 21
295.053438
 31
0.0
  0
LINE
  8
LC-002-002-----0
  6
CONTINUOUS
  5
7C8
 10
221.2282
 20
295.053438
 30
0.0
 11
225.2282
 21
295.053438
 31
0.0
  0
LINE
  8
LC-002-002-----0
  6
CONTINUOUS
  5
7C9
 10
227.2282
 20
327.053438
 30
0.0
 11
227.2282
 21
295.053438
 31
0.0
  0
LINE
  8
LC-002-002-----0
  6
CONTINUOUS
  5
7CA
 10
227.2282
 20
295.053438
 30
0.0
 11
233.2282
 21
295.053438
 31
0.0
  0
LINE
  8
LC-002-002-----0
  6
CONTINUOUS
  5
7CB
 10
224.694867
 20
327.053438
 30
0.0
 11
225.2282
 21
295.053438
 31
0.0
  0
LINE
  8
LC-002-002-----0
  6
CONTINUOUS
  5
7CC
 10
225.2282
 20
295.053438
 30
0.0
 11
227.2282
 21
295.053438
 31
0.0
  0
LINE
  8
LC-002-002-----0
  6
CONTINUOUS
  5
7CD
 10
216.614324
 20
327.053438
 30
0.0
 11
219.413961
 21
295.053438
 31
0.0
  0
LINE
  8
LC-002-002-----0
  6
CONTINUOUS
  5
7CE
 10
219.413961
 20
295.053438
 30
0.0
 11
221.2282
 21
295.053438
 31
0.0
  0
LINE
  8
LC-002-002-----0
  6
CONTINUOUS
  5
7CF
 10
276.961079
 20
278.446894
 30
0.0
 11
277.13563
 21
280.442018
 31
0.0
  0
LINE
  8
LC-002-002-----0
  6
CONTINUOUS
  5
7D0
 10
279.296519
 20
280.366558
 30
0.0
 11
279.47214
 21
278.359206
 31
0.0
  0
LINE
  8
LC-002-002-----0
  6
CONTINUOUS
  5
7D1
 10
279.47214
 20
278.359206
 30
0.0
 11
288.2282
 21
278.053438
 31
0.0
  0
LINE
  8
LC-001-100-D02-0
  6
CONTINUOUS
  5
7D2
 10
218.7282
 20
291.172876
 30
0.0
 11
218.7282
 21
291.103008
 31
0.0
  0
LINE
  8
LC-002-002-----0
  6
CONTINUOUS
  5
7D3
 10
279.296519
 20
280.366558
 30
0.0
 11
288.2282
 21
280.054657
 31
0.0
  0
LINE
  8
LC-002-002-----0
  6
CONTINUOUS
  5
7D4
 10
215.451514
 20
294.449562
 30
0.0
 11
218.7282
 21
291.172876
 31
0.0
  0
LINE
  8
LC-002-002-----0
  6
CONTINUOUS
  5
7D5
 10
212.374465
 20
329.620392
 30
0.0
 11
215.451514
 21
294.449562
 31
0.0
  0
LINE
  8
LC-002-002-----0
  6
CONTINUOUS
  5
7D6
 10
220.7282
 20
292.735378
 30
0.0
 11
220.7282
 21
291.103008
 31
0.0
  0
LINE
  8
LC-002-002-----0
  6
CONTINUOUS
  5
7D7
 10
288.2282
 20
292.735378
 30
0.0
 11
220.7282
 21
292.735378
 31
0.0
  0
LINE
  8
LC-002-002-----0
  6
CONTINUOUS
  5
7D8
 10
229.414105
 20
282.10849
 30
0.0
 11
277.13563
 21
280.442018
 31
0.0
  0
LINE
  8
LC-002-002-----0
  6
CONTINUOUS
  5
7D9
 10
277.13563
 20
280.442018
 30
0.0
 11
279.296519
 21
280.366558
 31
0.0
  0
LINE
  8
LC-002-002-----0
  6
CONTINUOUS
  5
7DA
 10
229.344306
 20
280.109708
 30
0.0
 11
276.961079
 21
278.446894
 31
0.0
  0
LINE
  8
LC-002-002-----0
  6
CONTINUOUS
  5
7DB
 10
276.961079
 20
278.446894
 30
0.0
 11
279.47214
 21
278.359206
 31
0.0
  0
LINE
  8
LC-001-100-D02-0
  6
DASHDOT
 62
     2
  5
7DC
 10
278.212774
 20
280.650633
 30
0.0
 11
278.212774
 21
277.641335
 31
0.0
  0
LINE
  8
LC-002-002-----0
  6
CONTINUOUS
  5
7DD
 10
214.120954
 20
336.053438
 30
0.0
 11
192.2282
 21
336.053438
 31
0.0
  0
LINE
  8
LC-002-002-----0
  6
CONTINUOUS
  5
7DE
 10
306.2282
 20
327.053438
 30
0.0
 11
306.2282
 21
295.053438
 31
0.0
  0
LINE
  8
LC-002-002-----0
  6
CONTINUOUS
  5
7DF
 10
384.2282
 20
333.041978
 30
0.0
 11
384.2282
 21
336.053438
 31
0.0
  0
LINE
  8
LC-003-100-D00-0
  6
CONTINUOUS
 62
     7
  5
7E0
 10
192.2282
 20
333.041978
 30
0.0
 11
192.2282
 21
333.041978
 31
0.0
  0
LINE
  8
LC-002-002-----0
  6
CONTINUOUS
  5
7E1
 10
238.708592
 20
334.061392
 30
0.0
 11
272.040294
 21
334.061392
 31
0.0
  0
LINE
  8
LC-002-002-----0
  6
CONTINUOUS
  5
7E2
 10
294.2282
 20
327.053438
 30
0.0
 11
306.2282
 21
327.053438
 31
0.0
  0
ARC
  8
LC-002-002-----0
  6
DASHED
 62
     2
  5
7E3
 10
288.2282
 20
326.053438
 30
0.0
 40
3.0
 50
320.506185
 51
131.288741
  0
ARC
  8
LC-002-002-----0
  6
DASHED
 62
     2
  5
7E4
 10
288.2282
 20
326.053438
 30
0.0
 40
3.0
 50
131.288741
 51
214.90937
  0
ARC
  8
LC-001-100-D02-0
  6
CONTINUOUS
  5
7E5
 10
288.2282
 20
326.053438
 30
0.0
 40
3.0
 50
214.90937
 51
225.87058
  0
ARC
  8
LC-002-002-----0
  6
CONTINUOUS
  5
7E6
 10
346.7282
 20
291.103008
 30
0.0
 40
9.0
 50
272.0
 51
0.0
  0
ARC
  8
LC-002-002-----0
  6
CONTINUOUS
  5
7E7
 10
229.7282
 20
291.103008
 30
0.0
 40
9.0
 50
180.0
 51
268.0
  0
ARC
  8
LC-002-002-----0
  6
CONTINUOUS
  5
7E8
 10
371.402512
 20
330.916056
 30
0.0
 40
1.0
 50
10.0
 51
95.0
  0
ARC
  8
LC-002-002-----0
  6
CONTINUOUS
  5
7E9
 10
376.542512
 20
319.041978
 30
0.0
 40
2.0
 50
190.0
 51
270.0
  0
ARC
  8
LC-002-002-----0
  6
CONTINUOUS
  5
7EA
 10
382.2282
 20
319.041978
 30
0.0
 40
2.0
 50
270.0
 51
0.0
  0
ARC
  8
LC-002-002-----0
  6
CONTINUOUS
  5
7EB
 10
366.074325
 20
329.44608
 30
0.0
 40
5.0
 50
95.0
 51
175.0
  0
ARC
  8
LC-002-002-----0
  6
CONTINUOUS
  5
7EC
 10
366.074325
 20
329.44608
 30
0.0
 40
2.0
 50
95.0
 51
175.0
  0
ARC
  8
LC-002-002-----0
  6
CONTINUOUS
  5
7ED
 10
205.053889
 20
330.916056
 30
0.0
 40
1.0
 50
85.0
 51
170.0
  0
ARC
  8
LC-002-002-----0
  6
CONTINUOUS
  5
7EE
 10
199.913889
 20
319.041978
 30
0.0
 40
2.0
 50
270.0
 51
350.0
  0
ARC
  8
LC-002-002-----0
  6
CONTINUOUS
  5
7EF
 10
194.2282
 20
319.041978
 30
0.0
 40
2.0
 50
180.0
 51
270.0
  0
ARC
  8
LC-002-002-----0
  6
CONTINUOUS
  5
7F0
 10
210.382076
 20
329.44608
 30
0.0
 40
5.0
 50
5.0
 51
85.0
  0
ARC
  8
LC-002-002-----0
  6
CONTINUOUS
  5
7F1
 10
210.382076
 20
329.44608
 30
0.0
 40
2.0
 50
5.0
 51
85.0
  0
ARC
  8
LC-002-002-----0
  6
CONTINUOUS
  5
7F2
 10
229.7282
 20
291.103008
 30
0.0
 40
11.0
 50
180.0
 51
268.0
  0
LINE
  8
LC-003-100-D00-0
  6
CONTINUOUS
 62
     7
  5
7F3
 10
226.060836
 20
346.541978
 30
0.0
 11
226.060836
 21
344.676586
 31
0.0
  0
LINE
  8
LC-002-002-----0
  6
CONTINUOUS
  5
7F4
 10
350.388305
 20
344.67491
 30
0.0
 11
297.834802
 21
332.541978
 31
0.0
  0
LINE
  8
LC-002-002-----0
  6
CONTINUOUS
  5
7F5
 10
350.388305
 20
346.541978
 30
0.0
 11
350.388305
 21
344.67491
 31
0.0
  0
LINE
  8
LC-002-002-----0
  6
CONTINUOUS
  5
7F6
 10
350.388305
 20
346.541978
 30
0.0
 11
386.065354
 21
346.541978
 31
0.0
  0
LINE
  8
LC-002-002-----0
  6
CONTINUOUS
  5
7F7
 10
186.389269
 20
346.541978
 30
0.0
 11
226.060836
 21
346.541978
 31
0.0
  0
LINE
  8
LC-002-002-----0
  6
CONTINUOUS
  5
7F8
 10
179.565354
 20
346.541978
 30
0.0
 11
186.389269
 21
346.541978
 31
0.0
  0
LINE
  8
LC-003-100-D00-0
  6
CONTINUOUS
 62
     7
  5
7F9
 10
225.222312
 20
366.541978
 30
0.0
 11
187.227794
 21
366.541978
 31
0.0
  0
LINE
  8
LC-002-002-----0
  6
CONTINUOUS
  5
7FA
 10
188.386528
 20
348.437306
 30
0.0
 11
189.225053
 21
364.437306
 31
0.0
  0
LINE
  8
LC-002-002-----0
  6
CONTINUOUS
  5
7FB
 10
223.225053
 20
364.437306
 30
0.0
 11
224.063577
 21
348.437306
 31
0.0
  0
LINE
  8
LC-003-100-D00-0
  6
CONTINUOUS
 62
     7
  5
7FC
 10
187.227794
 20
366.541978
 30
0.0
 11
178.72683
 21
366.541978
 31
0.0
  0
LINE
  8
LC-002-002-----0
  6
CONTINUOUS
  5
7FD
 10
176.729571
 20
364.437306
 30
0.0
 11
177.568095
 21
348.437306
 31
0.0
  0
LINE
  8
LC-002-002-----0
  6
CONTINUOUS
  5
7FE
 10
386.065354
 20
346.541978
 30
0.0
 11
396.891046
 21
346.541978
 31
0.0
  0
LINE
  8
LC-003-100-D00-0
  6
CONTINUOUS
 62
     7
  5
7FF
 10
351.22683
 20
366.541978
 30
0.0
 11
288.2282
 21
366.541978
 31
0.0
  0
LINE
  8
LC-002-002-----0
  6
CONTINUOUS
  5
800
 10
385.22683
 20
366.541978
 30
0.0
 11
351.22683
 21
366.541978
 31
0.0
  0
LINE
  8
LC-002-002-----0
  6
CONTINUOUS
  5
801
 10
383.229571
 20
364.437306
 30
0.0
 11
384.068095
 21
348.437306
 31
0.0
  0
LINE
  8
LC-002-002-----0
  6
CONTINUOUS
  5
802
 10
352.385564
 20
348.437306
 30
0.0
 11
353.224089
 21
364.437306
 31
0.0
  0
LINE
  8
LC-002-002-----0
  6
CONTINUOUS
  5
803
 10
397.729571
 20
366.541978
 30
0.0
 11
385.22683
 21
366.541978
 31
0.0
  0
LINE
  8
LC-002-002-----0
  6
CONTINUOUS
  5
804
 10
398.888305
 20
348.437306
 30
0.0
 11
399.72683
 21
364.437306
 31
0.0
  0
LINE
  8
LC-002-002-----0
  6
CONTINUOUS
  5
805
 10
278.621599
 20
332.541978
 30
0.0
 11
288.2282
 21
332.541978
 31
0.0
  0
LINE
  8
LC-002-002-----0
  6
CONTINUOUS
  5
806
 10
278.621599
 20
332.541978
 30
0.0
 11
226.060836
 21
344.676586
 31
0.0
  0
LINE
  8
LC-003-100-D00-0
  6
CONTINUOUS
 62
     7
  5
807
 10
288.2282
 20
366.541978
 30
0.0
 11
225.222312
 21
366.541978
 31
0.0
  0
LINE
  8
LC-002-002-----0
  6
CONTINUOUS
  5
808
 10
288.2282
 20
332.541978
 30
0.0
 11
297.834802
 21
332.541978
 31
0.0
  0
ARC
  8
LC-002-002-----0
  6
CONTINUOUS
  5
809
 10
186.389269
 20
348.541978
 30
0.0
 40
2.0
 50
270.0
 51
357.0
  0
ARC
  8
LC-002-002-----0
  6
CONTINUOUS
  5
80A
 10
187.227794
 20
364.541978
 30
0.0
 40
2.0
 50
357.0
 51
90.0
  0
ARC
  8
LC-002-002-----0
  6
CONTINUOUS
  5
80B
 10
226.060836
 20
348.541978
 30
0.0
 40
2.0
 50
183.0
 51
270.0
  0
ARC
  8
LC-002-002-----0
  6
CONTINUOUS
  5
80C
 10
225.222312
 20
364.541978
 30
0.0
 40
2.0
 50
90.0
 51
183.0
  0
ARC
  8
LC-002-002-----0
  6
CONTINUOUS
  5
80D
 10
179.565354
 20
348.541978
 30
0.0
 40
2.0
 50
183.0
 51
270.0
  0
ARC
  8
LC-002-002-----0
  6
CONTINUOUS
  5
80E
 10
178.72683
 20
364.541978
 30
0.0
 40
2.0
 50
90.0
 51
183.0
  0
ARC
  8
LC-002-002-----0
  6
CONTINUOUS
  5
80F
 10
386.065354
 20
348.541978
 30
0.0
 40
2.0
 50
183.0
 51
270.0
  0
ARC
  8
LC-002-002-----0
  6
CONTINUOUS
  5
810
 10
385.22683
 20
364.541978
 30
0.0
 40
2.0
 50
90.0
 51
183.0
  0
ARC
  8
LC-003-100-D00-0
  6
CONTINUOUS
 62
     7
  5
811
 10
350.388305
 20
348.541978
 30
0.0
 40
2.0
 50
270.0
 51
357.0
  0
ARC
  8
LC-002-002-----0
  6
CONTINUOUS
  5
812
 10
351.22683
 20
364.541978
 30
0.0
 40
2.0
 50
357.0
 51
90.0
  0
ARC
  8
LC-002-002-----0
  6
CONTINUOUS
  5
813
 10
396.891046
 20
348.541978
 30
0.0
 40
2.0
 50
270.0
 51
357.0
  0
ARC
  8
LC-002-002-----0
  6
CONTINUOUS
  5
814
 10
397.729571
 20
364.541978
 30
0.0
 40
2.0
 50
357.0
 51
90.0
  0
LINE
  8
LC-002-002-----0
  6
CONTINUOUS
  5
815
 10
362.981467
 20
317.041978
 30
0.0
 11
380.7282
 21
317.041978
 31
0.0
  0
LINE
  8
LC-002-002-----0
  6
CONTINUOUS
  5
816
 10
288.2282
 20
214.343379
 30
0.0
 11
378.7282
 21
214.343379
 31
0.0
  0
LINE
  8
LC-002-002-----0
  6
CONTINUOUS
  5
817
 10
197.7282
 20
214.343379
 30
0.0
 11
288.2282
 21
214.343379
 31
0.0
  0
LINE
  8
LC-002-002-----0
  6
CONTINUOUS
  5
818
 10
189.7282
 20
318.041978
 30
0.0
 11
189.7282
 21
337.541978
 31
0.0
  0
LINE
  8
LC-002-002-----0
  6
CONTINUOUS
  5
819
 10
190.7282
 20
317.041978
 30
0.0
 11
195.7282
 21
317.041978
 31
0.0
  0
LINE
  8
LC-003-100-D00-0
  6
CONTINUOUS
 62
     7
  5
81A
 10
188.7282
 20
338.541978
 30
0.0
 11
187.7282
 21
338.541978
 31
0.0
  0
LINE
  8
LC-002-002-----0
  6
CONTINUOUS
  5
81B
 10
185.7282
 20
335.541978
 30
0.0
 11
184.2282
 21
335.541978
 31
0.0
  0
LINE
  8
LC-002-002-----0
  6
CONTINUOUS
  5
81C
 10
186.7282
 20
314.541978
 30
0.0
 11
186.7282
 21
334.541978
 31
0.0
  0
LINE
  8
LC-002-002-----0
  6
CONTINUOUS
  5
81D
 10
194.2282
 20
223.610027
 30
0.0
 11
194.2282
 21
219.520325
 31
0.0
  0
LINE
  8
LC-002-002-----0
  6
CONTINUOUS
  5
81E
 10
193.487019
 20
224.575953
 30
0.0
 11
190.7282
 21
225.315176
 31
0.0
  0
LINE
  8
LC-002-002-----0
  6
CONTINUOUS
  5
81F
 10
190.7282
 20
217.815176
 30
0.0
 11
193.487019
 21
218.554399
 31
0.0
  0
LINE
  8
LC-002-002-----0
  6
CONTINUOUS
  5
820
 10
190.7282
 20
215.415176
 30
0.0
 11
190.7282
 21
217.815176
 31
0.0
  0
LINE
  8
LC-003-100-D00-0
  6
CONTINUOUS
 62
     7
  5
821
 10
194.7282
 20
214.343379
 30
0.0
 11
197.7282
 21
214.343379
 31
0.0
  0
LINE
  8
LC-002-002-----0
  6
CONTINUOUS
  5
822
 10
194.7282
 20
214.343379
 30
0.0
 11
190.7282
 21
215.415176
 31
0.0
  0
LINE
  8
LC-002-002-----0
  6
CONTINUOUS
  5
823
 10
197.7282
 20
214.343379
 30
0.0
 11
197.7282
 21
315.041978
 31
0.0
  0
LINE
  8
LC-002-002-----0
  6
CONTINUOUS
  5
824
 10
193.2282
 20
314.541978
 30
0.0
 11
186.7282
 21
314.541978
 31
0.0
  0
LINE
  8
LC-002-002-----0
  6
CONTINUOUS
  5
825
 10
190.7282
 20
225.315176
 30
0.0
 11
190.7282
 21
227.815176
 31
0.0
  0
LINE
  8
LC-002-002-----0
  6
CONTINUOUS
  5
826
 10
194.2282
 20
233.610027
 30
0.0
 11
194.2282
 21
229.520325
 31
0.0
  0
LINE
  8
LC-002-002-----0
  6
CONTINUOUS
  5
827
 10
193.487019
 20
234.575953
 30
0.0
 11
190.7282
 21
235.315176
 31
0.0
  0
LINE
  8
LC-002-002-----0
  6
CONTINUOUS
  5
828
 10
190.7282
 20
227.815176
 30
0.0
 11
193.487019
 21
228.554399
 31
0.0
  0
LINE
  8
LC-002-002-----0
  6
CONTINUOUS
  5
829
 10
190.7282
 20
235.315176
 30
0.0
 11
190.7282
 21
237.815176
 31
0.0
  0
LINE
  8
LC-002-002-----0
  6
CONTINUOUS
  5
82A
 10
194.2282
 20
243.610027
 30
0.0
 11
194.2282
 21
239.520325
 31
0.0
  0
LINE
  8
LC-002-002-----0
  6
CONTINUOUS
  5
82B
 10
193.487019
 20
244.575953
 30
0.0
 11
190.7282
 21
245.315176
 31
0.0
  0
LINE
  8
LC-002-002-----0
  6
CONTINUOUS
  5
82C
 10
190.7282
 20
237.815176
 30
0.0
 11
193.487019
 21
238.554399
 31
0.0
  0
LINE
  8
LC-002-002-----0
  6
CONTINUOUS
  5
82D
 10
190.7282
 20
245.315176
 30
0.0
 11
190.7282
 21
247.815176
 31
0.0
  0
LINE
  8
LC-002-002-----0
  6
CONTINUOUS
  5
82E
 10
194.2282
 20
253.610027
 30
0.0
 11
194.2282
 21
249.520325
 31
0.0
  0
LINE
  8
LC-002-002-----0
  6
CONTINUOUS
  5
82F
 10
193.487019
 20
254.575953
 30
0.0
 11
190.7282
 21
255.315176
 31
0.0
  0
LINE
  8
LC-002-002-----0
  6
CONTINUOUS
  5
830
 10
190.7282
 20
247.815176
 30
0.0
 11
193.487019
 21
248.554399
 31
0.0
  0
LINE
  8
LC-002-002-----0
  6
CONTINUOUS
  5
831
 10
190.7282
 20
255.315176
 30
0.0
 11
190.7282
 21
257.815176
 31
0.0
  0
LINE
  8
LC-002-002-----0
  6
CONTINUOUS
  5
832
 10
194.2282
 20
263.610027
 30
0.0
 11
194.2282
 21
259.520325
 31
0.0
  0
LINE
  8
LC-002-002-----0
  6
CONTINUOUS
  5
833
 10
193.487019
 20
264.575953
 30
0.0
 11
190.7282
 21
265.315176
 31
0.0
  0
LINE
  8
LC-002-002-----0
  6
CONTINUOUS
  5
834
 10
190.7282
 20
257.815176
 30
0.0
 11
193.487019
 21
258.554399
 31
0.0
  0
LINE
  8
LC-002-002-----0
  6
CONTINUOUS
  5
835
 10
190.7282
 20
265.315176
 30
0.0
 11
190.7282
 21
267.815176
 31
0.0
  0
LINE
  8
LC-002-002-----0
  6
CONTINUOUS
  5
836
 10
194.2282
 20
273.610027
 30
0.0
 11
194.2282
 21
269.520325
 31
0.0
  0
LINE
  8
LC-002-002-----0
  6
CONTINUOUS
  5
837
 10
193.487019
 20
274.575953
 30
0.0
 11
190.7282
 21
275.315176
 31
0.0
  0
LINE
  8
LC-002-002-----0
  6
CONTINUOUS
  5
838
 10
190.7282
 20
267.815176
 30
0.0
 11
193.487019
 21
268.554399
 31
0.0
  0
LINE
  8
LC-002-002-----0
  6
CONTINUOUS
  5
839
 10
190.7282
 20
275.315176
 30
0.0
 11
190.7282
 21
277.815176
 31
0.0
  0
LINE
  8
LC-002-002-----0
  6
CONTINUOUS
  5
83A
 10
194.2282
 20
283.610027
 30
0.0
 11
194.2282
 21
279.520325
 31
0.0
  0
LINE
  8
LC-002-002-----0
  6
CONTINUOUS
  5
83B
 10
193.487019
 20
284.575953
 30
0.0
 11
190.7282
 21
285.315176
 31
0.0
  0
LINE
  8
LC-002-002-----0
  6
CONTINUOUS
  5
83C
 10
190.7282
 20
277.815176
 30
0.0
 11
193.487019
 21
278.554399
 31
0.0
  0
LINE
  8
LC-002-002-----0
  6
CONTINUOUS
  5
83D
 10
190.7282
 20
285.315176
 30
0.0
 11
190.7282
 21
287.815176
 31
0.0
  0
LINE
  8
LC-002-002-----0
  6
CONTINUOUS
  5
83E
 10
194.2282
 20
293.610027
 30
0.0
 11
194.2282
 21
289.520325
 31
0.0
  0
LINE
  8
LC-002-002-----0
  6
CONTINUOUS
  5
83F
 10
193.487019
 20
294.575953
 30
0.0
 11
190.7282
 21
295.315176
 31
0.0
  0
LINE
  8
LC-002-002-----0
  6
CONTINUOUS
  5
840
 10
190.7282
 20
287.815176
 30
0.0
 11
193.487019
 21
288.554399
 31
0.0
  0
LINE
  8
LC-002-002-----0
  6
CONTINUOUS
  5
841
 10
190.7282
 20
295.315176
 30
0.0
 11
190.7282
 21
297.815176
 31
0.0
  0
LINE
  8
LC-002-002-----0
  6
CONTINUOUS
  5
842
 10
194.2282
 20
303.610027
 30
0.0
 11
194.2282
 21
299.520325
 31
0.0
  0
LINE
  8
LC-002-002-----0
  6
CONTINUOUS
  5
843
 10
193.487019
 20
304.575953
 30
0.0
 11
190.7282
 21
305.315176
 31
0.0
  0
LINE
  8
LC-002-002-----0
  6
CONTINUOUS
  5
844
 10
190.7282
 20
297.815176
 30
0.0
 11
193.487019
 21
298.554399
 31
0.0
  0
LINE
  8
LC-002-002-----0
  6
CONTINUOUS
  5
845
 10
190.7282
 20
305.315176
 30
0.0
 11
190.7282
 21
307.815176
 31
0.0
  0
LINE
  8
LC-002-002-----0
  6
CONTINUOUS
  5
846
 10
194.2282
 20
313.541978
 30
0.0
 11
194.2282
 21
309.520325
 31
0.0
  0
LINE
  8
LC-002-002-----0
  6
CONTINUOUS
  5
847
 10
190.7282
 20
307.815176
 30
0.0
 11
193.487019
 21
308.554399
 31
0.0
  0
LINE
  8
LC-002-002-----0
  6
CONTINUOUS
  5
848
 10
195.7282
 20
317.041978
 30
0.0
 11
213.474934
 21
317.041978
 31
0.0
  0
LINE
  8
LC-002-002-----0
  6
CONTINUOUS
  5
849
 10
184.2282
 20
335.541978
 30
0.0
 11
184.2282
 21
336.541978
 31
0.0
  0
LINE
  8
LC-002-002-----0
  6
CONTINUOUS
  5
84A
 10
184.2282
 20
336.541978
 30
0.0
 11
186.2282
 21
338.541978
 31
0.0
  0
LINE
  8
LC-002-002-----0
  6
CONTINUOUS
  5
84B
 10
386.7282
 20
337.541978
 30
0.0
 11
386.7282
 21
318.041978
 31
0.0
  0
LINE
  8
LC-002-002-----0
  6
CONTINUOUS
  5
84C
 10
380.7282
 20
317.041978
 30
0.0
 11
385.7282
 21
317.041978
 31
0.0
  0
LINE
  8
LC-003-100-D00-0
  6
CONTINUOUS
 62
     7
  5
84D
 10
390.2282
 20
338.541978
 30
0.0
 11
387.7282
 21
338.541978
 31
0.0
  0
LINE
  8
LC-002-002-----0
  6
CONTINUOUS
  5
84E
 10
392.2282
 20
335.541978
 30
0.0
 11
390.7282
 21
335.541978
 31
0.0
  0
LINE
  8
LC-002-002-----0
  6
CONTINUOUS
  5
84F
 10
389.7282
 20
334.541978
 30
0.0
 11
389.7282
 21
314.541978
 31
0.0
  0
LINE
  8
LC-002-002-----0
  6
CONTINUOUS
  5
850
 10
382.2282
 20
219.520325
 30
0.0
 11
382.2282
 21
223.610027
 31
0.0
  0
LINE
  8
LC-002-002-----0
  6
CONTINUOUS
  5
851
 10
385.7282
 20
225.315176
 30
0.0
 11
382.969381
 21
224.575953
 31
0.0
  0
LINE
  8
LC-002-002-----0
  6
CONTINUOUS
  5
852
 10
382.969381
 20
218.554399
 30
0.0
 11
385.7282
 21
217.815176
 31
0.0
  0
LINE
  8
LC-002-002-----0
  6
CONTINUOUS
  5
853
 10
385.7282
 20
217.815176
 30
0.0
 11
385.7282
 21
215.415176
 31
0.0
  0
LINE
  8
LC-002-002-----0
  6
CONTINUOUS
  5
854
 10
378.7282
 20
214.343379
 30
0.0
 11
381.7282
 21
214.343379
 31
0.0
  0
LINE
  8
LC-002-002-----0
  6
CONTINUOUS
  5
855
 10
385.7282
 20
215.415176
 30
0.0
 11
381.7282
 21
214.343379
 31
0.0
  0
LINE
  8
LC-002-002-----0
  6
CONTINUOUS
  5
856
 10
378.7282
 20
315.041978
 30
0.0
 11
378.7282
 21
214.343379
 31
0.0
  0
LINE
  8
LC-002-002-----0
  6
CONTINUOUS
  5
857
 10
389.7282
 20
314.541978
 30
0.0
 11
383.2282
 21
314.541978
 31
0.0
  0
LINE
  8
LC-002-002-----0
  6
CONTINUOUS
  5
858
 10
385.7282
 20
227.815176
 30
0.0
 11
385.7282
 21
225.315176
 31
0.0
  0
LINE
  8
LC-002-002-----0
  6
CONTINUOUS
  5
859
 10
382.2282
 20
229.520325
 30
0.0
 11
382.2282
 21
233.610027
 31
0.0
  0
LINE
  8
LC-002-002-----0
  6
CONTINUOUS
  5
85A
 10
385.7282
 20
235.315176
 30
0.0
 11
382.969381
 21
234.575953
 31
0.0
  0
LINE
  8
LC-002-002-----0
  6
CONTINUOUS
  5
85B
 10
382.969381
 20
228.554399
 30
0.0
 11
385.7282
 21
227.815176
 31
0.0
  0
LINE
  8
LC-002-002-----0
  6
CONTINUOUS
  5
85C
 10
385.7282
 20
237.815176
 30
0.0
 11
385.7282
 21
235.315176
 31
0.0
  0
LINE
  8
LC-002-002-----0
  6
CONTINUOUS
  5
85D
 10
382.2282
 20
239.520325
 30
0.0
 11
382.2282
 21
243.610027
 31
0.0
  0
LINE
  8
LC-002-002-----0
  6
CONTINUOUS
  5
85E
 10
385.7282
 20
245.315176
 30
0.0
 11
382.969381
 21
244.575953
 31
0.0
  0
LINE
  8
LC-002-002-----0
  6
CONTINUOUS
  5
85F
 10
382.969381
 20
238.554399
 30
0.0
 11
385.7282
 21
237.815176
 31
0.0
  0
LINE
  8
LC-002-002-----0
  6
CONTINUOUS
  5
860
 10
385.7282
 20
247.815176
 30
0.0
 11
385.7282
 21
245.315176
 31
0.0
  0
LINE
  8
LC-002-002-----0
  6
CONTINUOUS
  5
861
 10
382.2282
 20
249.520325
 30
0.0
 11
382.2282
 21
253.610027
 31
0.0
  0
LINE
  8
LC-002-002-----0
  6
CONTINUOUS
  5
862
 10
385.7282
 20
255.315176
 30
0.0
 11
382.969381
 21
254.575953
 31
0.0
  0
LINE
  8
LC-002-002-----0
  6
CONTINUOUS
  5
863
 10
382.969381
 20
248.554399
 30
0.0
 11
385.7282
 21
247.815176
 31
0.0
  0
LINE
  8
LC-002-002-----0
  6
CONTINUOUS
  5
864
 10
385.7282
 20
257.815176
 30
0.0
 11
385.7282
 21
255.315176
 31
0.0
  0
LINE
  8
LC-002-002-----0
  6
CONTINUOUS
  5
865
 10
382.2282
 20
259.520325
 30
0.0
 11
382.2282
 21
263.610027
 31
0.0
  0
LINE
  8
LC-002-002-----0
  6
CONTINUOUS
  5
866
 10
385.7282
 20
265.315176
 30
0.0
 11
382.969381
 21
264.575953
 31
0.0
  0
LINE
  8
LC-002-002-----0
  6
CONTINUOUS
  5
867
 10
382.969381
 20
258.554399
 30
0.0
 11
385.7282
 21
257.815176
 31
0.0
  0
LINE
  8
LC-002-002-----0
  6
CONTINUOUS
  5
868
 10
385.7282
 20
267.815176
 30
0.0
 11
385.7282
 21
265.315176
 31
0.0
  0
LINE
  8
LC-002-002-----0
  6
CONTINUOUS
  5
869
 10
382.2282
 20
269.520325
 30
0.0
 11
382.2282
 21
273.610027
 31
0.0
  0
LINE
  8
LC-002-002-----0
  6
CONTINUOUS
  5
86A
 10
385.7282
 20
275.315176
 30
0.0
 11
382.969381
 21
274.575953
 31
0.0
  0
LINE
  8
LC-002-002-----0
  6
CONTINUOUS
  5
86B
 10
382.969381
 20
268.554399
 30
0.0
 11
385.7282
 21
267.815176
 31
0.0
  0
LINE
  8
LC-002-002-----0
  6
CONTINUOUS
  5
86C
 10
385.7282
 20
277.815176
 30
0.0
 11
385.7282
 21
275.315176
 31
0.0
  0
LINE
  8
LC-002-002-----0
  6
CONTINUOUS
  5
86D
 10
382.2282
 20
279.520325
 30
0.0
 11
382.2282
 21
283.610027
 31
0.0
  0
LINE
  8
LC-002-002-----0
  6
CONTINUOUS
  5
86E
 10
385.7282
 20
285.315176
 30
0.0
 11
382.969381
 21
284.575953
 31
0.0
  0
LINE
  8
LC-002-002-----0
  6
CONTINUOUS
  5
86F
 10
382.969381
 20
278.554399
 30
0.0
 11
385.7282
 21
277.815176
 31
0.0
  0
LINE
  8
LC-002-002-----0
  6
CONTINUOUS
  5
870
 10
385.7282
 20
287.815176
 30
0.0
 11
385.7282
 21
285.315176
 31
0.0
  0
LINE
  8
LC-002-002-----0
  6
CONTINUOUS
  5
871
 10
382.2282
 20
289.520325
 30
0.0
 11
382.2282
 21
293.610027
 31
0.0
  0
LINE
  8
LC-002-002-----0
  6
CONTINUOUS
  5
872
 10
385.7282
 20
295.315176
 30
0.0
 11
382.969381
 21
294.575953
 31
0.0
  0
LINE
  8
LC-002-002-----0
  6
CONTINUOUS
  5
873
 10
382.969381
 20
288.554399
 30
0.0
 11
385.7282
 21
287.815176
 31
0.0
  0
LINE
  8
LC-002-002-----0
  6
CONTINUOUS
  5
874
 10
385.7282
 20
297.815176
 30
0.0
 11
385.7282
 21
295.315176
 31
0.0
  0
LINE
  8
LC-002-002-----0
  6
CONTINUOUS
  5
875
 10
382.2282
 20
299.520325
 30
0.0
 11
382.2282
 21
303.610027
 31
0.0
  0
LINE
  8
LC-002-002-----0
  6
CONTINUOUS
  5
876
 10
385.7282
 20
305.315176
 30
0.0
 11
382.969381
 21
304.575953
 31
0.0
  0
LINE
  8
LC-002-002-----0
  6
CONTINUOUS
  5
877
 10
382.969381
 20
298.554399
 30
0.0
 11
385.7282
 21
297.815176
 31
0.0
  0
LINE
  8
LC-002-002-----0
  6
CONTINUOUS
  5
878
 10
385.7282
 20
307.815176
 30
0.0
 11
385.7282
 21
305.315176
 31
0.0
  0
LINE
  8
LC-002-002-----0
  6
CONTINUOUS
  5
879
 10
382.2282
 20
309.520325
 30
0.0
 11
382.2282
 21
313.541978
 31
0.0
  0
LINE
  8
LC-002-002-----0
  6
CONTINUOUS
  5
87A
 10
382.969381
 20
308.554399
 30
0.0
 11
385.7282
 21
307.815176
 31
0.0
  0
LINE
  8
LC-002-002-----0
  6
CONTINUOUS
  5
87B
 10
392.2282
 20
336.541978
 30
0.0
 11
392.2282
 21
335.541978
 31
0.0
  0
LINE
  8
LC-002-002-----0
  6
CONTINUOUS
  5
87C
 10
390.2282
 20
338.541978
 30
0.0
 11
392.2282
 21
336.541978
 31
0.0
  0
LINE
  8
LC-002-002-----0
  6
CONTINUOUS
  5
87D
 10
187.7282
 20
338.541978
 30
0.0
 11
252.341217
 21
338.541978
 31
0.0
  0
LINE
  8
LC-002-002-----0
  6
CONTINUOUS
  5
87E
 10
187.7282
 20
338.541978
 30
0.0
 11
186.2282
 21
338.541978
 31
0.0
  0
LINE
  8
LC-002-002-----0
  6
CONTINUOUS
  5
87F
 10
324.111554
 20
338.541978
 30
0.0
 11
388.7282
 21
338.541978
 31
0.0
  0
ARC
  8
LC-002-002-----0
  6
CONTINUOUS
  5
880
 10
185.7282
 20
334.541978
 30
0.0
 40
1.0
 50
0.0
 51
90.0
  0
ARC
  8
LC-002-002-----0
  6
CONTINUOUS
  5
881
 10
188.7282
 20
337.541978
 30
0.0
 40
1.0
 50
0.0
 51
90.0
  0
ARC
  8
LC-002-002-----0
  6
CONTINUOUS
  5
882
 10
190.7282
 20
318.041978
 30
0.0
 40
1.0
 50
180.0
 51
270.0
  0
ARC
  8
LC-002-002-----0
  6
CONTINUOUS
  5
883
 10
195.7282
 20
315.041978
 30
0.0
 40
2.0
 50
0.0
 51
90.0
  0
ARC
  8
LC-002-002-----0
  6
CONTINUOUS
  5
884
 10
193.2282
 20
219.520325
 30
0.0
 40
1.0
 50
285.0
 51
0.0
  0
ARC
  8
LC-002-002-----0
  6
CONTINUOUS
  5
885
 10
193.2282
 20
223.610027
 30
0.0
 40
1.0
 50
0.0
 51
75.0
  0
ARC
  8
LC-002-002-----0
  6
CONTINUOUS
  5
886
 10
193.2282
 20
229.520325
 30
0.0
 40
1.0
 50
285.0
 51
0.0
  0
ARC
  8
LC-002-002-----0
  6
CONTINUOUS
  5
887
 10
193.2282
 20
233.610027
 30
0.0
 40
1.0
 50
0.0
 51
75.0
  0
ARC
  8
LC-002-002-----0
  6
CONTINUOUS
  5
888
 10
193.2282
 20
239.520325
 30
0.0
 40
1.0
 50
285.0
 51
0.0
  0
ARC
  8
LC-002-002-----0
  6
CONTINUOUS
  5
889
 10
193.2282
 20
243.610027
 30
0.0
 40
1.0
 50
0.0
 51
75.0
  0
ARC
  8
LC-002-002-----0
  6
CONTINUOUS
  5
88A
 10
193.2282
 20
249.520325
 30
0.0
 40
1.0
 50
285.0
 51
0.0
  0
ARC
  8
LC-002-002-----0
  6
CONTINUOUS
  5
88B
 10
193.2282
 20
253.610027
 30
0.0
 40
1.0
 50
0.0
 51
75.0
  0
ARC
  8
LC-002-002-----0
  6
CONTINUOUS
  5
88C
 10
193.2282
 20
259.520325
 30
0.0
 40
1.0
 50
285.0
 51
0.0
  0
ARC
  8
LC-002-002-----0
  6
CONTINUOUS
  5
88D
 10
193.2282
 20
263.610027
 30
0.0
 40
1.0
 50
0.0
 51
75.0
  0
ARC
  8
LC-002-002-----0
  6
CONTINUOUS
  5
88E
 10
193.2282
 20
269.520325
 30
0.0
 40
1.0
 50
285.0
 51
0.0
  0
ARC
  8
LC-002-002-----0
  6
CONTINUOUS
  5
88F
 10
193.2282
 20
273.610027
 30
0.0
 40
1.0
 50
0.0
 51
75.0
  0
ARC
  8
LC-002-002-----0
  6
CONTINUOUS
  5
890
 10
193.2282
 20
279.520325
 30
0.0
 40
1.0
 50
285.0
 51
0.0
  0
ARC
  8
LC-002-002-----0
  6
CONTINUOUS
  5
891
 10
193.2282
 20
283.610027
 30
0.0
 40
1.0
 50
0.0
 51
75.0
  0
ARC
  8
LC-002-002-----0
  6
CONTINUOUS
  5
892
 10
193.2282
 20
289.520325
 30
0.0
 40
1.0
 50
285.0
 51
0.0
  0
ARC
  8
LC-002-002-----0
  6
CONTINUOUS
  5
893
 10
193.2282
 20
293.610027
 30
0.0
 40
1.0
 50
0.0
 51
75.0
  0
ARC
  8
LC-002-002-----0
  6
CONTINUOUS
  5
894
 10
193.2282
 20
299.520325
 30
0.0
 40
1.0
 50
285.0
 51
0.0
  0
ARC
  8
LC-002-002-----0
  6
CONTINUOUS
  5
895
 10
193.2282
 20
303.610027
 30
0.0
 40
1.0
 50
0.0
 51
75.0
  0
ARC
  8
LC-002-002-----0
  6
CONTINUOUS
  5
896
 10
193.2282
 20
309.520325
 30
0.0
 40
1.0
 50
285.0
 51
0.0
  0
ARC
  8
LC-002-002-----0
  6
CONTINUOUS
  5
897
 10
193.2282
 20
313.541978
 30
0.0
 40
1.0
 50
0.0
 51
90.0
  0
ARC
  8
LC-002-002-----0
  6
CONTINUOUS
  5
898
 10
390.7282
 20
334.541978
 30
0.0
 40
1.0
 50
90.0
 51
180.0
  0
ARC
  8
LC-002-002-----0
  6
CONTINUOUS
  5
899
 10
387.7282
 20
337.541978
 30
0.0
 40
1.0
 50
90.0
 51
180.0
  0
ARC
  8
LC-002-002-----0
  6
CONTINUOUS
  5
89A
 10
385.7282
 20
318.041978
 30
0.0
 40
1.0
 50
270.0
 51
0.0
  0
ARC
  8
LC-002-002-----0
  6
CONTINUOUS
  5
89B
 10
380.7282
 20
315.041978
 30
0.0
 40
2.0
 50
90.0
 51
180.0
  0
ARC
  8
LC-002-002-----0
  6
CONTINUOUS
  5
89C
 10
383.2282
 20
219.520325
 30
0.0
 40
1.0
 50
180.0
 51
255.0
  0
ARC
  8
LC-002-002-----0
  6
CONTINUOUS
  5
89D
 10
383.2282
 20
223.610027
 30
0.0
 40
1.0
 50
105.0
 51
180.0
  0
ARC
  8
LC-002-002-----0
  6
CONTINUOUS
  5
89E
 10
383.2282
 20
229.520325
 30
0.0
 40
1.0
 50
180.0
 51
255.0
  0
ARC
  8
LC-002-002-----0
  6
CONTINUOUS
  5
89F
 10
383.2282
 20
233.610027
 30
0.0
 40
1.0
 50
105.0
 51
180.0
  0
ARC
  8
LC-002-002-----0
  6
CONTINUOUS
  5
8A0
 10
383.2282
 20
239.520325
 30
0.0
 40
1.0
 50
180.0
 51
255.0
  0
ARC
  8
LC-002-002-----0
  6
CONTINUOUS
  5
8A1
 10
383.2282
 20
243.610027
 30
0.0
 40
1.0
 50
105.0
 51
180.0
  0
ARC
  8
LC-002-002-----0
  6
CONTINUOUS
  5
8A2
 10
383.2282
 20
249.520325
 30
0.0
 40
1.0
 50
180.0
 51
255.0
  0
ARC
  8
LC-002-002-----0
  6
CONTINUOUS
  5
8A3
 10
383.2282
 20
253.610027
 30
0.0
 40
1.0
 50
105.0
 51
180.0
  0
ARC
  8
LC-002-002-----0
  6
CONTINUOUS
  5
8A4
 10
383.2282
 20
259.520325
 30
0.0
 40
1.0
 50
180.0
 51
255.0
  0
ARC
  8
LC-002-002-----0
  6
CONTINUOUS
  5
8A5
 10
383.2282
 20
263.610027
 30
0.0
 40
1.0
 50
105.0
 51
180.0
  0
ARC
  8
LC-002-002-----0
  6
CONTINUOUS
  5
8A6
 10
383.2282
 20
269.520325
 30
0.0
 40
1.0
 50
180.0
 51
255.0
  0
ARC
  8
LC-002-002-----0
  6
CONTINUOUS
  5
8A7
 10
383.2282
 20
273.610027
 30
0.0
 40
1.0
 50
105.0
 51
180.0
  0
ARC
  8
LC-002-002-----0
  6
CONTINUOUS
  5
8A8
 10
383.2282
 20
279.520325
 30
0.0
 40
1.0
 50
180.0
 51
255.0
  0
ARC
  8
LC-002-002-----0
  6
CONTINUOUS
  5
8A9
 10
383.2282
 20
283.610027
 30
0.0
 40
1.0
 50
105.0
 51
180.0
  0
ARC
  8
LC-002-002-----0
  6
CONTINUOUS
  5
8AA
 10
383.2282
 20
289.520325
 30
0.0
 40
1.0
 50
180.0
 51
255.0
  0
ARC
  8
LC-002-002-----0
  6
CONTINUOUS
  5
8AB
 10
383.2282
 20
293.610027
 30
0.0
 40
1.0
 50
105.0
 51
180.0
  0
ARC
  8
LC-002-002-----0
  6
CONTINUOUS
  5
8AC
 10
383.2282
 20
299.520325
 30
0.0
 40
1.0
 50
180.0
 51
255.0
  0
ARC
  8
LC-002-002-----0
  6
CONTINUOUS
  5
8AD
 10
383.2282
 20
303.610027
 30
0.0
 40
1.0
 50
105.0
 51
180.0
  0
ARC
  8
LC-002-002-----0
  6
CONTINUOUS
  5
8AE
 10
383.2282
 20
309.520325
 30
0.0
 40
1.0
 50
180.0
 51
255.0
  0
ARC
  8
LC-002-002-----0
  6
CONTINUOUS
  5
8AF
 10
383.2282
 20
313.541978
 30
0.0
 40
1.0
 50
90.0
 51
180.0
  0
LINE
  8
LC-002-002-----0
  6
CONTINUOUS
  5
8B0
 10
272.20358
 20
325.978303
 30
0.0
 11
226.696946
 21
331.485972
 31
0.0
  0
LINE
  8
LC-002-002-----0
  6
CONTINUOUS
  5
8B1
 10
227.177559
 20
335.456993
 30
0.0
 11
239.340394
 21
333.984925
 31
0.0
  0
LINE
  8
LC-002-002-----0
  6
CONTINUOUS
  5
8B2
 10
226.696946
 20
331.485972
 30
0.0
 11
214.783882
 21
332.92781
 31
0.0
  0
LINE
  8
LC-002-002-----0
  6
CONTINUOUS
  5
8B3
 10
228.050161
 20
334.344084
 30
0.0
 11
227.809855
 21
332.358574
 31
0.0
  0
LINE
  8
LC-002-002-----0
  6
CONTINUOUS
  5
8B4
 10
215.264495
 20
336.898831
 30
0.0
 11
227.177559
 21
335.456993
 31
0.0
  0
LINE
  8
LC-002-002-----0
  6
CONTINUOUS
  5
8B5
 10
213.91128
 20
334.040719
 30
0.0
 11
214.151586
 21
336.026229
 31
0.0
  0
LINE
  8
LC-002-002-----0
  6
DASHED
 62
     2
  5
8B6
 10
287.987894
 20
324.067927
 30
0.0
 11
272.20358
 21
325.978303
 31
0.0
  0
LINE
  8
LC-001-100-D02-0
  6
DASHDOT
 62
     2
  5
8B7
 10
292.6282
 20
326.053438
 30
0.0
 11
283.8282
 21
326.053438
 31
0.0
  0
LINE
  8
LC-001-100-D02-0
  6
DASHDOT
 62
     2
  5
8B8
 10
288.2282
 20
330.453438
 30
0.0
 11
288.2282
 21
321.653438
 31
0.0
  0
LINE
  8
LC-002-002-----0
  6
DASHED
 62
     2
  5
8B9
 10
239.340394
 20
333.984925
 30
0.0
 11
288.468507
 21
328.038948
 31
0.0
  0
ARC
  8
LC-002-002-----0
  6
DASHED
 62
     2
  5
8BA
 10
288.2282
 20
326.053438
 30
0.0
 40
4.0
 50
263.099056
 51
320.379637
  0
ARC
  8
LC-002-002-----0
  6
DASHED
 62
     2
  5
8BB
 10
288.2282
 20
326.053438
 30
0.0
 40
4.0
 50
320.379637
 51
0.0
  0
ARC
  8
LC-002-002-----0
  6
CONTINUOUS
  5
8BC
 10
288.2282
 20
326.053438
 30
0.0
 40
4.0
 50
0.0
 51
263.099056
  0
CIRCLE
  8
LC-002-002-----0
  6
CONTINUOUS
  5
8BD
 10
288.2282
 20
326.053438
 30
0.0
 40
2.0
  0
ARC
  8
LC-002-002-----0
  6
CONTINUOUS
  5
8BE
 10
226.817099
 20
332.478727
 30
0.0
 40
1.0
 50
263.099056
 51
353.099056
  0
ARC
  8
LC-002-002-----0
  6
CONTINUOUS
  5
8BF
 10
227.057406
 20
334.464238
 30
0.0
 40
1.0
 50
353.099056
 51
83.099056
  0
ARC
  8
LC-002-002-----0
  6
CONTINUOUS
  5
8C0
 10
214.904035
 20
333.920565
 30
0.0
 40
1.0
 50
173.099056
 51
263.099056
  0
ARC
  8
LC-002-002-----0
  6
CONTINUOUS
  5
8C1
 10
215.144341
 20
335.906076
 30
0.0
 40
1.0
 50
83.099056
 51
173.099056
  0
CIRCLE
  8
LC-002-002-----0
  6
CONTINUOUS
  5
8C2
 10
384.479123
 20
221.298864
 30
0.0
 40
2.25
  0
CIRCLE
  8
LC-002-002-----0
  6
CONTINUOUS
  5
8C3
 10
191.977278
 20
221.298864
 30
0.0
 40
2.25
  0
LINE
  8
LC-002-002-----0
  6
CONTINUOUS
  5
8C4
 10
389.730941
 20
328.541978
 30
0.0
 11
393.730941
 21
328.541978
 31
0.0
  0
LINE
  8
LC-002-002-----0
  6
CONTINUOUS
  5
8C5
 10
389.730941
 20
316.341978
 30
0.0
 11
393.730941
 21
316.341978
 31
0.0
  0
LINE
  8
LC-002-002-----0
  6
CONTINUOUS
  5
8C6
 10
381.730941
 20
311.341978
 30
0.0
 11
393.730941
 21
311.341978
 31
0.0
  0
LINE
  8
LC-002-002-----0
  6
CONTINUOUS
  5
8C7
 10
396.730941
 20
308.341978
 30
0.0
 11
383.764889
 21
308.341978
 31
0.0
  0
LINE
  8
LC-002-002-----0
  6
CONTINUOUS
  5
8C8
 10
192.694252
 20
308.341978
 30
0.0
 11
179.7282
 21
308.341978
 31
0.0
  0
LINE
  8
LC-002-002-----0
  6
CONTINUOUS
  5
8C9
 10
288.2282
 20
366.541978
 30
0.0
 11
351.22683
 21
366.541978
 31
0.0
  0
LINE
  8
LC-002-002-----0
  6
CONTINUOUS
  5
8CA
 10
417.801797
 20
346.541978
 30
0.0
 11
418.2282
 21
346.541978
 31
0.0
  0
LINE
  8
LC-002-002-----0
  6
CONTINUOUS
  5
8CB
 10
418.2282
 20
346.541978
 30
0.0
 11
418.2282
 21
338.541978
 31
0.0
  0
LINE
  8
LC-002-002-----0
  6
CONTINUOUS
  5
8CC
 10
396.7282
 20
308.341978
 30
0.0
 11
393.7282
 21
311.341978
 31
0.0
  0
LINE
  8
LC-002-002-----0
  6
CONTINUOUS
  5
8CD
 10
396.7282
 20
308.341978
 30
0.0
 11
403.761039
 21
308.341978
 31
0.0
  0
LINE
  8
LC-002-002-----0
  6
CONTINUOUS
  5
8CE
 10
405.760765
 20
310.30887
 30
0.0
 11
406.2282
 21
338.541978
 31
0.0
  0
LINE
  8
LC-002-002-----0
  6
CONTINUOUS
  5
8CF
 10
406.2282
 20
338.541978
 30
0.0
 11
418.2282
 21
338.541978
 31
0.0
  0
LINE
  8
LC-002-002-----0
  6
CONTINUOUS
  5
8D0
 10
416.324585
 20
347.781506
 30
0.0
 11
413.016608
 21
366.541978
 31
0.0
  0
LINE
  8
LC-002-002-----0
  6
CONTINUOUS
  5
8D1
 10
413.016608
 20
366.541978
 30
0.0
 11
402.2282
 21
366.541978
 31
0.0
  0
LINE
  8
LC-002-002-----0
  6
CONTINUOUS
  5
8D2
 10
402.2282
 20
366.541978
 30
0.0
 11
401.748063
 21
348.488805
 31
0.0
  0
LINE
  8
LC-002-002-----0
  6
CONTINUOUS
  5
8D3
 10
399.74877
 20
346.541978
 30
0.0
 11
390.7282
 21
346.541978
 31
0.0
  0
LINE
  8
LC-002-002-----0
  6
CONTINUOUS
  5
8D4
 10
388.7282
 20
344.541978
 30
0.0
 11
388.7282
 21
338.541978
 31
0.0
  0
LINE
  8
LC-002-002-----0
  6
CONTINUOUS
  5
8D5
 10
388.7282
 20
338.541978
 30
0.0
 11
392.2282
 21
338.541978
 31
0.0
  0
LINE
  8
LC-002-002-----0
  6
CONTINUOUS
  5
8D6
 10
393.7282
 20
337.041978
 30
0.0
 11
393.7282
 21
328.541978
 31
0.0
  0
LINE
  8
LC-002-002-----0
  6
CONTINUOUS
  5
8D7
 10
393.7282
 20
328.541978
 30
0.0
 11
397.4782
 21
328.541978
 31
0.0
  0
LINE
  8
LC-002-002-----0
  6
CONTINUOUS
  5
8D8
 10
398.9782
 20
327.041978
 30
0.0
 11
398.9782
 21
317.841978
 31
0.0
  0
LINE
  8
LC-002-002-----0
  6
CONTINUOUS
  5
8D9
 10
397.4782
 20
316.341978
 30
0.0
 11
393.7282
 21
316.341978
 31
0.0
  0
LINE
  8
LC-002-002-----0
  6
CONTINUOUS
  5
8DA
 10
393.7282
 20
316.341978
 30
0.0
 11
393.7282
 21
311.341978
 31
0.0
  0
LINE
  8
LC-002-002-----0
  6
CONTINUOUS
  5
8DB
 10
182.7282
 20
316.341978
 30
0.0
 11
186.7282
 21
316.341978
 31
0.0
  0
LINE
  8
LC-002-002-----0
  6
CONTINUOUS
  5
8DC
 10
182.7282
 20
311.341978
 30
0.0
 11
194.2282
 21
311.341978
 31
0.0
  0
LINE
  8
LC-002-002-----0
  6
CONTINUOUS
  5
8DD
 10
182.7282
 20
328.541978
 30
0.0
 11
186.7282
 21
328.541978
 31
0.0
  0
LINE
  8
LC-002-002-----0
  6
CONTINUOUS
  5
8DE
 10
174.260115
 20
366.541978
 30
0.0
 11
288.2282
 21
366.541978
 31
0.0
  0
LINE
  8
LC-002-002-----0
  6
CONTINUOUS
  5
8DF
 10
158.2282
 20
346.541978
 30
0.0
 11
158.654604
 21
346.541978
 31
0.0
  0
LINE
  8
LC-002-002-----0
  6
CONTINUOUS
  5
8E0
 10
158.2282
 20
338.541978
 30
0.0
 11
158.2282
 21
346.541978
 31
0.0
  0
LINE
  8
LC-002-002-----0
  6
CONTINUOUS
  5
8E1
 10
182.7282
 20
311.341978
 30
0.0
 11
179.7282
 21
308.341978
 31
0.0
  0
LINE
  8
LC-002-002-----0
  6
CONTINUOUS
  5
8E2
 10
172.695362
 20
308.341978
 30
0.0
 11
179.7282
 21
308.341978
 31
0.0
  0
LINE
  8
LC-002-002-----0
  6
CONTINUOUS
  5
8E3
 10
170.2282
 20
338.541978
 30
0.0
 11
170.695636
 21
310.30887
 31
0.0
  0
LINE
  8
LC-002-002-----0
  6
CONTINUOUS
  5
8E4
 10
158.2282
 20
338.541978
 30
0.0
 11
170.2282
 21
338.541978
 31
0.0
  0
LINE
  8
LC-002-002-----0
  6
CONTINUOUS
  5
8E5
 10
163.439793
 20
366.541978
 30
0.0
 11
160.131815
 21
347.781506
 31
0.0
  0
LINE
  8
LC-002-002-----0
  6
CONTINUOUS
  5
8E6
 10
174.2282
 20
366.541978
 30
0.0
 11
163.439793
 21
366.541978
 31
0.0
  0
LINE
  8
LC-002-002-----0
  6
CONTINUOUS
  5
8E7
 10
174.708338
 20
348.488805
 30
0.0
 11
174.2282
 21
366.541978
 31
0.0
  0
LINE
  8
LC-002-002-----0
  6
CONTINUOUS
  5
8E8
 10
185.7282
 20
346.541978
 30
0.0
 11
176.707631
 21
346.541978
 31
0.0
  0
LINE
  8
LC-002-002-----0
  6
CONTINUOUS
  5
8E9
 10
187.7282
 20
338.541978
 30
0.0
 11
187.7282
 21
344.541978
 31
0.0
  0
LINE
  8
LC-002-002-----0
  6
CONTINUOUS
  5
8EA
 10
184.2282
 20
338.541978
 30
0.0
 11
187.7282
 21
338.541978
 31
0.0
  0
LINE
  8
LC-002-002-----0
  6
CONTINUOUS
  5
8EB
 10
182.7282
 20
328.541978
 30
0.0
 11
182.7282
 21
337.041978
 31
0.0
  0
LINE
  8
LC-002-002-----0
  6
CONTINUOUS
  5
8EC
 10
178.9782
 20
328.541978
 30
0.0
 11
182.7282
 21
328.541978
 31
0.0
  0
LINE
  8
LC-002-002-----0
  6
CONTINUOUS
  5
8ED
 10
177.4782
 20
317.841978
 30
0.0
 11
177.4782
 21
327.041978
 31
0.0
  0
LINE
  8
LC-002-002-----0
  6
CONTINUOUS
  5
8EE
 10
182.7282
 20
316.341978
 30
0.0
 11
178.9782
 21
316.341978
 31
0.0
  0
LINE
  8
LC-002-002-----0
  6
CONTINUOUS
  5
8EF
 10
182.7282
 20
311.341978
 30
0.0
 11
182.7282
 21
316.341978
 31
0.0
  0
ARC
  8
LC-002-002-----0
  6
CONTINUOUS
  5
8F0
 10
403.761039
 20
310.341978
 30
0.0
 40
2.0
 50
270.0
 51
359.051481
  0
ARC
  8
LC-002-002-----0
  6
CONTINUOUS
  5
8F1
 10
390.7282
 20
344.541978
 30
0.0
 40
2.0
 50
90.0
 51
180.0
  0
ARC
  8
LC-002-002-----0
  6
CONTINUOUS
  5
8F2
 10
392.2282
 20
337.041978
 30
0.0
 40
1.5
 50
0.0
 51
90.0
  0
ARC
  8
LC-002-002-----0
  6
CONTINUOUS
  5
8F3
 10
397.4782
 20
317.841978
 30
0.0
 40
1.5
 50
270.0
 51
0.0
  0
ARC
  8
LC-002-002-----0
  6
CONTINUOUS
  5
8F4
 10
397.4782
 20
327.041978
 30
0.0
 40
1.5
 50
0.0
 51
90.0
  0
ARC
  8
LC-002-002-----0
  6
CONTINUOUS
  5
8F5
 10
417.801797
 20
348.041978
 30
0.0
 40
1.5
 50
190.0
 51
270.0
  0
ARC
  8
LC-002-002-----0
  6
CONTINUOUS
  5
8F6
 10
399.74877
 20
348.541978
 30
0.0
 40
2.0
 50
270.0
 51
358.476535
  0
ARC
  8
LC-002-002-----0
  6
CONTINUOUS
  5
8F7
 10
172.695362
 20
310.341978
 30
0.0
 40
2.0
 50
180.948519
 51
270.0
  0
ARC
  8
LC-002-002-----0
  6
CONTINUOUS
  5
8F8
 10
185.7282
 20
344.541978
 30
0.0
 40
2.0
 50
0.0
 51
90.0
  0
ARC
  8
LC-002-002-----0
  6
CONTINUOUS
  5
8F9
 10
184.2282
 20
337.041978
 30
0.0
 40
1.5
 50
90.0
 51
180.0
  0
ARC
  8
LC-002-002-----0
  6
CONTINUOUS
  5
8FA
 10
178.9782
 20
317.841978
 30
0.0
 40
1.5
 50
180.0
 51
270.0
  0
ARC
  8
LC-002-002-----0
  6
CONTINUOUS
  5
8FB
 10
178.9782
 20
327.041978
 30
0.0
 40
1.5
 50
90.0
 51
180.0
  0
ARC
  8
LC-002-002-----0
  6
CONTINUOUS
  5
8FC
 10
158.654604
 20
348.041978
 30
0.0
 40
1.5
 50
270.0
 51
350.0
  0
ARC
  8
LC-002-002-----0
  6
CONTINUOUS
  5
8FD
 10
176.707631
 20
348.541978
 30
0.0
 40
2.0
 50
181.523465
 51
270.0
  0
LINE
  8
LC-002-002-----0
  6
CONTINUOUS
  5
8FE
 10
179.4782
 20
328.541978
 30
0.0
 11
183.2282
 21
328.541978
 31
0.0
  0
LINE
  8
LC-002-002-----0
  6
CONTINUOUS
  5
8FF
 10
177.4782
 20
318.341978
 30
0.0
 11
177.4782
 21
326.541978
 31
0.0
  0
LINE
  8
LC-002-002-----0
  6
CONTINUOUS
  5
900
 10
183.2282
 20
316.341978
 30
0.0
 11
179.4782
 21
316.341978
 31
0.0
  0
LINE
  8
LC-002-002-----0
  6
CONTINUOUS
  5
901
 10
186.7282
 20
322.404156
 30
0.0
 11
183.2282
 21
321.466334
 31
0.0
  0
LINE
  8
LC-002-002-----0
  6
CONTINUOUS
  5
902
 10
183.2282
 20
328.541978
 30
0.0
 11
183.2282
 21
321.466334
 31
0.0
  0
LINE
  8
LC-002-002-----0
  6
CONTINUOUS
  5
903
 10
183.2282
 20
316.341978
 30
0.0
 11
186.7282
 21
322.404156
 31
0.0
  0
LINE
  8
LC-002-002-----0
  6
CONTINUOUS
  5
904
 10
393.2282
 20
328.541978
 30
0.0
 11
396.9782
 21
328.541978
 31
0.0
  0
LINE
  8
LC-002-002-----0
  6
CONTINUOUS
  5
905
 10
398.9782
 20
326.541978
 30
0.0
 11
398.9782
 21
318.341978
 31
0.0
  0
LINE
  8
LC-002-002-----0
  6
CONTINUOUS
  5
906
 10
396.9782
 20
316.341978
 30
0.0
 11
393.2282
 21
316.341978
 31
0.0
  0
LINE
  8
LC-002-002-----0
  6
CONTINUOUS
  5
907
 10
393.2282
 20
321.466334
 30
0.0
 11
389.7282
 21
322.404156
 31
0.0
  0
LINE
  8
LC-002-002-----0
  6
CONTINUOUS
  5
908
 10
393.2282
 20
321.466334
 30
0.0
 11
393.2282
 21
328.541978
 31
0.0
  0
LINE
  8
LC-002-002-----0
  6
CONTINUOUS
  5
909
 10
389.7282
 20
322.404156
 30
0.0
 11
393.2282
 21
316.341978
 31
0.0
  0
ARC
  8
LC-002-002-----0
  6
CONTINUOUS
  5
90A
 10
179.4782
 20
326.541978
 30
0.0
 40
2.0
 50
90.0
 51
180.0
  0
ARC
  8
LC-002-002-----0
  6
CONTINUOUS
  5
90B
 10
179.4782
 20
318.341978
 30
0.0
 40
2.0
 50
180.0
 51
270.0
  0
ARC
  8
LC-002-002-----0
  6
CONTINUOUS
  5
90C
 10
396.9782
 20
326.541978
 30
0.0
 40
2.0
 50
0.0
 51
90.0
  0
ARC
  8
LC-002-002-----0
  6
CONTINUOUS
  5
90D
 10
396.9782
 20
318.341978
 30
0.0
 40
2.0
 50
270.0
 51
0.0
  0
ARC
  8
LC-002-002-----0
  6
CONTINUOUS
  5
90E
 10
371.5282
 20
172.343379
 30
0.0
 40
2.0
 50
270.0
 51
90.0
  0
ARC
  8
LC-002-002-----0
  6
CONTINUOUS
  5
90F
 10
204.9282
 20
172.343379
 30
0.0
 40
2.0
 50
90.0
 51
270.0
  0
ARC
  8
LC-002-002-----0
  6
CONTINUOUS
  5
910
 10
371.5282
 20
172.343379
 30
0.0
 40
2.0
 50
90.0
 51
270.0
  0
ARC
  8
LC-002-002-----0
  6
CONTINUOUS
  5
911
 10
204.9282
 20
172.343379
 30
0.0
 40
2.0
 50
270.0
 51
90.0
  0
LINE
  8
LC-002-002-----0
  6
CONTINUOUS
  5
912
 10
308.880039
 20
64.903817
 30
0.0
 11
222.249896
 21
88.116294
 31
0.0
  0
LINE
  8
LC-002-002-----0
  6
CONTINUOUS
  5
913
 10
376.2282
 20
182.343379
 30
0.0
 11
370.7282
 21
182.343379
 31
0.0
  0
LINE
  8
LC-002-002-----0
  6
CONTINUOUS
  5
914
 10
376.2282
 20
179.343379
 30
0.0
 11
372.2282
 21
179.343379
 31
0.0
  0
LINE
  8
LC-002-002-----0
  6
CONTINUOUS
  5
915
 10
376.2282
 20
179.343379
 30
0.0
 11
376.2282
 21
182.343379
 31
0.0
  0
LINE
  8
LC-002-002-----0
  6
CONTINUOUS
  5
916
 10
368.996963
 20
166.560683
 30
0.0
 11
372.2282
 21
166.843379
 31
0.0
  0
LINE
  8
LC-002-002-----0
  6
CONTINUOUS
  5
917
 10
366.9782
 20
176.178316
 30
0.0
 11
370.7282
 21
178.343379
 31
0.0
  0
LINE
  8
LC-002-002-----0
  6
CONTINUOUS
  5
918
 10
209.4782
 20
176.178316
 30
0.0
 11
205.7282
 21
178.343379
 31
0.0
  0
LINE
  8
LC-002-002-----0
  6
CONTINUOUS
  5
919
 10
205.7282
 20
178.343379
 30
0.0
 11
351.164252
 21
178.343379
 31
0.0
  0
LINE
  8
LC-002-002-----0
  6
CONTINUOUS
  5
91A
 10
363.39673
 20
168.413322
 30
0.0
 11
209.4782
 21
168.413322
 31
0.0
  0
LINE
  8
LC-002-002-----0
  6
CONTINUOUS
  5
91B
 10
207.4282
 20
173.209405
 30
0.0
 11
207.4282
 21
174.485942
 31
0.0
  0
LINE
  8
LC-002-002-----0
  6
CONTINUOUS
  5
91C
 10
207.4282
 20
174.485942
 30
0.0
 11
204.2282
 21
175.343379
 31
0.0
  0
LINE
  8
LC-002-002-----0
  6
CONTINUOUS
  5
91D
 10
207.4282
 20
170.200817
 30
0.0
 11
204.2282
 21
169.343379
 31
0.0
  0
LINE
  8
LC-002-002-----0
  6
CONTINUOUS
  5
91E
 10
207.4282
 20
171.477354
 30
0.0
 11
207.4282
 21
170.200817
 31
0.0
  0
LINE
  8
LC-002-002-----0
  6
CONTINUOUS
  5
91F
 10
366.9782
 20
168.72666
 30
0.0
 11
366.9782
 21
176.178316
 31
0.0
  0
LINE
  8
LC-002-002-----0
  6
CONTINUOUS
  5
920
 10
209.4782
 20
168.413322
 30
0.0
 11
209.4782
 21
176.178316
 31
0.0
  0
LINE
  8
LC-002-002-----0
  6
CONTINUOUS
  5
921
 10
369.0282
 20
174.485942
 30
0.0
 11
372.2282
 21
175.343379
 31
0.0
  0
LINE
  8
LC-002-002-----0
  6
CONTINUOUS
  5
922
 10
369.0282
 20
170.200817
 30
0.0
 11
372.2282
 21
169.343379
 31
0.0
  0
LINE
  8
LC-002-002-----0
  6
CONTINUOUS
  5
923
 10
372.2282
 20
175.343379
 30
0.0
 11
372.2282
 21
179.343379
 31
0.0
  0
LINE
  8
LC-002-002-----0
  6
CONTINUOUS
  5
924
 10
372.2282
 20
169.343379
 30
0.0
 11
372.2282
 21
166.843379
 31
0.0
  0
LINE
  8
LC-002-002-----0
  6
CONTINUOUS
  5
925
 10
369.0282
 20
173.209405
 30
0.0
 11
369.0282
 21
174.485942
 31
0.0
  0
LINE
  8
LC-002-002-----0
  6
CONTINUOUS
  5
926
 10
369.0282
 20
171.477354
 30
0.0
 11
369.0282
 21
170.200817
 31
0.0
  0
LINE
  8
LC-002-002-----0
  6
CONTINUOUS
  5
927
 10
204.2282
 20
175.343379
 30
0.0
 11
204.2282
 21
179.343379
 31
0.0
  0
LINE
  8
LC-002-002-----0
  6
CONTINUOUS
  5
928
 10
204.2282
 20
179.343379
 30
0.0
 11
200.2282
 21
179.343379
 31
0.0
  0
LINE
  8
LC-002-002-----0
  6
CONTINUOUS
  5
929
 10
205.7282
 20
182.343379
 30
0.0
 11
200.2282
 21
182.343379
 31
0.0
  0
LINE
  8
LC-002-002-----0
  6
CONTINUOUS
  5
92A
 10
368.477575
 20
166.348289
 30
0.0
 11
286.295225
 21
159.158265
 31
0.0
  0
LINE
  8
LC-002-002-----0
  6
CONTINUOUS
  5
92B
 10
363.39673
 20
168.413322
 30
0.0
 11
286.077336
 21
161.648752
 31
0.0
  0
LINE
  8
LC-002-002-----0
  6
CONTINUOUS
  5
92C
 10
205.7282
 20
182.343379
 30
0.0
 11
205.7282
 21
178.343379
 31
0.0
  0
LINE
  8
LC-002-002-----0
  6
CONTINUOUS
  5
92D
 10
366.9782
 20
168.72666
 30
0.0
 11
363.39673
 21
168.413322
 31
0.0
  0
LINE
  8
LC-002-002-----0
  6
CONTINUOUS
  5
92E
 10
205.7282
 20
182.343379
 30
0.0
 11
220.559597
 21
182.343379
 31
0.0
  0
LINE
  8
LC-002-002-----0
  6
CONTINUOUS
  5
92F
 10
281.901375
 20
155.471387
 30
0.0
 11
280.425398
 21
149.962968
 31
0.0
  0
LINE
  8
LC-002-002-----0
  6
CONTINUOUS
  5
930
 10
277.157457
 20
147.426104
 30
0.0
 11
275.216315
 21
140.181661
 31
0.0
  0
LINE
  8
LC-002-002-----0
  6
CONTINUOUS
  5
931
 10
263.173165
 20
95.236013
 30
0.0
 11
264.267147
 21
99.31881
 31
0.0
  0
LINE
  8
LC-002-002-----0
  6
CONTINUOUS
  5
932
 10
264.267147
 20
99.31881
 30
0.0
 11
264.705059
 21
100.95312
 31
0.0
  0
LINE
  8
LC-002-002-----0
  6
CONTINUOUS
  5
933
 10
275.216315
 20
140.181661
 30
0.0
 11
264.705059
 21
100.95312
 31
0.0
  0
LINE
  8
LC-002-002-----0
  6
CONTINUOUS
  5
934
 10
261.912489
 20
90.531109
 30
0.0
 11
263.173165
 21
95.236013
 31
0.0
  0
LINE
  8
LC-002-002-----0
  6
CONTINUOUS
  5
935
 10
259.298943
 20
80.777222
 30
0.0
 11
261.912489
 21
90.531109
 31
0.0
  0
LINE
  8
LC-002-002-----0
  6
CONTINUOUS
  5
936
 10
259.298943
 20
80.777222
 30
0.0
 11
222.896943
 21
90.531109
 31
0.0
  0
LINE
  8
LC-001-100-D02-0
  6
CONTINUOUS
  5
937
 10
280.425398
 20
149.962968
 30
0.0
 11
280.21932
 21
149.193871
 31
0.0
  0
LINE
  8
LC-002-002-----0
  6
CONTINUOUS
  5
938
 10
280.425398
 20
149.962968
 30
0.0
 11
285.585287
 21
151.841014
 31
0.0
  0
LINE
  8
LC-002-002-----0
  6
CONTINUOUS
  5
939
 10
286.76451
 20
147.440093
 30
0.0
 11
280.21932
 21
149.193871
 31
0.0
  0
LINE
  8
LC-002-002-----0
  6
CONTINUOUS
  5
93A
 10
277.157457
 20
147.426104
 30
0.0
 11
287.511657
 21
144.651705
 31
0.0
  0
LINE
  8
LC-002-002-----0
  6
CONTINUOUS
  5
93B
 10
261.912489
 20
90.531109
 30
0.0
 11
222.896943
 21
90.531109
 31
0.0
  0
LINE
  8
LC-002-002-----0
  6
CONTINUOUS
  5
93C
 10
275.216315
 20
140.181661
 30
0.0
 11
289.753095
 21
136.286542
 31
0.0
  0
LINE
  8
LC-002-002-----0
  6
CONTINUOUS
  5
93D
 10
264.267147
 20
99.31881
 30
0.0
 11
215.523187
 21
99.31881
 31
0.0
  0
LINE
  8
LC-002-002-----0
  6
CONTINUOUS
  5
93E
 10
279.48656
 20
156.118434
 30
0.0
 11
277.157457
 21
147.426104
 31
0.0
  0
LINE
  8
LC-002-002-----0
  6
CONTINUOUS
  5
93F
 10
213.0327
 20
99.10092
 30
0.0
 11
207.1282
 21
166.589662
 31
0.0
  0
LINE
  8
LC-002-002-----0
  6
CONTINUOUS
  5
940
 10
308.132892
 20
67.692205
 30
0.0
 11
259.298943
 21
80.777222
 31
0.0
  0
LINE
  8
LC-002-002-----0
  6
CONTINUOUS
  5
941
 10
308.880039
 20
64.903817
 30
0.0
 11
308.132892
 21
67.692205
 31
0.0
  0
LINE
  8
LC-002-002-----0
  6
CONTINUOUS
  5
942
 10
308.132892
 20
67.692205
 30
0.0
 11
303.659327
 21
84.387779
 31
0.0
  0
LINE
  8
LC-002-002-----0
  6
CONTINUOUS
  5
943
 10
303.659327
 20
84.387779
 30
0.0
 11
301.890448
 21
90.989325
 31
0.0
  0
LINE
  8
LC-002-002-----0
  6
CONTINUOUS
  5
944
 10
289.753095
 20
136.286542
 30
0.0
 11
287.511657
 21
144.651705
 31
0.0
  0
LINE
  8
LC-002-002-----0
  6
CONTINUOUS
  5
945
 10
287.511657
 20
144.651705
 30
0.0
 11
286.76451
 21
147.440093
 31
0.0
  0
LINE
  8
LC-002-002-----0
  6
CONTINUOUS
  5
946
 10
301.890448
 20
90.989325
 30
0.0
 11
264.705059
 21
100.95312
 31
0.0
  0
LINE
  8
LC-002-002-----0
  6
CONTINUOUS
  5
947
 10
303.659327
 20
84.387779
 30
0.0
 11
263.173165
 21
95.236013
 31
0.0
  0
LINE
  8
LC-002-002-----0
  6
CONTINUOUS
  5
948
 10
293.237537
 20
156.058412
 30
0.0
 11
290.437338
 21
156.808723
 31
0.0
  0
LINE
  8
LC-002-002-----0
  6
CONTINUOUS
  5
949
 10
207.1282
 20
166.589662
 30
0.0
 11
204.2282
 21
166.843379
 31
0.0
  0
LINE
  8
LC-002-002-----0
  6
CONTINUOUS
  5
94A
 10
215.523187
 20
99.31881
 30
0.0
 11
209.4782
 21
168.413322
 31
0.0
  0
LINE
  8
LC-002-002-----0
  6
CONTINUOUS
  5
94B
 10
204.2282
 20
169.343379
 30
0.0
 11
204.2282
 21
166.843379
 31
0.0
  0
LINE
  8
LC-002-002-----0
  6
CONTINUOUS
  5
94C
 10
370.7282
 20
182.343379
 30
0.0
 11
370.7282
 21
178.343379
 31
0.0
  0
LINE
  8
LC-002-002-----0
  6
CONTINUOUS
  5
94D
 10
200.2282
 20
179.343379
 30
0.0
 11
200.2282
 21
182.343379
 31
0.0
  0
LINE
  8
LC-002-002-----0
  6
CONTINUOUS
  5
94E
 10
263.863289
 20
176.178316
 30
0.0
 11
209.4782
 21
176.178316
 31
0.0
  0
LINE
  8
LC-002-002-----0
  6
CONTINUOUS
  5
94F
 10
220.559597
 20
182.343379
 30
0.0
 11
370.7282
 21
182.343379
 31
0.0
  0
LINE
  8
LC-002-002-----0
  6
CONTINUOUS
  5
950
 10
351.164252
 20
178.343379
 30
0.0
 11
370.7282
 21
178.343379
 31
0.0
  0
LINE
  8
LC-002-002-----0
  6
CONTINUOUS
  5
951
 10
366.9782
 20
176.178316
 30
0.0
 11
263.863289
 21
176.178316
 31
0.0
  0
ARC
  8
LC-002-002-----0
  6
CONTINUOUS
  5
952
 10
207.9282
 20
172.343379
 30
0.0
 40
1.0
 50
120.0
 51
240.0
  0
ARC
  8
LC-002-002-----0
  6
CONTINUOUS
  5
953
 10
368.5282
 20
172.343379
 30
0.0
 40
1.0
 50
300.0
 51
60.0
  0
ARC
  8
LC-002-002-----0
  6
CONTINUOUS
  5
954
 10
286.731004
 20
154.177292
 30
0.0
 40
7.5
 50
95.0
 51
165.0
  0
ARC
  8
LC-002-002-----0
  6
CONTINUOUS
  5
955
 10
286.731004
 20
154.177292
 30
0.0
 40
5.0
 50
95.0
 51
165.0
  0
ARC
  8
LC-002-002-----0
  6
CONTINUOUS
  5
956
 10
225.485134
 20
100.190367
 30
0.0
 40
10.0
 50
185.0
 51
255.0
  0
ARC
  8
LC-002-002-----0
  6
CONTINUOUS
  5
957
 10
225.485134
 20
100.190367
 30
0.0
 40
12.5
 50
185.0
 51
255.0
  0
ARC
  8
LC-002-002-----0
  6
CONTINUOUS
  5
958
 10
283.255798
 20
156.662459
 30
0.0
 40
10.0
 50
308.592133
 51
356.536959
  0
ARC
  8
LC-002-002-----0
  6
CONTINUOUS
  5
959
 10
285.446468
 20
157.110747
 30
0.0
 40
5.0
 50
305.73439
 51
356.536959
  0
ARC
  8
LC-001-100-D02-0
  6
CONTINUOUS
  5
95A
 10
368.315819
 20
167.424327
 30
0.0
 40
1.099927
 50
304.273232
 51
308.262355
  0
ARC
  8
LC-001-100-D02-0
  6
CONTINUOUS
  5
95B
 10
368.323123
 20
167.418437
 30
0.0
 40
1.090949
 50
300.657401
 51
304.130418
  0
LINE
  8
LC-001-100-D02-0
  6
CONTINUOUS
  5
95C
 10
368.879402
 20
166.479968
 30
0.0
 11
368.837893
 21
166.456717
 31
0.0
  0
ARC
  8
LC-001-100-D02-0
  6
CONTINUOUS
  5
95D
 10
368.367818
 20
167.343085
 30
0.0
 40
1.003304
 50
292.510952
 51
297.938704
  0
LINE
  8
LC-001-100-D02-0
  6
CONTINUOUS
  5
95E
 10
368.751943
 20
166.416227
 30
0.0
 11
368.711217
 21
166.40042
 31
0.0
  0
ARC
  8
LC-002-002-----0
  6
CONTINUOUS
  5
95F
 10
368.397021
 20
167.261486
 30
0.0
 40
0.9166
 50
283.910926
 51
290.046628
  0
LINE
  8
LC-001-100-D02-0
  6
CONTINUOUS
  5
960
 10
368.617384
 20
166.37177
 30
0.0
 11
368.574482
 21
166.362159
 31
0.0
  0
ARC
  8
LC-001-100-D02-0
  6
CONTINUOUS
  5
961
 10
368.403047
 20
167.214492
 30
0.0
 40
0.869403
 50
274.917608
 51
281.372562
  0
LINE
  8
LC-002-002-----0
  6
CONTINUOUS
  5
962
 10
283.971493
 20
151.68185
 30
0.0
 11
283.350327
 21
154.000072
 31
0.0
  0
LINE
  8
LC-002-002-----0
  6
CONTINUOUS
  5
963
 10
283.971493
 20
151.68185
 30
0.0
 11
285.516974
 21
152.095961
 31
0.0
  0
LINE
  8
LC-002-002-----0
  6
CONTINUOUS
  5
964
 10
288.155933
 20
153.838344
 30
0.0
 11
289.450028
 21
149.008715
 31
0.0
  0
LINE
  8
LC-002-002-----0
  6
CONTINUOUS
  5
965
 10
289.450028
 20
149.008715
 30
0.0
 11
286.55225
 21
148.232257
 31
0.0
  0
LINE
  8
LC-001-100-D02-0
  6
CONTINUOUS
  5
966
 10
308.880039
 20
64.903817
 30
0.0
 11
308.132892
 21
67.692205
 31
0.0
  0
LINE
  8
LC-001-100-D02-0
  6
CONTINUOUS
  5
967
 10
308.132892
 20
67.692205
 30
0.0
 11
303.659327
 21
84.387779
 31
0.0
  0
LINE
  8
LC-001-100-D02-0
  6
CONTINUOUS
  5
968
 10
303.659327
 20
84.387779
 30
0.0
 11
301.890448
 21
90.989325
 31
0.0
  0
LINE
  8
LC-002-002-----0
  6
CONTINUOUS
  5
969
 10
301.890448
 20
90.989325
 30
0.0
 11
289.753095
 21
136.286542
 31
0.0
  0
LINE
  8
LC-001-100-D02-0
  6
CONTINUOUS
  5
96A
 10
289.753095
 20
136.286542
 30
0.0
 11
287.511657
 21
144.651705
 31
0.0
  0
LINE
  8
LC-002-002-----0
  6
CONTINUOUS
  5
96B
 10
309.328326
 20
63.230785
 30
0.0
 11
308.880039
 21
64.903817
 31
0.0
  0
LINE
  8
LC-001-100-D02-0
  6
CONTINUOUS
  5
96C
 10
287.511657
 20
144.651705
 30
0.0
 11
286.76451
 21
147.440093
 31
0.0
  0
LINE
  8
LC-002-002-----0
  6
CONTINUOUS
  5
96D
 10
286.76451
 20
147.440093
 30
0.0
 11
286.55225
 21
148.232257
 31
0.0
  0
LINE
  8
LC-002-002-----0
  6
CONTINUOUS
  5
96E
 10
309.328326
 20
63.230785
 30
0.0
 11
312.226104
 21
64.007242
 31
0.0
  0
LINE
  8
LC-002-002-----0
  6
CONTINUOUS
  5
96F
 10
312.226104
 20
64.007242
 30
0.0
 11
289.450028
 21
149.008715
 31
0.0
  0
LINE
  8
LC-002-002-----0
  6
CONTINUOUS
  5
970
 10
286.55225
 20
148.232257
 30
0.0
 11
285.516974
 21
152.095961
 31
0.0
  0
ARC
  8
LC-002-002-----0
  6
CONTINUOUS
  5
971
 10
284.895808
 20
154.414183
 30
0.0
 40
1.6
 50
105.0
 51
195.0
  0
ARC
  8
LC-002-002-----0
  6
CONTINUOUS
  5
972
 10
285.258155
 20
153.061887
 30
0.0
 40
3.0
 50
15.0
 51
105.0
  0
LINE
  8
LC-003-100-D00-0
  6
CONTINUOUS
 62
     3
  5
973
 10
209.4782
 20
175.921177
 30
0.0
 11
208.869804
 21
176.529573
 31
0.0
  0
LINE
  8
LC-002-002-----0
  6
DASHDOT
 62
     2
  5
974
 10
355.681794
 20
105.343379
 30
0.0
 11
458.2282
 21
105.343379
 31
0.0
  0
LINE
  8
LC-002-002-----0
  6
CONTINUOUS
  5
975
 10
355.7282
 20
292.735378
 30
0.0
 11
358.046259
 21
295.053438
 31
0.0
  0
LINE
  8
LC-002-002-----0
  6
CONTINUOUS
  5
976
 10
364.081936
 20
329.620392
 30
0.0
 11
361.004887
 21
294.449562
 31
0.0
  0
LINE
  8
LC-003-100-D00-0
  6
CONTINUOUS
 62
     7
  5
977
 10
364.081936
 20
329.620392
 30
0.0
 11
361.004887
 21
294.449562
 31
0.0
  0
LINE
  8
LC-002-002-----0
  6
CONTINUOUS
  5
978
 10
220.7282
 20
292.735378
 30
0.0
 11
218.410141
 21
295.053438
 31
0.0
  0
LINE
  8
LC-002-002-----0
  6
CONTINUOUS
  5
979
 10
378.407824
 20
210.343379
 30
0.0
 11
289.726066
 21
210.343379
 31
0.0
  0
LINE
  8
LC-002-002-----0
  6
CONTINUOUS
  5
97A
 10
198.048576
 20
210.343379
 30
0.0
 11
286.730334
 21
210.343379
 31
0.0
  0
LINE
  8
LC-002-002-----0
  6
DASHDOT
 62
     2
  5
97B
 10
288.2282
 20
57.99036
 30
0.0
 11
288.2282
 21
366.541978
 31
0.0
  0
ARC
  8
LC-002-002-----0
  6
CONTINUOUS
  5
97C
 10
385.223346
 20
212.343379
 30
0.0
 40
6.0
 50
270.0
 51
0.0
  0
LINE
  8
LC-002-002-----0
  6
CONTINUOUS
  5
97D
 10
388.208397
 20
239.843379
 30
0.0
 11
382.2282
 21
239.843379
 31
0.0
  0
LINE
  8
LC-004-005-----0
  6
CONTINUOUS
  5
97E
 10
175.405903
 20
308.341978
 30
0.0
 11
182.7282
 21
315.664275
 31
0.0
  0
LINE
  8
LC-004-005-----0
  6
CONTINUOUS
  5
97F
 10
172.580762
 20
308.345264
 30
0.0
 11
180.577476
 21
316.341978
 31
0.0
  0
LINE
  8
LC-004-005-----0
  6
CONTINUOUS
  5
980
 10
170.666188
 20
312.087544
 30
0.0
 11
177.4782
 21
318.899557
 31
0.0
  0
LINE
  8
LC-004-005-----0
  6
CONTINUOUS
  5
981
 10
170.620122
 20
314.869905
 30
0.0
 11
177.4782
 21
321.727984
 31
0.0
  0
LINE
  8
LC-004-005-----0
  6
CONTINUOUS
  5
982
 10
170.527991
 20
320.434628
 30
0.0
 11
177.531445
 21
327.438082
 31
0.0
  0
LINE
  8
LC-004-005-----0
  6
CONTINUOUS
  5
983
 10
178.582096
 20
328.488733
 30
0.0
 11
182.7282
 21
332.634838
 31
0.0
  0
LINE
  8
LC-004-005-----0
  6
CONTINUOUS
  5
984
 10
170.481925
 20
323.21699
 30
0.0
 11
182.7282
 21
335.463265
 31
0.0
  0
LINE
  8
LC-004-005-----0
  6
CONTINUOUS
  5
985
 10
185.806913
 20
338.541978
 30
0.0
 11
187.7282
 21
340.463265
 31
0.0
  0
LINE
  8
LC-004-005-----0
  6
CONTINUOUS
  5
986
 10
170.389794
 20
328.781713
 30
0.0
 11
187.337525
 21
345.729444
 31
0.0
  0
LINE
  8
LC-004-005-----0
  6
CONTINUOUS
  5
987
 10
170.343728
 20
331.564075
 30
0.0
 11
185.321632
 21
346.541978
 31
0.0
  0
LINE
  8
LC-004-005-----0
  6
CONTINUOUS
  5
988
 10
170.251597
 20
337.128798
 30
0.0
 11
179.664778
 21
346.541978
 31
0.0
  0
LINE
  8
LC-004-005-----0
  6
CONTINUOUS
  5
989
 10
168.836351
 20
338.541978
 30
0.0
 11
176.836351
 21
346.541978
 31
0.0
  0
LINE
  8
LC-004-005-----0
  6
CONTINUOUS
  5
98A
 10
163.179496
 20
338.541978
 30
0.0
 11
174.667353
 21
350.029835
 31
0.0
  0
LINE
  8
LC-004-005-----0
  6
CONTINUOUS
  5
98B
 10
160.351069
 20
338.541978
 30
0.0
 11
174.594078
 21
352.784987
 31
0.0
  0
LINE
  8
LC-004-005-----0
  6
CONTINUOUS
  5
98C
 10
158.2282
 20
342.075963
 30
0.0
 11
174.447527
 21
358.29529
 31
0.0
  0
LINE
  8
LC-004-005-----0
  6
CONTINUOUS
  5
98D
 10
158.2282
 20
344.904391
 30
0.0
 11
174.374252
 21
361.050442
 31
0.0
  0
LINE
  8
LC-004-005-----0
  6
CONTINUOUS
  5
98E
 10
161.1344
 20
353.467444
 30
0.0
 11
174.208934
 21
366.541978
 31
0.0
  0
LINE
  8
LC-004-005-----0
  6
CONTINUOUS
  5
98F
 10
161.739892
 20
356.901364
 30
0.0
 11
171.380506
 21
366.541978
 31
0.0
  0
LINE
  8
LC-004-005-----0
  6
CONTINUOUS
  5
990
 10
162.950878
 20
363.769204
 30
0.0
 11
165.723652
 21
366.541978
 31
0.0
  0
LINE
  8
LC-002-002-----0
  6
CONTINUOUS
  5
991
 10
407.447107
 20
209.562286
 30
0.0
 11
431.2282
 21
233.343379
 31
0.0
  0
LINE
  8
LC-002-002-----0
  6
CONTINUOUS
 62
     2
  5
992
 10
244.814762
 20
441.185562
 30
0.0
 11
259.814762
 21
441.185562
 31
0.0
  0
LINE
  8
LC-002-002-----0
  6
CONTINUOUS
 62
     2
  5
993
 10
259.814762
 20
441.185562
 30
0.0
 11
259.814762
 21
456.185562
 31
0.0
  0
LINE
  8
LC-002-002-----0
  6
CONTINUOUS
 62
     2
  5
994
 10
244.814762
 20
456.185562
 30
0.0
 11
259.814762
 21
456.185562
 31
0.0
  0
LINE
  8
LC-002-002-----0
  6
CONTINUOUS
 62
     2
  5
995
 10
244.814762
 20
441.185562
 30
0.0
 11
244.814762
 21
456.185562
 31
0.0
  0
LINE
  8
LC-002-002-----0
  6
CONTINUOUS
 62
     2
  5
996
 10
244.814762
 20
405.185562
 30
0.0
 11
259.814762
 21
405.185562
 31
0.0
  0
LINE
  8
LC-002-002-----0
  6
CONTINUOUS
 62
     2
  5
997
 10
259.814762
 20
405.185562
 30
0.0
 11
259.814762
 21
420.185562
 31
0.0
  0
LINE
  8
LC-002-002-----0
  6
CONTINUOUS
 62
     2
  5
998
 10
244.814762
 20
420.185562
 30
0.0
 11
259.814762
 21
420.185562
 31
0.0
  0
LINE
  8
LC-002-002-----0
  6
CONTINUOUS
 62
     2
  5
999
 10
244.814762
 20
405.185562
 30
0.0
 11
244.814762
 21
420.185562
 31
0.0
  0
ENDSEC
  0
EOF
