  0
SECTION
  2
HEADER
  9
$ACADVER
  1
AC1009
  9
$INSBASE
 10
-123.0
 20
-87.0
 30
0.0
  9
$EXTMIN
 10
-123.0
 20
-87.0
 30
0.0
  9
$EXTMAX
 10
717.0
 20
507.0
 30
0.0
  9
$LIMMIN
 10
-123.0
 20
-87.0
  9
$LIMMAX
 10
717.0
 20
507.0
  9
$ORTHOMODE
 70
     0
  9
$REGENMODE
 70
     1
  9
$FILLMODE
 70
     1
  9
$QTEXTMODE
 70
     0
  9
$MIRRTEXT
 70
     1
  9
$DRAGMODE
 70
     2
  9
$LTSCALE
 40
2.0
  9
$OSMODE
 70
     0
  9
$ATTMODE
 70
     1
  9
$TEXTSIZE
 40
0.2
  9
$TRACEWID
 40
0.05
  9
$TEXTSTYLE
  7
STANDARD
  9
$CLAYER
  8
0
  9
$CELTYPE
  6
BYLAYER
  9
$CECOLOR
 62
     7
  9
$DIMSCALE
 40
2.0
  9
$DIMASZ
 40
3.5
  9
$DIMEXO
 40
0.0625
  9
$DIMDLI
 40
0.38
  9
$DIMRND
 40
0.0
  9
$DIMDLE
 40
0.0
  9
$DIMEXE
 40
0.18
  9
$DIMTP
 40
0.0
  9
$DIMTM
 40
0.0
  9
$DIMTXT
 40
3.5
  9
$DIMCEN
 40
0.09
  9
$DIMTSZ
 40
0.0
  9
$DIMTOL
 70
     0
  9
$DIMLIM
 70
     0
  9
$DIMTIH
 70
     1
  9
$DIMTOH
 70
     1
  9
$DIMSE1
 70
     0
  9
$DIMSE2
 70
     0
  9
$DIMTAD
 70
     1
  9
$DIMZIN
 70
     0
  9
$DIMBLK
  1

  9
$DIMASO
 70
     1
  9
$DIMSHO
 70
     1
  9
$DIMPOST
  1

  9
$DIMAPOST
  1

  9
$DIMALT
 70
     0
  9
$DIMALTD
 70
     2
  9
$DIMALTF
 40
25.4
  9
$DIMLFAC
 40
1.0
  9
$DIMTOFL
 70
     0
  9
$DIMTVP
 40
0.0
  9
$DIMTIX
 70
     0
  9
$DIMSOXD
 70
     0
  9
$DIMSAH
 70
     0
  9
$DIMBLK1
  1

  9
$DIMBLK2
  1

  9
$DIMSTYLE
  2
STANDARD
  9
$DIMCLRD
 70
     0
  9
$DIMCLRE
 70
     0
  9
$DIMCLRT
 70
     0
  9
$DIMTFAC
 40
1.0
  9
$DIMGAP
 40
0.09
  9
$LUNITS
 70
     2
  9
$LUPREC
 70
     2
  9
$AXISMODE
 70
     0
  9
$AXISUNIT
 10
0.0
 20
0.0
  9
$SKETCHINC
 40
0.1
  9
$FILLETRAD
 40
0.0
  9
$AUNITS
 70
     0
  9
$AUPREC
 70
     0
  9
$MENU
  1
acad
  9
$ELEVATION
 40
0.0
  9
$PELEVATION
 40
0.0
  9
$THICKNESS
 40
0.0
  9
$LIMCHECK
 70
     0
  9
$BLIPMODE
 70
     1
  9
$CHAMFERA
 40
0.0
  9
$CHAMFERB
 40
0.0
  9
$SKPOLY
 70
     0
  9
$TDCREATE
 40
0.000000000
  9
$TDUPDATE
 40
0.000000000
  9
$TDINDWG
 40
0.0000000000
  9
$TDUSRTIMER
 40
0.0000000000
  9
$USRTIMER
 70
     1
  9
$ANGBASE
 50
0.0
  9
$ANGDIR
 70
     0
  9
$PDMODE
 70
     0
  9
$PDSIZE
 40
0.0
  9
$PLINEWID
 40
0.0
  9
$COORDS
 70
     0
  9
$SPLFRAME
 70
     0
  9
$SPLINETYPE
 70
     6
  9
$SPLINESEGS
 70
     8
  9
$ATTDIA
 70
     0
  9
$ATTREQ
 70
     1
  9
$HANDLING
 70
     1
  9
$HANDSEED
  5
90F
  9
$SURFTAB1
 70
     6
  9
$SURFTAB2
 70
     6
  9
$SURFTYPE
 70
     6
  9
$SURFU
 70
     6
  9
$SURFV
 70
     6
  9
$UCSNAME
  2

  9
$UCSORG
 10
0.0
 20
0.0
 30
0.0
  9
$UCSXDIR
 10
1.0
 20
0.0
 30
0.0
  9
$UCSYDIR
 10
0.0
 20
1.0
 30
0.0
  9
$PUCSNAME
  2

  9
$PUCSORG
 10
0.0
 20
0.0
 30
0.0
  9
$PUCSXDIR
 10
1.0
 20
0.0
 30
0.0
  9
$PUCSYDIR
 10
0.0
 20
1.0
 30
0.0
  9
$USERI1
 70
     0
  9
$USERI2
 70
     0
  9
$USERI3
 70
     0
  9
$USERI4
 70
     0
  9
$USERI5
 70
     0
  9
$USERR1
 40
0.0
  9
$USERR2
 40
0.0
  9
$USERR3
 40
0.0
  9
$USERR4
 40
0.0
  9
$USERR5
 40
0.0
  9
$WORLDVIEW
 70
     1
  9
$SHADEDGE
 70
     3
  9
$SHADEDIF
 70
    70
  9
$TILEMODE
 70
     1
  9
$MAXACTVP
 70
    16
  9
$PINSBASE
 10
0.0
 20
0.0
 30
0.0
  9
$PLIMCHECK
 70
     0
  9
$PEXTMIN
 10
1.000000E+20
 20
1.000000E+20
 30
1.000000E+20
  9
$PEXTMAX
 10
-1.000000E+20
 20
-1.000000E+20
 30
-1.000000E+20
  9
$PLIMMIN
 10
-123.0
 20
-87.0
  9
$PLIMMAX
 10
717.0
 20
507.0
  9
$UNITMODE
 70
     0
  9
$VISRETAIN
 70
     0
  9
$PLINEGEN
 70
     1
  9
$PSLTSCALE
 70
     0
  9
$TREEDEPTH
 70
  3020
  9
$DWGCODEPAGE
  3
dos850
  0
ENDSEC
  0
SECTION
  2
TABLES
  0
TABLE
  2
VPORT
 70
     1
  0
VPORT
  2
*ACTIVE
 70
     0
 10
0.0
 20
0.0
 11
1.0
 21
1.0
 12
420.0
 22
297.0
 13
0.0
 23
0.0
 14
1.0
 24
1.0
 15
0.0
 25
0.0
 16
0.0
 26
0.0
 36
1.0
 17
-123.0
 27
-87.0
 37
0.0
 40
594.0
 41
1.604229
 42
50.0
 43
0.0
 44
0.0
 50
0.0
 51
0.0
 71
     0
 72
   100
 73
     1
 74
     1
 75
     0
 76
     0
 77
     0
 78
     0
  0
ENDTAB
  0
TABLE
  2
LTYPE
 70
     4
  0
LTYPE
  2
CONTINUOUS
 70
    64
  3
Solid line
 72
    65
 73
     0
 40
0.0
  0
LTYPE
  2
DASHED
 70
    64
  3
__ __ __ __ __
 72
    65
 73
     2
 40
6.25
 49
5.0
 49
-1.25
  0
LTYPE
  2
DIVIDE
 70
    64
  3
__ . . __ . . __ . . __
 72
    65
 73
     6
 40
8.75
 49
5.0
 49
-1.25
 49
0.0
 49
-1.25
 49
0.0
 49
-1.25
  0
LTYPE
  2
DASHDOT
 70
    64
  3
__ . __ . __ . __ . __
 72
    65
 73
     4
 40
7.5
 49
5.0
 49
-1.25
 49
0.0
 49
-1.25
  0
ENDTAB
  0
TABLE
  2
LAYER
 70
    14
  0
LAYER
  2
0
 70
     0
 62
     7
  6
CONTINUOUS
  0
LAYER
  2
LC-INFO-1-2-MM-A3-0
 70
     1
 62
    -1
  6
CONTINUOUS
  0
LAYER
  2
LC-006-005-----0
 70
     0
 62
     2
  6
CONTINUOUS
  0
LAYER
  2
LC-009-003-MTH-0
 70
     0
 62
     2
  6
CONTINUOUS
  0
LAYER
  2
LC-010-003-MTG-0
 70
     0
 62
     2
  6
CONTINUOUS
  0
LAYER
  2
LC-008-003-----0
 70
     0
 62
     2
  6
CONTINUOUS
  0
LAYER
  2
LC-011-003-MTZ-0
 70
     0
 62
     6
  6
CONTINUOUS
  0
LAYER
  2
LC-001-102-----0
 70
     0
 62
     7
  6
CONTINUOUS
  0
LAYER
  2
LC-002-002-----0
 70
     0
 62
     1
  6
CONTINUOUS
  0
LAYER
  2
LC-003-100-D10-0
 70
     0
 62
     2
  6
DIVIDE
  0
LAYER
  2
LC-004-006-----0
 70
     0
 62
     2
  6
DASHDOT
  0
LAYER
  2
LC-005-102-D10-0
 70
     0
 62
     7
  6
DASHED
  0
LAYER
  2
LC-007-005-D10-0
 70
     0
 62
     3
  6
CONTINUOUS
  0
LAYER
  2
LC-000
 70
     0
 62
     7
  6
CONTINUOUS
  0
ENDTAB
  0
TABLE
  2
STYLE
 70
     4
  0
STYLE
  2
STANDARD
 70
     0
 40
0.0
 41
1.0
 50
0.0
 71
     0
 42
0.0
  3
txt
  4

  0
STYLE
  2
LC-STANDARD
 70
    64
 40
0.0
 41
1.0
 50
0.0
 71
     0
 42
3.5
  3
MONOTXT
  4

  0
STYLE
  2
LC-TXTSTYLE-150-400-0-0-D2
 70
    64
 40
0.0
 41
1.0
 50
15.0
 71
     0
 42
3.5
  3
MONOTXT
  4

  0
STYLE
  2
LC-TXTSTYLE-150-400-0-0-D3
 70
    64
 40
0.0
 41
1.0
 50
15.0
 71
     0
 42
3.5
  3
LC-STANDARD
  4

  0
ENDTAB
  0
TABLE
  2
VIEW
 70
     0
  0
ENDTAB
  0
TABLE
  2
UCS
 70
     0
  0
ENDTAB
  0
TABLE
  2
APPID
 70
     1
  0
APPID
  2
ACAD
 70
     0
  0
ENDTAB
  0
TABLE
  2
DIMSTYLE
 70
     3
  0
DIMSTYLE
  2
STANDARD
 70
     0
  3

  4

  5

  6

  7

 40
1.0
 41
0.18
 42
0.0625
 43
0.38
 44
0.18
 45
0.0
 46
0.0
 47
0.0
 48
0.0
 71
     0
 72
     0
 73
     1
 74
     1
 75
     0
 76
     0
 77
     0
 78
     0
140
0.18
141
0.09
142
0.0
143
25.4
144
1.0
145
0.0
146
1.0
147
0.09
170
     0
171
     2
172
     0
173
     0
174
     0
175
     0
176
     0
177
     0
178
     0
  0
DIMSTYLE
  2
LC-STANDARD
 70
     0
  3

  4

  5

  6

  7

 40
1.0
 41
3.5
 42
0.0
 43
7.5
 44
1.8
 45
0.0
 46
0.0
 47
0.0
 48
0.0
 71
     0
 72
     0
 73
     0
 74
     0
 75
     0
 76
     0
 77
     1
 78
     8
140
3.5
141
0.0
142
0.0
143
25.4
144
1.0
145
0.0
146
0.71
147
1.5
170
     0
171
     2
172
     1
173
     0
174
     0
175
     0
176
     0
177
     0
178
     3
  0
DIMSTYLE
  2
LC-DIM-L-0090-02-02
 70
     0
  3

  4

  5

  6

  7

 40
2.0
 41
3.5
 42
0.0
 43
7.5
 44
1.8
 45
0.0
 46
0.0
 47
0.0
 48
0.0
 71
     0
 72
     0
 73
     0
 74
     0
 75
     0
 76
     0
 77
     1
 78
     8
140
9.0
141
0.0
142
0.0
143
25.4
144
1.0
145
0.0
146
0.71
147
1.5
170
     0
171
     2
172
     0
173
     0
174
     0
175
     0
176
     2
177
     2
178
     6
  0
ENDTAB
  0
ENDSEC
  0
SECTION
  2
BLOCKS
  0
BLOCK
  8
0
  5
23
  2
HL615K_RPERARTIKEL
 70
    64
 10
0.0
 20
0.0
 30
0.0
  3
HL615K_RPERARTIKEL
  0
ENDBLK
  8
0
  5
24
  0
BLOCK
  8
0
  5
26
  2
HL615K_RPERARTIKEL-LC001
 70
    64
 10
0.0
 20
0.0
 30
0.0
  3
HL615K_RPERARTIKEL-LC001
  0
ENDBLK
  8
0
  5
27
  0
BLOCK
  8
0
  5
29
  2
HL615K_RPERARTIKEL-LC002
 70
    64
 10
0.0
 20
0.0
 30
0.0
  3
HL615K_RPERARTIKEL-LC002
  0
ENDBLK
  8
0
  5
2A
  0
BLOCK
  8
0
  5
2C
  2
BGR_SCHNITTB_HL606-616_EI3
 70
    64
 10
0.0
 20
0.0
 30
0.0
  3
BGR_SCHNITTB_HL606-616_EINSATZ
  0
ENDBLK
  8
0
  5
2D
  0
BLOCK
  8
0
  5
2F
  2
HL615K_RPERARTIKEL-LC003
 70
    64
 10
0.0
 20
0.0
 30
0.0
  3
HL615K_RPERARTIKEL-LC003
  0
ENDBLK
  8
0
  5
30
  0
BLOCK
  8
0
  5
32
  2
BGR_SCHNITTB_HL606-616_EI5
 70
    64
 10
0.0
 20
0.0
 30
0.0
  3
BGR_SCHNITTB_HL606-616_EINSATZ-LC001
  0
ENDBLK
  8
0
  5
33
  0
BLOCK
  8
0
  5
35
  2
HL_616_HOFABLAUF
 70
    64
 10
0.0
 20
0.0
 30
0.0
  3
HL_616_HOFABLAUF
  0
ENDBLK
  8
0
  5
36
  0
BLOCK
  8
0
  5
38
  2
HL_616_HOFABLAUF-LC001
 70
    64
 10
0.0
 20
0.0
 30
0.0
  3
HL_616_HOFABLAUF-LC001
  0
ENDBLK
  8
0
  5
39
  0
BLOCK
  8
0
  5
3B
  2
HL_616_HOFABLAUF-LC002
 70
    64
 10
0.0
 20
0.0
 30
0.0
  3
HL_616_HOFABLAUF-LC002
  0
ENDBLK
  8
0
  5
3C
  0
BLOCK
  8
0
  5
3E
  2
HL_616_HOFABLAUF-LC003
 70
    64
 10
0.0
 20
0.0
 30
0.0
  3
HL_616_HOFABLAUF-LC003
  0
ENDBLK
  8
0
  5
3F
  0
BLOCK
  8
0
  5
41
  2
HL615K_RPERARTIKEL-LC004
 70
    64
 10
0.0
 20
0.0
 30
0.0
  3
HL615K_RPERARTIKEL-LC004
  0
ENDBLK
  8
0
  5
42
  0
BLOCK
  8
0
  5
44
  2
HL_616_HOFABLAUF-LC004
 70
    64
 10
0.0
 20
0.0
 30
0.0
  3
HL_616_HOFABLAUF-LC004
  0
ENDBLK
  8
0
  5
45
  0
BLOCK
  8
0
  5
47
  2
HL615K_RPERARTIKEL-LC005
 70
    64
 10
0.0
 20
0.0
 30
0.0
  3
HL615K_RPERARTIKEL-LC005
  0
ENDBLK
  8
0
  5
48
  0
BLOCK
  8
0
  5
4A
  2
HL_616_HOFABLAUF-LC005
 70
    64
 10
0.0
 20
0.0
 30
0.0
  3
HL_616_HOFABLAUF-LC005
  0
ENDBLK
  8
0
  5
4B
  0
BLOCK
  8
0
  5
4D
  2
HL615K_RPERARTIKEL-LC006
 70
    64
 10
0.0
 20
0.0
 30
0.0
  3
HL615K_RPERARTIKEL-LC006
  0
ENDBLK
  8
0
  5
4E
  0
BLOCK
  8
0
  5
50
  2
HL615K_RPERARTIKEL-LC007
 70
    64
 10
0.0
 20
0.0
 30
0.0
  3
HL615K_RPERARTIKEL-LC007
  0
ENDBLK
  8
0
  5
51
  0
BLOCK
  8
0
  5
53
  2
HL615K_RPERARTIKEL-LC008
 70
    64
 10
0.0
 20
0.0
 30
0.0
  3
HL615K_RPERARTIKEL-LC008
  0
ENDBLK
  8
0
  5
54
  0
BLOCK
  8
0
  5
56
  2
*X17
 70
    65
 10
168.2282
 20
218.218157
 30
0.0
  3
*X17
  0
LINE
  8
LC-006-005-----0
  6
CONTINUOUS
  5
58
 10
195.59074
 20
218.218157
 30
0.0
 11
197.7282
 21
220.355617
 31
0.0
  0
LINE
  8
LC-006-005-----0
  6
CONTINUOUS
  5
59
 10
193.177753
 20
218.633598
 30
0.0
 11
197.7282
 21
223.184044
 31
0.0
  0
LINE
  8
LC-006-005-----0
  6
CONTINUOUS
  5
5A
 10
190.947043
 20
219.231315
 30
0.0
 11
197.7282
 21
226.012472
 31
0.0
  0
LINE
  8
LC-006-005-----0
  6
CONTINUOUS
  5
5B
 10
194.2282
 20
225.340899
 30
0.0
 11
197.7282
 21
228.840899
 31
0.0
  0
LINE
  8
LC-006-005-----0
  6
CONTINUOUS
  5
5C
 10
194.075228
 20
228.016353
 30
0.0
 11
197.7282
 21
231.669326
 31
0.0
  0
LINE
  8
LC-006-005-----0
  6
CONTINUOUS
  5
5D
 10
192.062797
 20
228.832349
 30
0.0
 11
197.7282
 21
234.497753
 31
0.0
  0
LINE
  8
LC-006-005-----0
  6
CONTINUOUS
  5
5E
 10
190.7282
 20
230.32618
 30
0.0
 11
192.591149
 21
232.189129
 31
0.0
  0
LINE
  8
LC-006-005-----0
  6
CONTINUOUS
  5
5F
 10
194.2282
 20
233.82618
 30
0.0
 11
197.7282
 21
237.32618
 31
0.0
  0
LINE
  8
LC-006-005-----0
  6
CONTINUOUS
  5
60
 10
194.2282
 20
236.654607
 30
0.0
 11
197.7282
 21
240.154607
 31
0.0
  0
LINE
  8
LC-006-005-----0
  6
CONTINUOUS
  5
61
 10
193.257418
 20
238.512252
 30
0.0
 11
197.7282
 21
242.983034
 31
0.0
  0
LINE
  8
LC-006-005-----0
  6
CONTINUOUS
  5
62
 10
191.026707
 20
239.109969
 30
0.0
 11
197.7282
 21
245.811461
 31
0.0
  0
LINE
  8
LC-006-005-----0
  6
CONTINUOUS
  5
63
 10
190.7282
 20
241.639889
 30
0.0
 11
190.79659
 21
241.708278
 31
0.0
  0
LINE
  8
LC-006-005-----0
  6
CONTINUOUS
  5
64
 10
194.2282
 20
245.139889
 30
0.0
 11
197.7282
 21
248.639889
 31
0.0
  0
LINE
  8
LC-006-005-----0
  6
CONTINUOUS
  5
65
 10
194.144707
 20
247.884823
 30
0.0
 11
197.7282
 21
251.468316
 31
0.0
  0
LINE
  8
LC-006-005-----0
  6
CONTINUOUS
  5
66
 10
192.221328
 20
248.789871
 30
0.0
 11
197.7282
 21
254.296743
 31
0.0
  0
LINE
  8
LC-006-005-----0
  6
CONTINUOUS
  5
67
 10
190.7282
 20
250.12517
 30
0.0
 11
192.865734
 21
252.262704
 31
0.0
  0
LINE
  8
LC-006-005-----0
  6
CONTINUOUS
  5
68
 10
194.2282
 20
253.62517
 30
0.0
 11
197.7282
 21
257.12517
 31
0.0
  0
LINE
  8
LC-006-005-----0
  6
CONTINUOUS
  5
69
 10
194.2282
 20
256.453597
 30
0.0
 11
197.7282
 21
259.953597
 31
0.0
  0
LINE
  8
LC-006-005-----0
  6
CONTINUOUS
  5
6A
 10
193.415949
 20
258.469773
 30
0.0
 11
197.7282
 21
262.782024
 31
0.0
  0
LINE
  8
LC-006-005-----0
  6
CONTINUOUS
  5
6B
 10
191.185239
 20
259.06749
 30
0.0
 11
197.7282
 21
265.610451
 31
0.0
  0
LINE
  8
LC-006-005-----0
  6
CONTINUOUS
  5
6C
 10
190.7282
 20
261.438878
 30
0.0
 11
191.071175
 21
261.781853
 31
0.0
  0
LINE
  8
LC-006-005-----0
  6
CONTINUOUS
  5
6D
 10
194.2282
 20
264.938878
 30
0.0
 11
197.7282
 21
268.438878
 31
0.0
  0
LINE
  8
LC-006-005-----0
  6
CONTINUOUS
  5
6E
 10
194.196293
 20
267.735398
 30
0.0
 11
197.7282
 21
271.267306
 31
0.0
  0
LINE
  8
LC-006-005-----0
  6
CONTINUOUS
  5
6F
 10
192.37986
 20
268.747392
 30
0.0
 11
197.7282
 21
274.095733
 31
0.0
  0
LINE
  8
LC-006-005-----0
  6
CONTINUOUS
  5
70
 10
190.7282
 20
269.92416
 30
0.0
 11
193.140319
 21
272.336279
 31
0.0
  0
LINE
  8
LC-006-005-----0
  6
CONTINUOUS
  5
71
 10
194.2282
 20
273.42416
 30
0.0
 11
197.7282
 21
276.92416
 31
0.0
  0
LINE
  8
LC-006-005-----0
  6
CONTINUOUS
  5
72
 10
194.2282
 20
276.252587
 30
0.0
 11
197.7282
 21
279.752587
 31
0.0
  0
LINE
  8
LC-006-005-----0
  6
CONTINUOUS
  5
73
 10
193.571292
 20
278.424106
 30
0.0
 11
197.7282
 21
282.581014
 31
0.0
  0
LINE
  8
LC-006-005-----0
  6
CONTINUOUS
  5
74
 10
191.343771
 20
279.025012
 30
0.0
 11
197.7282
 21
285.409441
 31
0.0
  0
LINE
  8
LC-006-005-----0
  6
CONTINUOUS
  5
75
 10
190.7282
 20
281.237868
 30
0.0
 11
191.34576
 21
281.855428
 31
0.0
  0
LINE
  8
LC-006-005-----0
  6
CONTINUOUS
  5
76
 10
194.2282
 20
284.737868
 30
0.0
 11
197.7282
 21
288.237868
 31
0.0
  0
LINE
  8
LC-006-005-----0
  6
CONTINUOUS
  5
77
 10
194.225121
 20
287.563216
 30
0.0
 11
197.7282
 21
291.066295
 31
0.0
  0
LINE
  8
LC-006-005-----0
  6
CONTINUOUS
  5
78
 10
192.538392
 20
288.704914
 30
0.0
 11
197.7282
 21
293.894723
 31
0.0
  0
LINE
  8
LC-006-005-----0
  6
CONTINUOUS
  5
79
 10
190.7282
 20
289.72315
 30
0.0
 11
193.414904
 21
292.409853
 31
0.0
  0
LINE
  8
LC-006-005-----0
  6
CONTINUOUS
  5
7A
 10
194.209944
 20
293.204893
 30
0.0
 11
197.7282
 21
296.72315
 31
0.0
  0
LINE
  8
LC-006-005-----0
  6
CONTINUOUS
  5
7B
 10
194.2282
 20
296.051577
 30
0.0
 11
197.7282
 21
299.551577
 31
0.0
  0
LINE
  8
LC-006-005-----0
  6
CONTINUOUS
  5
7C
 10
193.709537
 20
298.36134
 30
0.0
 11
197.7282
 21
302.380004
 31
0.0
  0
LINE
  8
LC-006-005-----0
  6
CONTINUOUS
  5
7D
 10
191.502303
 20
298.982533
 30
0.0
 11
197.7282
 21
305.208431
 31
0.0
  0
LINE
  8
LC-006-005-----0
  6
CONTINUOUS
  5
7E
 10
190.7282
 20
301.036858
 30
0.0
 11
191.620345
 21
301.929003
 31
0.0
  0
LINE
  8
LC-006-005-----0
  6
CONTINUOUS
  5
7F
 10
194.2282
 20
304.536858
 30
0.0
 11
197.7282
 21
308.036858
 31
0.0
  0
LINE
  8
LC-006-005-----0
  6
CONTINUOUS
  5
80
 10
194.2282
 20
307.365285
 30
0.0
 11
197.7282
 21
310.865285
 31
0.0
  0
LINE
  8
LC-006-005-----0
  6
CONTINUOUS
  5
81
 10
192.696923
 20
308.662436
 30
0.0
 11
197.7282
 21
313.693712
 31
0.0
  0
LINE
  8
LC-006-005-----0
  6
CONTINUOUS
  5
82
 10
190.7282
 20
309.52214
 30
0.0
 11
193.745144
 21
312.539083
 31
0.0
  0
LINE
  8
LC-006-005-----0
  6
CONTINUOUS
  5
83
 10
194.08422
 20
312.878159
 30
0.0
 11
197.7282
 21
316.52214
 31
0.0
  0
LINE
  8
LC-006-005-----0
  6
CONTINUOUS
  5
84
 10
194.2282
 20
315.850567
 30
0.0
 11
197.688904
 21
319.31127
 31
0.0
  0
LINE
  8
LC-006-005-----0
  6
CONTINUOUS
  5
85
 10
193.791925
 20
318.242718
 30
0.0
 11
196.362659
 21
320.813453
 31
0.0
  0
LINE
  8
LC-006-005-----0
  6
CONTINUOUS
  5
86
 10
191.137535
 20
318.416755
 30
0.0
 11
193.637535
 21
320.916755
 31
0.0
  0
LINE
  8
LC-006-005-----0
  6
CONTINUOUS
  5
87
 10
188.309108
 20
318.416755
 30
0.0
 11
190.809108
 21
320.916755
 31
0.0
  0
LINE
  8
LC-006-005-----0
  6
CONTINUOUS
  5
88
 10
186.7282
 20
319.664275
 30
0.0
 11
189.7282
 21
322.664275
 31
0.0
  0
LINE
  8
LC-006-005-----0
  6
CONTINUOUS
  5
89
 10
186.7282
 20
322.492702
 30
0.0
 11
189.7282
 21
325.492702
 31
0.0
  0
LINE
  8
LC-006-005-----0
  6
CONTINUOUS
  5
8A
 10
186.7282
 20
325.321129
 30
0.0
 11
189.7282
 21
328.321129
 31
0.0
  0
LINE
  8
LC-006-005-----0
  6
CONTINUOUS
  5
8B
 10
186.7282
 20
328.149557
 30
0.0
 11
189.7282
 21
331.149557
 31
0.0
  0
LINE
  8
LC-006-005-----0
  6
CONTINUOUS
  5
8C
 10
186.7282
 20
330.977984
 30
0.0
 11
189.7282
 21
333.977984
 31
0.0
  0
LINE
  8
LC-006-005-----0
  6
CONTINUOUS
  5
8D
 10
186.7282
 20
333.806411
 30
0.0
 11
189.7282
 21
336.806411
 31
0.0
  0
LINE
  8
LC-006-005-----0
  6
CONTINUOUS
  5
8E
 10
186.7282
 20
336.634838
 30
0.0
 11
189.7282
 21
339.634838
 31
0.0
  0
LINE
  8
LC-006-005-----0
  6
CONTINUOUS
  5
8F
 10
186.41167
 20
339.146734
 30
0.0
 11
189.41167
 21
342.146734
 31
0.0
  0
LINE
  8
LC-006-005-----0
  6
CONTINUOUS
  5
90
 10
183.853264
 20
339.416755
 30
0.0
 11
186.853264
 21
342.416755
 31
0.0
  0
LINE
  8
LC-006-005-----0
  6
CONTINUOUS
  5
91
 10
181.024836
 20
339.416755
 30
0.0
 11
184.024836
 21
342.416755
 31
0.0
  0
LINE
  8
LC-006-005-----0
  6
CONTINUOUS
  5
92
 10
178.196409
 20
339.416755
 30
0.0
 11
181.196409
 21
342.416755
 31
0.0
  0
LINE
  8
LC-006-005-----0
  6
CONTINUOUS
  5
93
 10
175.367982
 20
339.416755
 30
0.0
 11
178.367982
 21
342.416755
 31
0.0
  0
LINE
  8
LC-006-005-----0
  6
CONTINUOUS
  5
94
 10
172.539555
 20
339.416755
 30
0.0
 11
175.539555
 21
342.416755
 31
0.0
  0
LINE
  8
LC-006-005-----0
  6
CONTINUOUS
  5
95
 10
169.711128
 20
339.416755
 30
0.0
 11
173.7282
 21
343.433828
 31
0.0
  0
LINE
  8
LC-006-005-----0
  6
CONTINUOUS
  5
96
 10
168.2282
 20
340.762255
 30
0.0
 11
169.882701
 21
342.416755
 31
0.0
  0
LINE
  8
LC-006-005-----0
  6
CONTINUOUS
  5
97
 10
170.7282
 20
343.262255
 30
0.0
 11
173.7282
 21
346.262255
 31
0.0
  0
LINE
  8
LC-006-005-----0
  6
CONTINUOUS
  5
98
 10
170.7282
 20
346.090682
 30
0.0
 11
173.7282
 21
349.090682
 31
0.0
  0
LINE
  8
LC-006-005-----0
  6
CONTINUOUS
  5
99
 10
170.7282
 20
348.919109
 30
0.0
 11
173.7282
 21
351.919109
 31
0.0
  0
LINE
  8
LC-006-005-----0
  6
CONTINUOUS
  5
9A
 10
170.7282
 20
351.747536
 30
0.0
 11
173.7282
 21
354.747536
 31
0.0
  0
LINE
  8
LC-006-005-----0
  6
CONTINUOUS
  5
9B
 10
170.7282
 20
354.575963
 30
0.0
 11
173.7282
 21
357.575963
 31
0.0
  0
LINE
  8
LC-006-005-----0
  6
CONTINUOUS
  5
9C
 10
170.7282
 20
357.404391
 30
0.0
 11
173.720124
 21
360.396314
 31
0.0
  0
LINE
  8
LC-006-005-----0
  6
CONTINUOUS
  5
9D
 10
169.712138
 20
359.216755
 30
0.0
 11
172.539981
 21
362.044599
 31
0.0
  0
LINE
  8
LC-006-005-----0
  6
CONTINUOUS
  5
9E
 10
168.264854
 20
360.597898
 30
0.0
 11
169.847058
 21
362.180102
 31
0.0
  0
ENDBLK
  8
0
  5
9F
  0
BLOCK
  8
0
  5
A1
  2
*X18
 70
    65
 10
378.7282
 20
218.218157
 30
0.0
  3
*X18
  0
LINE
  8
LC-006-005-----0
  6
CONTINUOUS
  5
A2
 10
382.464118
 20
218.415345
 30
0.0
 11
385.7282
 21
221.679427
 31
0.0
  0
LINE
  8
LC-006-005-----0
  6
CONTINUOUS
  5
A3
 10
379.438503
 20
218.218157
 30
0.0
 11
383.505792
 21
222.285446
 31
0.0
  0
LINE
  8
LC-006-005-----0
  6
CONTINUOUS
  5
A4
 10
378.7282
 20
220.336281
 30
0.0
 11
382.2282
 21
223.836281
 31
0.0
  0
LINE
  8
LC-006-005-----0
  6
CONTINUOUS
  5
A5
 10
378.7282
 20
223.164708
 30
0.0
 11
382.2282
 21
226.664708
 31
0.0
  0
LINE
  8
LC-006-005-----0
  6
CONTINUOUS
  5
A6
 10
384.39666
 20
228.833168
 30
0.0
 11
385.7282
 21
230.164708
 31
0.0
  0
LINE
  8
LC-006-005-----0
  6
CONTINUOUS
  5
A7
 10
378.7282
 20
225.993136
 30
0.0
 11
384.700413
 21
231.965348
 31
0.0
  0
LINE
  8
LC-006-005-----0
  6
CONTINUOUS
  5
A8
 10
378.7282
 20
228.821563
 30
0.0
 11
382.55882
 21
232.652182
 31
0.0
  0
LINE
  8
LC-006-005-----0
  6
CONTINUOUS
  5
A9
 10
378.7282
 20
231.64999
 30
0.0
 11
382.2282
 21
235.14999
 31
0.0
  0
LINE
  8
LC-006-005-----0
  6
CONTINUOUS
  5
AA
 10
378.7282
 20
234.478417
 30
0.0
 11
385.7282
 21
241.478417
 31
0.0
  0
LINE
  8
LC-006-005-----0
  6
CONTINUOUS
  5
AB
 10
378.7282
 20
237.306844
 30
0.0
 11
383.664324
 21
242.242967
 31
0.0
  0
LINE
  8
LC-006-005-----0
  6
CONTINUOUS
  5
AC
 10
378.7282
 20
240.135271
 30
0.0
 11
382.2282
 21
243.635271
 31
0.0
  0
LINE
  8
LC-006-005-----0
  6
CONTINUOUS
  5
AD
 10
378.7282
 20
242.963698
 30
0.0
 11
382.2282
 21
246.463698
 31
0.0
  0
LINE
  8
LC-006-005-----0
  6
CONTINUOUS
  5
AE
 10
384.671245
 20
248.906743
 30
0.0
 11
385.7282
 21
249.963698
 31
0.0
  0
LINE
  8
LC-006-005-----0
  6
CONTINUOUS
  5
AF
 10
378.7282
 20
245.792125
 30
0.0
 11
384.858945
 21
251.92287
 31
0.0
  0
LINE
  8
LC-006-005-----0
  6
CONTINUOUS
  5
B0
 10
378.7282
 20
248.620553
 30
0.0
 11
382.671821
 21
252.564174
 31
0.0
  0
LINE
  8
LC-006-005-----0
  6
CONTINUOUS
  5
B1
 10
378.7282
 20
251.44898
 30
0.0
 11
382.2282
 21
254.94898
 31
0.0
  0
LINE
  8
LC-006-005-----0
  6
CONTINUOUS
  5
B2
 10
378.7282
 20
254.277407
 30
0.0
 11
382.295029
 21
257.844235
 31
0.0
  0
LINE
  8
LC-006-005-----0
  6
CONTINUOUS
  5
B3
 10
382.868769
 20
258.417976
 30
0.0
 11
385.7282
 21
261.277407
 31
0.0
  0
LINE
  8
LC-006-005-----0
  6
CONTINUOUS
  5
B4
 10
378.7282
 20
257.105834
 30
0.0
 11
383.822855
 21
262.200489
 31
0.0
  0
LINE
  8
LC-006-005-----0
  6
CONTINUOUS
  5
B5
 10
378.7282
 20
259.934261
 30
0.0
 11
382.2282
 21
263.434261
 31
0.0
  0
LINE
  8
LC-006-005-----0
  6
CONTINUOUS
  5
B6
 10
378.7282
 20
262.762688
 30
0.0
 11
382.2282
 21
266.262688
 31
0.0
  0
LINE
  8
LC-006-005-----0
  6
CONTINUOUS
  5
B7
 10
384.94583
 20
268.980318
 30
0.0
 11
385.7282
 21
269.762688
 31
0.0
  0
LINE
  8
LC-006-005-----0
  6
CONTINUOUS
  5
B8
 10
378.7282
 20
265.591115
 30
0.0
 11
385.017476
 21
271.880391
 31
0.0
  0
LINE
  8
LC-006-005-----0
  6
CONTINUOUS
  5
B9
 10
378.7282
 20
268.419542
 30
0.0
 11
382.800052
 21
272.491394
 31
0.0
  0
LINE
  8
LC-006-005-----0
  6
CONTINUOUS
  5
BA
 10
378.7282
 20
271.24797
 30
0.0
 11
382.2282
 21
274.74797
 31
0.0
  0
LINE
  8
LC-006-005-----0
  6
CONTINUOUS
  5
BB
 10
378.7282
 20
274.076397
 30
0.0
 11
382.232842
 21
277.581038
 31
0.0
  0
LINE
  8
LC-006-005-----0
  6
CONTINUOUS
  5
BC
 10
383.151271
 20
278.499467
 30
0.0
 11
385.7282
 21
281.076397
 31
0.0
  0
LINE
  8
LC-006-005-----0
  6
CONTINUOUS
  5
BD
 10
378.7282
 20
276.904824
 30
0.0
 11
383.981387
 21
282.158011
 31
0.0
  0
LINE
  8
LC-006-005-----0
  6
CONTINUOUS
  5
BE
 10
378.7282
 20
279.733251
 30
0.0
 11
382.239585
 21
283.244636
 31
0.0
  0
LINE
  8
LC-006-005-----0
  6
CONTINUOUS
  5
BF
 10
378.7282
 20
282.561678
 30
0.0
 11
382.2282
 21
286.061678
 31
0.0
  0
LINE
  8
LC-006-005-----0
  6
CONTINUOUS
  5
C0
 10
385.220415
 20
289.053893
 30
0.0
 11
385.7282
 21
289.561678
 31
0.0
  0
LINE
  8
LC-006-005-----0
  6
CONTINUOUS
  5
C1
 10
378.7282
 20
285.390105
 30
0.0
 11
385.176008
 21
291.837913
 31
0.0
  0
LINE
  8
LC-006-005-----0
  6
CONTINUOUS
  5
C2
 10
378.7282
 20
288.218532
 30
0.0
 11
382.945548
 21
292.43588
 31
0.0
  0
LINE
  8
LC-006-005-----0
  6
CONTINUOUS
  5
C3
 10
378.7282
 20
291.046959
 30
0.0
 11
382.2282
 21
294.546959
 31
0.0
  0
LINE
  8
LC-006-005-----0
  6
CONTINUOUS
  5
C4
 10
378.7282
 20
293.875387
 30
0.0
 11
382.2282
 21
297.375387
 31
0.0
  0
LINE
  8
LC-006-005-----0
  6
CONTINUOUS
  5
C5
 10
383.425856
 20
298.573042
 30
0.0
 11
385.7282
 21
300.875387
 31
0.0
  0
LINE
  8
LC-006-005-----0
  6
CONTINUOUS
  5
C6
 10
378.7282
 20
296.703814
 30
0.0
 11
384.139919
 21
302.115532
 31
0.0
  0
LINE
  8
LC-006-005-----0
  6
CONTINUOUS
  5
C7
 10
378.7282
 20
299.532241
 30
0.0
 11
382.278352
 21
303.082392
 31
0.0
  0
LINE
  8
LC-006-005-----0
  6
CONTINUOUS
  5
C8
 10
378.7282
 20
302.360668
 30
0.0
 11
382.2282
 21
305.860668
 31
0.0
  0
LINE
  8
LC-006-005-----0
  6
CONTINUOUS
  5
C9
 10
385.495
 20
309.127467
 30
0.0
 11
385.7282
 21
309.360668
 31
0.0
  0
LINE
  8
LC-006-005-----0
  6
CONTINUOUS
  5
CA
 10
378.7282
 20
305.189095
 30
0.0
 11
385.33454
 21
311.795434
 31
0.0
  0
LINE
  8
LC-006-005-----0
  6
CONTINUOUS
  5
CB
 10
378.7282
 20
308.017522
 30
0.0
 11
383.103829
 21
312.393151
 31
0.0
  0
LINE
  8
LC-006-005-----0
  6
CONTINUOUS
  5
CC
 10
389.127434
 20
318.416755
 30
0.0
 11
389.7282
 21
319.017522
 31
0.0
  0
LINE
  8
LC-006-005-----0
  6
CONTINUOUS
  5
CD
 10
378.7282
 20
310.845949
 30
0.0
 11
382.2282
 21
314.345949
 31
0.0
  0
LINE
  8
LC-006-005-----0
  6
CONTINUOUS
  5
CE
 10
386.299006
 20
318.416755
 30
0.0
 11
389.7282
 21
321.845949
 31
0.0
  0
LINE
  8
LC-006-005-----0
  6
CONTINUOUS
  5
CF
 10
407.301712
 20
339.419461
 30
0.0
 11
408.225495
 21
340.343244
 31
0.0
  0
LINE
  8
LC-006-005-----0
  6
CONTINUOUS
  5
D0
 10
378.7282
 20
313.674376
 30
0.0
 11
382.2282
 21
317.174376
 31
0.0
  0
LINE
  8
LC-006-005-----0
  6
CONTINUOUS
  5
D1
 10
383.470579
 20
318.416755
 30
0.0
 11
386.011568
 21
320.957744
 31
0.0
  0
LINE
  8
LC-006-005-----0
  6
CONTINUOUS
  5
D2
 10
386.687212
 20
321.633388
 30
0.0
 11
389.7282
 21
324.674376
 31
0.0
  0
LINE
  8
LC-006-005-----0
  6
CONTINUOUS
  5
D3
 10
404.470579
 20
339.416755
 30
0.0
 11
407.446468
 21
342.392644
 31
0.0
  0
LINE
  8
LC-006-005-----0
  6
CONTINUOUS
  5
D4
 10
378.7282
 20
316.502804
 30
0.0
 11
383.142152
 21
320.916755
 31
0.0
  0
LINE
  8
LC-006-005-----0
  6
CONTINUOUS
  5
D5
 10
386.7282
 20
324.502804
 30
0.0
 11
389.7282
 21
327.502804
 31
0.0
  0
LINE
  8
LC-006-005-----0
  6
CONTINUOUS
  5
D6
 10
401.642152
 20
339.416755
 30
0.0
 11
405.7282
 21
343.502804
 31
0.0
  0
LINE
  8
LC-006-005-----0
  6
CONTINUOUS
  5
D7
 10
378.784364
 20
319.387395
 30
0.0
 11
380.257561
 21
320.860591
 31
0.0
  0
LINE
  8
LC-006-005-----0
  6
CONTINUOUS
  5
D8
 10
386.7282
 20
327.331231
 30
0.0
 11
389.7282
 21
330.331231
 31
0.0
  0
LINE
  8
LC-006-005-----0
  6
CONTINUOUS
  5
D9
 10
398.813725
 20
339.416755
 30
0.0
 11
401.813725
 21
342.416755
 31
0.0
  0
LINE
  8
LC-006-005-----0
  6
CONTINUOUS
  5
DA
 10
402.7282
 20
343.331231
 30
0.0
 11
405.7282
 21
346.331231
 31
0.0
  0
LINE
  8
LC-006-005-----0
  6
CONTINUOUS
  5
DB
 10
386.7282
 20
330.159658
 30
0.0
 11
389.7282
 21
333.159658
 31
0.0
  0
LINE
  8
LC-006-005-----0
  6
CONTINUOUS
  5
DC
 10
395.985298
 20
339.416755
 30
0.0
 11
398.985298
 21
342.416755
 31
0.0
  0
LINE
  8
LC-006-005-----0
  6
CONTINUOUS
  5
DD
 10
402.7282
 20
346.159658
 30
0.0
 11
405.7282
 21
349.159658
 31
0.0
  0
LINE
  8
LC-006-005-----0
  6
CONTINUOUS
  5
DE
 10
386.7282
 20
332.988085
 30
0.0
 11
389.7282
 21
335.988085
 31
0.0
  0
LINE
  8
LC-006-005-----0
  6
CONTINUOUS
  5
DF
 10
393.156871
 20
339.416755
 30
0.0
 11
396.156871
 21
342.416755
 31
0.0
  0
LINE
  8
LC-006-005-----0
  6
CONTINUOUS
  5
E0
 10
402.7282
 20
348.988085
 30
0.0
 11
405.7282
 21
351.988085
 31
0.0
  0
LINE
  8
LC-006-005-----0
  6
CONTINUOUS
  5
E1
 10
386.7282
 20
335.816512
 30
0.0
 11
389.927474
 21
339.015786
 31
0.0
  0
LINE
  8
LC-006-005-----0
  6
CONTINUOUS
  5
E2
 10
390.12917
 20
339.217482
 30
0.0
 11
393.328444
 21
342.416755
 31
0.0
  0
LINE
  8
LC-006-005-----0
  6
CONTINUOUS
  5
E3
 10
402.7282
 20
351.816512
 30
0.0
 11
405.7282
 21
354.816512
 31
0.0
  0
LINE
  8
LC-006-005-----0
  6
CONTINUOUS
  5
E4
 10
386.7282
 20
338.644939
 30
0.0
 11
390.500017
 21
342.416755
 31
0.0
  0
LINE
  8
LC-006-005-----0
  6
CONTINUOUS
  5
E5
 10
402.7282
 20
354.644939
 30
0.0
 11
405.7282
 21
357.644939
 31
0.0
  0
LINE
  8
LC-006-005-----0
  6
CONTINUOUS
  5
E6
 10
407.302803
 20
359.219542
 30
0.0
 11
408.225414
 21
360.142152
 31
0.0
  0
LINE
  8
LC-006-005-----0
  6
CONTINUOUS
  5
E7
 10
386.729902
 20
341.475068
 30
0.0
 11
387.669888
 21
342.415054
 31
0.0
  0
LINE
  8
LC-006-005-----0
  6
CONTINUOUS
  5
E8
 10
402.7282
 20
357.473366
 30
0.0
 11
407.212571
 21
361.957737
 31
0.0
  0
LINE
  8
LC-006-005-----0
  6
CONTINUOUS
  5
E9
 10
402.73009
 20
360.303683
 30
0.0
 11
404.641272
 21
362.214865
 31
0.0
  0
ENDBLK
  8
0
  5
EA
  0
BLOCK
  8
0
  5
EC
  2
*X19
 70
    65
 10
176.72683
 20
342.416755
 30
0.0
  3
*X19
  0
LINE
  8
LC-006-005-----0
  6
CONTINUOUS
  5
ED
 10
189.043255
 20
356.84318
 30
0.0
 11
183.46968
 21
362.416755
 31
0.0
  0
LINE
  8
LC-006-005-----0
  6
CONTINUOUS
  5
EE
 10
188.902405
 20
354.155603
 30
0.0
 11
180.641253
 21
362.416755
 31
0.0
  0
LINE
  8
LC-006-005-----0
  6
CONTINUOUS
  5
EF
 10
188.620705
 20
348.780448
 30
0.0
 11
176.74162
 21
360.659534
 31
0.0
  0
LINE
  8
LC-006-005-----0
  6
CONTINUOUS
  5
F0
 10
188.479855
 20
346.092871
 30
0.0
 11
176.866118
 21
357.706609
 31
0.0
  0
LINE
  8
LC-006-005-----0
  6
CONTINUOUS
  5
F1
 10
186.496253
 20
342.419619
 30
0.0
 11
177.178977
 21
351.736895
 31
0.0
  0
LINE
  8
LC-006-005-----0
  6
CONTINUOUS
  5
F2
 10
183.67069
 20
342.416755
 30
0.0
 11
177.335407
 21
348.752038
 31
0.0
  0
ENDBLK
  8
0
  5
F3
  0
BLOCK
  8
0
  5
F5
  2
*X20
 70
    65
 10
223.222312
 20
328.416755
 30
0.0
  3
*X20
  0
LINE
  8
LC-006-005-----0
  6
CONTINUOUS
  5
F6
 10
353.044768
 20
356.89044
 30
0.0
 11
347.518453
 21
362.416755
 31
0.0
  0
LINE
  8
LC-006-005-----0
  6
CONTINUOUS
  5
F7
 10
352.903918
 20
354.202863
 30
0.0
 11
344.690026
 21
362.416755
 31
0.0
  0
LINE
  8
LC-006-005-----0
  6
CONTINUOUS
  5
F8
 10
352.622218
 20
348.827709
 30
0.0
 11
339.033172
 21
362.416755
 31
0.0
  0
LINE
  8
LC-006-005-----0
  6
CONTINUOUS
  5
F9
 10
352.481368
 20
346.140131
 30
0.0
 11
336.204744
 21
362.416755
 31
0.0
  0
LINE
  8
LC-006-005-----0
  6
CONTINUOUS
  5
FA
 10
350.541978
 20
342.422668
 30
0.0
 11
330.54789
 21
362.416755
 31
0.0
  0
LINE
  8
LC-006-005-----0
  6
CONTINUOUS
  5
FB
 10
349.736916
 20
340.399303
 30
0.0
 11
327.719463
 21
362.416755
 31
0.0
  0
LINE
  8
LC-006-005-----0
  6
CONTINUOUS
  5
FC
 10
345.141091
 20
339.338273
 30
0.0
 11
322.062609
 21
362.416755
 31
0.0
  0
LINE
  8
LC-006-005-----0
  6
CONTINUOUS
  5
FD
 10
342.843179
 20
338.807758
 30
0.0
 11
319.234182
 21
362.416755
 31
0.0
  0
LINE
  8
LC-006-005-----0
  6
CONTINUOUS
  5
FE
 10
338.247355
 20
337.746728
 30
0.0
 11
313.577327
 21
362.416755
 31
0.0
  0
LINE
  8
LC-006-005-----0
  6
CONTINUOUS
  5
FF
 10
335.949442
 20
337.216213
 30
0.0
 11
310.7489
 21
362.416755
 31
0.0
  0
LINE
  8
LC-006-005-----0
  6
CONTINUOUS
  5
100
 10
331.353618
 20
336.155184
 30
0.0
 11
305.092046
 21
362.416755
 31
0.0
  0
LINE
  8
LC-006-005-----0
  6
CONTINUOUS
  5
101
 10
329.055705
 20
335.624669
 30
0.0
 11
302.263619
 21
362.416755
 31
0.0
  0
LINE
  8
LC-006-005-----0
  6
CONTINUOUS
  5
102
 10
324.459881
 20
334.563639
 30
0.0
 11
296.606765
 21
362.416755
 31
0.0
  0
LINE
  8
LC-006-005-----0
  6
CONTINUOUS
  5
103
 10
322.161969
 20
334.033124
 30
0.0
 11
293.778338
 21
362.416755
 31
0.0
  0
LINE
  8
LC-006-005-----0
  6
CONTINUOUS
  5
104
 10
317.566144
 20
332.972095
 30
0.0
 11
288.121483
 21
362.416755
 31
0.0
  0
LINE
  8
LC-006-005-----0
  6
CONTINUOUS
  5
105
 10
315.268232
 20
332.44158
 30
0.0
 11
285.293056
 21
362.416755
 31
0.0
  0
LINE
  8
LC-006-005-----0
  6
CONTINUOUS
  5
106
 10
310.672407
 20
331.38055
 30
0.0
 11
279.636202
 21
362.416755
 31
0.0
  0
LINE
  8
LC-006-005-----0
  6
CONTINUOUS
  5
107
 10
308.374495
 20
330.850035
 30
0.0
 11
276.807775
 21
362.416755
 31
0.0
  0
LINE
  8
LC-006-005-----0
  6
CONTINUOUS
  5
108
 10
303.77867
 20
329.789006
 30
0.0
 11
271.150921
 21
362.416755
 31
0.0
  0
LINE
  8
LC-006-005-----0
  6
CONTINUOUS
  5
109
 10
301.480758
 20
329.258491
 30
0.0
 11
268.322493
 21
362.416755
 31
0.0
  0
LINE
  8
LC-006-005-----0
  6
CONTINUOUS
  5
10A
 10
296.665639
 20
328.416755
 30
0.0
 11
262.665639
 21
362.416755
 31
0.0
  0
LINE
  8
LC-006-005-----0
  6
CONTINUOUS
  5
10B
 10
293.837212
 20
328.416755
 30
0.0
 11
259.837212
 21
362.416755
 31
0.0
  0
LINE
  8
LC-006-005-----0
  6
CONTINUOUS
  5
10C
 10
288.180358
 20
328.416755
 30
0.0
 11
254.180358
 21
362.416755
 31
0.0
  0
LINE
  8
LC-006-005-----0
  6
CONTINUOUS
  5
10D
 10
285.351931
 20
328.416755
 30
0.0
 11
251.351931
 21
362.416755
 31
0.0
  0
LINE
  8
LC-006-005-----0
  6
CONTINUOUS
  5
10E
 10
279.695076
 20
328.416755
 30
0.0
 11
245.695076
 21
362.416755
 31
0.0
  0
LINE
  8
LC-006-005-----0
  6
CONTINUOUS
  5
10F
 10
276.339871
 20
328.943534
 30
0.0
 11
242.866649
 21
362.416755
 31
0.0
  0
LINE
  8
LC-006-005-----0
  6
CONTINUOUS
  5
110
 10
268.985014
 20
330.641536
 30
0.0
 11
237.209795
 21
362.416755
 31
0.0
  0
LINE
  8
LC-006-005-----0
  6
CONTINUOUS
  5
111
 10
265.307586
 20
331.490537
 30
0.0
 11
234.381368
 21
362.416755
 31
0.0
  0
LINE
  8
LC-006-005-----0
  6
CONTINUOUS
  5
112
 10
257.952729
 20
333.18854
 30
0.0
 11
228.724514
 21
362.416755
 31
0.0
  0
LINE
  8
LC-006-005-----0
  6
CONTINUOUS
  5
113
 10
254.275301
 20
334.037541
 30
0.0
 11
225.896087
 21
362.416755
 31
0.0
  0
LINE
  8
LC-006-005-----0
  6
CONTINUOUS
  5
114
 10
246.920444
 20
335.735544
 30
0.0
 11
223.273786
 21
359.382202
 31
0.0
  0
LINE
  8
LC-006-005-----0
  6
CONTINUOUS
  5
115
 10
243.243016
 20
336.584545
 30
0.0
 11
223.430215
 21
356.397345
 31
0.0
  0
LINE
  8
LC-006-005-----0
  6
CONTINUOUS
  5
116
 10
235.888159
 20
338.282547
 30
0.0
 11
223.743075
 21
350.427632
 31
0.0
  0
LINE
  8
LC-006-005-----0
  6
CONTINUOUS
  5
117
 10
232.210731
 20
339.131549
 30
0.0
 11
223.899505
 21
347.442775
 31
0.0
  0
ENDBLK
  8
0
  5
118
  0
BLOCK
  8
0
  5
11A
  2
*X21
 70
    65
 10
213.904035
 20
335.353504
 30
0.0
  3
*X21
  0
LINE
  8
LC-006-005-----0
  6
CONTINUOUS
  5
11B
 10
225.229675
 20
335.538333
 30
0.0
 11
228.057049
 21
338.365707
 31
0.0
  0
LINE
  8
LC-006-005-----0
  6
CONTINUOUS
  5
11C
 10
222.706614
 20
335.843699
 30
0.0
 11
226.3008
 21
339.437885
 31
0.0
  0
LINE
  8
LC-006-005-----0
  6
CONTINUOUS
  5
11D
 10
220.183553
 20
336.149065
 30
0.0
 11
223.777739
 21
339.743251
 31
0.0
  0
LINE
  8
LC-006-005-----0
  6
CONTINUOUS
  5
11E
 10
217.660492
 20
336.454431
 30
0.0
 11
221.254678
 21
340.048617
 31
0.0
  0
LINE
  8
LC-006-005-----0
  6
CONTINUOUS
  5
11F
 10
215.137431
 20
336.759797
 30
0.0
 11
218.731617
 21
340.353983
 31
0.0
  0
LINE
  8
LC-006-005-----0
  6
CONTINUOUS
  5
120
 10
213.972771
 20
338.423565
 30
0.0
 11
216.208556
 21
340.659349
 31
0.0
  0
ENDBLK
  8
0
  5
121
  0
BLOCK
  8
0
  5
123
  2
*X22
 70
    65
 10
383.22683
 20
342.416755
 30
0.0
  3
*X22
  0
LINE
  8
LC-006-005-----0
  6
CONTINUOUS
  5
124
 10
399.500248
 20
361.346648
 30
0.0
 11
398.659463
 21
362.187433
 31
0.0
  0
LINE
  8
LC-006-005-----0
  6
CONTINUOUS
  5
125
 10
399.485366
 20
355.704676
 30
0.0
 11
392.773287
 21
362.416755
 31
0.0
  0
LINE
  8
LC-006-005-----0
  6
CONTINUOUS
  5
126
 10
399.344516
 20
353.017099
 30
0.0
 11
389.94486
 21
362.416755
 31
0.0
  0
LINE
  8
LC-006-005-----0
  6
CONTINUOUS
  5
127
 10
399.062816
 20
347.641945
 30
0.0
 11
384.446511
 21
362.25825
 31
0.0
  0
LINE
  8
LC-006-005-----0
  6
CONTINUOUS
  5
128
 10
398.921966
 20
344.954368
 30
0.0
 11
383.239028
 21
360.637306
 31
0.0
  0
LINE
  8
LC-006-005-----0
  6
CONTINUOUS
  5
129
 10
395.802724
 20
342.416755
 30
0.0
 11
383.52392
 21
354.695559
 31
0.0
  0
LINE
  8
LC-006-005-----0
  6
CONTINUOUS
  5
12A
 10
392.974297
 20
342.416755
 30
0.0
 11
383.68035
 21
351.710702
 31
0.0
  0
LINE
  8
LC-006-005-----0
  6
CONTINUOUS
  5
12B
 10
387.317443
 20
342.416755
 30
0.0
 11
383.993209
 21
345.740989
 31
0.0
  0
ENDBLK
  8
0
  5
12C
  0
BLOCK
  8
0
  5
12E
  2
*X23
 70
    65
 10
299.320771
 20
282.321671
 30
0.0
  3
*X23
  0
LINE
  8
LC-006-005-----0
  6
CONTINUOUS
  5
12F
 10
349.348177
 20
284.294353
 30
0.0
 11
357.411633
 21
292.357809
 31
0.0
  0
LINE
  8
LC-006-005-----0
  6
CONTINUOUS
  5
130
 10
346.177237
 20
283.95184
 30
0.0
 11
348.350626
 21
286.12523
 31
0.0
  0
LINE
  8
LC-006-005-----0
  6
CONTINUOUS
  5
131
 10
355.580755
 20
293.355359
 30
0.0
 11
361.048525
 21
298.823128
 31
0.0
  0
LINE
  8
LC-006-005-----0
  6
CONTINUOUS
  5
132
 10
343.246465
 20
283.849495
 30
0.0
 11
345.320097
 21
285.923127
 31
0.0
  0
LINE
  8
LC-006-005-----0
  6
CONTINUOUS
  5
133
 10
355.7282
 20
296.331231
 30
0.0
 11
361.319706
 21
301.922736
 31
0.0
  0
LINE
  8
LC-006-005-----0
  6
CONTINUOUS
  5
134
 10
340.315693
 20
283.74715
 30
0.0
 11
342.389325
 21
285.820782
 31
0.0
  0
LINE
  8
LC-006-005-----0
  6
CONTINUOUS
  5
135
 10
358.290698
 20
301.722155
 30
0.0
 11
361.590886
 21
305.022344
 31
0.0
  0
LINE
  8
LC-006-005-----0
  6
CONTINUOUS
  5
136
 10
337.384921
 20
283.644805
 30
0.0
 11
339.458553
 21
285.718437
 31
0.0
  0
LINE
  8
LC-006-005-----0
  6
CONTINUOUS
  5
137
 10
358.561878
 20
304.821763
 30
0.0
 11
361.862067
 21
308.121951
 31
0.0
  0
LINE
  8
LC-006-005-----0
  6
CONTINUOUS
  5
138
 10
334.454149
 20
283.542461
 30
0.0
 11
336.527781
 21
285.616093
 31
0.0
  0
LINE
  8
LC-006-005-----0
  6
CONTINUOUS
  5
139
 10
358.833059
 20
307.92137
 30
0.0
 11
362.133247
 21
311.221559
 31
0.0
  0
LINE
  8
LC-006-005-----0
  6
CONTINUOUS
  5
13A
 10
331.523377
 20
283.440116
 30
0.0
 11
333.597009
 21
285.513748
 31
0.0
  0
LINE
  8
LC-006-005-----0
  6
CONTINUOUS
  5
13B
 10
359.104239
 20
311.020978
 30
0.0
 11
362.404428
 21
314.321167
 31
0.0
  0
LINE
  8
LC-006-005-----0
  6
CONTINUOUS
  5
13C
 10
328.592605
 20
283.337771
 30
0.0
 11
330.666237
 21
285.411403
 31
0.0
  0
LINE
  8
LC-006-005-----0
  6
CONTINUOUS
  5
13D
 10
359.37542
 20
314.120586
 30
0.0
 11
362.675608
 21
317.420774
 31
0.0
  0
LINE
  8
LC-006-005-----0
  6
CONTINUOUS
  5
13E
 10
381.974408
 20
336.719574
 30
0.0
 11
384.2282
 21
338.973366
 31
0.0
  0
LINE
  8
LC-006-005-----0
  6
CONTINUOUS
  5
13F
 10
325.661833
 20
283.235426
 30
0.0
 11
327.735465
 21
285.309058
 31
0.0
  0
LINE
  8
LC-006-005-----0
  6
CONTINUOUS
  5
140
 10
359.6466
 20
317.220193
 30
0.0
 11
362.946789
 21
320.520382
 31
0.0
  0
LINE
  8
LC-006-005-----0
  6
CONTINUOUS
  5
141
 10
378.8748
 20
336.448394
 30
0.0
 11
382.174989
 21
339.748582
 31
0.0
  0
LINE
  8
LC-006-005-----0
  6
CONTINUOUS
  5
142
 10
322.731061
 20
283.133081
 30
0.0
 11
324.804693
 21
285.206713
 31
0.0
  0
LINE
  8
LC-006-005-----0
  6
CONTINUOUS
  5
143
 10
359.917781
 20
320.319801
 30
0.0
 11
363.217969
 21
323.61999
 31
0.0
  0
LINE
  8
LC-006-005-----0
  6
CONTINUOUS
  5
144
 10
375.775193
 20
336.177213
 30
0.0
 11
379.075381
 21
339.477402
 31
0.0
  0
LINE
  8
LC-006-005-----0
  6
CONTINUOUS
  5
145
 10
319.800289
 20
283.030737
 30
0.0
 11
321.873921
 21
285.104368
 31
0.0
  0
LINE
  8
LC-006-005-----0
  6
CONTINUOUS
  5
146
 10
360.188961
 20
323.419409
 30
0.0
 11
363.48915
 21
326.719597
 31
0.0
  0
LINE
  8
LC-006-005-----0
  6
CONTINUOUS
  5
147
 10
372.675585
 20
335.906033
 30
0.0
 11
375.975774
 21
339.206221
 31
0.0
  0
LINE
  8
LC-006-005-----0
  6
CONTINUOUS
  5
148
 10
316.869517
 20
282.928392
 30
0.0
 11
318.943149
 21
285.002024
 31
0.0
  0
LINE
  8
LC-006-005-----0
  6
CONTINUOUS
  5
149
 10
360.460142
 20
326.519016
 30
0.0
 11
363.76033
 21
329.819205
 31
0.0
  0
LINE
  8
LC-006-005-----0
  6
CONTINUOUS
  5
14A
 10
369.575978
 20
335.634852
 30
0.0
 11
372.876166
 21
338.935041
 31
0.0
  0
LINE
  8
LC-006-005-----0
  6
CONTINUOUS
  5
14B
 10
313.938745
 20
282.826047
 30
0.0
 11
316.012377
 21
284.899679
 31
0.0
  0
LINE
  8
LC-006-005-----0
  6
CONTINUOUS
  5
14C
 10
360.731322
 20
329.618624
 30
0.0
 11
364.031511
 21
332.918813
 31
0.0
  0
LINE
  8
LC-006-005-----0
  6
CONTINUOUS
  5
14D
 10
366.47637
 20
335.363671
 30
0.0
 11
369.776558
 21
338.66386
 31
0.0
  0
LINE
  8
LC-006-005-----0
  6
CONTINUOUS
  5
14E
 10
311.007973
 20
282.723702
 30
0.0
 11
313.081605
 21
284.797334
 31
0.0
  0
LINE
  8
LC-006-005-----0
  6
CONTINUOUS
  5
14F
 10
361.002503
 20
332.718232
 30
0.0
 11
366.676951
 21
338.39268
 31
0.0
  0
LINE
  8
LC-006-005-----0
  6
CONTINUOUS
  5
150
 10
308.077201
 20
282.621357
 30
0.0
 11
310.150833
 21
284.694989
 31
0.0
  0
LINE
  8
LC-006-005-----0
  6
CONTINUOUS
  5
151
 10
305.146429
 20
282.519012
 30
0.0
 11
307.220061
 21
284.592644
 31
0.0
  0
LINE
  8
LC-006-005-----0
  6
CONTINUOUS
  5
152
 10
302.215658
 20
282.416668
 30
0.0
 11
304.289289
 21
284.4903
 31
0.0
  0
LINE
  8
LC-006-005-----0
  6
CONTINUOUS
  5
153
 10
299.478983
 20
282.50842
 30
0.0
 11
301.358518
 21
284.387955
 31
0.0
  0
ENDBLK
  8
0
  5
154
  0
BLOCK
  8
0
  5
156
  2
*X24
 70
    65
 10
279.296519
 20
281.928215
 30
0.0
  3
*X24
  0
LINE
  8
LC-006-005-----0
  6
CONTINUOUS
  5
157
 10
296.354114
 20
282.211978
 30
0.0
 11
297.042567
 21
282.900432
 31
0.0
  0
LINE
  8
LC-006-005-----0
  6
CONTINUOUS
  5
158
 10
293.423342
 20
282.109633
 30
0.0
 11
295.496974
 21
284.183265
 31
0.0
  0
LINE
  8
LC-006-005-----0
  6
CONTINUOUS
  5
159
 10
290.49257
 20
282.007288
 30
0.0
 11
292.566202
 21
284.08092
 31
0.0
  0
LINE
  8
LC-006-005-----0
  6
CONTINUOUS
  5
15A
 10
287.60677
 20
281.949916
 30
0.0
 11
289.63543
 21
283.978576
 31
0.0
  0
LINE
  8
LC-006-005-----0
  6
CONTINUOUS
  5
15B
 10
284.873781
 20
282.045354
 30
0.0
 11
286.807474
 21
283.979047
 31
0.0
  0
LINE
  8
LC-006-005-----0
  6
CONTINUOUS
  5
15C
 10
282.140792
 20
282.140792
 30
0.0
 11
284.074485
 21
284.074485
 31
0.0
  0
LINE
  8
LC-006-005-----0
  6
CONTINUOUS
  5
15D
 10
279.466783
 20
282.29521
 30
0.0
 11
281.341496
 21
284.169923
 31
0.0
  0
ENDBLK
  8
0
  5
15E
  0
BLOCK
  8
0
  5
160
  2
*X25
 70
    65
 10
192.2282
 20
282.321671
 30
0.0
  3
*X25
  0
LINE
  8
LC-006-005-----0
  6
CONTINUOUS
  5
161
 10
276.674814
 20
282.331668
 30
0.0
 11
276.989484
 21
282.646338
 31
0.0
  0
LINE
  8
LC-006-005-----0
  6
CONTINUOUS
  5
162
 10
273.941825
 20
282.427106
 30
0.0
 11
275.875518
 21
284.360799
 31
0.0
  0
LINE
  8
LC-006-005-----0
  6
CONTINUOUS
  5
163
 10
271.208836
 20
282.522544
 30
0.0
 11
273.142529
 21
284.456237
 31
0.0
  0
LINE
  8
LC-006-005-----0
  6
CONTINUOUS
  5
164
 10
268.475847
 20
282.617982
 30
0.0
 11
270.40954
 21
284.551675
 31
0.0
  0
LINE
  8
LC-006-005-----0
  6
CONTINUOUS
  5
165
 10
265.742858
 20
282.71342
 30
0.0
 11
267.676551
 21
284.647113
 31
0.0
  0
LINE
  8
LC-006-005-----0
  6
CONTINUOUS
  5
166
 10
263.009869
 20
282.808858
 30
0.0
 11
264.943562
 21
284.742551
 31
0.0
  0
LINE
  8
LC-006-005-----0
  6
CONTINUOUS
  5
167
 10
260.27688
 20
282.904297
 30
0.0
 11
262.210573
 21
284.83799
 31
0.0
  0
LINE
  8
LC-006-005-----0
  6
CONTINUOUS
  5
168
 10
257.54389
 20
282.999735
 30
0.0
 11
259.477584
 21
284.933428
 31
0.0
  0
LINE
  8
LC-006-005-----0
  6
CONTINUOUS
  5
169
 10
254.810901
 20
283.095173
 30
0.0
 11
256.744594
 21
285.028866
 31
0.0
  0
LINE
  8
LC-006-005-----0
  6
CONTINUOUS
  5
16A
 10
252.077912
 20
283.190611
 30
0.0
 11
254.011605
 21
285.124304
 31
0.0
  0
LINE
  8
LC-006-005-----0
  6
CONTINUOUS
  5
16B
 10
249.344923
 20
283.286049
 30
0.0
 11
251.278616
 21
285.219742
 31
0.0
  0
LINE
  8
LC-006-005-----0
  6
CONTINUOUS
  5
16C
 10
246.611934
 20
283.381487
 30
0.0
 11
248.545627
 21
285.31518
 31
0.0
  0
LINE
  8
LC-006-005-----0
  6
CONTINUOUS
  5
16D
 10
243.878945
 20
283.476925
 30
0.0
 11
245.812638
 21
285.410618
 31
0.0
  0
LINE
  8
LC-006-005-----0
  6
CONTINUOUS
  5
16E
 10
241.145956
 20
283.572363
 30
0.0
 11
243.079649
 21
285.506056
 31
0.0
  0
LINE
  8
LC-006-005-----0
  6
CONTINUOUS
  5
16F
 10
238.412967
 20
283.667801
 30
0.0
 11
240.34666
 21
285.601494
 31
0.0
  0
LINE
  8
LC-006-005-----0
  6
CONTINUOUS
  5
170
 10
235.679978
 20
283.763239
 30
0.0
 11
237.613671
 21
285.696932
 31
0.0
  0
LINE
  8
LC-006-005-----0
  6
CONTINUOUS
  5
171
 10
232.946989
 20
283.858677
 30
0.0
 11
234.880682
 21
285.79237
 31
0.0
  0
LINE
  8
LC-006-005-----0
  6
CONTINUOUS
  5
172
 10
230.214
 20
283.954115
 30
0.0
 11
232.147693
 21
285.887808
 31
0.0
  0
LINE
  8
LC-006-005-----0
  6
CONTINUOUS
  5
173
 10
227.614275
 20
284.182818
 30
0.0
 11
229.414704
 21
285.983247
 31
0.0
  0
LINE
  8
LC-006-005-----0
  6
CONTINUOUS
  5
174
 10
225.447794
 20
284.844764
 30
0.0
 11
227.003249
 21
286.400219
 31
0.0
  0
LINE
  8
LC-006-005-----0
  6
CONTINUOUS
  5
175
 10
223.610512
 20
285.835909
 30
0.0
 11
225.058582
 21
287.283978
 31
0.0
  0
LINE
  8
LC-006-005-----0
  6
CONTINUOUS
  5
176
 10
222.048522
 20
287.102346
 30
0.0
 11
223.462872
 21
288.516696
 31
0.0
  0
LINE
  8
LC-006-005-----0
  6
CONTINUOUS
  5
177
 10
220.745886
 20
288.628137
 30
0.0
 11
222.185531
 21
290.067782
 31
0.0
  0
LINE
  8
LC-006-005-----0
  6
CONTINUOUS
  5
178
 10
219.714514
 20
290.425193
 30
0.0
 11
221.249253
 21
291.959931
 31
0.0
  0
LINE
  8
LC-006-005-----0
  6
CONTINUOUS
  5
179
 10
219.001574
 20
292.540679
 30
0.0
 11
220.754262
 21
294.293367
 31
0.0
  0
LINE
  8
LC-006-005-----0
  6
CONTINUOUS
  5
17A
 10
218.70416
 20
295.071693
 30
0.0
 11
220.485412
 21
296.852944
 31
0.0
  0
LINE
  8
LC-006-005-----0
  6
CONTINUOUS
  5
17B
 10
217.289947
 20
296.485906
 30
0.0
 11
219.071198
 21
298.267158
 31
0.0
  0
LINE
  8
LC-006-005-----0
  6
CONTINUOUS
  5
17C
 10
215.875733
 20
297.90012
 30
0.0
 11
218.288958
 21
300.313345
 31
0.0
  0
LINE
  8
LC-006-005-----0
  6
CONTINUOUS
  5
17D
 10
215.292223
 20
300.145037
 30
0.0
 11
218.06141
 21
302.914224
 31
0.0
  0
LINE
  8
LC-006-005-----0
  6
CONTINUOUS
  5
17E
 10
215.064676
 20
302.745917
 30
0.0
 11
217.833863
 21
305.515104
 31
0.0
  0
LINE
  8
LC-006-005-----0
  6
CONTINUOUS
  5
17F
 10
214.837128
 20
305.346796
 30
0.0
 11
217.606316
 21
308.115984
 31
0.0
  0
LINE
  8
LC-006-005-----0
  6
CONTINUOUS
  5
180
 10
214.609581
 20
307.947676
 30
0.0
 11
217.378768
 21
310.716863
 31
0.0
  0
LINE
  8
LC-006-005-----0
  6
CONTINUOUS
  5
181
 10
214.382034
 20
310.548556
 30
0.0
 11
217.151221
 21
313.317743
 31
0.0
  0
LINE
  8
LC-006-005-----0
  6
CONTINUOUS
  5
182
 10
214.154486
 20
313.149435
 30
0.0
 11
216.923673
 21
315.918622
 31
0.0
  0
LINE
  8
LC-006-005-----0
  6
CONTINUOUS
  5
183
 10
213.926939
 20
315.750315
 30
0.0
 11
216.696126
 21
318.519502
 31
0.0
  0
LINE
  8
LC-006-005-----0
  6
CONTINUOUS
  5
184
 10
213.699391
 20
318.351195
 30
0.0
 11
216.468578
 21
321.120382
 31
0.0
  0
LINE
  8
LC-006-005-----0
  6
CONTINUOUS
  5
185
 10
213.471844
 20
320.952074
 30
0.0
 11
216.241031
 21
323.721261
 31
0.0
  0
LINE
  8
LC-006-005-----0
  6
CONTINUOUS
  5
186
 10
213.244296
 20
323.552954
 30
0.0
 11
216.013483
 21
326.322141
 31
0.0
  0
LINE
  8
LC-006-005-----0
  6
CONTINUOUS
  5
187
 10
213.016749
 20
326.153834
 30
0.0
 11
215.785936
 21
328.923021
 31
0.0
  0
LINE
  8
LC-006-005-----0
  6
CONTINUOUS
  5
188
 10
212.789201
 20
328.754713
 30
0.0
 11
215.558388
 21
331.5239
 31
0.0
  0
LINE
  8
LC-006-005-----0
  6
CONTINUOUS
  5
189
 10
212.561654
 20
331.355593
 30
0.0
 11
215.318946
 21
334.112885
 31
0.0
  0
LINE
  8
LC-006-005-----0
  6
CONTINUOUS
  5
18A
 10
212.291987
 20
333.914354
 30
0.0
 11
214.514008
 21
336.136374
 31
0.0
  0
LINE
  8
LC-006-005-----0
  6
CONTINUOUS
  5
18B
 10
210.82125
 20
335.272043
 30
0.0
 11
213.079829
 21
337.530623
 31
0.0
  0
LINE
  8
LC-006-005-----0
  6
CONTINUOUS
  5
18C
 10
208.236951
 20
335.516171
 30
0.0
 11
211.00294
 21
338.28216
 31
0.0
  0
LINE
  8
LC-006-005-----0
  6
CONTINUOUS
  5
18D
 10
205.636071
 20
335.743719
 30
0.0
 11
208.405258
 21
338.512906
 31
0.0
  0
LINE
  8
LC-006-005-----0
  6
CONTINUOUS
  5
18E
 10
203.035191
 20
335.971266
 30
0.0
 11
205.804378
 21
338.740453
 31
0.0
  0
LINE
  8
LC-006-005-----0
  6
CONTINUOUS
  5
18F
 10
200.434312
 20
336.198814
 30
0.0
 11
203.203499
 21
338.968001
 31
0.0
  0
LINE
  8
LC-006-005-----0
  6
CONTINUOUS
  5
190
 10
197.833432
 20
336.426361
 30
0.0
 11
200.602619
 21
339.195548
 31
0.0
  0
LINE
  8
LC-006-005-----0
  6
CONTINUOUS
  5
191
 10
195.232552
 20
336.653909
 30
0.0
 11
198.001739
 21
339.423096
 31
0.0
  0
LINE
  8
LC-006-005-----0
  6
CONTINUOUS
  5
192
 10
192.631673
 20
336.881456
 30
0.0
 11
195.40086
 21
339.650643
 31
0.0
  0
LINE
  8
LC-006-005-----0
  6
CONTINUOUS
  5
193
 10
192.2282
 20
339.306411
 30
0.0
 11
192.79998
 21
339.878191
 31
0.0
  0
ENDBLK
  8
0
  5
194
  0
BLOCK
  8
0
  5
196
  2
*X26
 70
    65
 10
200.2282
 20
68.778595
 30
0.0
  3
*X26
  0
LINE
  8
LC-006-005-----0
  6
CONTINUOUS
  5
197
 10
306.897652
 20
69.309774
 30
0.0
 11
308.34886
 21
70.760981
 31
0.0
  0
LINE
  8
LC-006-005-----0
  6
CONTINUOUS
  5
198
 10
304.666942
 20
69.907491
 30
0.0
 11
306.708183
 21
71.948732
 31
0.0
  0
LINE
  8
LC-006-005-----0
  6
CONTINUOUS
  5
199
 10
302.436232
 20
70.505208
 30
0.0
 11
304.477473
 21
72.546449
 31
0.0
  0
LINE
  8
LC-006-005-----0
  6
CONTINUOUS
  5
19A
 10
300.205522
 20
71.102925
 30
0.0
 11
302.246763
 21
73.144166
 31
0.0
  0
LINE
  8
LC-006-005-----0
  6
CONTINUOUS
  5
19B
 10
297.974811
 20
71.700642
 30
0.0
 11
300.016053
 21
73.741883
 31
0.0
  0
LINE
  8
LC-006-005-----0
  6
CONTINUOUS
  5
19C
 10
295.744101
 20
72.298358
 30
0.0
 11
297.785343
 21
74.3396
 31
0.0
  0
LINE
  8
LC-006-005-----0
  6
CONTINUOUS
  5
19D
 10
293.513391
 20
72.896075
 30
0.0
 11
295.554633
 21
74.937317
 31
0.0
  0
LINE
  8
LC-006-005-----0
  6
CONTINUOUS
  5
19E
 10
291.282681
 20
73.493792
 30
0.0
 11
293.323923
 21
75.535034
 31
0.0
  0
LINE
  8
LC-006-005-----0
  6
CONTINUOUS
  5
19F
 10
289.051971
 20
74.091509
 30
0.0
 11
291.093212
 21
76.132751
 31
0.0
  0
LINE
  8
LC-006-005-----0
  6
CONTINUOUS
  5
1A0
 10
286.821261
 20
74.689226
 30
0.0
 11
288.862502
 21
76.730468
 31
0.0
  0
LINE
  8
LC-006-005-----0
  6
CONTINUOUS
  5
1A1
 10
284.590551
 20
75.286943
 30
0.0
 11
286.631792
 21
77.328185
 31
0.0
  0
LINE
  8
LC-006-005-----0
  6
CONTINUOUS
  5
1A2
 10
282.35984
 20
75.88466
 30
0.0
 11
284.401082
 21
77.925902
 31
0.0
  0
LINE
  8
LC-006-005-----0
  6
CONTINUOUS
  5
1A3
 10
280.12913
 20
76.482377
 30
0.0
 11
282.170372
 21
78.523619
 31
0.0
  0
LINE
  8
LC-006-005-----0
  6
CONTINUOUS
  5
1A4
 10
277.89842
 20
77.080094
 30
0.0
 11
279.939662
 21
79.121336
 31
0.0
  0
LINE
  8
LC-006-005-----0
  6
CONTINUOUS
  5
1A5
 10
275.66771
 20
77.677811
 30
0.0
 11
277.708952
 21
79.719053
 31
0.0
  0
LINE
  8
LC-006-005-----0
  6
CONTINUOUS
  5
1A6
 10
273.437
 20
78.275528
 30
0.0
 11
275.478241
 21
80.31677
 31
0.0
  0
LINE
  8
LC-006-005-----0
  6
CONTINUOUS
  5
1A7
 10
271.20629
 20
78.873245
 30
0.0
 11
273.247531
 21
80.914487
 31
0.0
  0
LINE
  8
LC-006-005-----0
  6
CONTINUOUS
  5
1A8
 10
268.97558
 20
79.470962
 30
0.0
 11
271.016821
 21
81.512204
 31
0.0
  0
LINE
  8
LC-006-005-----0
  6
CONTINUOUS
  5
1A9
 10
266.744869
 20
80.068679
 30
0.0
 11
268.786111
 21
82.109921
 31
0.0
  0
LINE
  8
LC-006-005-----0
  6
CONTINUOUS
  5
1AA
 10
264.514159
 20
80.666396
 30
0.0
 11
266.555401
 21
82.707638
 31
0.0
  0
LINE
  8
LC-006-005-----0
  6
CONTINUOUS
  5
1AB
 10
262.283449
 20
81.264113
 30
0.0
 11
264.324691
 21
83.305355
 31
0.0
  0
LINE
  8
LC-006-005-----0
  6
CONTINUOUS
  5
1AC
 10
260.052739
 20
81.86183
 30
0.0
 11
262.093981
 21
83.903072
 31
0.0
  0
LINE
  8
LC-006-005-----0
  6
CONTINUOUS
  5
1AD
 10
257.822029
 20
82.459547
 30
0.0
 11
259.86327
 21
84.500789
 31
0.0
  0
LINE
  8
LC-006-005-----0
  6
CONTINUOUS
  5
1AE
 10
255.591319
 20
83.057264
 30
0.0
 11
257.63256
 21
85.098506
 31
0.0
  0
LINE
  8
LC-006-005-----0
  6
CONTINUOUS
  5
1AF
 10
253.360609
 20
83.654981
 30
0.0
 11
255.40185
 21
85.696223
 31
0.0
  0
LINE
  8
LC-006-005-----0
  6
CONTINUOUS
  5
1B0
 10
251.129898
 20
84.252698
 30
0.0
 11
253.17114
 21
86.29394
 31
0.0
  0
LINE
  8
LC-006-005-----0
  6
CONTINUOUS
  5
1B1
 10
248.899188
 20
84.850415
 30
0.0
 11
250.94043
 21
86.891657
 31
0.0
  0
LINE
  8
LC-006-005-----0
  6
CONTINUOUS
  5
1B2
 10
246.668478
 20
85.448132
 30
0.0
 11
248.70972
 21
87.489374
 31
0.0
  0
LINE
  8
LC-006-005-----0
  6
CONTINUOUS
  5
1B3
 10
244.437768
 20
86.045849
 30
0.0
 11
246.47901
 21
88.087091
 31
0.0
  0
LINE
  8
LC-006-005-----0
  6
CONTINUOUS
  5
1B4
 10
242.207058
 20
86.643566
 30
0.0
 11
244.248299
 21
88.684808
 31
0.0
  0
LINE
  8
LC-006-005-----0
  6
CONTINUOUS
  5
1B5
 10
239.976348
 20
87.241283
 30
0.0
 11
242.017589
 21
89.282524
 31
0.0
  0
LINE
  8
LC-006-005-----0
  6
CONTINUOUS
  5
1B6
 10
237.745638
 20
87.839
 30
0.0
 11
239.786879
 21
89.880241
 31
0.0
  0
LINE
  8
LC-006-005-----0
  6
CONTINUOUS
  5
1B7
 10
235.514927
 20
88.436717
 30
0.0
 11
237.556169
 21
90.477958
 31
0.0
  0
LINE
  8
LC-006-005-----0
  6
CONTINUOUS
  5
1B8
 10
233.284217
 20
89.034434
 30
0.0
 11
235.325459
 21
91.075675
 31
0.0
  0
LINE
  8
LC-006-005-----0
  6
CONTINUOUS
  5
1B9
 10
231.053507
 20
89.632151
 30
0.0
 11
233.094749
 21
91.673392
 31
0.0
  0
LINE
  8
LC-006-005-----0
  6
CONTINUOUS
  5
1BA
 10
228.822797
 20
90.229868
 30
0.0
 11
230.864039
 21
92.271109
 31
0.0
  0
LINE
  8
LC-006-005-----0
  6
CONTINUOUS
  5
1BB
 10
226.592087
 20
90.827585
 30
0.0
 11
228.633328
 21
92.868826
 31
0.0
  0
LINE
  8
LC-006-005-----0
  6
CONTINUOUS
  5
1BC
 10
224.361377
 20
91.425302
 30
0.0
 11
226.402618
 21
93.466543
 31
0.0
  0
LINE
  8
LC-006-005-----0
  6
CONTINUOUS
  5
1BD
 10
222.131161
 20
92.023514
 30
0.0
 11
224.171908
 21
94.06426
 31
0.0
  0
LINE
  8
LC-006-005-----0
  6
CONTINUOUS
  5
1BE
 10
220.075544
 20
92.796323
 30
0.0
 11
221.979118
 21
94.699897
 31
0.0
  0
LINE
  8
LC-006-005-----0
  6
CONTINUOUS
  5
1BF
 10
218.292576
 20
93.841783
 30
0.0
 11
220.09376
 21
95.642966
 31
0.0
  0
LINE
  8
LC-006-005-----0
  6
CONTINUOUS
  5
1C0
 10
216.748067
 20
95.1257
 30
0.0
 11
218.515979
 21
96.893612
 31
0.0
  0
LINE
  8
LC-006-005-----0
  6
CONTINUOUS
  5
1C1
 10
215.431344
 20
96.637405
 30
0.0
 11
217.224018
 21
98.430079
 31
0.0
  0
LINE
  8
LC-006-005-----0
  6
CONTINUOUS
  5
1C2
 10
214.350329
 20
98.384817
 30
0.0
 11
216.233926
 21
100.268414
 31
0.0
  0
LINE
  8
LC-006-005-----0
  6
CONTINUOUS
  5
1C3
 10
213.535137
 20
100.398052
 30
0.0
 11
215.612332
 21
102.475247
 31
0.0
  0
LINE
  8
LC-006-005-----0
  6
CONTINUOUS
  5
1C4
 10
213.054908
 20
102.74625
 30
0.0
 11
215.360602
 21
105.051944
 31
0.0
  0
LINE
  8
LC-006-005-----0
  6
CONTINUOUS
  5
1C5
 10
212.825398
 20
105.345168
 30
0.0
 11
215.133054
 21
107.652823
 31
0.0
  0
LINE
  8
LC-006-005-----0
  6
CONTINUOUS
  5
1C6
 10
212.597851
 20
107.946047
 30
0.0
 11
214.905507
 21
110.253703
 31
0.0
  0
LINE
  8
LC-006-005-----0
  6
CONTINUOUS
  5
1C7
 10
212.370303
 20
110.546927
 30
0.0
 11
214.677959
 21
112.854583
 31
0.0
  0
LINE
  8
LC-006-005-----0
  6
CONTINUOUS
  5
1C8
 10
212.142756
 20
113.147807
 30
0.0
 11
214.450412
 21
115.455462
 31
0.0
  0
LINE
  8
LC-006-005-----0
  6
CONTINUOUS
  5
1C9
 10
211.915208
 20
115.748686
 30
0.0
 11
214.222864
 21
118.056342
 31
0.0
  0
LINE
  8
LC-006-005-----0
  6
CONTINUOUS
  5
1CA
 10
211.687661
 20
118.349566
 30
0.0
 11
213.995317
 21
120.657222
 31
0.0
  0
LINE
  8
LC-006-005-----0
  6
CONTINUOUS
  5
1CB
 10
211.460113
 20
120.950445
 30
0.0
 11
213.767769
 21
123.258101
 31
0.0
  0
LINE
  8
LC-006-005-----0
  6
CONTINUOUS
  5
1CC
 10
211.232566
 20
123.551325
 30
0.0
 11
213.540222
 21
125.858981
 31
0.0
  0
LINE
  8
LC-006-005-----0
  6
CONTINUOUS
  5
1CD
 10
211.005018
 20
126.152205
 30
0.0
 11
213.312674
 21
128.459861
 31
0.0
  0
LINE
  8
LC-006-005-----0
  6
CONTINUOUS
  5
1CE
 10
210.777471
 20
128.753084
 30
0.0
 11
213.085127
 21
131.06074
 31
0.0
  0
LINE
  8
LC-006-005-----0
  6
CONTINUOUS
  5
1CF
 10
210.549924
 20
131.353964
 30
0.0
 11
212.857579
 21
133.66162
 31
0.0
  0
LINE
  8
LC-006-005-----0
  6
CONTINUOUS
  5
1D0
 10
210.322376
 20
133.954844
 30
0.0
 11
212.630032
 21
136.2625
 31
0.0
  0
LINE
  8
LC-006-005-----0
  6
CONTINUOUS
  5
1D1
 10
210.094829
 20
136.555723
 30
0.0
 11
212.402484
 21
138.863379
 31
0.0
  0
LINE
  8
LC-006-005-----0
  6
CONTINUOUS
  5
1D2
 10
209.867281
 20
139.156603
 30
0.0
 11
212.174937
 21
141.464259
 31
0.0
  0
LINE
  8
LC-006-005-----0
  6
CONTINUOUS
  5
1D3
 10
209.639734
 20
141.757483
 30
0.0
 11
211.947389
 21
144.065138
 31
0.0
  0
LINE
  8
LC-006-005-----0
  6
CONTINUOUS
  5
1D4
 10
209.412186
 20
144.358362
 30
0.0
 11
211.719842
 21
146.666018
 31
0.0
  0
LINE
  8
LC-006-005-----0
  6
CONTINUOUS
  5
1D5
 10
209.184639
 20
146.959242
 30
0.0
 11
211.492294
 21
149.266898
 31
0.0
  0
LINE
  8
LC-006-005-----0
  6
CONTINUOUS
  5
1D6
 10
208.957091
 20
149.560122
 30
0.0
 11
211.264747
 21
151.867777
 31
0.0
  0
LINE
  8
LC-006-005-----0
  6
CONTINUOUS
  5
1D7
 10
208.729544
 20
152.161001
 30
0.0
 11
211.0372
 21
154.468657
 31
0.0
  0
LINE
  8
LC-006-005-----0
  6
CONTINUOUS
  5
1D8
 10
208.501996
 20
154.761881
 30
0.0
 11
210.809652
 21
157.069537
 31
0.0
  0
LINE
  8
LC-006-005-----0
  6
CONTINUOUS
  5
1D9
 10
208.274449
 20
157.36276
 30
0.0
 11
210.582105
 21
159.670416
 31
0.0
  0
LINE
  8
LC-006-005-----0
  6
CONTINUOUS
  5
1DA
 10
208.046901
 20
159.96364
 30
0.0
 11
210.354557
 21
162.271296
 31
0.0
  0
LINE
  8
LC-006-005-----0
  6
CONTINUOUS
  5
1DB
 10
207.819354
 20
162.56452
 30
0.0
 11
210.12701
 21
164.872176
 31
0.0
  0
LINE
  8
LC-006-005-----0
  6
CONTINUOUS
  5
1DC
 10
207.591806
 20
165.165399
 30
0.0
 11
209.899462
 21
167.473055
 31
0.0
  0
LINE
  8
LC-006-005-----0
  6
CONTINUOUS
  5
1DD
 10
207.364259
 20
167.766279
 30
0.0
 11
209.671915
 21
170.073935
 31
0.0
  0
LINE
  8
LC-006-005-----0
  6
CONTINUOUS
  5
1DE
 10
207.136711
 20
170.367159
 30
0.0
 11
209.4782
 21
172.708648
 31
0.0
  0
LINE
  8
LC-006-005-----0
  6
CONTINUOUS
  5
1DF
 10
204.624601
 20
170.683476
 30
0.0
 11
209.4782
 21
175.537075
 31
0.0
  0
LINE
  8
LC-006-005-----0
  6
CONTINUOUS
  5
1E0
 10
204.2282
 20
173.115502
 30
0.0
 11
204.368429
 21
173.255731
 31
0.0
  0
LINE
  8
LC-006-005-----0
  6
CONTINUOUS
  5
1E1
 10
206.988595
 20
175.875897
 30
0.0
 11
209.4782
 21
178.365502
 31
0.0
  0
LINE
  8
LC-006-005-----0
  6
CONTINUOUS
  5
1E2
 10
206.810502
 20
178.526231
 30
0.0
 11
208.754939
 21
180.470668
 31
0.0
  0
LINE
  8
LC-006-005-----0
  6
CONTINUOUS
  5
1E3
 10
204.579792
 20
179.123948
 30
0.0
 11
206.961788
 21
181.505944
 31
0.0
  0
LINE
  8
LC-006-005-----0
  6
CONTINUOUS
  5
1E4
 10
204.2282
 20
181.600783
 30
0.0
 11
205.7282
 21
183.100783
 31
0.0
  0
LINE
  8
LC-006-005-----0
  6
CONTINUOUS
  5
1E5
 10
203.017146
 20
183.218157
 30
0.0
 11
205.7282
 21
185.92921
 31
0.0
  0
LINE
  8
LC-006-005-----0
  6
CONTINUOUS
  5
1E6
 10
200.2282
 20
183.257638
 30
0.0
 11
203.188719
 21
186.218157
 31
0.0
  0
LINE
  8
LC-006-005-----0
  6
CONTINUOUS
  5
1E7
 10
200.2282
 20
186.086065
 30
0.0
 11
200.360292
 21
186.218157
 31
0.0
  0
ENDBLK
  8
0
  5
1E8
  0
BLOCK
  8
0
  5
1EA
  2
*X27
 70
    65
 10
277.157457
 20
148.526482
 30
0.0
  3
*X27
  0
LINE
  8
LC-006-005-----0
  6
CONTINUOUS
  5
1EB
 10
371.470163
 20
170.651837
 30
0.0
 11
372.2282
 21
171.409874
 31
0.0
  0
LINE
  8
LC-006-005-----0
  6
CONTINUOUS
  5
1EC
 10
368.187595
 20
170.197696
 30
0.0
 11
371.423637
 21
173.433739
 31
0.0
  0
LINE
  8
LC-006-005-----0
  6
CONTINUOUS
  5
1ED
 10
365.087987
 20
169.926516
 30
0.0
 11
369.192927
 21
174.031456
 31
0.0
  0
LINE
  8
LC-006-005-----0
  6
CONTINUOUS
  5
1EE
 10
361.98838
 20
169.655335
 30
0.0
 11
364.738537
 21
172.405493
 31
0.0
  0
LINE
  8
LC-006-005-----0
  6
CONTINUOUS
  5
1EF
 10
366.9782
 20
174.645156
 30
0.0
 11
369.246714
 21
176.913669
 31
0.0
  0
LINE
  8
LC-006-005-----0
  6
CONTINUOUS
  5
1F0
 10
371.303402
 20
178.970358
 30
0.0
 11
372.2282
 21
179.895156
 31
0.0
  0
LINE
  8
LC-006-005-----0
  6
CONTINUOUS
  5
1F1
 10
375.551201
 20
183.218157
 30
0.0
 11
376.2282
 21
183.895156
 31
0.0
  0
LINE
  8
LC-006-005-----0
  6
CONTINUOUS
  5
1F2
 10
358.888772
 20
169.384155
 30
0.0
 11
361.638929
 21
172.134312
 31
0.0
  0
LINE
  8
LC-006-005-----0
  6
CONTINUOUS
  5
1F3
 10
366.9782
 20
177.473583
 30
0.0
 11
372.2282
 21
182.723583
 31
0.0
  0
LINE
  8
LC-006-005-----0
  6
CONTINUOUS
  5
1F4
 10
372.722774
 20
183.218157
 30
0.0
 11
375.722774
 21
186.218157
 31
0.0
  0
LINE
  8
LC-006-005-----0
  6
CONTINUOUS
  5
1F5
 10
355.789165
 20
169.112974
 30
0.0
 11
358.539322
 21
171.863131
 31
0.0
  0
LINE
  8
LC-006-005-----0
  6
CONTINUOUS
  5
1F6
 10
370.7282
 20
184.05201
 30
0.0
 11
372.894347
 21
186.218157
 31
0.0
  0
LINE
  8
LC-006-005-----0
  6
CONTINUOUS
  5
1F7
 10
352.689557
 20
168.841794
 30
0.0
 11
355.439714
 21
171.591951
 31
0.0
  0
LINE
  8
LC-006-005-----0
  6
CONTINUOUS
  5
1F8
 10
349.589949
 20
168.570613
 30
0.0
 11
352.340106
 21
171.32077
 31
0.0
  0
LINE
  8
LC-006-005-----0
  6
CONTINUOUS
  5
1F9
 10
346.490342
 20
168.299433
 30
0.0
 11
349.240499
 21
171.04959
 31
0.0
  0
LINE
  8
LC-006-005-----0
  6
CONTINUOUS
  5
1FA
 10
343.390734
 20
168.028252
 30
0.0
 11
346.140891
 21
170.778409
 31
0.0
  0
LINE
  8
LC-006-005-----0
  6
CONTINUOUS
  5
1FB
 10
340.291126
 20
167.757072
 30
0.0
 11
343.041283
 21
170.507229
 31
0.0
  0
LINE
  8
LC-006-005-----0
  6
CONTINUOUS
  5
1FC
 10
337.191519
 20
167.485891
 30
0.0
 11
339.941676
 21
170.236048
 31
0.0
  0
LINE
  8
LC-006-005-----0
  6
CONTINUOUS
  5
1FD
 10
334.091911
 20
167.214711
 30
0.0
 11
336.842068
 21
169.964868
 31
0.0
  0
LINE
  8
LC-006-005-----0
  6
CONTINUOUS
  5
1FE
 10
330.992303
 20
166.94353
 30
0.0
 11
333.74246
 21
169.693687
 31
0.0
  0
LINE
  8
LC-006-005-----0
  6
CONTINUOUS
  5
1FF
 10
327.892696
 20
166.672349
 30
0.0
 11
330.642853
 21
169.422507
 31
0.0
  0
LINE
  8
LC-006-005-----0
  6
CONTINUOUS
  5
200
 10
324.793088
 20
166.401169
 30
0.0
 11
327.543245
 21
169.151326
 31
0.0
  0
LINE
  8
LC-006-005-----0
  6
CONTINUOUS
  5
201
 10
321.69348
 20
166.129988
 30
0.0
 11
324.443637
 21
168.880146
 31
0.0
  0
LINE
  8
LC-006-005-----0
  6
CONTINUOUS
  5
202
 10
318.593873
 20
165.858808
 30
0.0
 11
321.34403
 21
168.608965
 31
0.0
  0
LINE
  8
LC-006-005-----0
  6
CONTINUOUS
  5
203
 10
315.494265
 20
165.587627
 30
0.0
 11
318.244422
 21
168.337785
 31
0.0
  0
LINE
  8
LC-006-005-----0
  6
CONTINUOUS
  5
204
 10
312.394657
 20
165.316447
 30
0.0
 11
315.144814
 21
168.066604
 31
0.0
  0
LINE
  8
LC-006-005-----0
  6
CONTINUOUS
  5
205
 10
309.29505
 20
165.045266
 30
0.0
 11
312.045207
 21
167.795423
 31
0.0
  0
LINE
  8
LC-006-005-----0
  6
CONTINUOUS
  5
206
 10
306.195442
 20
164.774086
 30
0.0
 11
308.945599
 21
167.524243
 31
0.0
  0
LINE
  8
LC-006-005-----0
  6
CONTINUOUS
  5
207
 10
287.202303
 20
148.609373
 30
0.0
 11
287.428765
 21
148.835836
 31
0.0
  0
LINE
  8
LC-006-005-----0
  6
CONTINUOUS
  5
208
 10
303.095834
 20
164.502905
 30
0.0
 11
305.845992
 21
167.253062
 31
0.0
  0
LINE
  8
LC-006-005-----0
  6
CONTINUOUS
  5
209
 10
284.971592
 20
149.20709
 30
0.0
 11
286.831048
 21
151.066546
 31
0.0
  0
LINE
  8
LC-006-005-----0
  6
CONTINUOUS
  5
20A
 10
299.996227
 20
164.231725
 30
0.0
 11
302.746384
 21
166.981882
 31
0.0
  0
LINE
  8
LC-006-005-----0
  6
CONTINUOUS
  5
20B
 10
282.740882
 20
149.804807
 30
0.0
 11
284.782124
 21
151.846049
 31
0.0
  0
LINE
  8
LC-006-005-----0
  6
CONTINUOUS
  5
20C
 10
296.896619
 20
163.960544
 30
0.0
 11
299.646776
 21
166.710701
 31
0.0
  0
LINE
  8
LC-006-005-----0
  6
CONTINUOUS
  5
20D
 10
280.510172
 20
150.402524
 30
0.0
 11
282.551414
 21
152.443766
 31
0.0
  0
LINE
  8
LC-006-005-----0
  6
CONTINUOUS
  5
20E
 10
293.797011
 20
163.689364
 30
0.0
 11
296.547169
 21
166.439521
 31
0.0
  0
LINE
  8
LC-006-005-----0
  6
CONTINUOUS
  5
20F
 10
278.279462
 20
151.000241
 30
0.0
 11
280.320703
 21
153.041483
 31
0.0
  0
LINE
  8
LC-006-005-----0
  6
CONTINUOUS
  5
210
 10
290.697404
 20
163.418183
 30
0.0
 11
293.447561
 21
166.16834
 31
0.0
  0
LINE
  8
LC-006-005-----0
  6
CONTINUOUS
  5
211
 10
277.672009
 20
153.221216
 30
0.0
 11
281.207543
 21
156.75675
 31
0.0
  0
LINE
  8
LC-006-005-----0
  6
CONTINUOUS
  5
212
 10
287.597796
 20
163.147003
 30
0.0
 11
290.347953
 21
165.89716
 31
0.0
  0
LINE
  8
LC-006-005-----0
  6
CONTINUOUS
  5
213
 10
278.707286
 20
157.084919
 30
0.0
 11
282.976424
 21
161.354057
 31
0.0
  0
LINE
  8
LC-006-005-----0
  6
CONTINUOUS
  5
214
 10
283.429016
 20
161.806649
 30
0.0
 11
287.248346
 21
165.625979
 31
0.0
  0
LINE
  8
LC-006-005-----0
  6
CONTINUOUS
  5
215
 10
279.865822
 20
161.071882
 30
0.0
 11
283.71119
 21
164.917251
 31
0.0
  0
ENDBLK
  8
0
  5
216
  0
BLOCK
  8
0
  5
218
  2
*X28
 70
    65
 10
129.709437
 20
54.218157
 30
0.0
  3
*X28
  0
LINE
  8
LC-006-005-----0
  6
CONTINUOUS
  5
219
 10
458.209437
 20
56.5643
 30
0.0
 11
456.55558
 21
58.218157
 31
0.0
  0
LINE
  8
LC-006-005-----0
  6
CONTINUOUS
  5
21A
 10
456.87811
 20
55.0672
 30
0.0
 11
453.727153
 21
58.218157
 31
0.0
  0
LINE
  8
LC-006-005-----0
  6
CONTINUOUS
  5
21B
 10
454.647399
 20
54.469483
 30
0.0
 11
450.898726
 21
58.218157
 31
0.0
  0
LINE
  8
LC-006-005-----0
  6
CONTINUOUS
  5
21C
 10
452.070299
 20
54.218157
 30
0.0
 11
448.070299
 21
58.218157
 31
0.0
  0
LINE
  8
LC-006-005-----0
  6
CONTINUOUS
  5
21D
 10
449.241872
 20
54.218157
 30
0.0
 11
445.241872
 21
58.218157
 31
0.0
  0
LINE
  8
LC-006-005-----0
  6
CONTINUOUS
  5
21E
 10
446.413445
 20
54.218157
 30
0.0
 11
442.413445
 21
58.218157
 31
0.0
  0
LINE
  8
LC-006-005-----0
  6
CONTINUOUS
  5
21F
 10
443.585017
 20
54.218157
 30
0.0
 11
439.585017
 21
58.218157
 31
0.0
  0
LINE
  8
LC-006-005-----0
  6
CONTINUOUS
  5
220
 10
440.75659
 20
54.218157
 30
0.0
 11
436.75659
 21
58.218157
 31
0.0
  0
LINE
  8
LC-006-005-----0
  6
CONTINUOUS
  5
221
 10
437.928163
 20
54.218157
 30
0.0
 11
433.928163
 21
58.218157
 31
0.0
  0
LINE
  8
LC-006-005-----0
  6
CONTINUOUS
  5
222
 10
435.099736
 20
54.218157
 30
0.0
 11
431.099736
 21
58.218157
 31
0.0
  0
LINE
  8
LC-006-005-----0
  6
CONTINUOUS
  5
223
 10
432.271309
 20
54.218157
 30
0.0
 11
428.271309
 21
58.218157
 31
0.0
  0
LINE
  8
LC-006-005-----0
  6
CONTINUOUS
  5
224
 10
429.442882
 20
54.218157
 30
0.0
 11
425.442882
 21
58.218157
 31
0.0
  0
LINE
  8
LC-006-005-----0
  6
CONTINUOUS
  5
225
 10
426.614455
 20
54.218157
 30
0.0
 11
422.614455
 21
58.218157
 31
0.0
  0
LINE
  8
LC-006-005-----0
  6
CONTINUOUS
  5
226
 10
423.786028
 20
54.218157
 30
0.0
 11
419.786028
 21
58.218157
 31
0.0
  0
LINE
  8
LC-006-005-----0
  6
CONTINUOUS
  5
227
 10
420.9576
 20
54.218157
 30
0.0
 11
416.9576
 21
58.218157
 31
0.0
  0
LINE
  8
LC-006-005-----0
  6
CONTINUOUS
  5
228
 10
418.129173
 20
54.218157
 30
0.0
 11
414.129173
 21
58.218157
 31
0.0
  0
LINE
  8
LC-006-005-----0
  6
CONTINUOUS
  5
229
 10
415.300746
 20
54.218157
 30
0.0
 11
411.300746
 21
58.218157
 31
0.0
  0
LINE
  8
LC-006-005-----0
  6
CONTINUOUS
  5
22A
 10
412.472319
 20
54.218157
 30
0.0
 11
408.472319
 21
58.218157
 31
0.0
  0
LINE
  8
LC-006-005-----0
  6
CONTINUOUS
  5
22B
 10
409.643892
 20
54.218157
 30
0.0
 11
405.643892
 21
58.218157
 31
0.0
  0
LINE
  8
LC-006-005-----0
  6
CONTINUOUS
  5
22C
 10
406.815465
 20
54.218157
 30
0.0
 11
402.815465
 21
58.218157
 31
0.0
  0
LINE
  8
LC-006-005-----0
  6
CONTINUOUS
  5
22D
 10
403.987038
 20
54.218157
 30
0.0
 11
399.987038
 21
58.218157
 31
0.0
  0
LINE
  8
LC-006-005-----0
  6
CONTINUOUS
  5
22E
 10
401.158611
 20
54.218157
 30
0.0
 11
397.158611
 21
58.218157
 31
0.0
  0
LINE
  8
LC-006-005-----0
  6
CONTINUOUS
  5
22F
 10
398.330183
 20
54.218157
 30
0.0
 11
394.330183
 21
58.218157
 31
0.0
  0
LINE
  8
LC-006-005-----0
  6
CONTINUOUS
  5
230
 10
395.501756
 20
54.218157
 30
0.0
 11
391.501756
 21
58.218157
 31
0.0
  0
LINE
  8
LC-006-005-----0
  6
CONTINUOUS
  5
231
 10
392.673329
 20
54.218157
 30
0.0
 11
388.673329
 21
58.218157
 31
0.0
  0
LINE
  8
LC-006-005-----0
  6
CONTINUOUS
  5
232
 10
389.844902
 20
54.218157
 30
0.0
 11
385.844902
 21
58.218157
 31
0.0
  0
LINE
  8
LC-006-005-----0
  6
CONTINUOUS
  5
233
 10
387.016475
 20
54.218157
 30
0.0
 11
383.016475
 21
58.218157
 31
0.0
  0
LINE
  8
LC-006-005-----0
  6
CONTINUOUS
  5
234
 10
384.188048
 20
54.218157
 30
0.0
 11
380.188048
 21
58.218157
 31
0.0
  0
LINE
  8
LC-006-005-----0
  6
CONTINUOUS
  5
235
 10
381.359621
 20
54.218157
 30
0.0
 11
377.359621
 21
58.218157
 31
0.0
  0
LINE
  8
LC-006-005-----0
  6
CONTINUOUS
  5
236
 10
378.531194
 20
54.218157
 30
0.0
 11
374.410554
 21
58.338796
 31
0.0
  0
LINE
  8
LC-006-005-----0
  6
CONTINUOUS
  5
237
 10
375.702766
 20
54.218157
 30
0.0
 11
371.310946
 21
58.609977
 31
0.0
  0
LINE
  8
LC-006-005-----0
  6
CONTINUOUS
  5
238
 10
372.61159
 20
54.480906
 30
0.0
 11
368.211338
 21
58.881157
 31
0.0
  0
LINE
  8
LC-006-005-----0
  6
CONTINUOUS
  5
239
 10
189.209437
 20
237.883059
 30
0.0
 11
186.874339
 21
240.218157
 31
0.0
  0
LINE
  8
LC-006-005-----0
  6
CONTINUOUS
  5
23A
 10
369.511982
 20
54.752086
 30
0.0
 11
365.111731
 21
59.152338
 31
0.0
  0
LINE
  8
LC-006-005-----0
  6
CONTINUOUS
  5
23B
 10
189.209437
 20
235.054632
 30
0.0
 11
185.209437
 21
239.054632
 31
0.0
  0
LINE
  8
LC-006-005-----0
  6
CONTINUOUS
  5
23C
 10
366.412375
 20
55.023267
 30
0.0
 11
362.012123
 21
59.423518
 31
0.0
  0
LINE
  8
LC-006-005-----0
  6
CONTINUOUS
  5
23D
 10
189.209437
 20
232.226205
 30
0.0
 11
185.209437
 21
236.226205
 31
0.0
  0
LINE
  8
LC-006-005-----0
  6
CONTINUOUS
  5
23E
 10
363.312767
 20
55.294448
 30
0.0
 11
358.912515
 21
59.694699
 31
0.0
  0
LINE
  8
LC-006-005-----0
  6
CONTINUOUS
  5
23F
 10
189.209437
 20
229.397778
 30
0.0
 11
184.389058
 21
234.218157
 31
0.0
  0
LINE
  8
LC-006-005-----0
  6
CONTINUOUS
  5
240
 10
179.959437
 20
238.647778
 30
0.0
 11
178.393433
 21
240.213781
 31
0.0
  0
LINE
  8
LC-006-005-----0
  6
CONTINUOUS
  5
241
 10
360.213159
 20
55.565628
 30
0.0
 11
355.812908
 21
59.96588
 31
0.0
  0
LINE
  8
LC-006-005-----0
  6
CONTINUOUS
  5
242
 10
189.209437
 20
226.569351
 30
0.0
 11
185.102457
 21
230.67633
 31
0.0
  0
LINE
  8
LC-006-005-----0
  6
CONTINUOUS
  5
243
 10
184.671072
 20
231.107715
 30
0.0
 11
181.560631
 21
234.218157
 31
0.0
  0
LINE
  8
LC-006-005-----0
  6
CONTINUOUS
  5
244
 10
179.959437
 20
235.819351
 30
0.0
 11
177.959437
 21
237.819351
 31
0.0
  0
LINE
  8
LC-006-005-----0
  6
CONTINUOUS
  5
245
 10
177.709437
 20
238.069351
 30
0.0
 11
175.560631
 21
240.218157
 31
0.0
  0
LINE
  8
LC-006-005-----0
  6
CONTINUOUS
  5
246
 10
357.113552
 20
55.836809
 30
0.0
 11
352.7133
 21
60.23706
 31
0.0
  0
LINE
  8
LC-006-005-----0
  6
CONTINUOUS
  5
247
 10
189.209437
 20
223.740924
 30
0.0
 11
185.214291
 21
227.736069
 31
0.0
  0
LINE
  8
LC-006-005-----0
  6
CONTINUOUS
  5
248
 10
181.732204
 20
231.218157
 30
0.0
 11
177.959437
 21
234.990924
 31
0.0
  0
LINE
  8
LC-006-005-----0
  6
CONTINUOUS
  5
249
 10
177.709437
 20
235.240924
 30
0.0
 11
174.300165
 21
238.650195
 31
0.0
  0
LINE
  8
LC-006-005-----0
  6
CONTINUOUS
  5
24A
 10
354.013944
 20
56.107989
 30
0.0
 11
349.613693
 21
60.508241
 31
0.0
  0
LINE
  8
LC-006-005-----0
  6
CONTINUOUS
  5
24B
 10
198.209437
 20
211.912497
 30
0.0
 11
195.903777
 21
214.218157
 31
0.0
  0
LINE
  8
LC-006-005-----0
  6
CONTINUOUS
  5
24C
 10
189.209437
 20
220.912497
 30
0.0
 11
185.214291
 21
224.907642
 31
0.0
  0
LINE
  8
LC-006-005-----0
  6
CONTINUOUS
  5
24D
 10
178.903777
 20
231.218157
 30
0.0
 11
174.859437
 21
235.262497
 31
0.0
  0
LINE
  8
LC-006-005-----0
  6
CONTINUOUS
  5
24E
 10
174.679102
 20
235.442831
 30
0.0
 11
174.159437
 21
235.962497
 31
0.0
  0
LINE
  8
LC-006-005-----0
  6
CONTINUOUS
  5
24F
 10
350.914336
 20
56.37917
 30
0.0
 11
346.514085
 21
60.779421
 31
0.0
  0
LINE
  8
LC-006-005-----0
  6
CONTINUOUS
  5
250
 10
198.209437
 20
209.084069
 30
0.0
 11
193.075349
 21
214.218157
 31
0.0
  0
LINE
  8
LC-006-005-----0
  6
CONTINUOUS
  5
251
 10
189.209437
 20
218.084069
 30
0.0
 11
185.214291
 21
222.079215
 31
0.0
  0
LINE
  8
LC-006-005-----0
  6
CONTINUOUS
  5
252
 10
177.494671
 20
229.798835
 30
0.0
 11
174.859437
 21
232.434069
 31
0.0
  0
LINE
  8
LC-006-005-----0
  6
CONTINUOUS
  5
253
 10
168.559437
 20
238.734069
 30
0.0
 11
167.075349
 21
240.218157
 31
0.0
  0
LINE
  8
LC-006-005-----0
  6
CONTINUOUS
  5
254
 10
347.814729
 20
56.65035
 30
0.0
 11
343.414477
 21
61.050602
 31
0.0
  0
LINE
  8
LC-006-005-----0
  6
CONTINUOUS
  5
255
 10
198.209437
 20
206.255642
 30
0.0
 11
190.246922
 21
214.218157
 31
0.0
  0
LINE
  8
LC-006-005-----0
  6
CONTINUOUS
  5
256
 10
189.209437
 20
215.255642
 30
0.0
 11
185.214291
 21
219.250788
 31
0.0
  0
LINE
  8
LC-006-005-----0
  6
CONTINUOUS
  5
257
 10
177.445434
 20
227.019645
 30
0.0
 11
174.159437
 21
230.305642
 31
0.0
  0
LINE
  8
LC-006-005-----0
  6
CONTINUOUS
  5
258
 10
169.259437
 20
235.205642
 30
0.0
 11
165.709437
 21
238.755642
 31
0.0
  0
LINE
  8
LC-006-005-----0
  6
CONTINUOUS
  5
259
 10
344.715121
 20
56.921531
 30
0.0
 11
340.31487
 21
61.321782
 31
0.0
  0
LINE
  8
LC-006-005-----0
  6
CONTINUOUS
  5
25A
 10
198.209437
 20
203.427215
 30
0.0
 11
194.210766
 21
207.425885
 31
0.0
  0
LINE
  8
LC-006-005-----0
  6
CONTINUOUS
  5
25B
 10
191.418495
 20
210.218157
 30
0.0
 11
185.214291
 21
216.422361
 31
0.0
  0
LINE
  8
LC-006-005-----0
  6
CONTINUOUS
  5
25C
 10
177.396187
 20
224.240464
 30
0.0
 11
174.159437
 21
227.477215
 31
0.0
  0
LINE
  8
LC-006-005-----0
  6
CONTINUOUS
  5
25D
 10
168.743338
 20
232.893314
 30
0.0
 11
165.709437
 21
235.927215
 31
0.0
  0
LINE
  8
LC-006-005-----0
  6
CONTINUOUS
  5
25E
 10
162.709437
 20
238.927215
 30
0.0
 11
161.418495
 21
240.218157
 31
0.0
  0
LINE
  8
LC-006-005-----0
  6
CONTINUOUS
  5
25F
 10
341.615513
 20
57.192711
 30
0.0
 11
337.215262
 21
61.592963
 31
0.0
  0
LINE
  8
LC-006-005-----0
  6
CONTINUOUS
  5
260
 10
198.209437
 20
200.598788
 30
0.0
 11
194.210766
 21
204.597458
 31
0.0
  0
LINE
  8
LC-006-005-----0
  6
CONTINUOUS
  5
261
 10
177.346926
 20
221.461299
 30
0.0
 11
174.159437
 21
224.648788
 31
0.0
  0
LINE
  8
LC-006-005-----0
  6
CONTINUOUS
  5
262
 10
169.259437
 20
229.548788
 30
0.0
 11
164.590068
 21
234.218157
 31
0.0
  0
LINE
  8
LC-006-005-----0
  6
CONTINUOUS
  5
263
 10
162.709437
 20
236.098788
 30
0.0
 11
160.709437
 21
238.098788
 31
0.0
  0
LINE
  8
LC-006-005-----0
  6
CONTINUOUS
  5
264
 10
338.515906
 20
57.463892
 30
0.0
 11
334.115654
 21
61.864143
 31
0.0
  0
LINE
  8
LC-006-005-----0
  6
CONTINUOUS
  5
265
 10
198.209437
 20
197.770361
 30
0.0
 11
194.210766
 21
201.769031
 31
0.0
  0
LINE
  8
LC-006-005-----0
  6
CONTINUOUS
  5
266
 10
176.529391
 20
219.450406
 30
0.0
 11
172.761641
 21
223.218157
 31
0.0
  0
LINE
  8
LC-006-005-----0
  6
CONTINUOUS
  5
267
 10
169.259437
 20
226.720361
 30
0.0
 11
165.91957
 21
230.060228
 31
0.0
  0
LINE
  8
LC-006-005-----0
  6
CONTINUOUS
  5
268
 10
164.761641
 20
231.218157
 30
0.0
 11
160.709437
 21
235.270361
 31
0.0
  0
LINE
  8
LC-006-005-----0
  6
CONTINUOUS
  5
269
 10
335.416298
 20
57.735072
 30
0.0
 11
331.016047
 21
62.135324
 31
0.0
  0
LINE
  8
LC-006-005-----0
  6
CONTINUOUS
  5
26A
 10
198.209437
 20
194.941934
 30
0.0
 11
194.210766
 21
198.940604
 31
0.0
  0
LINE
  8
LC-006-005-----0
  6
CONTINUOUS
  5
26B
 10
173.933214
 20
219.218157
 30
0.0
 11
169.933214
 21
223.218157
 31
0.0
  0
LINE
  8
LC-006-005-----0
  6
CONTINUOUS
  5
26C
 10
169.259437
 20
223.891934
 30
0.0
 11
165.970581
 21
227.180789
 31
0.0
  0
LINE
  8
LC-006-005-----0
  6
CONTINUOUS
  5
26D
 10
161.933214
 20
231.218157
 30
0.0
 11
158.933214
 21
234.218157
 31
0.0
  0
LINE
  8
LC-006-005-----0
  6
CONTINUOUS
  5
26E
 10
332.31669
 20
58.006253
 30
0.0
 11
327.916439
 21
62.406504
 31
0.0
  0
LINE
  8
LC-006-005-----0
  6
CONTINUOUS
  5
26F
 10
198.209437
 20
192.113507
 30
0.0
 11
194.210766
 21
196.112177
 31
0.0
  0
LINE
  8
LC-006-005-----0
  6
CONTINUOUS
  5
270
 10
171.104787
 20
219.218157
 30
0.0
 11
166.02161
 21
224.301333
 31
0.0
  0
LINE
  8
LC-006-005-----0
  6
CONTINUOUS
  5
271
 10
159.104787
 20
231.218157
 30
0.0
 11
156.104787
 21
234.218157
 31
0.0
  0
LINE
  8
LC-006-005-----0
  6
CONTINUOUS
  5
272
 10
153.51569
 20
236.807253
 30
0.0
 11
150.104787
 21
240.218157
 31
0.0
  0
LINE
  8
LC-006-005-----0
  6
CONTINUOUS
  5
273
 10
149.852391
 20
240.470552
 30
0.0
 11
149.671132
 21
240.651811
 31
0.0
  0
LINE
  8
LC-006-005-----0
  6
CONTINUOUS
  5
274
 10
329.217083
 20
58.277433
 30
0.0
 11
324.816831
 21
62.677685
 31
0.0
  0
LINE
  8
LC-006-005-----0
  6
CONTINUOUS
  5
275
 10
198.209437
 20
189.28508
 30
0.0
 11
194.210766
 21
193.28375
 31
0.0
  0
LINE
  8
LC-006-005-----0
  6
CONTINUOUS
  5
276
 10
168.27636
 20
219.218157
 30
0.0
 11
166.072649
 21
221.421867
 31
0.0
  0
LINE
  8
LC-006-005-----0
  6
CONTINUOUS
  5
277
 10
156.27636
 20
231.218157
 30
0.0
 11
147.27636
 21
240.218157
 31
0.0
  0
LINE
  8
LC-006-005-----0
  6
CONTINUOUS
  5
278
 10
326.117475
 20
58.548614
 30
0.0
 11
321.717224
 21
62.948865
 31
0.0
  0
LINE
  8
LC-006-005-----0
  6
CONTINUOUS
  5
279
 10
202.709437
 20
181.956652
 30
0.0
 11
201.447932
 21
183.218157
 31
0.0
  0
LINE
  8
LC-006-005-----0
  6
CONTINUOUS
  5
27A
 10
198.209437
 20
186.456652
 30
0.0
 11
194.210766
 21
190.455323
 31
0.0
  0
LINE
  8
LC-006-005-----0
  6
CONTINUOUS
  5
27B
 10
153.433223
 20
231.232866
 30
0.0
 11
150.725996
 21
233.940093
 31
0.0
  0
LINE
  8
LC-006-005-----0
  6
CONTINUOUS
  5
27C
 10
147.447932
 20
237.218157
 30
0.0
 11
144.430707
 21
240.235382
 31
0.0
  0
LINE
  8
LC-006-005-----0
  6
CONTINUOUS
  5
27D
 10
323.017867
 20
58.819794
 30
0.0
 11
318.617616
 21
63.220046
 31
0.0
  0
LINE
  8
LC-006-005-----0
  6
CONTINUOUS
  5
27E
 10
202.709437
 20
179.128225
 30
0.0
 11
198.609395
 21
183.228267
 31
0.0
  0
LINE
  8
LC-006-005-----0
  6
CONTINUOUS
  5
27F
 10
198.219547
 20
183.618115
 30
0.0
 11
194.210766
 21
187.626896
 31
0.0
  0
LINE
  8
LC-006-005-----0
  6
CONTINUOUS
  5
280
 10
144.619505
 20
237.218157
 30
0.0
 11
141.197804
 21
240.639858
 31
0.0
  0
LINE
  8
LC-006-005-----0
  6
CONTINUOUS
  5
281
 10
319.91826
 20
59.090975
 30
0.0
 11
315.518008
 21
63.491226
 31
0.0
  0
LINE
  8
LC-006-005-----0
  6
CONTINUOUS
  5
282
 10
202.709437
 20
176.299798
 30
0.0
 11
194.210766
 21
184.798468
 31
0.0
  0
LINE
  8
LC-006-005-----0
  6
CONTINUOUS
  5
283
 10
141.576741
 20
237.432493
 30
0.0
 11
136.996248
 21
242.012987
 31
0.0
  0
LINE
  8
LC-006-005-----0
  6
CONTINUOUS
  5
284
 10
316.818652
 20
59.362155
 30
0.0
 11
312.418401
 21
63.762407
 31
0.0
  0
LINE
  8
LC-006-005-----0
  6
CONTINUOUS
  5
285
 10
202.709437
 20
173.471371
 30
0.0
 11
198.709437
 21
177.471371
 31
0.0
  0
LINE
  8
LC-006-005-----0
  6
CONTINUOUS
  5
286
 10
196.894449
 20
179.286359
 30
0.0
 11
194.777639
 21
181.403169
 31
0.0
  0
LINE
  8
LC-006-005-----0
  6
CONTINUOUS
  5
287
 10
137.713038
 20
238.467769
 30
0.0
 11
133.470397
 21
242.71041
 31
0.0
  0
LINE
  8
LC-006-005-----0
  6
CONTINUOUS
  5
288
 10
133.328981
 20
242.851827
 30
0.0
 11
133.046136
 21
243.134672
 31
0.0
  0
LINE
  8
LC-006-005-----0
  6
CONTINUOUS
  5
289
 10
313.719044
 20
59.633336
 30
0.0
 11
309.318793
 21
64.033587
 31
0.0
  0
LINE
  8
LC-006-005-----0
  6
CONTINUOUS
  5
28A
 10
202.709437
 20
170.642944
 30
0.0
 11
198.709437
 21
174.642944
 31
0.0
  0
LINE
  8
LC-006-005-----0
  6
CONTINUOUS
  5
28B
 10
133.849335
 20
239.503046
 30
0.0
 11
129.709437
 21
243.642944
 31
0.0
  0
LINE
  8
LC-006-005-----0
  6
CONTINUOUS
  5
28C
 10
310.619437
 20
59.904517
 30
0.0
 11
306.219185
 21
64.304768
 31
0.0
  0
LINE
  8
LC-006-005-----0
  6
CONTINUOUS
  5
28D
 10
202.709437
 20
167.814517
 30
0.0
 11
198.709437
 21
171.814517
 31
0.0
  0
LINE
  8
LC-006-005-----0
  6
CONTINUOUS
  5
28E
 10
129.985632
 20
240.538322
 30
0.0
 11
129.709437
 21
240.814517
 31
0.0
  0
LINE
  8
LC-006-005-----0
  6
CONTINUOUS
  5
28F
 10
307.519829
 20
60.175697
 30
0.0
 11
303.119578
 21
64.575949
 31
0.0
  0
LINE
  8
LC-006-005-----0
  6
CONTINUOUS
  5
290
 10
202.709437
 20
164.98609
 30
0.0
 11
198.709437
 21
168.98609
 31
0.0
  0
LINE
  8
LC-006-005-----0
  6
CONTINUOUS
  5
291
 10
304.420221
 20
60.446878
 30
0.0
 11
300.01997
 21
64.847129
 31
0.0
  0
LINE
  8
LC-006-005-----0
  6
CONTINUOUS
  5
292
 10
202.746042
 20
162.121058
 30
0.0
 11
198.709437
 21
166.157663
 31
0.0
  0
LINE
  8
LC-006-005-----0
  6
CONTINUOUS
  5
293
 10
301.320614
 20
60.718058
 30
0.0
 11
296.920362
 21
65.11831
 31
0.0
  0
LINE
  8
LC-006-005-----0
  6
CONTINUOUS
  5
294
 10
202.796289
 20
159.242383
 30
0.0
 11
198.724608
 21
163.314064
 31
0.0
  0
LINE
  8
LC-006-005-----0
  6
CONTINUOUS
  5
295
 10
298.221006
 20
60.989239
 30
0.0
 11
293.820755
 21
65.38949
 31
0.0
  0
LINE
  8
LC-006-005-----0
  6
CONTINUOUS
  5
296
 10
202.846536
 20
156.363708
 30
0.0
 11
198.774856
 21
160.435389
 31
0.0
  0
LINE
  8
LC-006-005-----0
  6
CONTINUOUS
  5
297
 10
295.121399
 20
61.260419
 30
0.0
 11
290.721147
 21
65.660671
 31
0.0
  0
LINE
  8
LC-006-005-----0
  6
CONTINUOUS
  5
298
 10
202.896784
 20
153.485034
 30
0.0
 11
198.825103
 21
157.556715
 31
0.0
  0
LINE
  8
LC-006-005-----0
  6
CONTINUOUS
  5
299
 10
292.021791
 20
61.5316
 30
0.0
 11
287.621539
 21
65.931851
 31
0.0
  0
LINE
  8
LC-006-005-----0
  6
CONTINUOUS
  5
29A
 10
202.947031
 20
150.606359
 30
0.0
 11
198.875351
 21
154.67804
 31
0.0
  0
LINE
  8
LC-006-005-----0
  6
CONTINUOUS
  5
29B
 10
288.922183
 20
61.80278
 30
0.0
 11
284.521932
 21
66.203032
 31
0.0
  0
LINE
  8
LC-006-005-----0
  6
CONTINUOUS
  5
29C
 10
202.997279
 20
147.727685
 30
0.0
 11
198.925598
 21
151.799365
 31
0.0
  0
LINE
  8
LC-006-005-----0
  6
CONTINUOUS
  5
29D
 10
285.822576
 20
62.073961
 30
0.0
 11
281.422324
 21
66.474212
 31
0.0
  0
LINE
  8
LC-006-005-----0
  6
CONTINUOUS
  5
29E
 10
203.047526
 20
144.84901
 30
0.0
 11
198.975845
 21
148.920691
 31
0.0
  0
LINE
  8
LC-006-005-----0
  6
CONTINUOUS
  5
29F
 10
282.722968
 20
62.345141
 30
0.0
 11
278.322716
 21
66.745393
 31
0.0
  0
LINE
  8
LC-006-005-----0
  6
CONTINUOUS
  5
2A0
 10
203.097774
 20
141.970336
 30
0.0
 11
199.026093
 21
146.042016
 31
0.0
  0
LINE
  8
LC-006-005-----0
  6
CONTINUOUS
  5
2A1
 10
279.62336
 20
62.616322
 30
0.0
 11
275.223109
 21
67.016573
 31
0.0
  0
LINE
  8
LC-006-005-----0
  6
CONTINUOUS
  5
2A2
 10
203.148021
 20
139.091661
 30
0.0
 11
199.07634
 21
143.163342
 31
0.0
  0
LINE
  8
LC-006-005-----0
  6
CONTINUOUS
  5
2A3
 10
276.523753
 20
62.887502
 30
0.0
 11
272.123501
 21
67.287754
 31
0.0
  0
LINE
  8
LC-006-005-----0
  6
CONTINUOUS
  5
2A4
 10
203.198269
 20
136.212986
 30
0.0
 11
199.126588
 21
140.284667
 31
0.0
  0
LINE
  8
LC-006-005-----0
  6
CONTINUOUS
  5
2A5
 10
273.424145
 20
63.158683
 30
0.0
 11
269.023893
 21
67.558934
 31
0.0
  0
LINE
  8
LC-006-005-----0
  6
CONTINUOUS
  5
2A6
 10
203.248516
 20
133.334312
 30
0.0
 11
199.176835
 21
137.405993
 31
0.0
  0
LINE
  8
LC-006-005-----0
  6
CONTINUOUS
  5
2A7
 10
270.324537
 20
63.429863
 30
0.0
 11
265.924286
 21
67.830115
 31
0.0
  0
LINE
  8
LC-006-005-----0
  6
CONTINUOUS
  5
2A8
 10
203.298763
 20
130.455637
 30
0.0
 11
199.227083
 21
134.527318
 31
0.0
  0
LINE
  8
LC-006-005-----0
  6
CONTINUOUS
  5
2A9
 10
267.22493
 20
63.701044
 30
0.0
 11
262.824678
 21
68.101295
 31
0.0
  0
LINE
  8
LC-006-005-----0
  6
CONTINUOUS
  5
2AA
 10
203.349011
 20
127.576963
 30
0.0
 11
199.27733
 21
131.648643
 31
0.0
  0
LINE
  8
LC-006-005-----0
  6
CONTINUOUS
  5
2AB
 10
264.125322
 20
63.972225
 30
0.0
 11
259.72507
 21
68.372476
 31
0.0
  0
LINE
  8
LC-006-005-----0
  6
CONTINUOUS
  5
2AC
 10
203.399258
 20
124.698288
 30
0.0
 11
199.327578
 21
128.769969
 31
0.0
  0
LINE
  8
LC-006-005-----0
  6
CONTINUOUS
  5
2AD
 10
261.025714
 20
64.243405
 30
0.0
 11
256.625463
 21
68.643657
 31
0.0
  0
LINE
  8
LC-006-005-----0
  6
CONTINUOUS
  5
2AE
 10
203.449506
 20
121.819614
 30
0.0
 11
199.377825
 21
125.891294
 31
0.0
  0
LINE
  8
LC-006-005-----0
  6
CONTINUOUS
  5
2AF
 10
257.926107
 20
64.514586
 30
0.0
 11
253.525855
 21
68.914837
 31
0.0
  0
LINE
  8
LC-006-005-----0
  6
CONTINUOUS
  5
2B0
 10
203.499753
 20
118.940939
 30
0.0
 11
199.428073
 21
123.01262
 31
0.0
  0
LINE
  8
LC-006-005-----0
  6
CONTINUOUS
  5
2B1
 10
254.826499
 20
64.785766
 30
0.0
 11
250.426248
 21
69.186018
 31
0.0
  0
LINE
  8
LC-006-005-----0
  6
CONTINUOUS
  5
2B2
 10
203.550001
 20
116.062264
 30
0.0
 11
199.47832
 21
120.133945
 31
0.0
  0
LINE
  8
LC-006-005-----0
  6
CONTINUOUS
  5
2B3
 10
251.726891
 20
65.056947
 30
0.0
 11
247.32664
 21
69.457198
 31
0.0
  0
LINE
  8
LC-006-005-----0
  6
CONTINUOUS
  5
2B4
 10
203.600248
 20
113.18359
 30
0.0
 11
199.528567
 21
117.255271
 31
0.0
  0
LINE
  8
LC-006-005-----0
  6
CONTINUOUS
  5
2B5
 10
248.627284
 20
65.328127
 30
0.0
 11
244.227032
 21
69.728379
 31
0.0
  0
LINE
  8
LC-006-005-----0
  6
CONTINUOUS
  5
2B6
 10
203.650496
 20
110.304915
 30
0.0
 11
199.578815
 21
114.376596
 31
0.0
  0
LINE
  8
LC-006-005-----0
  6
CONTINUOUS
  5
2B7
 10
245.527676
 20
65.599308
 30
0.0
 11
241.127425
 21
69.999559
 31
0.0
  0
LINE
  8
LC-006-005-----0
  6
CONTINUOUS
  5
2B8
 10
203.700743
 20
107.426241
 30
0.0
 11
199.629062
 21
111.497921
 31
0.0
  0
LINE
  8
LC-006-005-----0
  6
CONTINUOUS
  5
2B9
 10
242.428068
 20
65.870488
 30
0.0
 11
238.027817
 21
70.27074
 31
0.0
  0
LINE
  8
LC-006-005-----0
  6
CONTINUOUS
  5
2BA
 10
203.750991
 20
104.547566
 30
0.0
 11
199.67931
 21
108.619247
 31
0.0
  0
LINE
  8
LC-006-005-----0
  6
CONTINUOUS
  5
2BB
 10
239.328461
 20
66.141669
 30
0.0
 11
234.928209
 21
70.54192
 31
0.0
  0
LINE
  8
LC-006-005-----0
  6
CONTINUOUS
  5
2BC
 10
203.801238
 20
101.668891
 30
0.0
 11
199.729557
 21
105.740572
 31
0.0
  0
LINE
  8
LC-006-005-----0
  6
CONTINUOUS
  5
2BD
 10
236.228853
 20
66.412849
 30
0.0
 11
231.828602
 21
70.813101
 31
0.0
  0
LINE
  8
LC-006-005-----0
  6
CONTINUOUS
  5
2BE
 10
203.851485
 20
98.790217
 30
0.0
 11
199.779805
 21
102.861898
 31
0.0
  0
LINE
  8
LC-006-005-----0
  6
CONTINUOUS
  5
2BF
 10
233.129245
 20
66.68403
 30
0.0
 11
228.728994
 21
71.084281
 31
0.0
  0
LINE
  8
LC-006-005-----0
  6
CONTINUOUS
  5
2C0
 10
203.901733
 20
95.911542
 30
0.0
 11
199.830052
 21
99.983223
 31
0.0
  0
LINE
  8
LC-006-005-----0
  6
CONTINUOUS
  5
2C1
 10
230.029638
 20
66.95521
 30
0.0
 11
225.629386
 21
71.355462
 31
0.0
  0
LINE
  8
LC-006-005-----0
  6
CONTINUOUS
  5
2C2
 10
203.95198
 20
93.032868
 30
0.0
 11
199.8803
 21
97.104548
 31
0.0
  0
LINE
  8
LC-006-005-----0
  6
CONTINUOUS
  5
2C3
 10
229.635207
 20
64.521214
 30
0.0
 11
222.529779
 21
71.626642
 31
0.0
  0
LINE
  8
LC-006-005-----0
  6
CONTINUOUS
  5
2C4
 10
204.002228
 20
90.154193
 30
0.0
 11
199.930547
 21
94.225874
 31
0.0
  0
LINE
  8
LC-006-005-----0
  6
CONTINUOUS
  5
2C5
 10
229.586684
 20
61.74131
 30
0.0
 11
226.783255
 21
64.544738
 31
0.0
  0
LINE
  8
LC-006-005-----0
  6
CONTINUOUS
  5
2C6
 10
223.830422
 20
67.497571
 30
0.0
 11
219.430171
 21
71.897823
 31
0.0
  0
LINE
  8
LC-006-005-----0
  6
CONTINUOUS
  5
2C7
 10
204.052475
 20
87.275519
 30
0.0
 11
199.980795
 21
91.347199
 31
0.0
  0
LINE
  8
LC-006-005-----0
  6
CONTINUOUS
  5
2C8
 10
229.53816
 20
58.961407
 30
0.0
 11
226.833503
 21
61.666064
 31
0.0
  0
LINE
  8
LC-006-005-----0
  6
CONTINUOUS
  5
2C9
 10
220.730815
 20
67.768752
 30
0.0
 11
216.330563
 21
72.169003
 31
0.0
  0
LINE
  8
LC-006-005-----0
  6
CONTINUOUS
  5
2CA
 10
204.102723
 20
84.396844
 30
0.0
 11
200.031042
 21
88.468525
 31
0.0
  0
LINE
  8
LC-006-005-----0
  6
CONTINUOUS
  5
2CB
 10
229.489637
 20
56.181503
 30
0.0
 11
226.88375
 21
58.787389
 31
0.0
  0
LINE
  8
LC-006-005-----0
  6
CONTINUOUS
  5
2CC
 10
217.631207
 20
68.039932
 30
0.0
 11
213.230956
 21
72.440184
 31
0.0
  0
LINE
  8
LC-006-005-----0
  6
CONTINUOUS
  5
2CD
 10
204.15297
 20
81.518169
 30
0.0
 11
200.081289
 21
85.58985
 31
0.0
  0
LINE
  8
LC-006-005-----0
  6
CONTINUOUS
  5
2CE
 10
228.391383
 20
54.45133
 30
0.0
 11
226.933998
 21
55.908715
 31
0.0
  0
LINE
  8
LC-006-005-----0
  6
CONTINUOUS
  5
2CF
 10
214.531599
 20
68.311113
 30
0.0
 11
210.131348
 21
72.711364
 31
0.0
  0
LINE
  8
LC-006-005-----0
  6
CONTINUOUS
  5
2D0
 10
204.203218
 20
78.639495
 30
0.0
 11
200.131537
 21
82.711176
 31
0.0
  0
LINE
  8
LC-006-005-----0
  6
CONTINUOUS
  5
2D1
 10
211.431992
 20
68.582294
 30
0.0
 11
200.181784
 21
79.832501
 31
0.0
  0
LINE
  8
LC-006-005-----0
  6
CONTINUOUS
  5
2D2
 10
208.25655
 20
68.929308
 30
0.0
 11
200.415775
 21
76.770083
 31
0.0
  0
ENDBLK
  8
0
  5
2D3
  0
BLOCK
  8
0
  5
2D5
  2
*X29
 70
    65
 10
372.2282
 20
160.218157
 30
0.0
  3
*X29
  0
LINE
  8
LC-006-005-----0
  6
CONTINUOUS
  5
2D6
 10
446.7282
 20
243.408018
 30
0.0
 11
446.483602
 21
243.652617
 31
0.0
  0
LINE
  8
LC-006-005-----0
  6
CONTINUOUS
  5
2D7
 10
446.702381
 20
240.60541
 30
0.0
 11
444.125427
 21
243.182365
 31
0.0
  0
LINE
  8
LC-006-005-----0
  6
CONTINUOUS
  5
2D8
 10
444.471671
 20
240.007693
 30
0.0
 11
442.022182
 21
242.457183
 31
0.0
  0
LINE
  8
LC-006-005-----0
  6
CONTINUOUS
  5
2D9
 10
442.240961
 20
239.409976
 30
0.0
 11
439.791471
 21
241.859466
 31
0.0
  0
LINE
  8
LC-006-005-----0
  6
CONTINUOUS
  5
2DA
 10
440.010251
 20
238.812259
 30
0.0
 11
437.20792
 21
241.61459
 31
0.0
  0
LINE
  8
LC-006-005-----0
  6
CONTINUOUS
  5
2DB
 10
437.779541
 20
238.214542
 30
0.0
 11
435.330051
 21
240.664032
 31
0.0
  0
LINE
  8
LC-006-005-----0
  6
CONTINUOUS
  5
2DC
 10
435.548831
 20
237.616825
 30
0.0
 11
432.947499
 21
240.218157
 31
0.0
  0
LINE
  8
LC-006-005-----0
  6
CONTINUOUS
  5
2DD
 10
433.119072
 20
237.218157
 30
0.0
 11
430.119072
 21
240.218157
 31
0.0
  0
LINE
  8
LC-006-005-----0
  6
CONTINUOUS
  5
2DE
 10
429.877272
 20
240.459956
 30
0.0
 11
429.688257
 21
240.648972
 31
0.0
  0
LINE
  8
LC-006-005-----0
  6
CONTINUOUS
  5
2DF
 10
430.290645
 20
237.218157
 30
0.0
 11
427.290645
 21
240.218157
 31
0.0
  0
LINE
  8
LC-006-005-----0
  6
CONTINUOUS
  5
2E0
 10
427.462218
 20
237.218157
 30
0.0
 11
424.462218
 21
240.218157
 31
0.0
  0
LINE
  8
LC-006-005-----0
  6
CONTINUOUS
  5
2E1
 10
425.724564
 20
236.127383
 30
0.0
 11
423.370536
 21
238.481411
 31
0.0
  0
LINE
  8
LC-006-005-----0
  6
CONTINUOUS
  5
2E2
 10
425.612448
 20
233.411072
 30
0.0
 11
422.772819
 21
236.250701
 31
0.0
  0
LINE
  8
LC-006-005-----0
  6
CONTINUOUS
  5
2E3
 10
424.438215
 20
231.756878
 30
0.0
 11
421.976936
 21
234.218157
 31
0.0
  0
LINE
  8
LC-006-005-----0
  6
CONTINUOUS
  5
2E4
 10
422.148509
 20
231.218157
 30
0.0
 11
419.148509
 21
234.218157
 31
0.0
  0
LINE
  8
LC-006-005-----0
  6
CONTINUOUS
  5
2E5
 10
415.7282
 20
237.638466
 30
0.0
 11
413.7282
 21
239.638466
 31
0.0
  0
LINE
  8
LC-006-005-----0
  6
CONTINUOUS
  5
2E6
 10
419.320082
 20
231.218157
 30
0.0
 11
416.320082
 21
234.218157
 31
0.0
  0
LINE
  8
LC-006-005-----0
  6
CONTINUOUS
  5
2E7
 10
415.7282
 20
234.810038
 30
0.0
 11
413.7282
 21
236.810038
 31
0.0
  0
LINE
  8
LC-006-005-----0
  6
CONTINUOUS
  5
2E8
 10
410.717581
 20
239.820658
 30
0.0
 11
410.330701
 21
240.207537
 31
0.0
  0
LINE
  8
LC-006-005-----0
  6
CONTINUOUS
  5
2E9
 10
416.491655
 20
231.218157
 30
0.0
 11
413.443112
 21
234.2667
 31
0.0
  0
LINE
  8
LC-006-005-----0
  6
CONTINUOUS
  5
2EA
 10
410.7282
 20
236.981611
 30
0.0
 11
407.596795
 21
240.113016
 31
0.0
  0
LINE
  8
LC-006-005-----0
  6
CONTINUOUS
  5
2EB
 10
413.663228
 20
231.218157
 30
0.0
 11
407.8782
 21
237.003184
 31
0.0
  0
LINE
  8
LC-006-005-----0
  6
CONTINUOUS
  5
2EC
 10
407.815575
 20
237.06581
 30
0.0
 11
407.1782
 21
237.703184
 31
0.0
  0
LINE
  8
LC-006-005-----0
  6
CONTINUOUS
  5
2ED
 10
410.863328
 20
231.18963
 30
0.0
 11
407.8782
 21
234.174757
 31
0.0
  0
LINE
  8
LC-006-005-----0
  6
CONTINUOUS
  5
2EE
 10
407.217422
 20
234.835535
 30
0.0
 11
407.1782
 21
234.874757
 31
0.0
  0
LINE
  8
LC-006-005-----0
  6
CONTINUOUS
  5
2EF
 10
402.2782
 20
239.774757
 30
0.0
 11
401.834801
 21
240.218157
 31
0.0
  0
LINE
  8
LC-006-005-----0
  6
CONTINUOUS
  5
2F0
 10
410.494503
 20
228.730027
 30
0.0
 11
407.435766
 21
231.788764
 31
0.0
  0
LINE
  8
LC-006-005-----0
  6
CONTINUOUS
  5
2F1
 10
401.721161
 20
237.503369
 30
0.0
 11
399.042241
 21
240.182289
 31
0.0
  0
LINE
  8
LC-006-005-----0
  6
CONTINUOUS
  5
2F2
 10
410.445263
 20
225.95084
 30
0.0
 11
407.1782
 21
229.217903
 31
0.0
  0
LINE
  8
LC-006-005-----0
  6
CONTINUOUS
  5
2F3
 10
402.2782
 20
234.117903
 30
0.0
 11
401.939941
 21
234.456162
 31
0.0
  0
LINE
  8
LC-006-005-----0
  6
CONTINUOUS
  5
2F4
 10
401.5782
 20
234.817903
 30
0.0
 11
398.7282
 21
237.667903
 31
0.0
  0
LINE
  8
LC-006-005-----0
  6
CONTINUOUS
  5
2F5
 10
398.4782
 20
237.917903
 30
0.0
 11
396.507977
 21
239.888126
 31
0.0
  0
LINE
  8
LC-006-005-----0
  6
CONTINUOUS
  5
2F6
 10
410.396003
 20
223.171673
 30
0.0
 11
407.1782
 21
226.389476
 31
0.0
  0
LINE
  8
LC-006-005-----0
  6
CONTINUOUS
  5
2F7
 10
402.157849
 20
231.409827
 30
0.0
 11
398.7282
 21
234.839476
 31
0.0
  0
LINE
  8
LC-006-005-----0
  6
CONTINUOUS
  5
2F8
 10
398.4782
 20
235.089476
 30
0.0
 11
396.4782
 21
237.089476
 31
0.0
  0
LINE
  8
LC-006-005-----0
  6
CONTINUOUS
  5
2F9
 10
390.2282
 20
243.339476
 30
0.0
 11
388.440549
 21
245.127127
 31
0.0
  0
LINE
  8
LC-006-005-----0
  6
CONTINUOUS
  5
2FA
 10
410.346743
 20
220.392506
 30
0.0
 11
407.098999
 21
223.64025
 31
0.0
  0
LINE
  8
LC-006-005-----0
  6
CONTINUOUS
  5
2FB
 10
402.2782
 20
228.461049
 30
0.0
 11
396.352549
 21
234.3867
 31
0.0
  0
LINE
  8
LC-006-005-----0
  6
CONTINUOUS
  5
2FC
 10
391.2282
 20
239.511049
 30
0.0
 11
390.521092
 21
240.218157
 31
0.0
  0
LINE
  8
LC-006-005-----0
  6
CONTINUOUS
  5
2FD
 10
390.2282
 20
240.511049
 30
0.0
 11
388.2282
 21
242.511049
 31
0.0
  0
LINE
  8
LC-006-005-----0
  6
CONTINUOUS
  5
2FE
 10
408.692665
 20
219.218157
 30
0.0
 11
404.692665
 21
223.218157
 31
0.0
  0
LINE
  8
LC-006-005-----0
  6
CONTINUOUS
  5
2FF
 10
402.2782
 20
225.632621
 30
0.0
 11
398.957953
 21
228.952869
 31
0.0
  0
LINE
  8
LC-006-005-----0
  6
CONTINUOUS
  5
300
 10
396.692665
 20
231.218157
 30
0.0
 11
393.692665
 21
234.218157
 31
0.0
  0
LINE
  8
LC-006-005-----0
  6
CONTINUOUS
  5
301
 10
391.2282
 20
236.682621
 30
0.0
 11
387.693847
 21
240.216975
 31
0.0
  0
LINE
  8
LC-006-005-----0
  6
CONTINUOUS
  5
302
 10
405.864238
 20
219.218157
 30
0.0
 11
399.008967
 21
226.073428
 31
0.0
  0
LINE
  8
LC-006-005-----0
  6
CONTINUOUS
  5
303
 10
393.864238
 20
231.218157
 30
0.0
 11
387.2282
 21
237.854194
 31
0.0
  0
LINE
  8
LC-006-005-----0
  6
CONTINUOUS
  5
304
 10
403.035811
 20
219.218157
 30
0.0
 11
399.059996
 21
223.193971
 31
0.0
  0
LINE
  8
LC-006-005-----0
  6
CONTINUOUS
  5
305
 10
391.428725
 20
230.825242
 30
0.0
 11
387.2282
 21
235.025767
 31
0.0
  0
LINE
  8
LC-006-005-----0
  6
CONTINUOUS
  5
306
 10
458.2282
 20
161.19734
 30
0.0
 11
455.748802
 21
163.676738
 31
0.0
  0
LINE
  8
LC-006-005-----0
  6
CONTINUOUS
  5
307
 10
400.207384
 20
219.218157
 30
0.0
 11
399.11104
 21
220.3145
 31
0.0
  0
LINE
  8
LC-006-005-----0
  6
CONTINUOUS
  5
308
 10
391.223346
 20
228.202195
 30
0.0
 11
387.2282
 21
232.19734
 31
0.0
  0
LINE
  8
LC-006-005-----0
  6
CONTINUOUS
  5
309
 10
456.378957
 20
160.218157
 30
0.0
 11
452.378957
 21
164.218157
 31
0.0
  0
LINE
  8
LC-006-005-----0
  6
CONTINUOUS
  5
30A
 10
391.223346
 20
225.373767
 30
0.0
 11
387.2282
 21
229.368913
 31
0.0
  0
LINE
  8
LC-006-005-----0
  6
CONTINUOUS
  5
30B
 10
453.55053
 20
160.218157
 30
0.0
 11
449.55053
 21
164.218157
 31
0.0
  0
LINE
  8
LC-006-005-----0
  6
CONTINUOUS
  5
30C
 10
391.223346
 20
222.54534
 30
0.0
 11
387.2282
 21
226.540486
 31
0.0
  0
LINE
  8
LC-006-005-----0
  6
CONTINUOUS
  5
30D
 10
450.722102
 20
160.218157
 30
0.0
 11
446.722102
 21
164.218157
 31
0.0
  0
LINE
  8
LC-006-005-----0
  6
CONTINUOUS
  5
30E
 10
391.223346
 20
219.716913
 30
0.0
 11
387.2282
 21
223.712059
 31
0.0
  0
LINE
  8
LC-006-005-----0
  6
CONTINUOUS
  5
30F
 10
447.893675
 20
160.218157
 30
0.0
 11
443.893675
 21
164.218157
 31
0.0
  0
LINE
  8
LC-006-005-----0
  6
CONTINUOUS
  5
310
 10
391.223346
 20
216.888486
 30
0.0
 11
387.2282
 21
220.883632
 31
0.0
  0
LINE
  8
LC-006-005-----0
  6
CONTINUOUS
  5
311
 10
445.065248
 20
160.218157
 30
0.0
 11
441.065248
 21
164.218157
 31
0.0
  0
LINE
  8
LC-006-005-----0
  6
CONTINUOUS
  5
312
 10
390.925036
 20
214.358368
 30
0.0
 11
387.2282
 21
218.055204
 31
0.0
  0
LINE
  8
LC-006-005-----0
  6
CONTINUOUS
  5
313
 10
442.236821
 20
160.218157
 30
0.0
 11
438.236821
 21
164.218157
 31
0.0
  0
LINE
  8
LC-006-005-----0
  6
CONTINUOUS
  5
314
 10
389.942318
 20
212.512659
 30
0.0
 11
387.2282
 21
215.226777
 31
0.0
  0
LINE
  8
LC-006-005-----0
  6
CONTINUOUS
  5
315
 10
439.408394
 20
160.218157
 30
0.0
 11
435.408394
 21
164.218157
 31
0.0
  0
LINE
  8
LC-006-005-----0
  6
CONTINUOUS
  5
316
 10
388.460254
 20
211.166297
 30
0.0
 11
385.408394
 21
214.218157
 31
0.0
  0
LINE
  8
LC-006-005-----0
  6
CONTINUOUS
  5
317
 10
436.579967
 20
160.218157
 30
0.0
 11
432.579967
 21
164.218157
 31
0.0
  0
LINE
  8
LC-006-005-----0
  6
CONTINUOUS
  5
318
 10
386.451369
 20
210.346755
 30
0.0
 11
382.579967
 21
214.218157
 31
0.0
  0
LINE
  8
LC-006-005-----0
  6
CONTINUOUS
  5
319
 10
433.75154
 20
160.218157
 30
0.0
 11
429.75154
 21
164.218157
 31
0.0
  0
LINE
  8
LC-006-005-----0
  6
CONTINUOUS
  5
31A
 10
383.75154
 20
210.218157
 30
0.0
 11
379.798291
 21
214.171405
 31
0.0
  0
LINE
  8
LC-006-005-----0
  6
CONTINUOUS
  5
31B
 10
430.923113
 20
160.218157
 30
0.0
 11
426.923113
 21
164.218157
 31
0.0
  0
LINE
  8
LC-006-005-----0
  6
CONTINUOUS
  5
31C
 10
382.22687
 20
208.914399
 30
0.0
 11
378.320991
 21
212.820279
 31
0.0
  0
LINE
  8
LC-006-005-----0
  6
CONTINUOUS
  5
31D
 10
428.094685
 20
160.218157
 30
0.0
 11
424.094685
 21
164.218157
 31
0.0
  0
LINE
  8
LC-006-005-----0
  6
CONTINUOUS
  5
31E
 10
382.22687
 20
206.085971
 30
0.0
 11
378.2282
 21
210.084642
 31
0.0
  0
LINE
  8
LC-006-005-----0
  6
CONTINUOUS
  5
31F
 10
425.266258
 20
160.218157
 30
0.0
 11
421.266258
 21
164.218157
 31
0.0
  0
LINE
  8
LC-006-005-----0
  6
CONTINUOUS
  5
320
 10
382.22687
 20
203.257544
 30
0.0
 11
378.2282
 21
207.256215
 31
0.0
  0
LINE
  8
LC-006-005-----0
  6
CONTINUOUS
  5
321
 10
422.437831
 20
160.218157
 30
0.0
 11
418.437831
 21
164.218157
 31
0.0
  0
LINE
  8
LC-006-005-----0
  6
CONTINUOUS
  5
322
 10
382.22687
 20
200.429117
 30
0.0
 11
378.2282
 21
204.427787
 31
0.0
  0
LINE
  8
LC-006-005-----0
  6
CONTINUOUS
  5
323
 10
419.609404
 20
160.218157
 30
0.0
 11
415.609404
 21
164.218157
 31
0.0
  0
LINE
  8
LC-006-005-----0
  6
CONTINUOUS
  5
324
 10
382.22687
 20
197.60069
 30
0.0
 11
378.2282
 21
201.59936
 31
0.0
  0
LINE
  8
LC-006-005-----0
  6
CONTINUOUS
  5
325
 10
416.780977
 20
160.218157
 30
0.0
 11
412.780977
 21
164.218157
 31
0.0
  0
LINE
  8
LC-006-005-----0
  6
CONTINUOUS
  5
326
 10
382.22687
 20
194.772263
 30
0.0
 11
378.2282
 21
198.770933
 31
0.0
  0
LINE
  8
LC-006-005-----0
  6
CONTINUOUS
  5
327
 10
413.95255
 20
160.218157
 30
0.0
 11
409.95255
 21
164.218157
 31
0.0
  0
LINE
  8
LC-006-005-----0
  6
CONTINUOUS
  5
328
 10
382.22687
 20
191.943836
 30
0.0
 11
378.2282
 21
195.942506
 31
0.0
  0
LINE
  8
LC-006-005-----0
  6
CONTINUOUS
  5
329
 10
411.124123
 20
160.218157
 30
0.0
 11
407.124123
 21
164.218157
 31
0.0
  0
LINE
  8
LC-006-005-----0
  6
CONTINUOUS
  5
32A
 10
382.22687
 20
189.115409
 30
0.0
 11
378.2282
 21
193.114079
 31
0.0
  0
LINE
  8
LC-006-005-----0
  6
CONTINUOUS
  5
32B
 10
408.295696
 20
160.218157
 30
0.0
 11
404.295696
 21
164.218157
 31
0.0
  0
LINE
  8
LC-006-005-----0
  6
CONTINUOUS
  5
32C
 10
382.22687
 20
186.286982
 30
0.0
 11
378.2282
 21
190.285652
 31
0.0
  0
LINE
  8
LC-006-005-----0
  6
CONTINUOUS
  5
32D
 10
405.467268
 20
160.218157
 30
0.0
 11
401.467268
 21
164.218157
 31
0.0
  0
LINE
  8
LC-006-005-----0
  6
CONTINUOUS
  5
32E
 10
382.221721
 20
183.463703
 30
0.0
 11
378.2282
 21
187.457225
 31
0.0
  0
LINE
  8
LC-006-005-----0
  6
CONTINUOUS
  5
32F
 10
402.638841
 20
160.218157
 30
0.0
 11
398.638841
 21
164.218157
 31
0.0
  0
LINE
  8
LC-006-005-----0
  6
CONTINUOUS
  5
330
 10
381.587542
 20
181.269455
 30
0.0
 11
378.2282
 21
184.628798
 31
0.0
  0
LINE
  8
LC-006-005-----0
  6
CONTINUOUS
  5
331
 10
399.810414
 20
160.218157
 30
0.0
 11
395.810414
 21
164.218157
 31
0.0
  0
LINE
  8
LC-006-005-----0
  6
CONTINUOUS
  5
332
 10
380.274934
 20
179.753637
 30
0.0
 11
376.810414
 21
183.218157
 31
0.0
  0
LINE
  8
LC-006-005-----0
  6
CONTINUOUS
  5
333
 10
396.981987
 20
160.218157
 30
0.0
 11
392.981987
 21
164.218157
 31
0.0
  0
LINE
  8
LC-006-005-----0
  6
CONTINUOUS
  5
334
 10
378.159466
 20
179.040678
 30
0.0
 11
374.159466
 21
183.040678
 31
0.0
  0
LINE
  8
LC-006-005-----0
  6
CONTINUOUS
  5
335
 10
394.15356
 20
160.218157
 30
0.0
 11
390.15356
 21
164.218157
 31
0.0
  0
LINE
  8
LC-006-005-----0
  6
CONTINUOUS
  5
336
 10
377.7282
 20
176.643516
 30
0.0
 11
373.7282
 21
180.643516
 31
0.0
  0
LINE
  8
LC-006-005-----0
  6
CONTINUOUS
  5
337
 10
391.325133
 20
160.218157
 30
0.0
 11
387.325133
 21
164.218157
 31
0.0
  0
LINE
  8
LC-006-005-----0
  6
CONTINUOUS
  5
338
 10
377.7282
 20
173.815089
 30
0.0
 11
373.7282
 21
177.815089
 31
0.0
  0
LINE
  8
LC-006-005-----0
  6
CONTINUOUS
  5
339
 10
388.496706
 20
160.218157
 30
0.0
 11
384.496706
 21
164.218157
 31
0.0
  0
LINE
  8
LC-006-005-----0
  6
CONTINUOUS
  5
33A
 10
377.7282
 20
170.986662
 30
0.0
 11
373.7282
 21
174.986662
 31
0.0
  0
LINE
  8
LC-006-005-----0
  6
CONTINUOUS
  5
33B
 10
385.668279
 20
160.218157
 30
0.0
 11
381.668279
 21
164.218157
 31
0.0
  0
LINE
  8
LC-006-005-----0
  6
CONTINUOUS
  5
33C
 10
377.7282
 20
168.158235
 30
0.0
 11
373.7282
 21
172.158235
 31
0.0
  0
LINE
  8
LC-006-005-----0
  6
CONTINUOUS
  5
33D
 10
382.839851
 20
160.218157
 30
0.0
 11
378.839851
 21
164.218157
 31
0.0
  0
LINE
  8
LC-006-005-----0
  6
CONTINUOUS
  5
33E
 10
377.7282
 20
165.329808
 30
0.0
 11
373.7282
 21
169.329808
 31
0.0
  0
LINE
  8
LC-006-005-----0
  6
CONTINUOUS
  5
33F
 10
380.011424
 20
160.218157
 30
0.0
 11
373.7282
 21
166.501381
 31
0.0
  0
LINE
  8
LC-006-005-----0
  6
CONTINUOUS
  5
340
 10
377.182997
 20
160.218157
 30
0.0
 11
373.718847
 21
163.682307
 31
0.0
  0
LINE
  8
LC-006-005-----0
  6
CONTINUOUS
  5
341
 10
374.35457
 20
160.218157
 30
0.0
 11
373.670324
 21
160.902403
 31
0.0
  0
ENDBLK
  8
0
  5
342
  0
BLOCK
  8
0
  5
344
  2
*X30
 70
    65
 10
286.55225
 20
67.105562
 30
0.0
  3
*X30
  0
LINE
  8
LC-006-005-----0
  6
CONTINUOUS
  5
345
 10
310.724361
 20
67.479629
 30
0.0
 11
311.993783
 21
68.749051
 31
0.0
  0
LINE
  8
LC-006-005-----0
  6
CONTINUOUS
  5
346
 10
308.946577
 20
68.530271
 30
0.0
 11
311.396066
 21
70.979761
 31
0.0
  0
LINE
  8
LC-006-005-----0
  6
CONTINUOUS
  5
347
 10
308.34886
 20
70.760981
 30
0.0
 11
310.798349
 21
73.210471
 31
0.0
  0
LINE
  8
LC-006-005-----0
  6
CONTINUOUS
  5
348
 10
307.751143
 20
72.991691
 30
0.0
 11
310.200632
 21
75.441181
 31
0.0
  0
LINE
  8
LC-006-005-----0
  6
CONTINUOUS
  5
349
 10
307.153426
 20
75.222402
 30
0.0
 11
309.602916
 21
77.671891
 31
0.0
  0
LINE
  8
LC-006-005-----0
  6
CONTINUOUS
  5
34A
 10
306.555709
 20
77.453112
 30
0.0
 11
309.005199
 21
79.902601
 31
0.0
  0
LINE
  8
LC-006-005-----0
  6
CONTINUOUS
  5
34B
 10
305.957992
 20
79.683822
 30
0.0
 11
308.407482
 21
82.133312
 31
0.0
  0
LINE
  8
LC-006-005-----0
  6
CONTINUOUS
  5
34C
 10
305.360275
 20
81.914532
 30
0.0
 11
307.809765
 21
84.364022
 31
0.0
  0
LINE
  8
LC-006-005-----0
  6
CONTINUOUS
  5
34D
 10
304.762558
 20
84.145242
 30
0.0
 11
307.212048
 21
86.594732
 31
0.0
  0
LINE
  8
LC-006-005-----0
  6
CONTINUOUS
  5
34E
 10
304.164841
 20
86.375952
 30
0.0
 11
306.614331
 21
88.825442
 31
0.0
  0
LINE
  8
LC-006-005-----0
  6
CONTINUOUS
  5
34F
 10
303.567124
 20
88.606662
 30
0.0
 11
306.016614
 21
91.056152
 31
0.0
  0
LINE
  8
LC-006-005-----0
  6
CONTINUOUS
  5
350
 10
302.969407
 20
90.837373
 30
0.0
 11
305.418897
 21
93.286862
 31
0.0
  0
LINE
  8
LC-006-005-----0
  6
CONTINUOUS
  5
351
 10
302.37169
 20
93.068083
 30
0.0
 11
304.82118
 21
95.517572
 31
0.0
  0
LINE
  8
LC-006-005-----0
  6
CONTINUOUS
  5
352
 10
301.773973
 20
95.298793
 30
0.0
 11
304.223463
 21
97.748283
 31
0.0
  0
LINE
  8
LC-006-005-----0
  6
CONTINUOUS
  5
353
 10
301.176256
 20
97.529503
 30
0.0
 11
303.625746
 21
99.978993
 31
0.0
  0
LINE
  8
LC-006-005-----0
  6
CONTINUOUS
  5
354
 10
300.578539
 20
99.760213
 30
0.0
 11
303.028029
 21
102.209703
 31
0.0
  0
LINE
  8
LC-006-005-----0
  6
CONTINUOUS
  5
355
 10
299.980822
 20
101.990923
 30
0.0
 11
302.430312
 21
104.440413
 31
0.0
  0
LINE
  8
LC-006-005-----0
  6
CONTINUOUS
  5
356
 10
299.383105
 20
104.221633
 30
0.0
 11
301.832595
 21
106.671123
 31
0.0
  0
LINE
  8
LC-006-005-----0
  6
CONTINUOUS
  5
357
 10
298.785388
 20
106.452344
 30
0.0
 11
301.234878
 21
108.901833
 31
0.0
  0
LINE
  8
LC-006-005-----0
  6
CONTINUOUS
  5
358
 10
298.187671
 20
108.683054
 30
0.0
 11
300.637161
 21
111.132543
 31
0.0
  0
LINE
  8
LC-006-005-----0
  6
CONTINUOUS
  5
359
 10
297.589954
 20
110.913764
 30
0.0
 11
300.039444
 21
113.363254
 31
0.0
  0
LINE
  8
LC-006-005-----0
  6
CONTINUOUS
  5
35A
 10
296.992237
 20
113.144474
 30
0.0
 11
299.441727
 21
115.593964
 31
0.0
  0
LINE
  8
LC-006-005-----0
  6
CONTINUOUS
  5
35B
 10
296.39452
 20
115.375184
 30
0.0
 11
298.84401
 21
117.824674
 31
0.0
  0
LINE
  8
LC-006-005-----0
  6
CONTINUOUS
  5
35C
 10
295.796803
 20
117.605894
 30
0.0
 11
298.246293
 21
120.055384
 31
0.0
  0
LINE
  8
LC-006-005-----0
  6
CONTINUOUS
  5
35D
 10
295.199086
 20
119.836604
 30
0.0
 11
297.648576
 21
122.286094
 31
0.0
  0
LINE
  8
LC-006-005-----0
  6
CONTINUOUS
  5
35E
 10
294.601369
 20
122.067315
 30
0.0
 11
297.050859
 21
124.516804
 31
0.0
  0
LINE
  8
LC-006-005-----0
  6
CONTINUOUS
  5
35F
 10
294.003652
 20
124.298025
 30
0.0
 11
296.453142
 21
126.747514
 31
0.0
  0
LINE
  8
LC-006-005-----0
  6
CONTINUOUS
  5
360
 10
293.405935
 20
126.528735
 30
0.0
 11
295.855425
 21
128.978225
 31
0.0
  0
LINE
  8
LC-006-005-----0
  6
CONTINUOUS
  5
361
 10
292.808218
 20
128.759445
 30
0.0
 11
295.257708
 21
131.208935
 31
0.0
  0
LINE
  8
LC-006-005-----0
  6
CONTINUOUS
  5
362
 10
292.210501
 20
130.990155
 30
0.0
 11
294.659991
 21
133.439645
 31
0.0
  0
LINE
  8
LC-006-005-----0
  6
CONTINUOUS
  5
363
 10
291.612784
 20
133.220865
 30
0.0
 11
294.062274
 21
135.670355
 31
0.0
  0
LINE
  8
LC-006-005-----0
  6
CONTINUOUS
  5
364
 10
291.015067
 20
135.451575
 30
0.0
 11
293.464557
 21
137.901065
 31
0.0
  0
LINE
  8
LC-006-005-----0
  6
CONTINUOUS
  5
365
 10
290.41735
 20
137.682286
 30
0.0
 11
292.86684
 21
140.131775
 31
0.0
  0
LINE
  8
LC-006-005-----0
  6
CONTINUOUS
  5
366
 10
289.819633
 20
139.912996
 30
0.0
 11
292.269123
 21
142.362485
 31
0.0
  0
LINE
  8
LC-006-005-----0
  6
CONTINUOUS
  5
367
 10
289.221916
 20
142.143706
 30
0.0
 11
291.671406
 21
144.593196
 31
0.0
  0
LINE
  8
LC-006-005-----0
  6
CONTINUOUS
  5
368
 10
288.624199
 20
144.374416
 30
0.0
 11
291.073689
 21
146.823906
 31
0.0
  0
LINE
  8
LC-006-005-----0
  6
CONTINUOUS
  5
369
 10
288.026482
 20
146.605126
 30
0.0
 11
290.475972
 21
149.054616
 31
0.0
  0
LINE
  8
LC-006-005-----0
  6
CONTINUOUS
  5
36A
 10
287.428765
 20
148.835836
 30
0.0
 11
289.878255
 21
151.285326
 31
0.0
  0
LINE
  8
LC-006-005-----0
  6
CONTINUOUS
  5
36B
 10
286.831048
 20
151.066546
 30
0.0
 11
288.354429
 21
152.589927
 31
0.0
  0
ENDBLK
  8
0
  5
36C
  0
BLOCK
  8
0
  5
36E
  2
*X31
 70
    65
 10
189.727176
 20
223.382822
 30
0.0
  3
*X31
  0
LINE
  8
LC-006-005-----0
  6
CONTINUOUS
  5
36F
 10
194.220919
 20
225.80051
 30
0.0
 11
192.144864
 21
227.876564
 31
0.0
  0
LINE
  8
LC-006-005-----0
  6
DASHED
  5
371
 10
193.345947
 20
223.847054
 30
0.0
 11
190.191408
 21
227.001593
 31
0.0
  0
LINE
  8
LC-006-005-----0
  6
DASHED
  5
372
 10
192.362692
 20
223.416095
 30
0.0
 11
189.760449
 21
226.018338
 31
0.0
  0
ENDBLK
  8
0
  5
373
  0
BLOCK
  8
0
  5
375
  2
*X32
 70
    65
 10
202.9282
 20
174.218157
 30
0.0
  3
*X32
  0
LINE
  8
LC-006-005-----0
  6
DASHED
  5
376
 10
206.645175
 20
175.192487
 30
0.0
 11
203.902531
 21
177.935131
 31
0.0
  0
LINE
  8
LC-006-005-----0
  6
DASHED
  5
377
 10
205.933988
 20
174.48946
 30
0.0
 11
203.199504
 21
177.223944
 31
0.0
  0
ENDBLK
  8
0
  5
378
  0
BLOCK
  8
0
  5
37A
  2
*X33
 70
    65
 10
382.227176
 20
223.382822
 30
0.0
  3
*X33
  0
LINE
  8
LC-006-005-----0
  6
CONTINUOUS
  5
37B
 10
386.727169
 20
225.627303
 30
0.0
 11
384.471658
 21
227.882815
 31
0.0
  0
LINE
  8
LC-006-005-----0
  6
DASHED
  5
37C
 10
385.749169
 20
223.776876
 30
0.0
 11
382.621231
 21
226.904815
 31
0.0
  0
LINE
  8
LC-006-005-----0
  6
DASHED
  5
37D
 10
384.71627
 20
223.395561
 30
0.0
 11
382.239916
 21
225.871916
 31
0.0
  0
ENDBLK
  8
0
  5
37E
  0
BLOCK
  8
0
  5
380
  2
*X34
 70
    65
 10
369.5282
 20
174.218157
 30
0.0
  3
*X34
  0
LINE
  8
LC-006-005-----0
  6
CONTINUOUS
  5
381
 10
373.481572
 20
176.647504
 30
0.0
 11
371.957548
 21
178.171528
 31
0.0
  0
LINE
  8
LC-006-005-----0
  6
DASHED
  5
382
 10
372.701891
 20
174.598758
 30
0.0
 11
369.908802
 21
177.391847
 31
0.0
  0
LINE
  8
LC-006-005-----0
  6
DASHED
  5
383
 10
371.663684
 20
174.222751
 30
0.0
 11
369.532795
 21
176.353641
 31
0.0
  0
ENDBLK
  8
0
  5
384
  0
BLOCK
  8
0
  5
386
  2
*D35
 70
    65
 10
0.0
 20
0.0
 30
0.0
  3
*D35
  0
LINE
  8
LC-009-003-MTH-0
  6
CONTINUOUS
  5
388
 10
129.7282
 20
243.718157
 30
0.0
 11
129.7282
 21
478.8
 31
0.0
  0
LINE
  8
LC-009-003-MTH-0
  6
CONTINUOUS
  5
389
 10
446.7282
 20
243.718157
 30
0.0
 11
446.7282
 21
478.8
 31
0.0
  0
LINE
  8
LC-010-003-MTG-0
  6
CONTINUOUS
  5
38B
 10
129.7282
 20
468.0
 30
0.0
 11
446.7282
 21
468.0
 31
0.0
  0
LINE
  8
LC-008-003-----0
  6
CONTINUOUS
  5
38D
 10
147.574208
 20
470.349471
 30
0.0
 11
129.7282
 21
468.0
 31
0.0
  0
LINE
  8
LC-008-003-----0
  6
CONTINUOUS
  5
38E
 10
129.7282
 20
468.0
 30
0.0
 11
147.574208
 21
465.650529
 31
0.0
  0
LINE
  8
LC-008-003-----0
  6
CONTINUOUS
  5
38F
 10
147.574208
 20
465.650529
 30
0.0
 11
147.574208
 21
470.349471
 31
0.0
  0
LINE
  8
LC-008-003-----0
  6
CONTINUOUS
  5
390
 10
147.614246
 20
469.738609
 30
0.0
 11
134.4082
 21
468.0
 31
0.0
  0
LINE
  8
LC-008-003-----0
  6
CONTINUOUS
  5
391
 10
134.4082
 20
468.0
 30
0.0
 11
147.614246
 21
466.261391
 31
0.0
  0
LINE
  8
LC-008-003-----0
  6
CONTINUOUS
  5
392
 10
147.654284
 20
469.127746
 30
0.0
 11
139.0882
 21
468.0
 31
0.0
  0
LINE
  8
LC-008-003-----0
  6
CONTINUOUS
  5
393
 10
139.0882
 20
468.0
 30
0.0
 11
147.654284
 21
466.872254
 31
0.0
  0
LINE
  8
LC-008-003-----0
  6
CONTINUOUS
  5
394
 10
147.694322
 20
468.516884
 30
0.0
 11
143.7682
 21
468.0
 31
0.0
  0
LINE
  8
LC-008-003-----0
  6
CONTINUOUS
  5
395
 10
143.7682
 20
468.0
 30
0.0
 11
147.694322
 21
467.483116
 31
0.0
  0
LINE
  8
LC-008-003-----0
  6
CONTINUOUS
  5
396
 10
428.882193
 20
465.650529
 30
0.0
 11
446.7282
 21
468.0
 31
0.0
  0
LINE
  8
LC-008-003-----0
  6
CONTINUOUS
  5
397
 10
446.7282
 20
468.0
 30
0.0
 11
428.882193
 21
470.349471
 31
0.0
  0
LINE
  8
LC-008-003-----0
  6
CONTINUOUS
  5
398
 10
428.882193
 20
470.349471
 30
0.0
 11
428.882193
 21
465.650529
 31
0.0
  0
LINE
  8
LC-008-003-----0
  6
CONTINUOUS
  5
399
 10
428.842155
 20
466.261391
 30
0.0
 11
442.0482
 21
468.0
 31
0.0
  0
LINE
  8
LC-008-003-----0
  6
CONTINUOUS
  5
39A
 10
442.0482
 20
468.0
 30
0.0
 11
428.842155
 21
469.738609
 31
0.0
  0
LINE
  8
LC-008-003-----0
  6
CONTINUOUS
  5
39B
 10
428.802117
 20
466.872254
 30
0.0
 11
437.3682
 21
468.0
 31
0.0
  0
LINE
  8
LC-008-003-----0
  6
CONTINUOUS
  5
39C
 10
437.3682
 20
468.0
 30
0.0
 11
428.802117
 21
469.127746
 31
0.0
  0
LINE
  8
LC-008-003-----0
  6
CONTINUOUS
  5
39D
 10
428.762079
 20
467.483116
 30
0.0
 11
432.6882
 21
468.0
 31
0.0
  0
LINE
  8
LC-008-003-----0
  6
CONTINUOUS
  5
39E
 10
432.6882
 20
468.0
 30
0.0
 11
428.762079
 21
468.516884
 31
0.0
  0
TEXT
  8
LC-008-003-----0
  6
CONTINUOUS
 62
     6
  5
3A0
 10
266.532107
 20
478.431999
 30
0.0
 40
18.0
  1
Ø315
 41
0.9
 51
15.0
  7
LC-TXTSTYLE-150-400-0-0-D0
 72
     1
 11
291.023446
 21
478.431999
 31
0.0
  0
ENDBLK
  8
0
  5
3A1
  0
BLOCK
  8
0
  5
3A3
  2
*D36
 70
    65
 10
0.0
 20
0.0
 30
0.0
  3
*D36
  0
LINE
  8
LC-009-003-MTH-0
  6
CONTINUOUS
  5
3A4
 10
168.813987
 20
361.630969
 30
0.0
 11
168.813987
 21
442.8
 31
0.0
  0
LINE
  8
LC-009-003-MTH-0
  6
CONTINUOUS
  5
3A5
 10
408.2282
 20
360.216755
 30
0.0
 11
408.2282
 21
442.8
 31
0.0
  0
LINE
  8
LC-010-003-MTG-0
  6
CONTINUOUS
  5
3A6
 10
168.813987
 20
432.0
 30
0.0
 11
408.2282
 21
432.0
 31
0.0
  0
LINE
  8
LC-008-003-----0
  6
CONTINUOUS
  5
3A7
 10
186.659994
 20
434.349471
 30
0.0
 11
168.813987
 21
432.0
 31
0.0
  0
LINE
  8
LC-008-003-----0
  6
CONTINUOUS
  5
3A8
 10
168.813987
 20
432.0
 30
0.0
 11
186.659994
 21
429.650529
 31
0.0
  0
LINE
  8
LC-008-003-----0
  6
CONTINUOUS
  5
3A9
 10
186.659994
 20
429.650529
 30
0.0
 11
186.659994
 21
434.349471
 31
0.0
  0
LINE
  8
LC-008-003-----0
  6
CONTINUOUS
  5
3AA
 10
186.700032
 20
433.738609
 30
0.0
 11
173.493987
 21
432.0
 31
0.0
  0
LINE
  8
LC-008-003-----0
  6
CONTINUOUS
  5
3AB
 10
173.493987
 20
432.0
 30
0.0
 11
186.700032
 21
430.261391
 31
0.0
  0
LINE
  8
LC-008-003-----0
  6
CONTINUOUS
  5
3AC
 10
186.74007
 20
433.127746
 30
0.0
 11
178.173987
 21
432.0
 31
0.0
  0
LINE
  8
LC-008-003-----0
  6
CONTINUOUS
  5
3AD
 10
178.173987
 20
432.0
 30
0.0
 11
186.74007
 21
430.872254
 31
0.0
  0
LINE
  8
LC-008-003-----0
  6
CONTINUOUS
  5
3AE
 10
186.780108
 20
432.516884
 30
0.0
 11
182.853987
 21
432.0
 31
0.0
  0
LINE
  8
LC-008-003-----0
  6
CONTINUOUS
  5
3AF
 10
182.853987
 20
432.0
 30
0.0
 11
186.780108
 21
431.483116
 31
0.0
  0
LINE
  8
LC-008-003-----0
  6
CONTINUOUS
  5
3B0
 10
390.382193
 20
429.650529
 30
0.0
 11
408.2282
 21
432.0
 31
0.0
  0
LINE
  8
LC-008-003-----0
  6
CONTINUOUS
  5
3B1
 10
408.2282
 20
432.0
 30
0.0
 11
390.382193
 21
434.349471
 31
0.0
  0
LINE
  8
LC-008-003-----0
  6
CONTINUOUS
  5
3B2
 10
390.382193
 20
434.349471
 30
0.0
 11
390.382193
 21
429.650529
 31
0.0
  0
LINE
  8
LC-008-003-----0
  6
CONTINUOUS
  5
3B3
 10
390.342155
 20
430.261391
 30
0.0
 11
403.5482
 21
432.0
 31
0.0
  0
LINE
  8
LC-008-003-----0
  6
CONTINUOUS
  5
3B4
 10
403.5482
 20
432.0
 30
0.0
 11
390.342155
 21
433.738609
 31
0.0
  0
LINE
  8
LC-008-003-----0
  6
CONTINUOUS
  5
3B5
 10
390.302117
 20
430.872254
 30
0.0
 11
398.8682
 21
432.0
 31
0.0
  0
LINE
  8
LC-008-003-----0
  6
CONTINUOUS
  5
3B6
 10
398.8682
 20
432.0
 30
0.0
 11
390.302117
 21
433.127746
 31
0.0
  0
LINE
  8
LC-008-003-----0
  6
CONTINUOUS
  5
3B7
 10
390.262079
 20
431.483116
 30
0.0
 11
394.1882
 21
432.0
 31
0.0
  0
LINE
  8
LC-008-003-----0
  6
CONTINUOUS
  5
3B8
 10
394.1882
 20
432.0
 30
0.0
 11
390.262079
 21
432.516884
 31
0.0
  0
TEXT
  8
LC-008-003-----0
  6
CONTINUOUS
 62
     6
  5
3B9
 10
272.182481
 20
442.431999
 30
0.0
 40
18.0
  1
240
 51
15.0
  7
LC-TXTSTYLE-150-400-0-0-D0
 72
     1
 11
291.316339
 21
442.431999
 31
0.0
  0
LINE
  8
LC-011-003-MTZ-0
  6
CONTINUOUS
  5
3BB
 10
246.549205
 20
445.14
 30
0.0
 11
259.706142
 21
445.14
 31
0.0
  0
LINE
  8
LC-011-003-MTZ-0
  6
CONTINUOUS
  5
3BC
 10
259.706142
 20
445.14
 30
0.0
 11
259.706142
 21
454.86
 31
0.0
  0
LINE
  8
LC-011-003-MTZ-0
  6
CONTINUOUS
  5
3BD
 10
259.706142
 20
454.86
 30
0.0
 11
246.549205
 21
454.86
 31
0.0
  0
LINE
  8
LC-011-003-MTZ-0
  6
CONTINUOUS
  5
3BE
 10
246.549205
 20
454.86
 30
0.0
 11
246.549205
 21
445.14
 31
0.0
  0
ENDBLK
  8
0
  5
3BF
  0
BLOCK
  8
0
  5
3C1
  2
*D37
 70
    65
 10
0.0
 20
0.0
 30
0.0
  3
*D37
  0
LINE
  8
LC-009-003-MTH-0
  6
CONTINUOUS
  5
3C2
 10
176.729571
 20
360.312083
 30
0.0
 11
176.729571
 21
406.8
 31
0.0
  0
LINE
  8
LC-009-003-MTH-0
  6
CONTINUOUS
  5
3C3
 10
399.72683
 20
360.312083
 30
0.0
 11
399.72683
 21
406.8
 31
0.0
  0
LINE
  8
LC-010-003-MTG-0
  6
CONTINUOUS
  5
3C4
 10
176.729571
 20
396.0
 30
0.0
 11
399.72683
 21
396.0
 31
0.0
  0
LINE
  8
LC-008-003-----0
  6
CONTINUOUS
  5
3C5
 10
194.575578
 20
398.349471
 30
0.0
 11
176.729571
 21
396.0
 31
0.0
  0
LINE
  8
LC-008-003-----0
  6
CONTINUOUS
  5
3C6
 10
176.729571
 20
396.0
 30
0.0
 11
194.575578
 21
393.650529
 31
0.0
  0
LINE
  8
LC-008-003-----0
  6
CONTINUOUS
  5
3C7
 10
194.575578
 20
393.650529
 30
0.0
 11
194.575578
 21
398.349471
 31
0.0
  0
LINE
  8
LC-008-003-----0
  6
CONTINUOUS
  5
3C8
 10
194.615616
 20
397.738609
 30
0.0
 11
181.409571
 21
396.0
 31
0.0
  0
LINE
  8
LC-008-003-----0
  6
CONTINUOUS
  5
3C9
 10
181.409571
 20
396.0
 30
0.0
 11
194.615616
 21
394.261391
 31
0.0
  0
LINE
  8
LC-008-003-----0
  6
CONTINUOUS
  5
3CA
 10
194.655654
 20
397.127746
 30
0.0
 11
186.089571
 21
396.0
 31
0.0
  0
LINE
  8
LC-008-003-----0
  6
CONTINUOUS
  5
3CB
 10
186.089571
 20
396.0
 30
0.0
 11
194.655654
 21
394.872254
 31
0.0
  0
LINE
  8
LC-008-003-----0
  6
CONTINUOUS
  5
3CC
 10
194.695692
 20
396.516884
 30
0.0
 11
190.769571
 21
396.0
 31
0.0
  0
LINE
  8
LC-008-003-----0
  6
CONTINUOUS
  5
3CD
 10
190.769571
 20
396.0
 30
0.0
 11
194.695692
 21
395.483116
 31
0.0
  0
LINE
  8
LC-008-003-----0
  6
CONTINUOUS
  5
3CE
 10
381.880822
 20
393.650529
 30
0.0
 11
399.72683
 21
396.0
 31
0.0
  0
LINE
  8
LC-008-003-----0
  6
CONTINUOUS
  5
3CF
 10
399.72683
 20
396.0
 30
0.0
 11
381.880822
 21
398.349471
 31
0.0
  0
LINE
  8
LC-008-003-----0
  6
CONTINUOUS
  5
3D0
 10
381.880822
 20
398.349471
 30
0.0
 11
381.880822
 21
393.650529
 31
0.0
  0
LINE
  8
LC-008-003-----0
  6
CONTINUOUS
  5
3D1
 10
381.840784
 20
394.261391
 30
0.0
 11
395.04683
 21
396.0
 31
0.0
  0
LINE
  8
LC-008-003-----0
  6
CONTINUOUS
  5
3D2
 10
395.04683
 20
396.0
 30
0.0
 11
381.840784
 21
397.738609
 31
0.0
  0
LINE
  8
LC-008-003-----0
  6
CONTINUOUS
  5
3D3
 10
381.800746
 20
394.872254
 30
0.0
 11
390.36683
 21
396.0
 31
0.0
  0
LINE
  8
LC-008-003-----0
  6
CONTINUOUS
  5
3D4
 10
390.36683
 20
396.0
 30
0.0
 11
381.800746
 21
397.127746
 31
0.0
  0
LINE
  8
LC-008-003-----0
  6
CONTINUOUS
  5
3D5
 10
381.760708
 20
395.483116
 30
0.0
 11
385.68683
 21
396.0
 31
0.0
  0
LINE
  8
LC-008-003-----0
  6
CONTINUOUS
  5
3D6
 10
385.68683
 20
396.0
 30
0.0
 11
381.760708
 21
396.516884
 31
0.0
  0
TEXT
  8
LC-008-003-----0
  6
CONTINUOUS
 62
     6
  5
3D7
 10
271.889588
 20
406.431999
 30
0.0
 40
18.0
  1
226
 51
15.0
  7
LC-TXTSTYLE-150-400-0-0-D0
 72
     1
 11
291.023446
 21
406.431999
 31
0.0
  0
LINE
  8
LC-011-003-MTZ-0
  6
CONTINUOUS
  5
3D8
 10
246.256312
 20
409.14
 30
0.0
 11
259.413249
 21
409.14
 31
0.0
  0
LINE
  8
LC-011-003-MTZ-0
  6
CONTINUOUS
  5
3D9
 10
259.413249
 20
409.14
 30
0.0
 11
259.413249
 21
418.86
 31
0.0
  0
LINE
  8
LC-011-003-MTZ-0
  6
CONTINUOUS
  5
3DA
 10
259.413249
 20
418.86
 30
0.0
 11
246.256312
 21
418.86
 31
0.0
  0
LINE
  8
LC-011-003-MTZ-0
  6
CONTINUOUS
  5
3DB
 10
246.256312
 20
418.86
 30
0.0
 11
246.256312
 21
409.14
 31
0.0
  0
ENDBLK
  8
0
  5
3DC
  0
BLOCK
  8
0
  5
3DE
  2
*D38
 70
    65
 10
0.0
 20
0.0
 30
0.0
  3
*D38
  0
LINE
  8
LC-009-003-MTH-0
  6
CONTINUOUS
  5
3DF
 10
377.7282
 20
164.218157
 30
0.0
 11
377.7282
 21
97.2
 31
0.0
  0
LINE
  8
LC-009-003-MTH-0
  6
CONTINUOUS
  5
3E0
 10
458.2282
 20
160.218157
 30
0.0
 11
458.2282
 21
97.2
 31
0.0
  0
LINE
  8
LC-010-003-MTG-0
  6
CONTINUOUS
  5
3E1
 10
377.7282
 20
108.0
 30
0.0
 11
458.2282
 21
108.0
 31
0.0
  0
LINE
  8
LC-008-003-----0
  6
CONTINUOUS
  5
3E2
 10
395.574208
 20
110.349471
 30
0.0
 11
377.7282
 21
108.0
 31
0.0
  0
LINE
  8
LC-008-003-----0
  6
CONTINUOUS
  5
3E3
 10
377.7282
 20
108.0
 30
0.0
 11
395.574208
 21
105.650529
 31
0.0
  0
LINE
  8
LC-008-003-----0
  6
CONTINUOUS
  5
3E4
 10
395.574208
 20
105.650529
 30
0.0
 11
395.574208
 21
110.349471
 31
0.0
  0
LINE
  8
LC-008-003-----0
  6
CONTINUOUS
  5
3E5
 10
395.614246
 20
109.738609
 30
0.0
 11
382.4082
 21
108.0
 31
0.0
  0
LINE
  8
LC-008-003-----0
  6
CONTINUOUS
  5
3E6
 10
382.4082
 20
108.0
 30
0.0
 11
395.614246
 21
106.261391
 31
0.0
  0
LINE
  8
LC-008-003-----0
  6
CONTINUOUS
  5
3E7
 10
395.654284
 20
109.127746
 30
0.0
 11
387.0882
 21
108.0
 31
0.0
  0
LINE
  8
LC-008-003-----0
  6
CONTINUOUS
  5
3E8
 10
387.0882
 20
108.0
 30
0.0
 11
395.654284
 21
106.872254
 31
0.0
  0
LINE
  8
LC-008-003-----0
  6
CONTINUOUS
  5
3E9
 10
395.694322
 20
108.516884
 30
0.0
 11
391.7682
 21
108.0
 31
0.0
  0
LINE
  8
LC-008-003-----0
  6
CONTINUOUS
  5
3EA
 10
391.7682
 20
108.0
 30
0.0
 11
395.694322
 21
107.483116
 31
0.0
  0
LINE
  8
LC-008-003-----0
  6
CONTINUOUS
  5
3EB
 10
440.382193
 20
105.650529
 30
0.0
 11
458.2282
 21
108.0
 31
0.0
  0
LINE
  8
LC-008-003-----0
  6
CONTINUOUS
  5
3EC
 10
458.2282
 20
108.0
 30
0.0
 11
440.382193
 21
110.349471
 31
0.0
  0
LINE
  8
LC-008-003-----0
  6
CONTINUOUS
  5
3ED
 10
440.382193
 20
110.349471
 30
0.0
 11
440.382193
 21
105.650529
 31
0.0
  0
LINE
  8
LC-008-003-----0
  6
CONTINUOUS
  5
3EE
 10
440.342155
 20
106.261391
 30
0.0
 11
453.5482
 21
108.0
 31
0.0
  0
LINE
  8
LC-008-003-----0
  6
CONTINUOUS
  5
3EF
 10
453.5482
 20
108.0
 30
0.0
 11
440.342155
 21
109.738609
 31
0.0
  0
LINE
  8
LC-008-003-----0
  6
CONTINUOUS
  5
3F0
 10
440.302117
 20
106.872254
 30
0.0
 11
448.8682
 21
108.0
 31
0.0
  0
LINE
  8
LC-008-003-----0
  6
CONTINUOUS
  5
3F1
 10
448.8682
 20
108.0
 30
0.0
 11
440.302117
 21
109.127746
 31
0.0
  0
LINE
  8
LC-008-003-----0
  6
CONTINUOUS
  5
3F2
 10
440.262079
 20
107.483116
 30
0.0
 11
444.1882
 21
108.0
 31
0.0
  0
LINE
  8
LC-008-003-----0
  6
CONTINUOUS
  5
3F3
 10
444.1882
 20
108.0
 30
0.0
 11
440.262079
 21
108.516884
 31
0.0
  0
TEXT
  8
LC-008-003-----0
  6
CONTINUOUS
 62
     6
  5
3F4
 10
398.323052
 20
118.431999
 30
0.0
 40
18.0
  1
80,5
 51
15.0
  7
LC-TXTSTYLE-150-400-0-0-D0
 72
     1
 11
420.773446
 21
118.431999
 31
0.0
  0
ENDBLK
  8
0
  5
3F5
  0
BLOCK
  8
0
  5
3F7
  2
*D39
 70
    65
 10
0.0
 20
0.0
 30
0.0
  3
*D39
  0
LINE
  8
LC-009-003-MTH-0
  6
CONTINUOUS
  5
3F8
 10
169.2282
 20
339.416755
 30
0.0
 11
101.2
 21
339.416755
 31
0.0
  0
LINE
  8
LC-009-003-MTH-0
  6
CONTINUOUS
  5
3F9
 10
171.7282
 20
362.216755
 30
0.0
 11
101.2
 21
362.216755
 31
0.0
  0
LINE
  8
LC-008-003-----0
  6
CONTINUOUS
  5
3FA
 10
114.349471
 20
321.570748
 30
0.0
 11
112.0
 21
339.416755
 31
0.0
  0
LINE
  8
LC-008-003-----0
  6
CONTINUOUS
  5
3FB
 10
112.0
 20
339.416755
 30
0.0
 11
109.650529
 21
321.570748
 31
0.0
  0
LINE
  8
LC-008-003-----0
  6
CONTINUOUS
  5
3FC
 10
109.650529
 20
321.570748
 30
0.0
 11
114.349471
 21
321.570748
 31
0.0
  0
LINE
  8
LC-008-003-----0
  6
CONTINUOUS
  5
3FD
 10
113.738609
 20
321.53071
 30
0.0
 11
112.0
 21
334.736755
 31
0.0
  0
LINE
  8
LC-008-003-----0
  6
CONTINUOUS
  5
3FE
 10
112.0
 20
334.736755
 30
0.0
 11
110.261391
 21
321.53071
 31
0.0
  0
LINE
  8
LC-008-003-----0
  6
CONTINUOUS
  5
3FF
 10
113.127746
 20
321.490672
 30
0.0
 11
112.0
 21
330.056755
 31
0.0
  0
LINE
  8
LC-008-003-----0
  6
CONTINUOUS
  5
400
 10
112.0
 20
330.056755
 30
0.0
 11
110.872254
 21
321.490672
 31
0.0
  0
LINE
  8
LC-008-003-----0
  6
CONTINUOUS
  5
401
 10
112.516884
 20
321.450634
 30
0.0
 11
112.0
 21
325.376755
 31
0.0
  0
LINE
  8
LC-008-003-----0
  6
CONTINUOUS
  5
402
 10
112.0
 20
325.376755
 30
0.0
 11
111.483116
 21
321.450634
 31
0.0
  0
LINE
  8
LC-008-003-----0
  6
CONTINUOUS
  5
403
 10
109.650529
 20
380.062763
 30
0.0
 11
112.0
 21
362.216755
 31
0.0
  0
LINE
  8
LC-008-003-----0
  6
CONTINUOUS
  5
404
 10
112.0
 20
362.216755
 30
0.0
 11
114.349471
 21
380.062763
 31
0.0
  0
LINE
  8
LC-008-003-----0
  6
CONTINUOUS
  5
405
 10
114.349471
 20
380.062763
 30
0.0
 11
109.650529
 21
380.062763
 31
0.0
  0
LINE
  8
LC-008-003-----0
  6
CONTINUOUS
  5
406
 10
110.261391
 20
380.102801
 30
0.0
 11
112.0
 21
366.896755
 31
0.0
  0
LINE
  8
LC-008-003-----0
  6
CONTINUOUS
  5
407
 10
112.0
 20
366.896755
 30
0.0
 11
113.738609
 21
380.102801
 31
0.0
  0
LINE
  8
LC-008-003-----0
  6
CONTINUOUS
  5
408
 10
110.872254
 20
380.142839
 30
0.0
 11
112.0
 21
371.576755
 31
0.0
  0
LINE
  8
LC-008-003-----0
  6
CONTINUOUS
  5
409
 10
112.0
 20
371.576755
 30
0.0
 11
113.127746
 21
380.142839
 31
0.0
  0
LINE
  8
LC-008-003-----0
  6
CONTINUOUS
  5
40A
 10
111.483116
 20
380.182877
 30
0.0
 11
112.0
 21
376.256755
 31
0.0
  0
LINE
  8
LC-008-003-----0
  6
CONTINUOUS
  5
40B
 10
112.0
 20
376.256755
 30
0.0
 11
112.516884
 21
380.182877
 31
0.0
  0
LINE
  8
LC-010-003-MTG-0
  6
CONTINUOUS
  5
40C
 10
112.0
 20
314.216755
 30
0.0
 11
112.0
 21
420.219275
 31
0.0
  0
TEXT
  8
LC-008-003-----0
  6
CONTINUOUS
 62
     6
  5
40D
 10
101.568001
 20
389.492001
 30
0.0
 40
18.0
  1
23
 50
90.0
 51
15.0
  7
LC-TXTSTYLE-150-400-0-0-D0
  0
ENDBLK
  8
0
  5
40E
  0
BLOCK
  8
0
  5
410
  2
*D40
 70
    65
 10
0.0
 20
0.0
 30
0.0
  3
*D40
  0
LINE
  8
LC-009-003-MTH-0
  6
CONTINUOUS
  5
411
 10
129.7282
 20
243.718157
 30
0.0
 11
73.2
 21
243.718157
 31
0.0
  0
LINE
  8
LC-009-003-MTH-0
  6
CONTINUOUS
  5
412
 10
171.7282
 20
362.216755
 30
0.0
 11
73.2
 21
362.216755
 31
0.0
  0
LINE
  8
LC-010-003-MTG-0
  6
CONTINUOUS
  5
413
 10
84.0
 20
243.718157
 30
0.0
 11
84.0
 21
362.216755
 31
0.0
  0
LINE
  8
LC-008-003-----0
  6
CONTINUOUS
  5
414
 10
81.650529
 20
261.564164
 30
0.0
 11
84.0
 21
243.718157
 31
0.0
  0
LINE
  8
LC-008-003-----0
  6
CONTINUOUS
  5
415
 10
84.0
 20
243.718157
 30
0.0
 11
86.349471
 21
261.564164
 31
0.0
  0
LINE
  8
LC-008-003-----0
  6
CONTINUOUS
  5
416
 10
86.349471
 20
261.564164
 30
0.0
 11
81.650529
 21
261.564164
 31
0.0
  0
LINE
  8
LC-008-003-----0
  6
CONTINUOUS
  5
417
 10
82.261391
 20
261.604202
 30
0.0
 11
84.0
 21
248.398157
 31
0.0
  0
LINE
  8
LC-008-003-----0
  6
CONTINUOUS
  5
418
 10
84.0
 20
248.398157
 30
0.0
 11
85.738609
 21
261.604202
 31
0.0
  0
LINE
  8
LC-008-003-----0
  6
CONTINUOUS
  5
419
 10
82.872254
 20
261.64424
 30
0.0
 11
84.0
 21
253.078157
 31
0.0
  0
LINE
  8
LC-008-003-----0
  6
CONTINUOUS
  5
41A
 10
84.0
 20
253.078157
 30
0.0
 11
85.127746
 21
261.64424
 31
0.0
  0
LINE
  8
LC-008-003-----0
  6
CONTINUOUS
  5
41B
 10
83.483116
 20
261.684278
 30
0.0
 11
84.0
 21
257.758157
 31
0.0
  0
LINE
  8
LC-008-003-----0
  6
CONTINUOUS
  5
41C
 10
84.0
 20
257.758157
 30
0.0
 11
84.516884
 21
261.684278
 31
0.0
  0
LINE
  8
LC-008-003-----0
  6
CONTINUOUS
  5
41D
 10
86.349471
 20
344.370748
 30
0.0
 11
84.0
 21
362.216755
 31
0.0
  0
LINE
  8
LC-008-003-----0
  6
CONTINUOUS
  5
41E
 10
84.0
 20
362.216755
 30
0.0
 11
81.650529
 21
344.370748
 31
0.0
  0
LINE
  8
LC-008-003-----0
  6
CONTINUOUS
  5
41F
 10
81.650529
 20
344.370748
 30
0.0
 11
86.349471
 21
344.370748
 31
0.0
  0
LINE
  8
LC-008-003-----0
  6
CONTINUOUS
  5
420
 10
85.738609
 20
344.33071
 30
0.0
 11
84.0
 21
357.536755
 31
0.0
  0
LINE
  8
LC-008-003-----0
  6
CONTINUOUS
  5
421
 10
84.0
 20
357.536755
 30
0.0
 11
82.261391
 21
344.33071
 31
0.0
  0
LINE
  8
LC-008-003-----0
  6
CONTINUOUS
  5
422
 10
85.127746
 20
344.290672
 30
0.0
 11
84.0
 21
352.856755
 31
0.0
  0
LINE
  8
LC-008-003-----0
  6
CONTINUOUS
  5
423
 10
84.0
 20
352.856755
 30
0.0
 11
82.872254
 21
344.290672
 31
0.0
  0
LINE
  8
LC-008-003-----0
  6
CONTINUOUS
  5
424
 10
84.516884
 20
344.250634
 30
0.0
 11
84.0
 21
348.176755
 31
0.0
  0
LINE
  8
LC-008-003-----0
  6
CONTINUOUS
  5
425
 10
84.0
 20
348.176755
 30
0.0
 11
83.483116
 21
344.250634
 31
0.0
  0
TEXT
  8
LC-008-003-----0
  6
CONTINUOUS
 62
     6
  5
426
 10
73.568001
 20
263.987111
 30
0.0
 40
18.0
  1
42-130
 50
90.0
 51
15.0
  7
LC-TXTSTYLE-150-400-0-0-D0
 72
     1
 11
73.568001
 21
305.762702
 31
0.0
  0
ENDBLK
  8
0
  5
427
  0
BLOCK
  8
0
  5
429
  2
*D41
 70
    65
 10
0.0
 20
0.0
 30
0.0
  3
*D41
  0
LINE
  8
LC-009-003-MTH-0
  6
CONTINUOUS
  5
42A
 10
453.7282
 20
54.218157
 30
0.0
 11
514.8
 21
54.218157
 31
0.0
  0
LINE
  8
LC-009-003-MTH-0
  6
CONTINUOUS
  5
42B
 10
453.7282
 20
164.218157
 30
0.0
 11
514.8
 21
164.218157
 31
0.0
  0
LINE
  8
LC-010-003-MTG-0
  6
CONTINUOUS
  5
42C
 10
504.0
 20
54.218157
 30
0.0
 11
504.0
 21
164.218157
 31
0.0
  0
LINE
  8
LC-008-003-----0
  6
CONTINUOUS
  5
42D
 10
501.650529
 20
72.064164
 30
0.0
 11
504.0
 21
54.218157
 31
0.0
  0
LINE
  8
LC-008-003-----0
  6
CONTINUOUS
  5
42E
 10
504.0
 20
54.218157
 30
0.0
 11
506.349471
 21
72.064164
 31
0.0
  0
LINE
  8
LC-008-003-----0
  6
CONTINUOUS
  5
42F
 10
506.349471
 20
72.064164
 30
0.0
 11
501.650529
 21
72.064164
 31
0.0
  0
LINE
  8
LC-008-003-----0
  6
CONTINUOUS
  5
430
 10
502.261391
 20
72.104202
 30
0.0
 11
504.0
 21
58.898157
 31
0.0
  0
LINE
  8
LC-008-003-----0
  6
CONTINUOUS
  5
431
 10
504.0
 20
58.898157
 30
0.0
 11
505.738609
 21
72.104202
 31
0.0
  0
LINE
  8
LC-008-003-----0
  6
CONTINUOUS
  5
432
 10
502.872254
 20
72.14424
 30
0.0
 11
504.0
 21
63.578157
 31
0.0
  0
LINE
  8
LC-008-003-----0
  6
CONTINUOUS
  5
433
 10
504.0
 20
63.578157
 30
0.0
 11
505.127746
 21
72.14424
 31
0.0
  0
LINE
  8
LC-008-003-----0
  6
CONTINUOUS
  5
434
 10
503.483116
 20
72.184278
 30
0.0
 11
504.0
 21
68.258157
 31
0.0
  0
LINE
  8
LC-008-003-----0
  6
CONTINUOUS
  5
435
 10
504.0
 20
68.258157
 30
0.0
 11
504.516884
 21
72.184278
 31
0.0
  0
LINE
  8
LC-008-003-----0
  6
CONTINUOUS
  5
436
 10
506.349471
 20
146.372149
 30
0.0
 11
504.0
 21
164.218157
 31
0.0
  0
LINE
  8
LC-008-003-----0
  6
CONTINUOUS
  5
437
 10
504.0
 20
164.218157
 30
0.0
 11
501.650529
 21
146.372149
 31
0.0
  0
LINE
  8
LC-008-003-----0
  6
CONTINUOUS
  5
438
 10
501.650529
 20
146.372149
 30
0.0
 11
506.349471
 21
146.372149
 31
0.0
  0
LINE
  8
LC-008-003-----0
  6
CONTINUOUS
  5
439
 10
505.738609
 20
146.332111
 30
0.0
 11
504.0
 21
159.538157
 31
0.0
  0
LINE
  8
LC-008-003-----0
  6
CONTINUOUS
  5
43A
 10
504.0
 20
159.538157
 30
0.0
 11
502.261391
 21
146.332111
 31
0.0
  0
LINE
  8
LC-008-003-----0
  6
CONTINUOUS
  5
43B
 10
505.127746
 20
146.292073
 30
0.0
 11
504.0
 21
154.858157
 31
0.0
  0
LINE
  8
LC-008-003-----0
  6
CONTINUOUS
  5
43C
 10
504.0
 20
154.858157
 30
0.0
 11
502.872254
 21
146.292073
 31
0.0
  0
LINE
  8
LC-008-003-----0
  6
CONTINUOUS
  5
43D
 10
504.516884
 20
146.252035
 30
0.0
 11
504.0
 21
150.178157
 31
0.0
  0
LINE
  8
LC-008-003-----0
  6
CONTINUOUS
  5
43E
 10
504.0
 20
150.178157
 30
0.0
 11
503.483116
 21
146.252035
 31
0.0
  0
TEXT
  8
LC-008-003-----0
  6
CONTINUOUS
 62
     6
  5
43F
 10
493.568001
 20
78.337812
 30
0.0
 40
18.0
  1
DN100
 50
90.0
 51
15.0
  7
LC-TXTSTYLE-150-400-0-0-D0
 72
     1
 11
493.568001
 21
112.013402
 31
0.0
  0
ENDBLK
  8
0
  5
440
  0
BLOCK
  8
0
  5
442
  2
*D42
 70
    65
 10
0.0
 20
0.0
 30
0.0
  3
*D42
  0
LINE
  8
LC-009-003-MTH-0
  6
CONTINUOUS
  5
443
 10
464.2718
 20
109.218157
 30
0.0
 11
542.8
 21
109.218157
 31
0.0
  0
LINE
  8
LC-009-003-MTH-0
  6
CONTINUOUS
  5
444
 10
446.7282
 20
243.718157
 30
0.0
 11
542.8
 21
243.718157
 31
0.0
  0
LINE
  8
LC-010-003-MTG-0
  6
CONTINUOUS
  5
445
 10
532.0
 20
109.218157
 30
0.0
 11
532.0
 21
243.718157
 31
0.0
  0
LINE
  8
LC-008-003-----0
  6
CONTINUOUS
  5
446
 10
529.650529
 20
127.064164
 30
0.0
 11
532.0
 21
109.218157
 31
0.0
  0
LINE
  8
LC-008-003-----0
  6
CONTINUOUS
  5
447
 10
532.0
 20
109.218157
 30
0.0
 11
534.349471
 21
127.064164
 31
0.0
  0
LINE
  8
LC-008-003-----0
  6
CONTINUOUS
  5
448
 10
534.349471
 20
127.064164
 30
0.0
 11
529.650529
 21
127.064164
 31
0.0
  0
LINE
  8
LC-008-003-----0
  6
CONTINUOUS
  5
449
 10
530.261391
 20
127.104202
 30
0.0
 11
532.0
 21
113.898157
 31
0.0
  0
LINE
  8
LC-008-003-----0
  6
CONTINUOUS
  5
44A
 10
532.0
 20
113.898157
 30
0.0
 11
533.738609
 21
127.104202
 31
0.0
  0
LINE
  8
LC-008-003-----0
  6
CONTINUOUS
  5
44B
 10
530.872254
 20
127.14424
 30
0.0
 11
532.0
 21
118.578157
 31
0.0
  0
LINE
  8
LC-008-003-----0
  6
CONTINUOUS
  5
44C
 10
532.0
 20
118.578157
 30
0.0
 11
533.127746
 21
127.14424
 31
0.0
  0
LINE
  8
LC-008-003-----0
  6
CONTINUOUS
  5
44D
 10
531.483116
 20
127.184278
 30
0.0
 11
532.0
 21
123.258157
 31
0.0
  0
LINE
  8
LC-008-003-----0
  6
CONTINUOUS
  5
44E
 10
532.0
 20
123.258157
 30
0.0
 11
532.516884
 21
127.184278
 31
0.0
  0
LINE
  8
LC-008-003-----0
  6
CONTINUOUS
  5
44F
 10
534.349471
 20
225.872149
 30
0.0
 11
532.0
 21
243.718157
 31
0.0
  0
LINE
  8
LC-008-003-----0
  6
CONTINUOUS
  5
450
 10
532.0
 20
243.718157
 30
0.0
 11
529.650529
 21
225.872149
 31
0.0
  0
LINE
  8
LC-008-003-----0
  6
CONTINUOUS
  5
451
 10
529.650529
 20
225.872149
 30
0.0
 11
534.349471
 21
225.872149
 31
0.0
  0
LINE
  8
LC-008-003-----0
  6
CONTINUOUS
  5
452
 10
533.738609
 20
225.832111
 30
0.0
 11
532.0
 21
239.038157
 31
0.0
  0
LINE
  8
LC-008-003-----0
  6
CONTINUOUS
  5
453
 10
532.0
 20
239.038157
 30
0.0
 11
530.261391
 21
225.832111
 31
0.0
  0
LINE
  8
LC-008-003-----0
  6
CONTINUOUS
  5
454
 10
533.127746
 20
225.792073
 30
0.0
 11
532.0
 21
234.358157
 31
0.0
  0
LINE
  8
LC-008-003-----0
  6
CONTINUOUS
  5
455
 10
532.0
 20
234.358157
 30
0.0
 11
530.872254
 21
225.792073
 31
0.0
  0
LINE
  8
LC-008-003-----0
  6
CONTINUOUS
  5
456
 10
532.516884
 20
225.752035
 30
0.0
 11
532.0
 21
229.678157
 31
0.0
  0
LINE
  8
LC-008-003-----0
  6
CONTINUOUS
  5
457
 10
532.0
 20
229.678157
 30
0.0
 11
531.483116
 21
225.752035
 31
0.0
  0
TEXT
  8
LC-008-003-----0
  6
CONTINUOUS
 62
     6
  5
458
 10
521.568001
 20
160.129544
 30
0.0
 40
18.0
  1
135
 50
90.0
 51
15.0
  7
LC-TXTSTYLE-150-400-0-0-D0
 72
     1
 11
521.568001
 21
179.263402
 31
0.0
  0
ENDBLK
  8
0
  5
459
  0
BLOCK
  8
0
  5
45B
  2
*D43
 70
    65
 10
0.0
 20
0.0
 30
0.0
  3
*D43
  0
LINE
  8
LC-009-003-MTH-0
  6
CONTINUOUS
  5
45C
 10
288.2282
 20
61.865138
 30
0.0
 11
288.2282
 21
3.2
 31
0.0
  0
LINE
  8
LC-009-003-MTH-0
  6
CONTINUOUS
  5
45D
 10
458.2282
 20
56.821042
 30
0.0
 11
458.2282
 21
3.2
 31
0.0
  0
LINE
  8
LC-010-003-MTG-0
  6
CONTINUOUS
  5
45E
 10
288.2282
 20
14.0
 30
0.0
 11
458.2282
 21
14.0
 31
0.0
  0
LINE
  8
LC-008-003-----0
  6
CONTINUOUS
  5
45F
 10
306.074208
 20
16.349471
 30
0.0
 11
288.2282
 21
14.0
 31
0.0
  0
LINE
  8
LC-008-003-----0
  6
CONTINUOUS
  5
460
 10
288.2282
 20
14.0
 30
0.0
 11
306.074208
 21
11.650529
 31
0.0
  0
LINE
  8
LC-008-003-----0
  6
CONTINUOUS
  5
461
 10
306.074208
 20
11.650529
 30
0.0
 11
306.074208
 21
16.349471
 31
0.0
  0
LINE
  8
LC-008-003-----0
  6
CONTINUOUS
  5
462
 10
306.114246
 20
15.738609
 30
0.0
 11
292.9082
 21
14.0
 31
0.0
  0
LINE
  8
LC-008-003-----0
  6
CONTINUOUS
  5
463
 10
292.9082
 20
14.0
 30
0.0
 11
306.114246
 21
12.261391
 31
0.0
  0
LINE
  8
LC-008-003-----0
  6
CONTINUOUS
  5
464
 10
306.154284
 20
15.127746
 30
0.0
 11
297.5882
 21
14.0
 31
0.0
  0
LINE
  8
LC-008-003-----0
  6
CONTINUOUS
  5
465
 10
297.5882
 20
14.0
 30
0.0
 11
306.154284
 21
12.872254
 31
0.0
  0
LINE
  8
LC-008-003-----0
  6
CONTINUOUS
  5
466
 10
306.194322
 20
14.516884
 30
0.0
 11
302.2682
 21
14.0
 31
0.0
  0
LINE
  8
LC-008-003-----0
  6
CONTINUOUS
  5
467
 10
302.2682
 20
14.0
 30
0.0
 11
306.194322
 21
13.483116
 31
0.0
  0
LINE
  8
LC-008-003-----0
  6
CONTINUOUS
  5
468
 10
440.382193
 20
11.650529
 30
0.0
 11
458.2282
 21
14.0
 31
0.0
  0
LINE
  8
LC-008-003-----0
  6
CONTINUOUS
  5
469
 10
458.2282
 20
14.0
 30
0.0
 11
440.382193
 21
16.349471
 31
0.0
  0
LINE
  8
LC-008-003-----0
  6
CONTINUOUS
  5
46A
 10
440.382193
 20
16.349471
 30
0.0
 11
440.382193
 21
11.650529
 31
0.0
  0
LINE
  8
LC-008-003-----0
  6
CONTINUOUS
  5
46B
 10
440.342155
 20
12.261391
 30
0.0
 11
453.5482
 21
14.0
 31
0.0
  0
LINE
  8
LC-008-003-----0
  6
CONTINUOUS
  5
46C
 10
453.5482
 20
14.0
 30
0.0
 11
440.342155
 21
15.738609
 31
0.0
  0
LINE
  8
LC-008-003-----0
  6
CONTINUOUS
  5
46D
 10
440.302117
 20
12.872254
 30
0.0
 11
448.8682
 21
14.0
 31
0.0
  0
LINE
  8
LC-008-003-----0
  6
CONTINUOUS
  5
46E
 10
448.8682
 20
14.0
 30
0.0
 11
440.302117
 21
15.127746
 31
0.0
  0
LINE
  8
LC-008-003-----0
  6
CONTINUOUS
  5
46F
 10
440.262079
 20
13.483116
 30
0.0
 11
444.1882
 21
14.0
 31
0.0
  0
LINE
  8
LC-008-003-----0
  6
CONTINUOUS
  5
470
 10
444.1882
 20
14.0
 30
0.0
 11
440.262079
 21
14.516884
 31
0.0
  0
TEXT
  8
LC-008-003-----0
  6
CONTINUOUS
 62
     6
  5
471
 10
356.889588
 20
24.431999
 30
0.0
 40
18.0
  1
170
 51
15.0
  7
LC-TXTSTYLE-150-400-0-0-D0
 72
     1
 11
376.023446
 21
24.431999
 31
0.0
  0
ENDBLK
  8
0
  5
472
  0
ENDSEC
  0
SECTION
  2
ENTITIES
  0
VIEWPORT
  8
LC-000
  5
8FA
 67
     1
 68
     1
 10
420.0
 20
297.0
 30
0.0
 40
840.0
 41
594.0
 69
     1
1001
ACAD
1000
MVIEW
1002
{
1070
    16
1010
0.0
1020
0.0
1030
0.0
1010
0.0
1020
0.0
1030
1.0
1040
0.0
1040
594.0
1040
420.0
1040
297.0
1040
50.0
1040
0.0
1040
0.0
1070
     0
1070
   100
1070
     1
1070
     1
1070
     0
1070
     0
1070
     0
1070
     0
1040
0.0
1040
0.0
1040
0.0
1040
1.0
1040
1.0
1040
0.0
1040
0.0
1070
     0
1002
{
1002
}
1002
}
  0
VIEWPORT
  8
0
  5
8FB
 67
     1
 68
     1
 10
0.0
 20
0.0
 30
0.0
 40
0.0
 41
0.0
 69
     1
1001
ACAD
1000
MVIEW
1002
{
1070
    16
1010
0.0
1020
0.0
1030
0.0
1010
0.0
1020
0.0
1030
1.0
1040
0.0
1040
594.0
1040
0.0
1040
0.0
1040
50.0
1040
0.0
1040
0.0
1070
     0
1070
   100
1070
     0
1070
     1
1070
     0
1070
     0
1070
     0
1070
     0
1040
0.0
1040
0.0
1040
0.0
1040
0.5
1040
0.5
1040
0.5
1040
0.5
1070
     0
1002
{
1002
}
1002
}
  0
INSERT
  8
0
  5
474
  2
HL615K_RPERARTIKEL
 10
0.0
 20
0.0
 30
0.0
  0
INSERT
  8
0
  5
475
  2
HL615K_RPERARTIKEL-LC001
 10
0.0
 20
0.0
 30
0.0
  0
INSERT
  8
0
  5
476
  2
HL615K_RPERARTIKEL-LC002
 10
0.0
 20
0.0
 30
0.0
  0
INSERT
  8
0
  5
477
  2
BGR_SCHNITTB_HL606-616_EI3
 10
0.0
 20
0.0
 30
0.0
  0
INSERT
  8
0
  5
478
  2
HL615K_RPERARTIKEL-LC003
 10
0.0
 20
0.0
 30
0.0
  0
INSERT
  8
0
  5
479
  2
BGR_SCHNITTB_HL606-616_EI5
 10
0.0
 20
0.0
 30
0.0
  0
INSERT
  8
0
  5
47A
  2
HL_616_HOFABLAUF
 10
0.0
 20
0.0
 30
0.0
  0
INSERT
  8
0
  5
47B
  2
HL_616_HOFABLAUF-LC001
 10
0.0
 20
0.0
 30
0.0
  0
INSERT
  8
0
  5
47C
  2
HL_616_HOFABLAUF-LC002
 10
0.0
 20
0.0
 30
0.0
  0
INSERT
  8
0
  5
47D
  2
HL_616_HOFABLAUF-LC003
 10
0.0
 20
0.0
 30
0.0
  0
INSERT
  8
0
  5
47E
  2
HL615K_RPERARTIKEL-LC004
 10
0.0
 20
0.0
 30
0.0
  0
INSERT
  8
0
  5
47F
  2
HL_616_HOFABLAUF-LC004
 10
0.0
 20
0.0
 30
0.0
  0
INSERT
  8
0
  5
480
  2
HL615K_RPERARTIKEL-LC005
 10
0.0
 20
0.0
 30
0.0
  0
INSERT
  8
0
  5
482
  2
HL_616_HOFABLAUF-LC005
 10
0.0
 20
0.0
 30
0.0
  0
INSERT
  8
0
  5
483
  2
HL615K_RPERARTIKEL-LC006
 10
0.0
 20
0.0
 30
0.0
  0
INSERT
  8
0
  5
484
  2
HL615K_RPERARTIKEL-LC007
 10
0.0
 20
0.0
 30
0.0
  0
INSERT
  8
0
  5
485
  2
HL615K_RPERARTIKEL-LC008
 10
0.0
 20
0.0
 30
0.0
  0
INSERT
  8
0
  5
486
  2
*X17
 10
168.2282
 20
218.218157
 30
0.0
  0
INSERT
  8
0
  5
487
  2
*X18
 10
378.7282
 20
218.218157
 30
0.0
  0
INSERT
  8
0
  5
488
  2
*X19
 10
176.72683
 20
342.416755
 30
0.0
  0
INSERT
  8
0
  5
489
  2
*X20
 10
223.222312
 20
328.416755
 30
0.0
  0
INSERT
  8
0
  5
48A
  2
*X21
 10
213.904035
 20
335.353504
 30
0.0
  0
INSERT
  8
0
  5
48B
  2
*X22
 10
383.22683
 20
342.416755
 30
0.0
  0
INSERT
  8
0
  5
48C
  2
*X23
 10
299.320771
 20
282.321671
 30
0.0
  0
INSERT
  8
0
  5
48D
  2
*X24
 10
279.296519
 20
281.928215
 30
0.0
  0
INSERT
  8
0
  5
48E
  2
*X25
 10
192.2282
 20
282.321671
 30
0.0
  0
INSERT
  8
0
  5
48F
  2
*X26
 10
200.2282
 20
68.778595
 30
0.0
  0
INSERT
  8
0
  5
490
  2
*X27
 10
277.157457
 20
148.526482
 30
0.0
  0
INSERT
  8
0
  5
491
  2
*X28
 10
129.709437
 20
54.218157
 30
0.0
  0
INSERT
  8
0
  5
492
  2
*X29
 10
372.2282
 20
160.218157
 30
0.0
  0
INSERT
  8
0
  5
493
  2
*X30
 10
286.55225
 20
67.105562
 30
0.0
  0
INSERT
  8
0
  5
494
  2
*X31
 10
189.727176
 20
223.382822
 30
0.0
  0
INSERT
  8
0
  5
495
  2
*X32
 10
202.9282
 20
174.218157
 30
0.0
  0
INSERT
  8
0
  5
496
  2
*X33
 10
382.227176
 20
223.382822
 30
0.0
  0
INSERT
  8
0
  5
497
  2
*X34
 10
369.5282
 20
174.218157
 30
0.0
  0
DIMENSION
  8
0
  5
498
  2
*D35
 10
288.2282
 20
468.0
 30
0.0
 11
288.2282
 21
468.0
 31
0.0
  1
%%c315
 13
129.7282
 23
243.718157
 33
0.0
 14
446.7282
 24
243.718157
 34
0.0
  3
LC-DIM-L-0090-02-02
  0
DIMENSION
  8
0
  5
499
  2
*D36
 10
288.521094
 20
432.0
 30
0.0
 11
288.521094
 21
432.0
 31
0.0
  1
240
 13
168.813987
 23
361.630969
 33
0.0
 14
408.2282
 24
360.216755
 34
0.0
  3
LC-DIM-L-0090-02-02
  0
DIMENSION
  8
0
  5
49A
  2
*D37
 10
288.2282
 20
396.0
 30
0.0
 11
288.2282
 21
396.0
 31
0.0
  1
226
 13
176.729571
 23
360.312083
 33
0.0
 14
399.72683
 24
360.312083
 34
0.0
  3
LC-DIM-L-0090-02-02
  0
DIMENSION
  8
0
  5
49B
  2
*D38
 10
417.9782
 20
108.0
 30
0.0
 11
417.9782
 21
108.0
 31
0.0
 13
377.7282
 23
164.218157
 33
0.0
 14
458.2282
 24
160.218157
 34
0.0
  3
LC-DIM-L-0090-02-02
  0
DIMENSION
  8
0
  5
49C
  2
*D39
 10
112.0
 20
350.816755
 30
0.0
 11
112.0
 21
350.816755
 31
0.0
  1
23
 13
171.7282
 23
362.216755
 33
0.0
 14
169.2282
 24
339.416755
 34
0.0
 50
90.0
  3
LC-DIM-L-0090-02-02
  0
DIMENSION
  8
0
  5
49D
  2
*D40
 10
84.0
 20
302.967456
 30
0.0
 11
84.0
 21
302.967456
 31
0.0
  1
42-130
 13
171.7282
 23
362.216755
 33
0.0
 14
129.7282
 24
243.718157
 34
0.0
 50
90.0
  3
LC-DIM-L-0090-02-02
  0
DIMENSION
  8
0
  5
49E
  2
*D41
 10
504.0
 20
109.218157
 30
0.0
 11
504.0
 21
109.218157
 31
0.0
  1
DN100
 13
453.7282
 23
164.218157
 33
0.0
 14
453.7282
 24
54.218157
 34
0.0
 50
90.0
  3
LC-DIM-L-0090-02-02
  0
DIMENSION
  8
0
  5
49F
  2
*D42
 10
532.0
 20
176.468157
 30
0.0
 11
532.0
 21
176.468157
 31
0.0
  1
135
 13
446.7282
 23
243.718157
 33
0.0
 14
464.2718
 24
109.218157
 34
0.0
 50
90.0
  3
LC-DIM-L-0090-02-02
  0
DIMENSION
  8
0
  5
4A0
  2
*D43
 10
373.2282
 20
14.0
 30
0.0
 11
373.2282
 21
14.0
 31
0.0
 13
288.2282
 23
61.865138
 33
0.0
 14
458.2282
 24
56.821042
 34
0.0
  3
LC-DIM-L-0090-02-02
  0
ARC
  8
LC-002-002-----0
  6
CONTINUOUS
  5
4A1
 10
387.7282
 20
239.718157
 30
0.0
 40
0.5
 50
90.0
 51
180.0
  0
ARC
  8
LC-002-002-----0
  6
CONTINUOUS
  5
4A2
 10
255.376647
 20
74.777474
 30
0.0
 40
6.0
 50
265.0
 51
345.0
  0
LINE
  8
LC-002-002-----0
  6
CONTINUOUS
  5
4A3
 10
194.2282
 20
243.718157
 30
0.0
 11
129.7282
 21
243.718157
 31
0.0
  0
LINE
  8
LC-002-002-----0
  6
CONTINUOUS
  5
4A4
 10
190.7282
 20
240.218157
 30
0.0
 11
188.7282
 21
240.218157
 31
0.0
  0
LINE
  8
LC-002-002-----0
  6
CONTINUOUS
  5
4A5
 10
190.7282
 20
239.718157
 30
0.0
 11
189.2282
 21
239.718157
 31
0.0
  0
LINE
  8
LC-002-002-----0
  6
CONTINUOUS
  5
4A6
 10
207.674679
 20
164.218157
 30
0.0
 11
202.7282
 21
164.218157
 31
0.0
  0
LINE
  8
LC-002-002-----0
  6
CONTINUOUS
  5
4A7
 10
298.738576
 20
118.218157
 30
0.0
 11
332.325021
 21
118.218157
 31
0.0
  0
LINE
  8
LC-002-002-----0
  6
CONTINUOUS
  5
4A8
 10
300.346272
 20
112.218157
 30
0.0
 11
342.794158
 21
112.218157
 31
0.0
  0
LINE
  8
LC-002-002-----0
  6
CONTINUOUS
  5
4A9
 10
311.698805
 20
69.849924
 30
0.0
 11
341.598208
 21
67.234065
 31
0.0
  0
LINE
  8
LC-002-002-----0
  6
CONTINUOUS
  5
4AA
 10
269.052085
 20
79.450463
 30
0.0
 11
267.515399
 21
73.715471
 31
0.0
  0
LINE
  8
LC-002-002-----0
  6
CONTINUOUS
  5
4AB
 10
263.25653
 20
81.003377
 30
0.0
 11
261.172202
 21
73.22456
 31
0.0
  0
LINE
  8
LC-003-100-D10-0
  5
4AE
 10
404.7282
 20
218.008944
 30
0.0
 11
404.7282
 21
244.475077
 31
0.0
  0
LINE
  8
LC-002-002-----0
  6
CONTINUOUS
  5
4AF
 10
406.992556
 20
223.71808
 30
0.0
 11
402.463845
 21
223.71808
 31
0.0
  0
LINE
  8
LC-003-100-D10-0
  5
4B0
 10
171.7282
 20
218.354374
 30
0.0
 11
171.7282
 21
240.864651
 31
0.0
  0
LINE
  8
LC-002-002-----0
  6
CONTINUOUS
  5
4B1
 10
194.22953
 20
183.833466
 30
0.0
 11
194.22953
 21
209.218157
 31
0.0
  0
LINE
  8
LC-002-002-----0
  6
CONTINUOUS
  5
4B2
 10
198.2282
 20
212.218157
 30
0.0
 11
198.2282
 21
183.718157
 31
0.0
  0
LINE
  8
LC-002-002-----0
  6
CONTINUOUS
  5
4B3
 10
185.233055
 20
230.218157
 30
0.0
 11
185.233055
 21
216.218157
 31
0.0
  0
LINE
  8
LC-002-002-----0
  6
CONTINUOUS
  5
4B4
 10
189.2282
 20
215.218157
 30
0.0
 11
189.2282
 21
239.718157
 31
0.0
  0
LINE
  8
LC-002-002-----0
  6
CONTINUOUS
  5
4B5
 10
145.2282
 20
237.218157
 30
0.0
 11
149.73181
 21
237.218157
 31
0.0
  0
LINE
  8
LC-002-002-----0
  6
CONTINUOUS
  5
4B6
 10
200.222873
 20
78.553527
 30
0.0
 11
198.7282
 21
164.183249
 31
0.0
  0
LINE
  8
LC-002-002-----0
  6
CONTINUOUS
  5
4B7
 10
204.222263
 20
78.623337
 30
0.0
 11
202.7282
 21
164.218157
 31
0.0
  0
LINE
  8
LC-002-002-----0
  6
CONTINUOUS
  5
4B8
 10
196.2282
 20
214.218157
 30
0.0
 11
190.2282
 21
214.218157
 31
0.0
  0
LINE
  8
LC-002-002-----0
  6
CONTINUOUS
  5
4B9
 10
150.731837
 20
236.218157
 30
0.0
 11
150.731837
 21
234.218157
 31
0.0
  0
LINE
  8
LC-002-002-----0
  6
CONTINUOUS
  5
4BA
 10
153.731918
 20
231.218157
 30
0.0
 11
165.4266
 21
231.218157
 31
0.0
  0
LINE
  8
LC-002-002-----0
  6
CONTINUOUS
  5
4BB
 10
176.306606
 20
219.218157
 30
0.0
 11
167.149794
 21
219.218157
 31
0.0
  0
LINE
  8
LC-002-002-----0
  6
CONTINUOUS
  5
4BC
 10
178.0298
 20
231.218157
 30
0.0
 11
184.233008
 21
231.218157
 31
0.0
  0
LINE
  8
LC-002-002-----0
  6
CONTINUOUS
  5
4BD
 10
193.22953
 20
210.218157
 30
0.0
 11
191.233355
 21
210.218157
 31
0.0
  0
LINE
  8
LC-004-006-----0
  5
4C0
 10
464.2718
 20
109.218157
 30
0.0
 11
350.262138
 21
109.218157
 31
0.0
  0
LINE
  8
LC-002-002-----0
  6
CONTINUOUS
  5
4C1
 10
387.2282
 20
215.218157
 30
0.0
 11
387.2282
 21
218.218157
 31
0.0
  0
LINE
  8
LC-002-002-----0
  6
CONTINUOUS
  5
4C2
 10
380.2282
 20
214.218157
 30
0.0
 11
386.2282
 21
214.218157
 31
0.0
  0
LINE
  8
LC-002-002-----0
  6
CONTINUOUS
  5
4C3
 10
382.22687
 20
188.216827
 30
0.0
 11
382.22687
 21
209.218157
 31
0.0
  0
LINE
  8
LC-002-002-----0
  6
CONTINUOUS
  5
4C4
 10
382.22687
 20
183.833466
 30
0.0
 11
382.22687
 21
188.216827
 31
0.0
  0
LINE
  8
LC-002-002-----0
  6
CONTINUOUS
  5
4C5
 10
431.2282
 20
237.218157
 30
0.0
 11
434.06098
 21
237.218157
 31
0.0
  0
LINE
  8
LC-002-002-----0
  6
CONTINUOUS
  5
4C6
 10
426.72459
 20
237.218157
 30
0.0
 11
431.2282
 21
237.218157
 31
0.0
  0
LINE
  8
LC-002-002-----0
  6
CONTINUOUS
  5
4C7
 10
385.223046
 20
210.218157
 30
0.0
 11
383.22687
 21
210.218157
 31
0.0
  0
LINE
  8
LC-002-002-----0
  6
CONTINUOUS
  5
4C8
 10
425.724564
 20
234.218157
 30
0.0
 11
425.724564
 21
236.218157
 31
0.0
  0
LINE
  8
LC-002-002-----0
  6
CONTINUOUS
  5
4C9
 10
411.0298
 20
231.218157
 30
0.0
 11
422.724483
 21
231.218157
 31
0.0
  0
LINE
  8
LC-002-002-----0
  6
CONTINUOUS
  5
4CA
 10
409.306606
 20
219.218157
 30
0.0
 11
400.149794
 21
219.218157
 31
0.0
  0
LINE
  8
LC-002-002-----0
  6
CONTINUOUS
  5
4CB
 10
392.223392
 20
231.218157
 30
0.0
 11
398.4266
 21
231.218157
 31
0.0
  0
LINE
  8
LC-002-002-----0
  6
CONTINUOUS
  5
4CC
 10
391.223346
 20
216.218157
 30
0.0
 11
391.223346
 21
230.218157
 31
0.0
  0
LINE
  8
LC-002-002-----0
  6
CONTINUOUS
  5
4CD
 10
389.7282
 20
245.218157
 30
0.0
 11
388.7282
 21
245.218157
 31
0.0
  0
LINE
  8
LC-002-002-----0
  6
CONTINUOUS
  5
4CE
 10
388.7282
 20
245.218157
 30
0.0
 11
388.708298
 21
245.218157
 31
0.0
  0
LINE
  8
LC-002-002-----0
  6
CONTINUOUS
  5
4CF
 10
129.7282
 20
240.612328
 30
0.0
 11
129.7282
 21
243.718157
 31
0.0
  0
LINE
  8
LC-002-002-----0
  6
CONTINUOUS
  5
4D0
 10
147.439525
 20
240.218157
 30
0.0
 11
147.016875
 21
240.218157
 31
0.0
  0
LINE
  8
LC-002-002-----0
  6
CONTINUOUS
  5
4D1
 10
147.7282
 20
240.718157
 30
0.0
 11
147.439525
 21
240.218157
 31
0.0
  0
LINE
  8
LC-002-002-----0
  6
CONTINUOUS
  5
4D2
 10
147.016875
 20
240.218157
 30
0.0
 11
146.7282
 21
240.718157
 31
0.0
  0
LINE
  8
LC-002-002-----0
  6
CONTINUOUS
  5
4D3
 10
441.2282
 20
242.762074
 30
0.0
 11
441.636449
 21
242.353826
 31
0.0
  0
LINE
  8
LC-002-002-----0
  6
CONTINUOUS
  5
4D4
 10
441.078771
 20
242.204397
 30
0.0
 11
441.2282
 21
242.762074
 31
0.0
  0
LINE
  8
LC-002-002-----0
  6
CONTINUOUS
  5
4D5
 10
148.016875
 20
240.218157
 30
0.0
 11
147.7282
 21
240.718157
 31
0.0
  0
LINE
  8
LC-002-002-----0
  6
CONTINUOUS
  5
4D6
 10
148.439525
 20
240.218157
 30
0.0
 11
148.016875
 21
240.218157
 31
0.0
  0
LINE
  8
LC-002-002-----0
  6
CONTINUOUS
  5
4D7
 10
149.439525
 20
240.218157
 30
0.0
 11
149.016875
 21
240.218157
 31
0.0
  0
LINE
  8
LC-002-002-----0
  6
CONTINUOUS
  5
4D8
 10
150.439525
 20
240.218157
 30
0.0
 11
150.016875
 21
240.218157
 31
0.0
  0
LINE
  8
LC-002-002-----0
  6
CONTINUOUS
  5
4D9
 10
160.7282
 20
234.218157
 30
0.0
 11
154.2282
 21
234.218157
 31
0.0
  0
LINE
  8
LC-002-002-----0
  6
CONTINUOUS
  5
4DA
 10
152.620505
 20
240.218157
 30
0.0
 11
151.016875
 21
240.218157
 31
0.0
  0
LINE
  8
LC-002-002-----0
  6
CONTINUOUS
  5
4DB
 10
154.2282
 20
234.218157
 30
0.0
 11
152.620505
 21
240.218157
 31
0.0
  0
LINE
  8
LC-002-002-----0
  6
CONTINUOUS
  5
4DC
 10
161.2282
 20
240.218157
 30
0.0
 11
152.620505
 21
240.218157
 31
0.0
  0
LINE
  8
LC-002-002-----0
  6
CONTINUOUS
  5
4DD
 10
162.7282
 20
239.718157
 30
0.0
 11
162.7282
 21
234.718157
 31
0.0
  0
LINE
  8
LC-002-002-----0
  6
CONTINUOUS
  5
4DE
 10
162.7282
 20
239.718157
 30
0.0
 11
165.7282
 21
239.718157
 31
0.0
  0
LINE
  8
LC-002-002-----0
  6
CONTINUOUS
  5
4DF
 10
162.2282
 20
240.218157
 30
0.0
 11
161.2282
 21
240.218157
 31
0.0
  0
LINE
  8
LC-002-002-----0
  6
CONTINUOUS
  5
4E0
 10
162.2282
 20
240.218157
 30
0.0
 11
166.2282
 21
240.218157
 31
0.0
  0
LINE
  8
LC-002-002-----0
  6
CONTINUOUS
  5
4E1
 10
160.7282
 20
239.718157
 30
0.0
 11
160.7282
 21
234.218157
 31
0.0
  0
LINE
  8
LC-002-002-----0
  6
CONTINUOUS
  5
4E2
 10
163.2282
 20
234.218157
 30
0.0
 11
165.2282
 21
234.218157
 31
0.0
  0
LINE
  8
LC-002-002-----0
  6
CONTINUOUS
  5
4E3
 10
458.2282
 20
58.218157
 30
0.0
 11
458.2282
 21
55.423928
 31
0.0
  0
LINE
  8
LC-002-002-----0
  6
CONTINUOUS
  5
4E4
 10
226.754915
 20
67.243353
 30
0.0
 11
226.96105
 21
55.433877
 31
0.0
  0
LINE
  8
LC-002-002-----0
  6
CONTINUOUS
  5
4E5
 10
229.495351
 20
55.433877
 30
0.0
 11
229.696993
 21
66.985955
 31
0.0
  0
LINE
  8
LC-002-002-----0
  6
CONTINUOUS
  5
4E6
 10
227.960898
 20
54.45133
 30
0.0
 11
228.495503
 21
54.45133
 31
0.0
  0
LINE
  8
LC-002-002-----0
  6
CONTINUOUS
  5
4E7
 10
375.633593
 20
54.218157
 30
0.0
 11
229.696993
 21
66.985955
 31
0.0
  0
LINE
  8
LC-002-002-----0
  6
CONTINUOUS
  5
4E8
 10
458.2282
 20
55.423928
 30
0.0
 11
453.7282
 21
54.218157
 31
0.0
  0
LINE
  8
LC-002-002-----0
  6
CONTINUOUS
  5
4E9
 10
162.7282
 20
234.718157
 30
0.0
 11
165.7282
 21
234.718157
 31
0.0
  0
LINE
  8
LC-002-002-----0
  6
CONTINUOUS
  5
4EA
 10
431.439525
 20
240.218157
 30
0.0
 11
431.016875
 21
240.218157
 31
0.0
  0
LINE
  8
LC-002-002-----0
  6
CONTINUOUS
  5
4EB
 10
433.666022
 20
240.218157
 30
0.0
 11
432.016875
 21
240.218157
 31
0.0
  0
LINE
  8
LC-002-002-----0
  6
CONTINUOUS
  5
4EC
 10
430.7282
 20
240.718157
 30
0.0
 11
431.016875
 21
240.218157
 31
0.0
  0
LINE
  8
LC-002-002-----0
  6
CONTINUOUS
  5
4ED
 10
197.048751
 20
179.218157
 30
0.0
 11
197.7282
 21
179.218157
 31
0.0
  0
LINE
  8
LC-002-002-----0
  6
CONTINUOUS
  5
4EE
 10
201.7282
 20
183.218157
 30
0.0
 11
198.7282
 21
183.218157
 31
0.0
  0
LINE
  8
LC-002-002-----0
  6
CONTINUOUS
  5
4EF
 10
378.2282
 20
212.218157
 30
0.0
 11
378.2282
 21
183.718157
 31
0.0
  0
LINE
  8
LC-002-002-----0
  6
CONTINUOUS
  5
4F0
 10
378.2282
 20
212.218157
 30
0.0
 11
198.2282
 21
212.218157
 31
0.0
  0
LINE
  8
LC-002-002-----0
  6
CONTINUOUS
  5
4F1
 10
197.7282
 20
213.541032
 30
0.0
 11
197.7282
 21
217.218157
 31
0.0
  0
LINE
  8
LC-002-002-----0
  6
CONTINUOUS
  5
4F2
 10
398.7282
 20
234.285144
 30
0.0
 11
398.7282
 21
239.718157
 31
0.0
  0
LINE
  8
LC-002-002-----0
  6
CONTINUOUS
  5
4F3
 10
379.7282
 20
218.218157
 30
0.0
 11
387.2282
 21
218.218157
 31
0.0
  0
LINE
  8
LC-002-002-----0
  6
CONTINUOUS
  5
4F4
 10
439.078771
 20
241.668498
 30
0.0
 11
439.2282
 21
242.226176
 31
0.0
  0
LINE
  8
LC-002-002-----0
  6
CONTINUOUS
  5
4F5
 10
439.2282
 20
242.226176
 30
0.0
 11
439.636449
 21
241.817927
 31
0.0
  0
LINE
  8
LC-002-002-----0
  6
CONTINUOUS
  5
4F6
 10
439.636449
 20
241.817927
 30
0.0
 11
440.078771
 21
241.936447
 31
0.0
  0
LINE
  8
LC-002-002-----0
  6
CONTINUOUS
  5
4F7
 10
440.636449
 20
242.085877
 30
0.0
 11
441.078771
 21
242.204397
 31
0.0
  0
LINE
  8
LC-002-002-----0
  6
CONTINUOUS
  5
4F8
 10
441.636449
 20
242.353826
 30
0.0
 11
442.078771
 21
242.472346
 31
0.0
  0
LINE
  8
LC-002-002-----0
  6
CONTINUOUS
  5
4F9
 10
442.636449
 20
242.621775
 30
0.0
 11
443.078771
 21
242.740295
 31
0.0
  0
LINE
  8
LC-002-002-----0
  6
CONTINUOUS
  5
4FA
 10
443.636449
 20
242.889724
 30
0.0
 11
444.078771
 21
243.008244
 31
0.0
  0
LINE
  8
LC-002-002-----0
  6
CONTINUOUS
  5
4FB
 10
145.2282
 20
237.218157
 30
0.0
 11
194.2282
 21
188.218157
 31
0.0
  0
LINE
  8
LC-002-002-----0
  6
CONTINUOUS
  5
4FC
 10
142.790378
 20
240.218157
 30
0.0
 11
140.37763
 21
240.864651
 31
0.0
  0
LINE
  8
LC-002-002-----0
  6
CONTINUOUS
  5
4FD
 10
145.439525
 20
240.218157
 30
0.0
 11
145.016875
 21
240.218157
 31
0.0
  0
LINE
  8
LC-002-002-----0
  6
CONTINUOUS
  5
4FE
 10
145.7282
 20
240.718157
 30
0.0
 11
144.7282
 21
240.718157
 31
0.0
  0
LINE
  8
LC-002-002-----0
  6
CONTINUOUS
  5
4FF
 10
145.7282
 20
240.718157
 30
0.0
 11
145.439525
 21
240.218157
 31
0.0
  0
LINE
  8
LC-002-002-----0
  6
CONTINUOUS
  5
500
 10
146.439525
 20
240.218157
 30
0.0
 11
146.016875
 21
240.218157
 31
0.0
  0
LINE
  8
LC-002-002-----0
  6
CONTINUOUS
  5
501
 10
146.7282
 20
240.718157
 30
0.0
 11
145.7282
 21
240.718157
 31
0.0
  0
LINE
  8
LC-002-002-----0
  6
CONTINUOUS
  5
502
 10
144.439525
 20
240.218157
 30
0.0
 11
142.790378
 21
240.218157
 31
0.0
  0
LINE
  8
LC-002-002-----0
  6
CONTINUOUS
  5
503
 10
145.016875
 20
240.218157
 30
0.0
 11
144.7282
 21
240.718157
 31
0.0
  0
LINE
  8
LC-002-002-----0
  6
CONTINUOUS
  5
504
 10
146.016875
 20
240.218157
 30
0.0
 11
145.7282
 21
240.718157
 31
0.0
  0
LINE
  8
LC-002-002-----0
  6
CONTINUOUS
  5
505
 10
144.7282
 20
240.718157
 30
0.0
 11
144.439525
 21
240.218157
 31
0.0
  0
LINE
  8
LC-002-002-----0
  6
CONTINUOUS
  5
506
 10
142.395421
 20
237.218157
 30
0.0
 11
145.2282
 21
237.218157
 31
0.0
  0
LINE
  8
LC-002-002-----0
  6
CONTINUOUS
  5
507
 10
140.37763
 20
240.864651
 30
0.0
 11
140.2282
 21
241.422328
 31
0.0
  0
LINE
  8
LC-002-002-----0
  6
CONTINUOUS
  5
508
 10
140.2282
 20
241.422328
 30
0.0
 11
139.819952
 21
241.01408
 31
0.0
  0
LINE
  8
LC-002-002-----0
  6
CONTINUOUS
  5
509
 10
139.819952
 20
241.01408
 30
0.0
 11
139.37763
 21
241.1326
 31
0.0
  0
LINE
  8
LC-002-002-----0
  6
CONTINUOUS
  5
50A
 10
139.2282
 20
241.690277
 30
0.0
 11
138.819952
 21
241.282029
 31
0.0
  0
LINE
  8
LC-002-002-----0
  6
CONTINUOUS
  5
50B
 10
138.819952
 20
241.282029
 30
0.0
 11
138.37763
 21
241.400549
 31
0.0
  0
LINE
  8
LC-002-002-----0
  6
CONTINUOUS
  5
50C
 10
138.2282
 20
241.958227
 30
0.0
 11
137.819952
 21
241.549978
 31
0.0
  0
LINE
  8
LC-002-002-----0
  6
CONTINUOUS
  5
50D
 10
137.819952
 20
241.549978
 30
0.0
 11
137.37763
 21
241.668498
 31
0.0
  0
LINE
  8
LC-002-002-----0
  6
CONTINUOUS
  5
50E
 10
137.2282
 20
242.226176
 30
0.0
 11
136.819952
 21
241.817927
 31
0.0
  0
LINE
  8
LC-002-002-----0
  6
CONTINUOUS
  5
50F
 10
136.2282
 20
242.494125
 30
0.0
 11
135.819952
 21
242.085877
 31
0.0
  0
LINE
  8
LC-002-002-----0
  6
CONTINUOUS
  5
510
 10
136.37763
 20
241.936447
 30
0.0
 11
136.2282
 21
242.494125
 31
0.0
  0
LINE
  8
LC-002-002-----0
  6
CONTINUOUS
  5
511
 10
135.2282
 20
242.762074
 30
0.0
 11
134.819952
 21
242.353826
 31
0.0
  0
LINE
  8
LC-002-002-----0
  6
CONTINUOUS
  5
512
 10
135.37763
 20
242.204397
 30
0.0
 11
135.2282
 21
242.762074
 31
0.0
  0
LINE
  8
LC-002-002-----0
  6
CONTINUOUS
  5
513
 10
132.819952
 20
242.889724
 30
0.0
 11
132.37763
 21
243.008244
 31
0.0
  0
LINE
  8
LC-002-002-----0
  6
CONTINUOUS
  5
514
 10
133.819952
 20
242.621775
 30
0.0
 11
133.37763
 21
242.740295
 31
0.0
  0
LINE
  8
LC-002-002-----0
  6
CONTINUOUS
  5
515
 10
134.819952
 20
242.353826
 30
0.0
 11
134.37763
 21
242.472346
 31
0.0
  0
LINE
  8
LC-002-002-----0
  6
CONTINUOUS
  5
516
 10
135.819952
 20
242.085877
 30
0.0
 11
135.37763
 21
242.204397
 31
0.0
  0
LINE
  8
LC-002-002-----0
  6
CONTINUOUS
  5
517
 10
136.819952
 20
241.817927
 30
0.0
 11
136.37763
 21
241.936447
 31
0.0
  0
LINE
  8
LC-002-002-----0
  6
CONTINUOUS
  5
518
 10
137.37763
 20
241.668498
 30
0.0
 11
137.2282
 21
242.226176
 31
0.0
  0
LINE
  8
LC-002-002-----0
  6
CONTINUOUS
  5
519
 10
138.37763
 20
241.400549
 30
0.0
 11
138.2282
 21
241.958227
 31
0.0
  0
LINE
  8
LC-002-002-----0
  6
CONTINUOUS
  5
51A
 10
139.37763
 20
241.1326
 30
0.0
 11
139.2282
 21
241.690277
 31
0.0
  0
LINE
  8
LC-002-002-----0
  6
CONTINUOUS
  5
51B
 10
453.7282
 20
54.218157
 30
0.0
 11
375.633593
 21
54.218157
 31
0.0
  0
LINE
  8
LC-002-002-----0
  6
CONTINUOUS
  5
51C
 10
134.2282
 20
243.030023
 30
0.0
 11
133.819952
 21
242.621775
 31
0.0
  0
LINE
  8
LC-002-002-----0
  6
CONTINUOUS
  5
51D
 10
442.2282
 20
243.030023
 30
0.0
 11
442.636449
 21
242.621775
 31
0.0
  0
LINE
  8
LC-002-002-----0
  6
CONTINUOUS
  5
51E
 10
134.37763
 20
242.472346
 30
0.0
 11
134.2282
 21
243.030023
 31
0.0
  0
LINE
  8
LC-002-002-----0
  6
CONTINUOUS
  5
51F
 10
442.078771
 20
242.472346
 30
0.0
 11
442.2282
 21
243.030023
 31
0.0
  0
LINE
  8
LC-002-002-----0
  6
CONTINUOUS
  5
520
 10
446.7282
 20
240.612328
 30
0.0
 11
446.7282
 21
243.718157
 31
0.0
  0
LINE
  8
LC-002-002-----0
  6
CONTINUOUS
  5
521
 10
142.395421
 20
237.218157
 30
0.0
 11
129.7282
 21
240.612328
 31
0.0
  0
LINE
  8
LC-002-002-----0
  6
CONTINUOUS
  5
522
 10
388.208298
 20
240.218157
 30
0.0
 11
388.208298
 21
244.718157
 31
0.0
  0
LINE
  8
LC-002-002-----0
  6
CONTINUOUS
  5
523
 10
388.208397
 20
240.218157
 30
0.0
 11
388.208397
 21
244.718157
 31
0.0
  0
LINE
  8
LC-002-002-----0
  6
CONTINUOUS
  5
524
 10
444.078771
 20
243.008244
 30
0.0
 11
444.2282
 21
243.565922
 31
0.0
  0
LINE
  8
LC-002-002-----0
  6
CONTINUOUS
  5
525
 10
443.2282
 20
243.297972
 30
0.0
 11
443.636449
 21
242.889724
 31
0.0
  0
LINE
  8
LC-002-002-----0
  6
CONTINUOUS
  5
526
 10
133.37763
 20
242.740295
 30
0.0
 11
133.2282
 21
243.297972
 31
0.0
  0
LINE
  8
LC-002-002-----0
  6
CONTINUOUS
  5
527
 10
443.078771
 20
242.740295
 30
0.0
 11
443.2282
 21
243.297972
 31
0.0
  0
LINE
  8
LC-002-002-----0
  6
CONTINUOUS
  5
528
 10
388.2282
 20
244.718157
 30
0.0
 11
388.208397
 21
244.718157
 31
0.0
  0
LINE
  8
LC-002-002-----0
  6
CONTINUOUS
  5
529
 10
388.208298
 20
244.718157
 30
0.0
 11
388.208397
 21
244.718157
 31
0.0
  0
LINE
  8
LC-002-002-----0
  6
CONTINUOUS
  5
52A
 10
132.37763
 20
243.008244
 30
0.0
 11
132.2282
 21
243.565922
 31
0.0
  0
LINE
  8
LC-002-002-----0
  6
CONTINUOUS
  5
52B
 10
133.2282
 20
243.297972
 30
0.0
 11
132.819952
 21
242.889724
 31
0.0
  0
LINE
  8
LC-002-002-----0
  6
CONTINUOUS
  5
52C
 10
131.819952
 20
243.157673
 30
0.0
 11
129.7282
 21
243.718157
 31
0.0
  0
LINE
  8
LC-002-002-----0
  6
CONTINUOUS
  5
52D
 10
132.2282
 20
243.565922
 30
0.0
 11
131.819952
 21
243.157673
 31
0.0
  0
LINE
  8
LC-002-002-----0
  6
CONTINUOUS
  5
52E
 10
388.208298
 20
243.718157
 30
0.0
 11
382.2282
 21
243.718157
 31
0.0
  0
LINE
  8
LC-002-002-----0
  6
CONTINUOUS
  5
52F
 10
444.2282
 20
243.565922
 30
0.0
 11
444.636449
 21
243.157673
 31
0.0
  0
LINE
  8
LC-002-002-----0
  6
CONTINUOUS
  5
530
 10
444.636449
 20
243.157673
 30
0.0
 11
446.7282
 21
243.718157
 31
0.0
  0
LINE
  8
LC-002-002-----0
  6
CONTINUOUS
  5
531
 10
390.2282
 20
240.218157
 30
0.0
 11
390.2282
 21
244.718157
 31
0.0
  0
LINE
  8
LC-002-002-----0
  6
CONTINUOUS
  5
532
 10
388.2282
 20
240.218157
 30
0.0
 11
388.2282
 21
244.718157
 31
0.0
  0
LINE
  8
LC-002-002-----0
  6
CONTINUOUS
  5
533
 10
146.7282
 20
240.718157
 30
0.0
 11
146.439525
 21
240.218157
 31
0.0
  0
LINE
  8
LC-002-002-----0
  6
CONTINUOUS
  5
534
 10
377.7282
 20
183.218157
 30
0.0
 11
374.7282
 21
183.218157
 31
0.0
  0
LINE
  8
LC-002-002-----0
  6
CONTINUOUS
  5
535
 10
377.7282
 20
178.218157
 30
0.0
 11
377.7282
 21
164.218157
 31
0.0
  0
LINE
  8
LC-002-002-----0
  6
CONTINUOUS
  5
536
 10
396.9782
 20
240.218157
 30
0.0
 11
390.7282
 21
240.218157
 31
0.0
  0
LINE
  8
LC-002-002-----0
  6
CONTINUOUS
  5
537
 10
426.439525
 20
240.218157
 30
0.0
 11
426.7282
 21
240.718157
 31
0.0
  0
LINE
  8
LC-002-002-----0
  6
CONTINUOUS
  5
538
 10
427.439525
 20
240.218157
 30
0.0
 11
427.7282
 21
240.718157
 31
0.0
  0
LINE
  8
LC-002-002-----0
  6
CONTINUOUS
  5
539
 10
430.439525
 20
240.218157
 30
0.0
 11
430.7282
 21
240.718157
 31
0.0
  0
LINE
  8
LC-002-002-----0
  6
CONTINUOUS
  5
53A
 10
382.22687
 20
188.216827
 30
0.0
 11
431.2282
 21
237.218157
 31
0.0
  0
LINE
  8
LC-002-002-----0
  6
CONTINUOUS
  5
53B
 10
431.7282
 20
240.718157
 30
0.0
 11
432.016875
 21
240.218157
 31
0.0
  0
LINE
  8
LC-002-002-----0
  6
CONTINUOUS
  5
53C
 10
267.515399
 20
73.715471
 30
0.0
 11
301.576838
 21
70.735481
 31
0.0
  0
LINE
  8
LC-002-002-----0
  6
CONTINUOUS
  5
53D
 10
375.808236
 20
58.218157
 30
0.0
 11
209.698415
 21
72.750883
 31
0.0
  0
LINE
  8
LC-002-002-----0
  6
CONTINUOUS
  5
53E
 10
458.2282
 20
58.218157
 30
0.0
 11
375.808236
 21
58.218157
 31
0.0
  0
LINE
  8
LC-002-002-----0
  6
CONTINUOUS
  5
53F
 10
431.439525
 20
240.218157
 30
0.0
 11
431.7282
 21
240.718157
 31
0.0
  0
LINE
  8
LC-002-002-----0
  6
CONTINUOUS
  5
540
 10
458.2282
 20
160.218157
 30
0.0
 11
373.65838
 21
160.218157
 31
0.0
  0
LINE
  8
LC-002-002-----0
  6
CONTINUOUS
  5
541
 10
458.2282
 20
163.012385
 30
0.0
 11
458.2282
 21
160.218157
 31
0.0
  0
LINE
  8
LC-002-002-----0
  6
CONTINUOUS
  5
542
 10
458.2282
 20
163.012385
 30
0.0
 11
453.7282
 21
164.218157
 31
0.0
  0
LINE
  8
LC-002-002-----0
  6
CONTINUOUS
  5
543
 10
344.115294
 20
112.183252
 30
0.0
 11
342.794158
 21
112.218157
 31
0.0
  0
LINE
  8
LC-002-002-----0
  6
CONTINUOUS
  5
544
 10
333.390879
 20
120.183252
 30
0.0
 11
298.212031
 21
120.183252
 31
0.0
  0
LINE
  8
LC-002-002-----0
  6
CONTINUOUS
  5
545
 10
453.7282
 20
164.218157
 30
0.0
 11
377.7282
 21
164.218157
 31
0.0
  0
LINE
  8
LC-002-002-----0
  6
CONTINUOUS
  5
546
 10
373.65838
 20
160.218157
 30
0.0
 11
373.7282
 21
164.218157
 31
0.0
  0
LINE
  8
LC-002-002-----0
  6
CONTINUOUS
  5
547
 10
198.7282
 20
178.218157
 30
0.0
 11
198.7282
 21
164.183249
 31
0.0
  0
LINE
  8
LC-002-002-----0
  6
CONTINUOUS
  5
548
 10
458.2282
 20
160.218157
 30
0.0
 11
458.2282
 21
58.218157
 31
0.0
  0
LINE
  8
LC-002-002-----0
  6
CONTINUOUS
  5
549
 10
150.7282
 20
240.718157
 30
0.0
 11
150.439525
 21
240.218157
 31
0.0
  0
LINE
  8
LC-002-002-----0
  6
CONTINUOUS
  5
54A
 10
149.7282
 20
240.718157
 30
0.0
 11
149.439525
 21
240.218157
 31
0.0
  0
LINE
  8
LC-002-002-----0
  6
CONTINUOUS
  5
54B
 10
148.7282
 20
240.718157
 30
0.0
 11
148.439525
 21
240.218157
 31
0.0
  0
LINE
  8
LC-002-002-----0
  6
CONTINUOUS
  5
54C
 10
150.016875
 20
240.218157
 30
0.0
 11
149.7282
 21
240.718157
 31
0.0
  0
LINE
  8
LC-002-002-----0
  6
CONTINUOUS
  5
54D
 10
149.016875
 20
240.218157
 30
0.0
 11
148.7282
 21
240.718157
 31
0.0
  0
LINE
  8
LC-002-002-----0
  6
CONTINUOUS
  5
54E
 10
151.016875
 20
240.218157
 30
0.0
 11
150.7282
 21
240.718157
 31
0.0
  0
LINE
  8
LC-002-002-----0
  6
CONTINUOUS
  5
54F
 10
433.666022
 20
240.218157
 30
0.0
 11
436.078771
 21
240.864651
 31
0.0
  0
LINE
  8
LC-002-002-----0
  6
CONTINUOUS
  5
550
 10
440.2282
 20
242.494125
 30
0.0
 11
440.636449
 21
242.085877
 31
0.0
  0
LINE
  8
LC-002-002-----0
  6
CONTINUOUS
  5
551
 10
440.078771
 20
241.936447
 30
0.0
 11
440.2282
 21
242.494125
 31
0.0
  0
LINE
  8
LC-002-002-----0
  6
CONTINUOUS
  5
552
 10
438.2282
 20
241.958227
 30
0.0
 11
438.636449
 21
241.549978
 31
0.0
  0
LINE
  8
LC-002-002-----0
  6
CONTINUOUS
  5
553
 10
438.078771
 20
241.400549
 30
0.0
 11
438.2282
 21
241.958227
 31
0.0
  0
LINE
  8
LC-002-002-----0
  6
CONTINUOUS
  5
554
 10
438.636449
 20
241.549978
 30
0.0
 11
439.078771
 21
241.668498
 31
0.0
  0
LINE
  8
LC-002-002-----0
  6
CONTINUOUS
  5
555
 10
431.7282
 20
240.718157
 30
0.0
 11
430.7282
 21
240.718157
 31
0.0
  0
LINE
  8
LC-002-002-----0
  6
CONTINUOUS
  5
556
 10
430.7282
 20
240.718157
 30
0.0
 11
429.7282
 21
240.718157
 31
0.0
  0
LINE
  8
LC-002-002-----0
  6
CONTINUOUS
  5
557
 10
148.7282
 20
240.718157
 30
0.0
 11
147.7282
 21
240.718157
 31
0.0
  0
LINE
  8
LC-002-002-----0
  6
CONTINUOUS
  5
558
 10
150.7282
 20
240.718157
 30
0.0
 11
149.7282
 21
240.718157
 31
0.0
  0
LINE
  8
LC-002-002-----0
  6
CONTINUOUS
  5
559
 10
427.7282
 20
240.718157
 30
0.0
 11
426.7282
 21
240.718157
 31
0.0
  0
LINE
  8
LC-002-002-----0
  6
CONTINUOUS
  5
55A
 10
426.7282
 20
240.718157
 30
0.0
 11
425.7282
 21
240.718157
 31
0.0
  0
LINE
  8
LC-002-002-----0
  6
CONTINUOUS
  5
55B
 10
429.7282
 20
240.718157
 30
0.0
 11
428.7282
 21
240.718157
 31
0.0
  0
LINE
  8
LC-002-002-----0
  6
CONTINUOUS
  5
55C
 10
428.7282
 20
240.718157
 30
0.0
 11
427.7282
 21
240.718157
 31
0.0
  0
LINE
  8
LC-002-002-----0
  6
CONTINUOUS
  5
55D
 10
149.7282
 20
240.718157
 30
0.0
 11
148.7282
 21
240.718157
 31
0.0
  0
LINE
  8
LC-002-002-----0
  6
CONTINUOUS
  5
55E
 10
147.7282
 20
240.718157
 30
0.0
 11
146.7282
 21
240.718157
 31
0.0
  0
LINE
  8
LC-002-002-----0
  6
CONTINUOUS
  5
55F
 10
436.078771
 20
240.864651
 30
0.0
 11
436.2282
 21
241.422328
 31
0.0
  0
LINE
  8
LC-002-002-----0
  6
CONTINUOUS
  5
560
 10
436.636449
 20
241.01408
 30
0.0
 11
437.078771
 21
241.1326
 31
0.0
  0
LINE
  8
LC-002-002-----0
  6
CONTINUOUS
  5
561
 10
436.2282
 20
241.422328
 30
0.0
 11
436.636449
 21
241.01408
 31
0.0
  0
LINE
  8
LC-002-002-----0
  6
CONTINUOUS
  5
562
 10
437.078771
 20
241.1326
 30
0.0
 11
437.2282
 21
241.690277
 31
0.0
  0
LINE
  8
LC-002-002-----0
  6
CONTINUOUS
  5
563
 10
437.2282
 20
241.690277
 30
0.0
 11
437.636449
 21
241.282029
 31
0.0
  0
LINE
  8
LC-002-002-----0
  6
CONTINUOUS
  5
564
 10
437.636449
 20
241.282029
 30
0.0
 11
438.078771
 21
241.400549
 31
0.0
  0
ARC
  8
LC-002-002-----0
  6
CONTINUOUS
  5
565
 10
284.895808
 20
158.28896
 30
0.0
 40
1.6
 50
105.0
 51
195.0
  0
ARC
  8
LC-002-002-----0
  6
CONTINUOUS
  5
566
 10
285.258155
 20
156.936664
 30
0.0
 40
3.0
 50
15.0
 51
105.0
  0
LINE
  8
LC-002-002-----0
  6
CONTINUOUS
  5
567
 10
283.971493
 20
155.556628
 30
0.0
 11
283.350327
 21
157.87485
 31
0.0
  0
LINE
  8
LC-002-002-----0
  6
CONTINUOUS
  5
568
 10
283.971493
 20
155.556628
 30
0.0
 11
285.516974
 21
155.970738
 31
0.0
  0
LINE
  8
LC-002-002-----0
  6
CONTINUOUS
  5
569
 10
288.155933
 20
157.713121
 30
0.0
 11
289.450028
 21
152.883492
 31
0.0
  0
LINE
  8
LC-002-002-----0
  6
CONTINUOUS
  5
56A
 10
289.450028
 20
152.883492
 30
0.0
 11
286.55225
 21
152.107035
 31
0.0
  0
LINE
  8
LC-002-002-----0
  6
CONTINUOUS
  5
56B
 10
308.880039
 20
68.778595
 30
0.0
 11
308.132892
 21
71.566982
 31
0.0
  0
LINE
  8
LC-002-002-----0
  6
CONTINUOUS
  5
56C
 10
308.132892
 20
71.566982
 30
0.0
 11
303.659327
 21
88.262556
 31
0.0
  0
LINE
  8
LC-002-002-----0
  6
CONTINUOUS
  5
56D
 10
303.659327
 20
88.262556
 30
0.0
 11
301.890448
 21
94.864102
 31
0.0
  0
LINE
  8
LC-002-002-----0
  6
CONTINUOUS
  5
56E
 10
301.890448
 20
94.864102
 30
0.0
 11
289.753095
 21
140.161319
 31
0.0
  0
LINE
  8
LC-002-002-----0
  6
CONTINUOUS
  5
56F
 10
289.753095
 20
140.161319
 30
0.0
 11
287.511657
 21
148.526482
 31
0.0
  0
LINE
  8
LC-002-002-----0
  6
CONTINUOUS
  5
570
 10
309.328326
 20
67.105562
 30
0.0
 11
308.880039
 21
68.778595
 31
0.0
  0
LINE
  8
LC-002-002-----0
  6
CONTINUOUS
  5
571
 10
287.511657
 20
148.526482
 30
0.0
 11
286.76451
 21
151.31487
 31
0.0
  0
LINE
  8
LC-002-002-----0
  6
CONTINUOUS
  5
572
 10
286.76451
 20
151.31487
 30
0.0
 11
286.55225
 21
152.107035
 31
0.0
  0
LINE
  8
LC-002-002-----0
  6
CONTINUOUS
  5
573
 10
309.328326
 20
67.105562
 30
0.0
 11
312.226104
 21
67.882019
 31
0.0
  0
LINE
  8
LC-002-002-----0
  6
CONTINUOUS
  5
574
 10
312.226104
 20
67.882019
 30
0.0
 11
289.450028
 21
152.883492
 31
0.0
  0
LINE
  8
LC-002-002-----0
  6
CONTINUOUS
  5
575
 10
286.55225
 20
152.107035
 30
0.0
 11
285.516974
 21
155.970738
 31
0.0
  0
ARC
  8
LC-002-002-----0
  6
CONTINUOUS
  5
576
 10
368.403047
 20
171.08927
 30
0.0
 40
0.869403
 50
274.917608
 51
281.372562
  0
LINE
  8
LC-002-002-----0
  6
CONTINUOUS
  5
577
 10
368.617384
 20
170.246547
 30
0.0
 11
368.574482
 21
170.236936
 31
0.0
  0
ARC
  8
LC-002-002-----0
  6
CONTINUOUS
  5
578
 10
368.397021
 20
171.136264
 30
0.0
 40
0.9166
 50
283.910926
 51
290.046628
  0
LINE
  8
LC-002-002-----0
  6
CONTINUOUS
  5
579
 10
368.751943
 20
170.291004
 30
0.0
 11
368.711217
 21
170.275197
 31
0.0
  0
ARC
  8
LC-002-002-----0
  6
CONTINUOUS
  5
57A
 10
368.367818
 20
171.217863
 30
0.0
 40
1.003304
 50
292.510952
 51
297.938704
  0
LINE
  8
LC-002-002-----0
  6
CONTINUOUS
  5
57B
 10
368.879402
 20
170.354745
 30
0.0
 11
368.837893
 21
170.331495
 31
0.0
  0
ARC
  8
LC-002-002-----0
  6
CONTINUOUS
  5
57C
 10
368.323123
 20
171.293214
 30
0.0
 40
1.090949
 50
300.657401
 51
304.130418
  0
ARC
  8
LC-002-002-----0
  6
CONTINUOUS
  5
57D
 10
368.315819
 20
171.299104
 30
0.0
 40
1.099927
 50
304.273232
 51
308.262355
  0
ARC
  8
LC-002-002-----0
  6
CONTINUOUS
  5
57E
 10
207.9282
 20
176.218157
 30
0.0
 40
1.0
 50
120.0
 51
240.0
  0
ARC
  8
LC-002-002-----0
  6
CONTINUOUS
  5
57F
 10
368.5282
 20
176.218157
 30
0.0
 40
1.0
 50
300.0
 51
60.0
  0
ARC
  8
LC-002-002-----0
  6
CONTINUOUS
  5
580
 10
286.731004
 20
158.052069
 30
0.0
 40
7.5
 50
95.0
 51
165.0
  0
ARC
  8
LC-002-002-----0
  6
CONTINUOUS
  5
581
 10
286.731004
 20
158.052069
 30
0.0
 40
5.0
 50
95.0
 51
165.0
  0
ARC
  8
LC-002-002-----0
  6
CONTINUOUS
  5
582
 10
225.485134
 20
104.065144
 30
0.0
 40
10.0
 50
185.0
 51
255.0
  0
ARC
  8
LC-002-002-----0
  6
CONTINUOUS
  5
583
 10
225.485134
 20
104.065144
 30
0.0
 40
12.5
 50
185.0
 51
255.0
  0
ARC
  8
LC-002-002-----0
  6
CONTINUOUS
  5
584
 10
283.255798
 20
160.537236
 30
0.0
 40
10.0
 50
308.592133
 51
356.536959
  0
ARC
  8
LC-002-002-----0
  6
CONTINUOUS
  5
585
 10
285.446468
 20
160.985524
 30
0.0
 40
5.0
 50
305.73439
 51
356.536959
  0
LINE
  8
LC-002-002-----0
  6
CONTINUOUS
  5
586
 10
308.880039
 20
68.778595
 30
0.0
 11
222.249896
 21
91.991072
 31
0.0
  0
LINE
  8
LC-002-002-----0
  6
CONTINUOUS
  5
587
 10
376.2282
 20
186.218157
 30
0.0
 11
370.7282
 21
186.218157
 31
0.0
  0
LINE
  8
LC-002-002-----0
  6
CONTINUOUS
  5
588
 10
376.2282
 20
183.218157
 30
0.0
 11
372.2282
 21
183.218157
 31
0.0
  0
LINE
  8
LC-002-002-----0
  6
CONTINUOUS
  5
589
 10
376.2282
 20
183.218157
 30
0.0
 11
376.2282
 21
186.218157
 31
0.0
  0
LINE
  8
LC-002-002-----0
  6
CONTINUOUS
  5
58A
 10
368.996963
 20
170.43546
 30
0.0
 11
372.2282
 21
170.718157
 31
0.0
  0
LINE
  8
LC-002-002-----0
  6
CONTINUOUS
  5
58B
 10
366.9782
 20
180.053093
 30
0.0
 11
370.7282
 21
182.218157
 31
0.0
  0
LINE
  8
LC-002-002-----0
  6
CONTINUOUS
  5
58C
 10
209.4782
 20
180.053093
 30
0.0
 11
205.7282
 21
182.218157
 31
0.0
  0
LINE
  8
LC-002-002-----0
  6
CONTINUOUS
  5
58D
 10
205.7282
 20
182.218157
 30
0.0
 11
351.164252
 21
182.218157
 31
0.0
  0
LINE
  8
LC-002-002-----0
  6
CONTINUOUS
  5
58E
 10
363.39673
 20
172.2881
 30
0.0
 11
209.4782
 21
172.2881
 31
0.0
  0
LINE
  8
LC-002-002-----0
  6
CONTINUOUS
  5
58F
 10
207.4282
 20
177.084182
 30
0.0
 11
207.4282
 21
178.360719
 31
0.0
  0
LINE
  8
LC-002-002-----0
  6
CONTINUOUS
  5
590
 10
207.4282
 20
178.360719
 30
0.0
 11
204.2282
 21
179.218157
 31
0.0
  0
LINE
  8
LC-002-002-----0
  6
CONTINUOUS
  5
591
 10
207.4282
 20
174.075594
 30
0.0
 11
204.2282
 21
173.218157
 31
0.0
  0
LINE
  8
LC-002-002-----0
  6
CONTINUOUS
  5
592
 10
207.4282
 20
175.352131
 30
0.0
 11
207.4282
 21
174.075594
 31
0.0
  0
LINE
  8
LC-002-002-----0
  6
CONTINUOUS
  5
593
 10
366.9782
 20
172.601438
 30
0.0
 11
366.9782
 21
180.053093
 31
0.0
  0
LINE
  8
LC-002-002-----0
  6
CONTINUOUS
  5
594
 10
388.336327
 20
245.028668
 30
0.0
 11
388.417689
 21
245.110029
 31
0.0
  0
LINE
  8
LC-002-002-----0
  6
CONTINUOUS
  5
595
 10
185.310095
 20
239.992335
 30
0.0
 11
185.454022
 21
240.136262
 31
0.0
  0
LINE
  8
LC-002-002-----0
  6
CONTINUOUS
  5
596
 10
209.4782
 20
172.2881
 30
0.0
 11
209.4782
 21
180.053093
 31
0.0
  0
LINE
  8
LC-002-002-----0
  6
CONTINUOUS
  5
597
 10
369.0282
 20
178.360719
 30
0.0
 11
372.2282
 21
179.218157
 31
0.0
  0
LINE
  8
LC-002-002-----0
  6
CONTINUOUS
  5
598
 10
369.0282
 20
174.075594
 30
0.0
 11
372.2282
 21
173.218157
 31
0.0
  0
LINE
  8
LC-002-002-----0
  6
CONTINUOUS
  5
599
 10
372.2282
 20
179.218157
 30
0.0
 11
372.2282
 21
183.218157
 31
0.0
  0
LINE
  8
LC-002-002-----0
  6
CONTINUOUS
  5
59A
 10
372.2282
 20
173.218157
 30
0.0
 11
372.2282
 21
170.718157
 31
0.0
  0
LINE
  8
LC-002-002-----0
  6
CONTINUOUS
  5
59B
 10
369.0282
 20
177.084182
 30
0.0
 11
369.0282
 21
178.360719
 31
0.0
  0
LINE
  8
LC-002-002-----0
  6
CONTINUOUS
  5
59C
 10
369.0282
 20
175.352131
 30
0.0
 11
369.0282
 21
174.075594
 31
0.0
  0
LINE
  8
LC-002-002-----0
  6
CONTINUOUS
  5
59D
 10
204.2282
 20
179.218157
 30
0.0
 11
204.2282
 21
183.218157
 31
0.0
  0
LINE
  8
LC-002-002-----0
  6
CONTINUOUS
  5
59E
 10
204.2282
 20
183.218157
 30
0.0
 11
200.2282
 21
183.218157
 31
0.0
  0
LINE
  8
LC-002-002-----0
  6
CONTINUOUS
  5
59F
 10
205.7282
 20
186.218157
 30
0.0
 11
200.2282
 21
186.218157
 31
0.0
  0
LINE
  8
LC-002-002-----0
  6
CONTINUOUS
  5
5A0
 10
368.477575
 20
170.223066
 30
0.0
 11
286.295225
 21
163.033042
 31
0.0
  0
LINE
  8
LC-002-002-----0
  6
CONTINUOUS
  5
5A1
 10
363.39673
 20
172.2881
 30
0.0
 11
286.077336
 21
165.523529
 31
0.0
  0
LINE
  8
LC-002-002-----0
  6
CONTINUOUS
  5
5A2
 10
205.7282
 20
186.218157
 30
0.0
 11
205.7282
 21
182.218157
 31
0.0
  0
LINE
  8
LC-002-002-----0
  6
CONTINUOUS
  5
5A3
 10
366.9782
 20
172.601438
 30
0.0
 11
363.39673
 21
172.2881
 31
0.0
  0
LINE
  8
LC-002-002-----0
  6
CONTINUOUS
  5
5A4
 10
205.7282
 20
186.218157
 30
0.0
 11
220.559597
 21
186.218157
 31
0.0
  0
LINE
  8
LC-002-002-----0
  6
CONTINUOUS
  5
5A5
 10
281.901375
 20
159.346164
 30
0.0
 11
280.425398
 21
153.837746
 31
0.0
  0
LINE
  8
LC-002-002-----0
  6
CONTINUOUS
  5
5A6
 10
277.157457
 20
151.300882
 30
0.0
 11
275.216315
 21
144.056438
 31
0.0
  0
LINE
  8
LC-002-002-----0
  6
CONTINUOUS
  5
5A7
 10
263.173165
 20
99.110791
 30
0.0
 11
264.267147
 21
103.193587
 31
0.0
  0
LINE
  8
LC-002-002-----0
  6
CONTINUOUS
  5
5A8
 10
264.267147
 20
103.193587
 30
0.0
 11
264.705059
 21
104.827897
 31
0.0
  0
LINE
  8
LC-002-002-----0
  6
CONTINUOUS
  5
5A9
 10
275.216315
 20
144.056438
 30
0.0
 11
264.705059
 21
104.827897
 31
0.0
  0
LINE
  8
LC-002-002-----0
  6
CONTINUOUS
  5
5AA
 10
261.912489
 20
94.405886
 30
0.0
 11
263.173165
 21
99.110791
 31
0.0
  0
LINE
  8
LC-002-002-----0
  6
CONTINUOUS
  5
5AB
 10
259.298943
 20
84.652
 30
0.0
 11
261.912489
 21
94.405886
 31
0.0
  0
LINE
  8
LC-002-002-----0
  6
CONTINUOUS
  5
5AC
 10
259.298943
 20
84.652
 30
0.0
 11
222.896943
 21
94.405886
 31
0.0
  0
LINE
  8
LC-002-002-----0
  6
CONTINUOUS
  5
5AD
 10
280.425398
 20
153.837746
 30
0.0
 11
280.21932
 21
153.068649
 31
0.0
  0
LINE
  8
LC-002-002-----0
  6
CONTINUOUS
  5
5AE
 10
280.425398
 20
153.837746
 30
0.0
 11
285.585287
 21
155.715792
 31
0.0
  0
LINE
  8
LC-002-002-----0
  6
CONTINUOUS
  5
5AF
 10
286.76451
 20
151.31487
 30
0.0
 11
280.21932
 21
153.068649
 31
0.0
  0
LINE
  8
LC-002-002-----0
  6
CONTINUOUS
  5
5B0
 10
277.157457
 20
151.300882
 30
0.0
 11
287.511657
 21
148.526482
 31
0.0
  0
LINE
  8
LC-002-002-----0
  6
CONTINUOUS
  5
5B1
 10
275.216315
 20
144.056438
 30
0.0
 11
289.753095
 21
140.161319
 31
0.0
  0
LINE
  8
LC-002-002-----0
  6
CONTINUOUS
  5
5B2
 10
279.48656
 20
159.993212
 30
0.0
 11
277.157457
 21
151.300882
 31
0.0
  0
LINE
  8
LC-002-002-----0
  6
CONTINUOUS
  5
5B3
 10
213.0327
 20
102.975698
 30
0.0
 11
207.1282
 21
170.464439
 31
0.0
  0
LINE
  8
LC-002-002-----0
  6
CONTINUOUS
  5
5B4
 10
308.132892
 20
71.566982
 30
0.0
 11
259.298943
 21
84.652
 31
0.0
  0
LINE
  8
LC-002-002-----0
  6
CONTINUOUS
  5
5B5
 10
308.880039
 20
68.778595
 30
0.0
 11
308.132892
 21
71.566982
 31
0.0
  0
LINE
  8
LC-002-002-----0
  6
CONTINUOUS
  5
5B6
 10
308.132892
 20
71.566982
 30
0.0
 11
303.659327
 21
88.262556
 31
0.0
  0
LINE
  8
LC-002-002-----0
  6
CONTINUOUS
  5
5B7
 10
303.659327
 20
88.262556
 30
0.0
 11
301.890448
 21
94.864102
 31
0.0
  0
LINE
  8
LC-005-102-D10-0
  5
5B9
 10
301.890448
 20
94.864102
 30
0.0
 11
289.753095
 21
140.161319
 31
0.0
  0
LINE
  8
LC-002-002-----0
  6
CONTINUOUS
  5
5BA
 10
289.753095
 20
140.161319
 30
0.0
 11
287.511657
 21
148.526482
 31
0.0
  0
LINE
  8
LC-002-002-----0
  6
CONTINUOUS
  5
5BB
 10
287.511657
 20
148.526482
 30
0.0
 11
286.76451
 21
151.31487
 31
0.0
  0
LINE
  8
LC-002-002-----0
  6
CONTINUOUS
  5
5BC
 10
301.890448
 20
94.864102
 30
0.0
 11
264.705059
 21
104.827897
 31
0.0
  0
LINE
  8
LC-002-002-----0
  6
CONTINUOUS
  5
5BD
 10
303.659327
 20
88.262556
 30
0.0
 11
263.173165
 21
99.110791
 31
0.0
  0
LINE
  8
LC-002-002-----0
  6
CONTINUOUS
  5
5BE
 10
293.237537
 20
159.933189
 30
0.0
 11
290.437338
 21
160.683501
 31
0.0
  0
LINE
  8
LC-002-002-----0
  6
CONTINUOUS
  5
5BF
 10
207.1282
 20
170.464439
 30
0.0
 11
204.2282
 21
170.718157
 31
0.0
  0
LINE
  8
LC-002-002-----0
  6
CONTINUOUS
  5
5C0
 10
215.523187
 20
103.193587
 30
0.0
 11
209.4782
 21
172.2881
 31
0.0
  0
LINE
  8
LC-002-002-----0
  6
CONTINUOUS
  5
5C1
 10
204.2282
 20
173.218157
 30
0.0
 11
204.2282
 21
170.718157
 31
0.0
  0
LINE
  8
LC-002-002-----0
  6
CONTINUOUS
  5
5C2
 10
370.7282
 20
186.218157
 30
0.0
 11
370.7282
 21
182.218157
 31
0.0
  0
LINE
  8
LC-002-002-----0
  6
CONTINUOUS
  5
5C3
 10
200.2282
 20
183.218157
 30
0.0
 11
200.2282
 21
186.218157
 31
0.0
  0
LINE
  8
LC-002-002-----0
  6
CONTINUOUS
  5
5C4
 10
263.863289
 20
180.053093
 30
0.0
 11
209.4782
 21
180.053093
 31
0.0
  0
LINE
  8
LC-002-002-----0
  6
CONTINUOUS
  5
5C5
 10
220.559597
 20
186.218157
 30
0.0
 11
370.7282
 21
186.218157
 31
0.0
  0
LINE
  8
LC-002-002-----0
  6
CONTINUOUS
  5
5C6
 10
351.164252
 20
182.218157
 30
0.0
 11
370.7282
 21
182.218157
 31
0.0
  0
LINE
  8
LC-002-002-----0
  6
CONTINUOUS
  5
5C7
 10
366.9782
 20
180.053093
 30
0.0
 11
263.863289
 21
180.053093
 31
0.0
  0
ARC
  8
LC-002-002-----0
  6
CONTINUOUS
  5
5C8
 10
371.5282
 20
176.218157
 30
0.0
 40
2.0
 50
270.0
 51
90.0
  0
ARC
  8
LC-002-002-----0
  6
CONTINUOUS
  5
5C9
 10
204.9282
 20
176.218157
 30
0.0
 40
2.0
 50
90.0
 51
270.0
  0
ARC
  8
LC-002-002-----0
  6
CONTINUOUS
  5
5CA
 10
371.5282
 20
176.218157
 30
0.0
 40
2.0
 50
90.0
 51
270.0
  0
ARC
  8
LC-002-002-----0
  6
CONTINUOUS
  5
5CB
 10
204.9282
 20
176.218157
 30
0.0
 40
2.0
 50
270.0
 51
90.0
  0
LINE
  8
LC-003-100-D10-0
  6
CONTINUOUS
 62
     3
  5
5CC
 10
224.736347
 20
342.918281
 30
0.0
 11
224.562362
 21
343.092266
 31
0.0
  0
ARC
  8
LC-002-002-----0
  6
CONTINUOUS
  5
5CD
 10
215.144341
 20
339.780853
 30
0.0
 40
1.0
 50
83.099056
 51
173.099056
  0
ARC
  8
LC-002-002-----0
  6
CONTINUOUS
  5
5CE
 10
214.904035
 20
337.795343
 30
0.0
 40
1.0
 50
173.099056
 51
263.099056
  0
ARC
  8
LC-002-002-----0
  6
CONTINUOUS
  5
5CF
 10
227.057406
 20
338.339015
 30
0.0
 40
1.0
 50
353.099056
 51
83.099056
  0
ARC
  8
LC-002-002-----0
  6
CONTINUOUS
  5
5D0
 10
226.817099
 20
336.353504
 30
0.0
 40
1.0
 50
263.099056
 51
353.099056
  0
CIRCLE
  8
LC-002-002-----0
  6
CONTINUOUS
  5
5D1
 10
288.2282
 20
329.928215
 30
0.0
 40
2.0
  0
ARC
  8
LC-002-002-----0
  6
DASHED
 62
     3
  5
5D2
 10
288.2282
 20
329.928215
 30
0.0
 40
4.0
 50
0.0
 51
263.099056
  0
ARC
  8
LC-002-002-----0
  6
DASHED
 62
     3
  5
5D3
 10
288.2282
 20
329.928215
 30
0.0
 40
4.0
 50
320.379637
 51
0.0
  0
ARC
  8
LC-002-002-----0
  6
DASHED
 62
     3
  5
5D4
 10
288.2282
 20
329.928215
 30
0.0
 40
4.0
 50
263.099056
 51
320.379637
  0
LINE
  8
LC-002-002-----0
  6
DASHED
 62
     3
  5
5D5
 10
239.340394
 20
337.859702
 30
0.0
 11
288.468507
 21
331.913726
 31
0.0
  0
LINE
  8
LC-005-102-D10-0
  6
DASHDOT
 62
     2
  5
5D6
 10
288.2282
 20
334.328215
 30
0.0
 11
288.2282
 21
325.528215
 31
0.0
  0
LINE
  8
LC-005-102-D10-0
  6
DASHDOT
 62
     2
  5
5D7
 10
292.6282
 20
329.928215
 30
0.0
 11
283.8282
 21
329.928215
 31
0.0
  0
LINE
  8
LC-002-002-----0
  6
DASHED
 62
     3
  5
5D8
 10
287.987894
 20
327.942704
 30
0.0
 11
272.20358
 21
329.85308
 31
0.0
  0
LINE
  8
LC-002-002-----0
  6
CONTINUOUS
  5
5D9
 10
213.91128
 20
337.915496
 30
0.0
 11
214.151586
 21
339.901007
 31
0.0
  0
LINE
  8
LC-002-002-----0
  6
CONTINUOUS
  5
5DA
 10
215.264495
 20
340.773609
 30
0.0
 11
227.177559
 21
339.33177
 31
0.0
  0
LINE
  8
LC-002-002-----0
  6
CONTINUOUS
  5
5DB
 10
228.050161
 20
338.218862
 30
0.0
 11
227.809855
 21
336.233351
 31
0.0
  0
LINE
  8
LC-002-002-----0
  6
CONTINUOUS
  5
5DC
 10
226.696946
 20
335.360749
 30
0.0
 11
214.783882
 21
336.802587
 31
0.0
  0
LINE
  8
LC-002-002-----0
  6
CONTINUOUS
  5
5DD
 10
227.177559
 20
339.33177
 30
0.0
 11
239.340394
 21
337.859702
 31
0.0
  0
LINE
  8
LC-002-002-----0
  6
CONTINUOUS
  5
5DE
 10
272.20358
 20
329.85308
 30
0.0
 11
226.696946
 21
335.360749
 31
0.0
  0
ARC
  8
LC-002-002-----0
  6
CONTINUOUS
  5
5DF
 10
371.402512
 20
334.790833
 30
0.0
 40
1.0
 50
10.0
 51
95.0
  0
ARC
  8
LC-002-002-----0
  6
CONTINUOUS
  5
5E0
 10
376.542512
 20
322.916755
 30
0.0
 40
2.0
 50
190.0
 51
270.0
  0
ARC
  8
LC-002-002-----0
  6
CONTINUOUS
  5
5E1
 10
382.2282
 20
322.916755
 30
0.0
 40
2.0
 50
270.0
 51
0.0
  0
ARC
  8
LC-002-002-----0
  6
CONTINUOUS
  5
5E2
 10
366.074325
 20
333.320857
 30
0.0
 40
5.0
 50
95.0
 51
175.0
  0
ARC
  8
LC-002-002-----0
  6
CONTINUOUS
  5
5E3
 10
366.074325
 20
333.320857
 30
0.0
 40
2.0
 50
95.0
 51
175.0
  0
ARC
  8
LC-002-002-----0
  6
CONTINUOUS
  5
5E4
 10
346.7282
 20
294.977785
 30
0.0
 40
11.0
 50
272.0
 51
0.0
  0
ARC
  8
LC-002-002-----0
  6
CONTINUOUS
  5
5E5
 10
205.053889
 20
334.790833
 30
0.0
 40
1.0
 50
85.0
 51
170.0
  0
ARC
  8
LC-002-002-----0
  6
CONTINUOUS
  5
5E6
 10
199.913889
 20
322.916755
 30
0.0
 40
2.0
 50
270.0
 51
350.0
  0
ARC
  8
LC-002-002-----0
  6
CONTINUOUS
  5
5E7
 10
194.2282
 20
322.916755
 30
0.0
 40
2.0
 50
180.0
 51
270.0
  0
ARC
  8
LC-002-002-----0
  6
CONTINUOUS
  5
5E8
 10
210.382076
 20
333.320857
 30
0.0
 40
5.0
 50
5.0
 51
85.0
  0
ARC
  8
LC-002-002-----0
  6
CONTINUOUS
  5
5E9
 10
210.382076
 20
333.320857
 30
0.0
 40
2.0
 50
5.0
 51
85.0
  0
ARC
  8
LC-002-002-----0
  6
CONTINUOUS
  5
5EA
 10
229.7282
 20
294.977785
 30
0.0
 40
11.0
 50
180.0
 51
268.0
  0
ARC
  8
LC-002-002-----0
  6
DASHED
 62
     3
  5
5EB
 10
288.2282
 20
329.928215
 30
0.0
 40
3.0
 50
320.506185
 51
131.288741
  0
ARC
  8
LC-002-002-----0
  6
DASHED
 62
     3
  5
5EC
 10
288.2282
 20
329.928215
 30
0.0
 40
3.0
 50
131.288741
 51
214.90937
  0
ARC
  8
LC-005-102-D10-0
  6
CONTINUOUS
  5
5ED
 10
288.2282
 20
329.928215
 30
0.0
 40
3.0
 50
214.90937
 51
225.87058
  0
ARC
  8
LC-002-002-----0
  6
CONTINUOUS
  5
5EE
 10
346.7282
 20
294.977785
 30
0.0
 40
9.0
 50
272.0
 51
0.0
  0
ARC
  8
LC-002-002-----0
  6
CONTINUOUS
  5
5EF
 10
229.7282
 20
294.977785
 30
0.0
 40
9.0
 50
180.0
 51
268.0
  0
LINE
  8
LC-002-002-----0
  6
CONTINUOUS
  5
5F0
 10
228.631638
 20
339.928215
 30
0.0
 11
222.249488
 21
339.928215
 31
0.0
  0
LINE
  8
LC-005-102-D10-0
  6
DASHDOT
 62
     2
  5
5F1
 10
288.2282
 20
333.228215
 30
0.0
 11
288.2282
 21
326.628215
 31
0.0
  0
LINE
  8
LC-005-102-D10-0
  6
DASHDOT
 62
     2
  5
5F2
 10
291.5282
 20
329.928215
 30
0.0
 11
284.9282
 21
329.928215
 31
0.0
  0
LINE
  8
LC-002-002-----0
  6
CONTINUOUS
  5
5F3
 10
227.2282
 20
330.928215
 30
0.0
 11
233.2282
 21
330.928215
 31
0.0
  0
LINE
  8
LC-002-002-----0
  6
CONTINUOUS
  5
5F4
 10
220.694867
 20
330.928215
 30
0.0
 11
224.694867
 21
330.928215
 31
0.0
  0
LINE
  8
LC-002-002-----0
  6
CONTINUOUS
  5
5F5
 10
257.2282
 20
330.928215
 30
0.0
 11
243.2282
 21
330.928215
 31
0.0
  0
LINE
  8
LC-002-002-----0
  6
CONTINUOUS
  5
5F6
 10
360.845897
 20
330.928215
 30
0.0
 11
361.093351
 21
333.756636
 31
0.0
  0
LINE
  8
LC-002-002-----0
  6
CONTINUOUS
  5
5F7
 10
359.842077
 20
330.928215
 30
0.0
 11
360.845897
 21
330.928215
 31
0.0
  0
LINE
  8
LC-002-002-----0
  6
CONTINUOUS
  5
5F8
 10
351.761534
 20
330.928215
 30
0.0
 11
355.761534
 21
330.928215
 31
0.0
  0
LINE
  8
LC-002-002-----0
  6
CONTINUOUS
  5
5F9
 10
343.2282
 20
330.928215
 30
0.0
 11
349.2282
 21
330.928215
 31
0.0
  0
LINE
  8
LC-002-002-----0
  6
CONTINUOUS
  5
5FA
 10
319.2282
 20
330.928215
 30
0.0
 11
333.2282
 21
330.928215
 31
0.0
  0
LINE
  8
LC-002-002-----0
  6
CONTINUOUS
  5
5FB
 10
215.610504
 20
330.928215
 30
0.0
 11
218.410141
 21
298.928215
 31
0.0
  0
LINE
  8
LC-002-002-----0
  6
CONTINUOUS
  5
5FC
 10
215.610504
 20
330.928215
 30
0.0
 11
216.614324
 21
330.928215
 31
0.0
  0
LINE
  8
LC-002-002-----0
  6
CONTINUOUS
  5
5FD
 10
294.2282
 20
324.928215
 30
0.0
 11
294.2282
 21
328.416755
 31
0.0
  0
LINE
  8
LC-002-002-----0
  6
CONTINUOUS
  5
5FE
 10
294.2282
 20
324.928215
 30
0.0
 11
290.54328
 21
328.02023
 31
0.0
  0
LINE
  8
LC-002-002-----0
  6
CONTINUOUS
  5
5FF
 10
294.2282
 20
319.928215
 30
0.0
 11
294.2282
 21
298.928215
 31
0.0
  0
LINE
  8
LC-002-002-----0
  6
CONTINUOUS
  5
600
 10
294.2282
 20
319.928215
 30
0.0
 11
286.139356
 21
327.774908
 31
0.0
  0
LINE
  8
LC-002-002-----0
  6
CONTINUOUS
  5
601
 10
365.900014
 20
335.313247
 30
0.0
 11
384.2282
 21
336.916755
 31
0.0
  0
LINE
  8
LC-002-002-----0
  6
CONTINUOUS
  5
602
 10
372.38732
 20
334.964481
 30
0.0
 11
374.572896
 21
322.569459
 31
0.0
  0
LINE
  8
LC-002-002-----0
  6
CONTINUOUS
  5
603
 10
376.542512
 20
320.916755
 30
0.0
 11
382.2282
 21
320.916755
 31
0.0
  0
LINE
  8
LC-002-002-----0
  6
CONTINUOUS
  5
604
 10
384.2282
 20
322.916755
 30
0.0
 11
384.2282
 21
336.916755
 31
0.0
  0
LINE
  8
LC-002-002-----0
  6
CONTINUOUS
  5
605
 10
384.2282
 20
339.928215
 30
0.0
 11
365.638546
 21
338.301831
 31
0.0
  0
LINE
  8
LC-003-100-D10-0
  6
CONTINUOUS
 62
     7
  5
606
 10
384.2282
 20
336.916755
 30
0.0
 11
384.2282
 21
336.916755
 31
0.0
  0
LINE
  8
LC-002-002-----0
  6
CONTINUOUS
  5
607
 10
358.046259
 20
298.928215
 30
0.0
 11
360.845897
 21
330.928215
 31
0.0
  0
LINE
  8
LC-002-002-----0
  6
CONTINUOUS
  5
608
 10
357.04244
 20
298.928215
 30
0.0
 11
358.046259
 21
298.928215
 31
0.0
  0
LINE
  8
LC-002-002-----0
  6
CONTINUOUS
  5
609
 10
288.2282
 20
298.928215
 30
0.0
 11
294.2282
 21
298.928215
 31
0.0
  0
LINE
  8
LC-002-002-----0
  6
CONTINUOUS
  5
60A
 10
294.2282
 20
298.928215
 30
0.0
 11
306.2282
 21
298.928215
 31
0.0
  0
LINE
  8
LC-002-002-----0
  6
CONTINUOUS
  5
60B
 10
319.2282
 20
298.928215
 30
0.0
 11
319.2282
 21
330.928215
 31
0.0
  0
LINE
  8
LC-002-002-----0
  6
CONTINUOUS
  5
60C
 10
306.2282
 20
298.928215
 30
0.0
 11
319.2282
 21
298.928215
 31
0.0
  0
LINE
  8
LC-002-002-----0
  6
CONTINUOUS
  5
60D
 10
343.2282
 20
298.928215
 30
0.0
 11
343.2282
 21
330.928215
 31
0.0
  0
LINE
  8
LC-002-002-----0
  6
CONTINUOUS
  5
60E
 10
333.2282
 20
298.928215
 30
0.0
 11
343.2282
 21
298.928215
 31
0.0
  0
LINE
  8
LC-002-002-----0
  6
CONTINUOUS
  5
60F
 10
333.2282
 20
298.928215
 30
0.0
 11
333.2282
 21
330.928215
 31
0.0
  0
LINE
  8
LC-002-002-----0
  6
CONTINUOUS
  5
610
 10
331.2282
 20
298.928215
 30
0.0
 11
333.2282
 21
298.928215
 31
0.0
  0
LINE
  8
LC-002-002-----0
  6
CONTINUOUS
  5
611
 10
331.2282
 20
330.928215
 30
0.0
 11
331.2282
 21
298.928215
 31
0.0
  0
LINE
  8
LC-002-002-----0
  6
CONTINUOUS
  5
612
 10
319.2282
 20
298.928215
 30
0.0
 11
331.2282
 21
298.928215
 31
0.0
  0
LINE
  8
LC-002-002-----0
  6
CONTINUOUS
  5
613
 10
355.2282
 20
298.928215
 30
0.0
 11
355.761534
 21
330.928215
 31
0.0
  0
LINE
  8
LC-002-002-----0
  6
CONTINUOUS
  5
614
 10
351.2282
 20
298.928215
 30
0.0
 11
355.2282
 21
298.928215
 31
0.0
  0
LINE
  8
LC-002-002-----0
  6
CONTINUOUS
  5
615
 10
349.2282
 20
298.928215
 30
0.0
 11
349.2282
 21
330.928215
 31
0.0
  0
LINE
  8
LC-002-002-----0
  6
CONTINUOUS
  5
616
 10
343.2282
 20
298.928215
 30
0.0
 11
349.2282
 21
298.928215
 31
0.0
  0
LINE
  8
LC-002-002-----0
  6
CONTINUOUS
  5
617
 10
351.2282
 20
298.928215
 30
0.0
 11
351.761534
 21
330.928215
 31
0.0
  0
LINE
  8
LC-002-002-----0
  6
CONTINUOUS
  5
618
 10
349.2282
 20
298.928215
 30
0.0
 11
351.2282
 21
298.928215
 31
0.0
  0
LINE
  8
LC-002-002-----0
  6
CONTINUOUS
  5
619
 10
357.04244
 20
298.928215
 30
0.0
 11
359.842077
 21
330.928215
 31
0.0
  0
LINE
  8
LC-002-002-----0
  6
CONTINUOUS
  5
61A
 10
355.2282
 20
298.928215
 30
0.0
 11
357.04244
 21
298.928215
 31
0.0
  0
LINE
  8
LC-002-002-----0
  6
CONTINUOUS
  5
61B
 10
299.320771
 20
284.316795
 30
0.0
 11
299.495321
 21
282.321671
 31
0.0
  0
LINE
  8
LC-002-002-----0
  6
CONTINUOUS
  5
61C
 10
296.984261
 20
282.233983
 30
0.0
 11
297.159881
 21
284.241335
 31
0.0
  0
LINE
  8
LC-002-002-----0
  6
CONTINUOUS
  5
61D
 10
384.2282
 20
339.928215
 30
0.0
 11
347.824763
 21
339.928215
 31
0.0
  0
LINE
  8
LC-002-002-----0
  6
CONTINUOUS
  5
61E
 10
288.2282
 20
281.928215
 30
0.0
 11
296.984261
 21
282.233983
 31
0.0
  0
LINE
  8
LC-005-102-D10-0
  6
CONTINUOUS
  5
61F
 10
357.7282
 20
294.977785
 30
0.0
 11
357.7282
 21
295.047653
 31
0.0
  0
LINE
  8
LC-002-002-----0
  6
CONTINUOUS
  5
620
 10
288.2282
 20
283.929434
 30
0.0
 11
297.159881
 21
284.241335
 31
0.0
  0
LINE
  8
LC-002-002-----0
  6
CONTINUOUS
  5
621
 10
357.7282
 20
295.047653
 30
0.0
 11
361.004887
 21
298.324339
 31
0.0
  0
LINE
  8
LC-002-002-----0
  6
CONTINUOUS
  5
622
 10
361.004887
 20
298.324339
 30
0.0
 11
364.081936
 21
333.495169
 31
0.0
  0
LINE
  8
LC-002-002-----0
  6
CONTINUOUS
  5
623
 10
355.7282
 20
294.977785
 30
0.0
 11
355.7282
 21
296.610156
 31
0.0
  0
LINE
  8
LC-002-002-----0
  6
CONTINUOUS
  5
624
 10
355.7282
 20
296.610156
 30
0.0
 11
288.2282
 21
296.610156
 31
0.0
  0
LINE
  8
LC-002-002-----0
  6
CONTINUOUS
  5
625
 10
299.320771
 20
284.316795
 30
0.0
 11
347.042296
 21
285.983267
 31
0.0
  0
LINE
  8
LC-002-002-----0
  6
CONTINUOUS
  5
626
 10
297.159881
 20
284.241335
 30
0.0
 11
299.320771
 21
284.316795
 31
0.0
  0
LINE
  8
LC-002-002-----0
  6
CONTINUOUS
  5
627
 10
299.495321
 20
282.321671
 30
0.0
 11
347.112095
 21
283.984486
 31
0.0
  0
LINE
  8
LC-002-002-----0
  6
CONTINUOUS
  5
628
 10
296.984261
 20
282.233983
 30
0.0
 11
299.495321
 21
282.321671
 31
0.0
  0
LINE
  8
LC-005-102-D10-0
  6
DASHDOT
 62
     2
  5
629
 10
298.243627
 20
281.516112
 30
0.0
 11
298.243627
 21
284.52541
 31
0.0
  0
LINE
  8
LC-002-002-----0
  6
CONTINUOUS
  5
62A
 10
192.2282
 20
336.916755
 30
0.0
 11
210.556387
 21
335.313247
 31
0.0
  0
LINE
  8
LC-002-002-----0
  6
CONTINUOUS
  5
62B
 10
201.883504
 20
322.569459
 30
0.0
 11
204.069081
 21
334.964481
 31
0.0
  0
LINE
  8
LC-002-002-----0
  6
CONTINUOUS
  5
62C
 10
194.2282
 20
320.916755
 30
0.0
 11
199.913889
 21
320.916755
 31
0.0
  0
LINE
  8
LC-002-002-----0
  6
CONTINUOUS
  5
62D
 10
192.2282
 20
336.916755
 30
0.0
 11
192.2282
 21
322.916755
 31
0.0
  0
LINE
  8
LC-002-002-----0
  6
CONTINUOUS
  5
62E
 10
210.817854
 20
338.301831
 30
0.0
 11
192.2282
 21
339.928215
 31
0.0
  0
LINE
  8
LC-002-002-----0
  6
CONTINUOUS
  5
62F
 10
192.2282
 20
339.928215
 30
0.0
 11
192.2282
 21
336.916755
 31
0.0
  0
LINE
  8
LC-002-002-----0
  6
CONTINUOUS
  5
630
 10
215.363049
 20
333.756636
 30
0.0
 11
215.610504
 21
330.928215
 31
0.0
  0
LINE
  8
LC-002-002-----0
  6
CONTINUOUS
  5
631
 10
218.410141
 20
298.928215
 30
0.0
 11
219.413961
 21
298.928215
 31
0.0
  0
LINE
  8
LC-002-002-----0
  6
CONTINUOUS
  5
632
 10
282.2282
 20
298.928215
 30
0.0
 11
282.2282
 21
328.6398
 31
0.0
  0
LINE
  8
LC-002-002-----0
  6
CONTINUOUS
  5
633
 10
282.2282
 20
298.928215
 30
0.0
 11
288.2282
 21
298.928215
 31
0.0
  0
LINE
  8
LC-002-002-----0
  6
CONTINUOUS
  5
634
 10
270.2282
 20
298.928215
 30
0.0
 11
270.2282
 21
330.09216
 31
0.0
  0
LINE
  8
LC-002-002-----0
  6
CONTINUOUS
  5
635
 10
270.2282
 20
298.928215
 30
0.0
 11
282.2282
 21
298.928215
 31
0.0
  0
LINE
  8
LC-002-002-----0
  6
CONTINUOUS
  5
636
 10
257.2282
 20
298.928215
 30
0.0
 11
270.2282
 21
298.928215
 31
0.0
  0
LINE
  8
LC-002-002-----0
  6
CONTINUOUS
  5
637
 10
233.2282
 20
330.928215
 30
0.0
 11
233.2282
 21
298.928215
 31
0.0
  0
LINE
  8
LC-002-002-----0
  6
CONTINUOUS
  5
638
 10
233.2282
 20
298.928215
 30
0.0
 11
243.2282
 21
298.928215
 31
0.0
  0
LINE
  8
LC-002-002-----0
  6
CONTINUOUS
  5
639
 10
243.2282
 20
330.928215
 30
0.0
 11
243.2282
 21
298.928215
 31
0.0
  0
LINE
  8
LC-002-002-----0
  6
CONTINUOUS
  5
63A
 10
243.2282
 20
298.928215
 30
0.0
 11
245.2282
 21
298.928215
 31
0.0
  0
LINE
  8
LC-002-002-----0
  6
CONTINUOUS
  5
63B
 10
245.2282
 20
298.928215
 30
0.0
 11
245.2282
 21
330.928215
 31
0.0
  0
LINE
  8
LC-002-002-----0
  6
CONTINUOUS
  5
63C
 10
245.2282
 20
298.928215
 30
0.0
 11
257.2282
 21
298.928215
 31
0.0
  0
LINE
  8
LC-002-002-----0
  6
CONTINUOUS
  5
63D
 10
220.694867
 20
330.928215
 30
0.0
 11
221.2282
 21
298.928215
 31
0.0
  0
LINE
  8
LC-002-002-----0
  6
CONTINUOUS
  5
63E
 10
221.2282
 20
298.928215
 30
0.0
 11
225.2282
 21
298.928215
 31
0.0
  0
LINE
  8
LC-002-002-----0
  6
CONTINUOUS
  5
63F
 10
227.2282
 20
330.928215
 30
0.0
 11
227.2282
 21
298.928215
 31
0.0
  0
LINE
  8
LC-002-002-----0
  6
CONTINUOUS
  5
640
 10
227.2282
 20
298.928215
 30
0.0
 11
233.2282
 21
298.928215
 31
0.0
  0
LINE
  8
LC-002-002-----0
  6
CONTINUOUS
  5
641
 10
224.694867
 20
330.928215
 30
0.0
 11
225.2282
 21
298.928215
 31
0.0
  0
LINE
  8
LC-002-002-----0
  6
CONTINUOUS
  5
642
 10
225.2282
 20
298.928215
 30
0.0
 11
227.2282
 21
298.928215
 31
0.0
  0
LINE
  8
LC-002-002-----0
  6
CONTINUOUS
  5
643
 10
216.614324
 20
330.928215
 30
0.0
 11
219.413961
 21
298.928215
 31
0.0
  0
LINE
  8
LC-002-002-----0
  6
CONTINUOUS
  5
644
 10
219.413961
 20
298.928215
 30
0.0
 11
221.2282
 21
298.928215
 31
0.0
  0
LINE
  8
LC-002-002-----0
  6
CONTINUOUS
  5
645
 10
276.961079
 20
282.321671
 30
0.0
 11
277.13563
 21
284.316795
 31
0.0
  0
LINE
  8
LC-002-002-----0
  6
CONTINUOUS
  5
646
 10
279.296519
 20
284.241335
 30
0.0
 11
279.47214
 21
282.233983
 31
0.0
  0
LINE
  8
LC-002-002-----0
  6
CONTINUOUS
  5
647
 10
279.47214
 20
282.233983
 30
0.0
 11
288.2282
 21
281.928215
 31
0.0
  0
LINE
  8
LC-005-102-D10-0
  6
CONTINUOUS
  5
648
 10
218.7282
 20
295.047653
 30
0.0
 11
218.7282
 21
294.977785
 31
0.0
  0
LINE
  8
LC-002-002-----0
  6
CONTINUOUS
  5
649
 10
279.296519
 20
284.241335
 30
0.0
 11
288.2282
 21
283.929434
 31
0.0
  0
LINE
  8
LC-002-002-----0
  6
CONTINUOUS
  5
64A
 10
215.451514
 20
298.324339
 30
0.0
 11
218.7282
 21
295.047653
 31
0.0
  0
LINE
  8
LC-002-002-----0
  6
CONTINUOUS
  5
64B
 10
212.374465
 20
333.495169
 30
0.0
 11
215.451514
 21
298.324339
 31
0.0
  0
LINE
  8
LC-002-002-----0
  6
CONTINUOUS
  5
64C
 10
220.7282
 20
296.610156
 30
0.0
 11
220.7282
 21
294.977785
 31
0.0
  0
LINE
  8
LC-002-002-----0
  6
CONTINUOUS
  5
64D
 10
288.2282
 20
296.610156
 30
0.0
 11
220.7282
 21
296.610156
 31
0.0
  0
LINE
  8
LC-002-002-----0
  6
CONTINUOUS
  5
64E
 10
229.414105
 20
285.983267
 30
0.0
 11
277.13563
 21
284.316795
 31
0.0
  0
LINE
  8
LC-002-002-----0
  6
CONTINUOUS
  5
64F
 10
277.13563
 20
284.316795
 30
0.0
 11
279.296519
 21
284.241335
 31
0.0
  0
LINE
  8
LC-002-002-----0
  6
CONTINUOUS
  5
650
 10
229.344306
 20
283.984486
 30
0.0
 11
276.961079
 21
282.321671
 31
0.0
  0
LINE
  8
LC-002-002-----0
  6
CONTINUOUS
  5
651
 10
276.961079
 20
282.321671
 30
0.0
 11
279.47214
 21
282.233983
 31
0.0
  0
LINE
  8
LC-005-102-D10-0
  6
DASHDOT
 62
     2
  5
652
 10
278.212774
 20
284.52541
 30
0.0
 11
278.212774
 21
281.516112
 31
0.0
  0
LINE
  8
LC-002-002-----0
  6
CONTINUOUS
  5
653
 10
214.120954
 20
339.928215
 30
0.0
 11
192.2282
 21
339.928215
 31
0.0
  0
LINE
  8
LC-002-002-----0
  6
CONTINUOUS
  5
654
 10
306.2282
 20
330.354524
 30
0.0
 11
306.2282
 21
298.928215
 31
0.0
  0
LINE
  8
LC-002-002-----0
  6
CONTINUOUS
  5
655
 10
384.2282
 20
336.916755
 30
0.0
 11
384.2282
 21
339.928215
 31
0.0
  0
LINE
  8
LC-003-100-D10-0
  6
CONTINUOUS
 62
     7
  5
656
 10
192.2282
 20
336.916755
 30
0.0
 11
192.2282
 21
336.916755
 31
0.0
  0
ARC
  8
LC-002-002-----0
  6
CONTINUOUS
  5
657
 10
174.2282
 20
342.916755
 30
0.0
 40
0.5
 50
180.0
 51
270.0
  0
ARC
  8
LC-002-002-----0
  6
CONTINUOUS
  5
658
 10
170.2282
 20
342.916755
 30
0.0
 40
0.5
 50
270.0
 51
0.0
  0
ARC
  8
LC-002-002-----0
  6
CONTINUOUS
  5
659
 10
170.2282
 20
358.716755
 30
0.0
 40
0.5
 50
0.0
 51
90.0
  0
ARC
  8
LC-002-002-----0
  6
CONTINUOUS
  5
65A
 10
185.7282
 20
338.416755
 30
0.0
 40
1.0
 50
0.0
 51
90.0
  0
ARC
  8
LC-002-002-----0
  6
CONTINUOUS
  5
65B
 10
171.7282
 20
360.216755
 30
0.0
 40
2.0
 50
0.0
 51
90.0
  0
ARC
  8
LC-002-002-----0
  6
CONTINUOUS
  5
65C
 10
170.2282
 20
360.216755
 30
0.0
 40
2.0
 50
90.0
 51
180.0
  0
ARC
  8
LC-002-002-----0
  6
CONTINUOUS
  5
65D
 10
169.2282
 20
360.216755
 30
0.0
 40
1.0
 50
180.0
 51
270.0
  0
ARC
  8
LC-002-002-----0
  6
CONTINUOUS
  5
65E
 10
169.2282
 20
340.416755
 30
0.0
 40
1.0
 50
180.0
 51
270.0
  0
ARC
  8
LC-002-002-----0
  6
CONTINUOUS
  5
65F
 10
169.2282
 20
341.416755
 30
0.0
 40
1.0
 50
90.0
 51
180.0
  0
ARC
  8
LC-002-002-----0
  6
CONTINUOUS
  5
660
 10
188.7282
 20
341.416755
 30
0.0
 40
1.0
 50
0.0
 51
90.0
  0
ARC
  8
LC-002-002-----0
  6
CONTINUOUS
  5
661
 10
190.7282
 20
321.916755
 30
0.0
 40
1.0
 50
180.0
 51
270.0
  0
ARC
  8
LC-002-002-----0
  6
CONTINUOUS
  5
662
 10
195.7282
 20
318.916755
 30
0.0
 40
2.0
 50
0.0
 51
90.0
  0
ARC
  8
LC-002-002-----0
  6
CONTINUOUS
  5
663
 10
193.2282
 20
223.395102
 30
0.0
 40
1.0
 50
285.0
 51
0.0
  0
ARC
  8
LC-002-002-----0
  6
CONTINUOUS
  5
664
 10
193.2282
 20
227.484804
 30
0.0
 40
1.0
 50
0.0
 51
75.0
  0
ARC
  8
LC-002-002-----0
  6
CONTINUOUS
  5
665
 10
193.2282
 20
233.395102
 30
0.0
 40
1.0
 50
285.0
 51
0.0
  0
ARC
  8
LC-002-002-----0
  6
CONTINUOUS
  5
666
 10
193.2282
 20
237.484804
 30
0.0
 40
1.0
 50
0.0
 51
75.0
  0
ARC
  8
LC-002-002-----0
  6
CONTINUOUS
  5
667
 10
193.2282
 20
243.395102
 30
0.0
 40
1.0
 50
285.0
 51
0.0
  0
ARC
  8
LC-002-002-----0
  6
CONTINUOUS
  5
668
 10
193.2282
 20
247.484804
 30
0.0
 40
1.0
 50
0.0
 51
75.0
  0
ARC
  8
LC-002-002-----0
  6
CONTINUOUS
  5
669
 10
193.2282
 20
253.395102
 30
0.0
 40
1.0
 50
285.0
 51
0.0
  0
ARC
  8
LC-002-002-----0
  6
CONTINUOUS
  5
66A
 10
193.2282
 20
257.484804
 30
0.0
 40
1.0
 50
0.0
 51
75.0
  0
ARC
  8
LC-002-002-----0
  6
CONTINUOUS
  5
66B
 10
193.2282
 20
263.395102
 30
0.0
 40
1.0
 50
285.0
 51
0.0
  0
ARC
  8
LC-002-002-----0
  6
CONTINUOUS
  5
66C
 10
193.2282
 20
267.484804
 30
0.0
 40
1.0
 50
0.0
 51
75.0
  0
ARC
  8
LC-002-002-----0
  6
CONTINUOUS
  5
66D
 10
193.2282
 20
273.395102
 30
0.0
 40
1.0
 50
285.0
 51
0.0
  0
ARC
  8
LC-002-002-----0
  6
CONTINUOUS
  5
66E
 10
193.2282
 20
277.484804
 30
0.0
 40
1.0
 50
0.0
 51
75.0
  0
ARC
  8
LC-002-002-----0
  6
CONTINUOUS
  5
66F
 10
193.2282
 20
283.395102
 30
0.0
 40
1.0
 50
285.0
 51
0.0
  0
ARC
  8
LC-002-002-----0
  6
CONTINUOUS
  5
670
 10
193.2282
 20
287.484804
 30
0.0
 40
1.0
 50
0.0
 51
75.0
  0
ARC
  8
LC-002-002-----0
  6
CONTINUOUS
  5
671
 10
193.2282
 20
293.395102
 30
0.0
 40
1.0
 50
285.0
 51
0.0
  0
ARC
  8
LC-002-002-----0
  6
CONTINUOUS
  5
672
 10
193.2282
 20
297.484804
 30
0.0
 40
1.0
 50
0.0
 51
75.0
  0
ARC
  8
LC-002-002-----0
  6
CONTINUOUS
  5
673
 10
193.2282
 20
303.395102
 30
0.0
 40
1.0
 50
285.0
 51
0.0
  0
ARC
  8
LC-002-002-----0
  6
CONTINUOUS
  5
674
 10
193.2282
 20
307.484804
 30
0.0
 40
1.0
 50
0.0
 51
75.0
  0
ARC
  8
LC-002-002-----0
  6
CONTINUOUS
  5
675
 10
193.2282
 20
313.395102
 30
0.0
 40
1.0
 50
285.0
 51
0.0
  0
ARC
  8
LC-002-002-----0
  6
CONTINUOUS
  5
676
 10
193.2282
 20
317.416755
 30
0.0
 40
1.0
 50
0.0
 51
90.0
  0
ARC
  8
LC-002-002-----0
  6
CONTINUOUS
  5
677
 10
402.2282
 20
342.916755
 30
0.0
 40
0.5
 50
270.0
 51
0.0
  0
ARC
  8
LC-002-002-----0
  6
CONTINUOUS
  5
678
 10
406.2282
 20
342.916755
 30
0.0
 40
0.5
 50
180.0
 51
270.0
  0
ARC
  8
LC-002-002-----0
  6
CONTINUOUS
  5
679
 10
406.2282
 20
358.716755
 30
0.0
 40
0.5
 50
90.0
 51
180.0
  0
ARC
  8
LC-002-002-----0
  6
CONTINUOUS
  5
67A
 10
390.7282
 20
338.416755
 30
0.0
 40
1.0
 50
90.0
 51
180.0
  0
ARC
  8
LC-002-002-----0
  6
CONTINUOUS
  5
67B
 10
404.7282
 20
360.216755
 30
0.0
 40
2.0
 50
90.0
 51
180.0
  0
ARC
  8
LC-002-002-----0
  6
CONTINUOUS
  5
67C
 10
406.2282
 20
360.216755
 30
0.0
 40
2.0
 50
0.0
 51
90.0
  0
ARC
  8
LC-002-002-----0
  6
CONTINUOUS
  5
67D
 10
407.2282
 20
360.216755
 30
0.0
 40
1.0
 50
270.0
 51
0.0
  0
ARC
  8
LC-002-002-----0
  6
CONTINUOUS
  5
67E
 10
407.2282
 20
340.416755
 30
0.0
 40
1.0
 50
270.0
 51
0.0
  0
ARC
  8
LC-002-002-----0
  6
CONTINUOUS
  5
67F
 10
407.2282
 20
341.416755
 30
0.0
 40
1.0
 50
0.0
 51
90.0
  0
ARC
  8
LC-002-002-----0
  6
CONTINUOUS
  5
680
 10
387.7282
 20
341.416755
 30
0.0
 40
1.0
 50
90.0
 51
180.0
  0
ARC
  8
LC-002-002-----0
  6
CONTINUOUS
  5
681
 10
385.7282
 20
321.916755
 30
0.0
 40
1.0
 50
270.0
 51
0.0
  0
ARC
  8
LC-002-002-----0
  6
CONTINUOUS
  5
682
 10
380.7282
 20
318.916755
 30
0.0
 40
2.0
 50
90.0
 51
180.0
  0
ARC
  8
LC-002-002-----0
  6
CONTINUOUS
  5
683
 10
383.2282
 20
223.395102
 30
0.0
 40
1.0
 50
180.0
 51
255.0
  0
ARC
  8
LC-002-002-----0
  6
CONTINUOUS
  5
684
 10
383.2282
 20
227.484804
 30
0.0
 40
1.0
 50
105.0
 51
180.0
  0
ARC
  8
LC-002-002-----0
  6
CONTINUOUS
  5
685
 10
383.2282
 20
233.395102
 30
0.0
 40
1.0
 50
180.0
 51
255.0
  0
ARC
  8
LC-002-002-----0
  6
CONTINUOUS
  5
686
 10
383.2282
 20
237.484804
 30
0.0
 40
1.0
 50
105.0
 51
180.0
  0
ARC
  8
LC-002-002-----0
  6
CONTINUOUS
  5
687
 10
383.2282
 20
243.395102
 30
0.0
 40
1.0
 50
180.0
 51
255.0
  0
ARC
  8
LC-002-002-----0
  6
CONTINUOUS
  5
688
 10
383.2282
 20
247.484804
 30
0.0
 40
1.0
 50
105.0
 51
180.0
  0
ARC
  8
LC-002-002-----0
  6
CONTINUOUS
  5
689
 10
383.2282
 20
253.395102
 30
0.0
 40
1.0
 50
180.0
 51
255.0
  0
ARC
  8
LC-002-002-----0
  6
CONTINUOUS
  5
68A
 10
383.2282
 20
257.484804
 30
0.0
 40
1.0
 50
105.0
 51
180.0
  0
ARC
  8
LC-002-002-----0
  6
CONTINUOUS
  5
68B
 10
383.2282
 20
263.395102
 30
0.0
 40
1.0
 50
180.0
 51
255.0
  0
ARC
  8
LC-002-002-----0
  6
CONTINUOUS
  5
68C
 10
383.2282
 20
267.484804
 30
0.0
 40
1.0
 50
105.0
 51
180.0
  0
ARC
  8
LC-002-002-----0
  6
CONTINUOUS
  5
68D
 10
383.2282
 20
273.395102
 30
0.0
 40
1.0
 50
180.0
 51
255.0
  0
ARC
  8
LC-002-002-----0
  6
CONTINUOUS
  5
68E
 10
383.2282
 20
277.484804
 30
0.0
 40
1.0
 50
105.0
 51
180.0
  0
ARC
  8
LC-003-100-D10-0
  6
CONTINUOUS
 62
     7
  5
68F
 10
383.2282
 20
283.395102
 30
0.0
 40
1.0
 50
180.0
 51
255.0
  0
ARC
  8
LC-002-002-----0
  6
CONTINUOUS
  5
690
 10
383.2282
 20
287.484804
 30
0.0
 40
1.0
 50
105.0
 51
180.0
  0
ARC
  8
LC-002-002-----0
  6
CONTINUOUS
  5
691
 10
383.2282
 20
293.395102
 30
0.0
 40
1.0
 50
180.0
 51
255.0
  0
ARC
  8
LC-002-002-----0
  6
CONTINUOUS
  5
692
 10
383.2282
 20
297.484804
 30
0.0
 40
1.0
 50
105.0
 51
180.0
  0
ARC
  8
LC-002-002-----0
  6
CONTINUOUS
  5
693
 10
383.2282
 20
303.395102
 30
0.0
 40
1.0
 50
180.0
 51
255.0
  0
ARC
  8
LC-002-002-----0
  6
CONTINUOUS
  5
694
 10
383.2282
 20
307.484804
 30
0.0
 40
1.0
 50
105.0
 51
180.0
  0
ARC
  8
LC-002-002-----0
  6
CONTINUOUS
  5
695
 10
383.2282
 20
313.395102
 30
0.0
 40
1.0
 50
180.0
 51
255.0
  0
ARC
  8
LC-002-002-----0
  6
CONTINUOUS
  5
696
 10
383.2282
 20
317.416755
 30
0.0
 40
1.0
 50
90.0
 51
180.0
  0
LINE
  8
LC-002-002-----0
  6
CONTINUOUS
  5
697
 10
398.601351
 20
362.216755
 30
0.0
 11
404.7282
 21
362.216755
 31
0.0
  0
LINE
  8
LC-002-002-----0
  6
CONTINUOUS
  5
698
 10
288.2282
 20
218.218157
 30
0.0
 11
378.7282
 21
218.218157
 31
0.0
  0
LINE
  8
LC-002-002-----0
  6
CONTINUOUS
  5
699
 10
171.7282
 20
362.216755
 30
0.0
 11
177.85505
 21
362.216755
 31
0.0
  0
LINE
  8
LC-003-100-D10-0
  6
CONTINUOUS
 62
     7
  5
69A
 10
188.7282
 20
342.416755
 30
0.0
 11
217.980936
 21
342.416755
 31
0.0
  0
LINE
  8
LC-002-002-----0
  6
CONTINUOUS
  5
69B
 10
197.7282
 20
218.218157
 30
0.0
 11
288.2282
 21
218.218157
 31
0.0
  0
LINE
  8
LC-002-002-----0
  6
CONTINUOUS
  5
69C
 10
189.7282
 20
321.916755
 30
0.0
 11
189.7282
 21
341.416755
 31
0.0
  0
LINE
  8
LC-002-002-----0
  6
CONTINUOUS
  5
69D
 10
190.7282
 20
320.916755
 30
0.0
 11
195.7282
 21
320.916755
 31
0.0
  0
LINE
  8
LC-002-002-----0
  6
CONTINUOUS
  5
69E
 10
188.7282
 20
342.416755
 30
0.0
 11
174.2282
 21
342.416755
 31
0.0
  0
LINE
  8
LC-002-002-----0
  6
CONTINUOUS
  5
69F
 10
173.7282
 20
360.216755
 30
0.0
 11
173.7282
 21
342.916755
 31
0.0
  0
LINE
  8
LC-002-002-----0
  6
CONTINUOUS
  5
6A0
 10
170.2282
 20
362.216755
 30
0.0
 11
171.7282
 21
362.216755
 31
0.0
  0
LINE
  8
LC-002-002-----0
  6
CONTINUOUS
  5
6A1
 10
170.2282
 20
359.216755
 30
0.0
 11
169.2282
 21
359.216755
 31
0.0
  0
LINE
  8
LC-002-002-----0
  6
CONTINUOUS
  5
6A2
 10
170.7282
 20
342.916755
 30
0.0
 11
170.7282
 21
358.716755
 31
0.0
  0
LINE
  8
LC-002-002-----0
  6
CONTINUOUS
  5
6A3
 10
169.2282
 20
342.416755
 30
0.0
 11
170.2282
 21
342.416755
 31
0.0
  0
LINE
  8
LC-002-002-----0
  6
CONTINUOUS
  5
6A4
 10
168.2282
 20
340.416755
 30
0.0
 11
168.2282
 21
341.416755
 31
0.0
  0
LINE
  8
LC-002-002-----0
  6
CONTINUOUS
  5
6A5
 10
185.7282
 20
339.416755
 30
0.0
 11
169.2282
 21
339.416755
 31
0.0
  0
LINE
  8
LC-002-002-----0
  6
CONTINUOUS
  5
6A6
 10
186.7282
 20
318.416755
 30
0.0
 11
186.7282
 21
338.416755
 31
0.0
  0
LINE
  8
LC-002-002-----0
  6
CONTINUOUS
  5
6A7
 10
194.2282
 20
227.484804
 30
0.0
 11
194.2282
 21
223.395102
 31
0.0
  0
LINE
  8
LC-002-002-----0
  6
CONTINUOUS
  5
6A8
 10
193.487019
 20
228.45073
 30
0.0
 11
190.7282
 21
229.189953
 31
0.0
  0
LINE
  8
LC-002-002-----0
  6
CONTINUOUS
  5
6A9
 10
190.7282
 20
221.689953
 30
0.0
 11
193.487019
 21
222.429177
 31
0.0
  0
LINE
  8
LC-002-002-----0
  6
CONTINUOUS
  5
6AA
 10
190.7282
 20
219.289953
 30
0.0
 11
190.7282
 21
221.689953
 31
0.0
  0
LINE
  8
LC-002-002-----0
  6
CONTINUOUS
  5
6AB
 10
194.7282
 20
218.218157
 30
0.0
 11
197.7282
 21
218.218157
 31
0.0
  0
LINE
  8
LC-002-002-----0
  6
CONTINUOUS
  5
6AC
 10
194.7282
 20
218.218157
 30
0.0
 11
190.7282
 21
219.289953
 31
0.0
  0
LINE
  8
LC-002-002-----0
  6
CONTINUOUS
  5
6AD
 10
197.7282
 20
218.218157
 30
0.0
 11
197.7282
 21
318.916755
 31
0.0
  0
LINE
  8
LC-002-002-----0
  6
CONTINUOUS
  5
6AE
 10
193.2282
 20
318.416755
 30
0.0
 11
186.7282
 21
318.416755
 31
0.0
  0
LINE
  8
LC-002-002-----0
  6
CONTINUOUS
  5
6AF
 10
190.7282
 20
229.189953
 30
0.0
 11
190.7282
 21
231.689953
 31
0.0
  0
LINE
  8
LC-002-002-----0
  6
CONTINUOUS
  5
6B0
 10
194.2282
 20
237.484804
 30
0.0
 11
194.2282
 21
233.395102
 31
0.0
  0
LINE
  8
LC-002-002-----0
  6
CONTINUOUS
  5
6B1
 10
193.487019
 20
238.45073
 30
0.0
 11
190.7282
 21
239.189953
 31
0.0
  0
LINE
  8
LC-002-002-----0
  6
CONTINUOUS
  5
6B2
 10
190.7282
 20
231.689953
 30
0.0
 11
193.487019
 21
232.429177
 31
0.0
  0
LINE
  8
LC-002-002-----0
  6
CONTINUOUS
  5
6B3
 10
190.7282
 20
239.189953
 30
0.0
 11
190.7282
 21
241.689953
 31
0.0
  0
LINE
  8
LC-002-002-----0
  6
CONTINUOUS
  5
6B4
 10
194.2282
 20
247.484804
 30
0.0
 11
194.2282
 21
243.395102
 31
0.0
  0
LINE
  8
LC-002-002-----0
  6
CONTINUOUS
  5
6B5
 10
193.487019
 20
248.45073
 30
0.0
 11
190.7282
 21
249.189953
 31
0.0
  0
LINE
  8
LC-002-002-----0
  6
CONTINUOUS
  5
6B6
 10
190.7282
 20
241.689953
 30
0.0
 11
193.487019
 21
242.429177
 31
0.0
  0
LINE
  8
LC-002-002-----0
  6
CONTINUOUS
  5
6B7
 10
190.7282
 20
249.189953
 30
0.0
 11
190.7282
 21
251.689953
 31
0.0
  0
LINE
  8
LC-002-002-----0
  6
CONTINUOUS
  5
6B8
 10
194.2282
 20
257.484804
 30
0.0
 11
194.2282
 21
253.395102
 31
0.0
  0
LINE
  8
LC-002-002-----0
  6
CONTINUOUS
  5
6B9
 10
193.487019
 20
258.45073
 30
0.0
 11
190.7282
 21
259.189953
 31
0.0
  0
LINE
  8
LC-002-002-----0
  6
CONTINUOUS
  5
6BA
 10
190.7282
 20
251.689953
 30
0.0
 11
193.487019
 21
252.429177
 31
0.0
  0
LINE
  8
LC-002-002-----0
  6
CONTINUOUS
  5
6BB
 10
190.7282
 20
259.189953
 30
0.0
 11
190.7282
 21
261.689953
 31
0.0
  0
LINE
  8
LC-002-002-----0
  6
CONTINUOUS
  5
6BC
 10
194.2282
 20
267.484804
 30
0.0
 11
194.2282
 21
263.395102
 31
0.0
  0
LINE
  8
LC-002-002-----0
  6
CONTINUOUS
  5
6BD
 10
193.487019
 20
268.45073
 30
0.0
 11
190.7282
 21
269.189953
 31
0.0
  0
LINE
  8
LC-002-002-----0
  6
CONTINUOUS
  5
6BE
 10
190.7282
 20
261.689953
 30
0.0
 11
193.487019
 21
262.429177
 31
0.0
  0
LINE
  8
LC-002-002-----0
  6
CONTINUOUS
  5
6BF
 10
190.7282
 20
269.189953
 30
0.0
 11
190.7282
 21
271.689953
 31
0.0
  0
LINE
  8
LC-002-002-----0
  6
CONTINUOUS
  5
6C0
 10
194.2282
 20
277.484804
 30
0.0
 11
194.2282
 21
273.395102
 31
0.0
  0
LINE
  8
LC-002-002-----0
  6
CONTINUOUS
  5
6C1
 10
193.487019
 20
278.45073
 30
0.0
 11
190.7282
 21
279.189953
 31
0.0
  0
LINE
  8
LC-002-002-----0
  6
CONTINUOUS
  5
6C2
 10
190.7282
 20
271.689953
 30
0.0
 11
193.487019
 21
272.429177
 31
0.0
  0
LINE
  8
LC-002-002-----0
  6
CONTINUOUS
  5
6C3
 10
190.7282
 20
279.189953
 30
0.0
 11
190.7282
 21
281.689953
 31
0.0
  0
LINE
  8
LC-002-002-----0
  6
CONTINUOUS
  5
6C4
 10
194.2282
 20
287.484804
 30
0.0
 11
194.2282
 21
283.395102
 31
0.0
  0
LINE
  8
LC-002-002-----0
  6
CONTINUOUS
  5
6C5
 10
193.487019
 20
288.45073
 30
0.0
 11
190.7282
 21
289.189953
 31
0.0
  0
LINE
  8
LC-002-002-----0
  6
CONTINUOUS
  5
6C6
 10
190.7282
 20
281.689953
 30
0.0
 11
193.487019
 21
282.429177
 31
0.0
  0
LINE
  8
LC-002-002-----0
  6
CONTINUOUS
  5
6C7
 10
190.7282
 20
289.189953
 30
0.0
 11
190.7282
 21
291.689953
 31
0.0
  0
LINE
  8
LC-002-002-----0
  6
CONTINUOUS
  5
6C8
 10
194.2282
 20
297.484804
 30
0.0
 11
194.2282
 21
293.395102
 31
0.0
  0
LINE
  8
LC-002-002-----0
  6
CONTINUOUS
  5
6C9
 10
193.487019
 20
298.45073
 30
0.0
 11
190.7282
 21
299.189953
 31
0.0
  0
LINE
  8
LC-002-002-----0
  6
CONTINUOUS
  5
6CA
 10
190.7282
 20
291.689953
 30
0.0
 11
193.487019
 21
292.429177
 31
0.0
  0
LINE
  8
LC-002-002-----0
  6
CONTINUOUS
  5
6CB
 10
190.7282
 20
299.189953
 30
0.0
 11
190.7282
 21
301.689953
 31
0.0
  0
LINE
  8
LC-002-002-----0
  6
CONTINUOUS
  5
6CC
 10
194.2282
 20
307.484804
 30
0.0
 11
194.2282
 21
303.395102
 31
0.0
  0
LINE
  8
LC-002-002-----0
  6
CONTINUOUS
  5
6CD
 10
193.487019
 20
308.45073
 30
0.0
 11
190.7282
 21
309.189953
 31
0.0
  0
LINE
  8
LC-002-002-----0
  6
CONTINUOUS
  5
6CE
 10
190.7282
 20
301.689953
 30
0.0
 11
193.487019
 21
302.429177
 31
0.0
  0
LINE
  8
LC-002-002-----0
  6
CONTINUOUS
  5
6CF
 10
190.7282
 20
309.189953
 30
0.0
 11
190.7282
 21
311.689953
 31
0.0
  0
LINE
  8
LC-002-002-----0
  6
CONTINUOUS
  5
6D0
 10
194.2282
 20
317.416755
 30
0.0
 11
194.2282
 21
313.395102
 31
0.0
  0
LINE
  8
LC-002-002-----0
  6
CONTINUOUS
  5
6D1
 10
190.7282
 20
311.689953
 30
0.0
 11
193.487019
 21
312.429177
 31
0.0
  0
LINE
  8
LC-002-002-----0
  6
CONTINUOUS
  5
6D2
 10
386.7282
 20
341.416755
 30
0.0
 11
386.7282
 21
321.916755
 31
0.0
  0
LINE
  8
LC-002-002-----0
  6
CONTINUOUS
  5
6D3
 10
380.7282
 20
320.916755
 30
0.0
 11
385.7282
 21
320.916755
 31
0.0
  0
LINE
  8
LC-002-002-----0
  6
CONTINUOUS
  5
6D4
 10
402.2282
 20
342.416755
 30
0.0
 11
387.7282
 21
342.416755
 31
0.0
  0
LINE
  8
LC-002-002-----0
  6
CONTINUOUS
  5
6D5
 10
402.7282
 20
342.916755
 30
0.0
 11
402.7282
 21
360.216755
 31
0.0
  0
LINE
  8
LC-002-002-----0
  6
CONTINUOUS
  5
6D6
 10
404.7282
 20
362.216755
 30
0.0
 11
406.2282
 21
362.216755
 31
0.0
  0
LINE
  8
LC-002-002-----0
  6
CONTINUOUS
  5
6D7
 10
407.2282
 20
359.216755
 30
0.0
 11
406.2282
 21
359.216755
 31
0.0
  0
LINE
  8
LC-002-002-----0
  6
CONTINUOUS
  5
6D8
 10
405.7282
 20
358.716755
 30
0.0
 11
405.7282
 21
342.916755
 31
0.0
  0
LINE
  8
LC-002-002-----0
  6
CONTINUOUS
  5
6D9
 10
406.2282
 20
342.416755
 30
0.0
 11
407.2282
 21
342.416755
 31
0.0
  0
LINE
  8
LC-002-002-----0
  6
CONTINUOUS
  5
6DA
 10
408.2282
 20
341.416755
 30
0.0
 11
408.2282
 21
340.416755
 31
0.0
  0
LINE
  8
LC-002-002-----0
  6
CONTINUOUS
  5
6DB
 10
407.2282
 20
339.416755
 30
0.0
 11
390.7282
 21
339.416755
 31
0.0
  0
LINE
  8
LC-002-002-----0
  6
CONTINUOUS
  5
6DC
 10
389.7282
 20
338.416755
 30
0.0
 11
389.7282
 21
318.416755
 31
0.0
  0
LINE
  8
LC-002-002-----0
  6
CONTINUOUS
  5
6DD
 10
382.2282
 20
223.395102
 30
0.0
 11
382.2282
 21
227.484804
 31
0.0
  0
LINE
  8
LC-002-002-----0
  6
CONTINUOUS
  5
6DE
 10
385.7282
 20
229.189953
 30
0.0
 11
382.969381
 21
228.45073
 31
0.0
  0
LINE
  8
LC-002-002-----0
  6
CONTINUOUS
  5
6DF
 10
382.969381
 20
222.429177
 30
0.0
 11
385.7282
 21
221.689953
 31
0.0
  0
LINE
  8
LC-002-002-----0
  6
CONTINUOUS
  5
6E0
 10
385.7282
 20
221.689953
 30
0.0
 11
385.7282
 21
219.289953
 31
0.0
  0
LINE
  8
LC-002-002-----0
  6
CONTINUOUS
  5
6E1
 10
378.7282
 20
218.218157
 30
0.0
 11
381.7282
 21
218.218157
 31
0.0
  0
LINE
  8
LC-002-002-----0
  6
CONTINUOUS
  5
6E2
 10
385.7282
 20
219.289953
 30
0.0
 11
381.7282
 21
218.218157
 31
0.0
  0
LINE
  8
LC-002-002-----0
  6
CONTINUOUS
  5
6E3
 10
378.7282
 20
318.916755
 30
0.0
 11
378.7282
 21
218.218157
 31
0.0
  0
LINE
  8
LC-002-002-----0
  6
CONTINUOUS
  5
6E4
 10
389.7282
 20
318.416755
 30
0.0
 11
383.2282
 21
318.416755
 31
0.0
  0
LINE
  8
LC-002-002-----0
  6
CONTINUOUS
  5
6E5
 10
385.7282
 20
231.689953
 30
0.0
 11
385.7282
 21
229.189953
 31
0.0
  0
LINE
  8
LC-002-002-----0
  6
CONTINUOUS
  5
6E6
 10
382.2282
 20
233.395102
 30
0.0
 11
382.2282
 21
237.484804
 31
0.0
  0
LINE
  8
LC-002-002-----0
  6
CONTINUOUS
  5
6E7
 10
385.7282
 20
239.189953
 30
0.0
 11
382.969381
 21
238.45073
 31
0.0
  0
LINE
  8
LC-002-002-----0
  6
CONTINUOUS
  5
6E8
 10
382.969381
 20
232.429177
 30
0.0
 11
385.7282
 21
231.689953
 31
0.0
  0
LINE
  8
LC-002-002-----0
  6
CONTINUOUS
  5
6E9
 10
385.7282
 20
241.689953
 30
0.0
 11
385.7282
 21
239.189953
 31
0.0
  0
LINE
  8
LC-002-002-----0
  6
CONTINUOUS
  5
6EA
 10
382.2282
 20
243.395102
 30
0.0
 11
382.2282
 21
247.484804
 31
0.0
  0
LINE
  8
LC-002-002-----0
  6
CONTINUOUS
  5
6EB
 10
385.7282
 20
249.189953
 30
0.0
 11
382.969381
 21
248.45073
 31
0.0
  0
LINE
  8
LC-002-002-----0
  6
CONTINUOUS
  5
6EC
 10
382.969381
 20
242.429177
 30
0.0
 11
385.7282
 21
241.689953
 31
0.0
  0
LINE
  8
LC-002-002-----0
  6
CONTINUOUS
  5
6ED
 10
385.7282
 20
251.689953
 30
0.0
 11
385.7282
 21
249.189953
 31
0.0
  0
LINE
  8
LC-002-002-----0
  6
CONTINUOUS
  5
6EE
 10
382.2282
 20
253.395102
 30
0.0
 11
382.2282
 21
257.484804
 31
0.0
  0
LINE
  8
LC-002-002-----0
  6
CONTINUOUS
  5
6EF
 10
385.7282
 20
259.189953
 30
0.0
 11
382.969381
 21
258.45073
 31
0.0
  0
LINE
  8
LC-002-002-----0
  6
CONTINUOUS
  5
6F0
 10
382.969381
 20
252.429177
 30
0.0
 11
385.7282
 21
251.689953
 31
0.0
  0
LINE
  8
LC-002-002-----0
  6
CONTINUOUS
  5
6F1
 10
385.7282
 20
261.689953
 30
0.0
 11
385.7282
 21
259.189953
 31
0.0
  0
LINE
  8
LC-002-002-----0
  6
CONTINUOUS
  5
6F2
 10
382.2282
 20
263.395102
 30
0.0
 11
382.2282
 21
267.484804
 31
0.0
  0
LINE
  8
LC-002-002-----0
  6
CONTINUOUS
  5
6F3
 10
385.7282
 20
269.189953
 30
0.0
 11
382.969381
 21
268.45073
 31
0.0
  0
LINE
  8
LC-002-002-----0
  6
CONTINUOUS
  5
6F4
 10
382.969381
 20
262.429177
 30
0.0
 11
385.7282
 21
261.689953
 31
0.0
  0
LINE
  8
LC-002-002-----0
  6
CONTINUOUS
  5
6F5
 10
385.7282
 20
271.689953
 30
0.0
 11
385.7282
 21
269.189953
 31
0.0
  0
LINE
  8
LC-002-002-----0
  6
CONTINUOUS
  5
6F6
 10
382.2282
 20
273.395102
 30
0.0
 11
382.2282
 21
277.484804
 31
0.0
  0
LINE
  8
LC-002-002-----0
  6
CONTINUOUS
  5
6F7
 10
385.7282
 20
279.189953
 30
0.0
 11
382.969381
 21
278.45073
 31
0.0
  0
LINE
  8
LC-002-002-----0
  6
CONTINUOUS
  5
6F8
 10
382.969381
 20
272.429177
 30
0.0
 11
385.7282
 21
271.689953
 31
0.0
  0
LINE
  8
LC-002-002-----0
  6
CONTINUOUS
  5
6F9
 10
385.7282
 20
281.689953
 30
0.0
 11
385.7282
 21
279.189953
 31
0.0
  0
LINE
  8
LC-002-002-----0
  6
CONTINUOUS
  5
6FA
 10
382.2282
 20
283.395102
 30
0.0
 11
382.2282
 21
287.484804
 31
0.0
  0
LINE
  8
LC-002-002-----0
  6
CONTINUOUS
  5
6FB
 10
385.7282
 20
289.189953
 30
0.0
 11
382.969381
 21
288.45073
 31
0.0
  0
LINE
  8
LC-002-002-----0
  6
CONTINUOUS
  5
6FC
 10
382.969381
 20
282.429177
 30
0.0
 11
385.7282
 21
281.689953
 31
0.0
  0
LINE
  8
LC-002-002-----0
  6
CONTINUOUS
  5
6FD
 10
385.7282
 20
291.689953
 30
0.0
 11
385.7282
 21
289.189953
 31
0.0
  0
LINE
  8
LC-002-002-----0
  6
CONTINUOUS
  5
6FE
 10
382.2282
 20
293.395102
 30
0.0
 11
382.2282
 21
297.484804
 31
0.0
  0
LINE
  8
LC-002-002-----0
  6
CONTINUOUS
  5
6FF
 10
385.7282
 20
299.189953
 30
0.0
 11
382.969381
 21
298.45073
 31
0.0
  0
LINE
  8
LC-002-002-----0
  6
CONTINUOUS
  5
700
 10
382.969381
 20
292.429177
 30
0.0
 11
385.7282
 21
291.689953
 31
0.0
  0
LINE
  8
LC-002-002-----0
  6
CONTINUOUS
  5
701
 10
385.7282
 20
301.689953
 30
0.0
 11
385.7282
 21
299.189953
 31
0.0
  0
LINE
  8
LC-002-002-----0
  6
CONTINUOUS
  5
702
 10
382.2282
 20
303.395102
 30
0.0
 11
382.2282
 21
307.484804
 31
0.0
  0
LINE
  8
LC-002-002-----0
  6
CONTINUOUS
  5
703
 10
385.7282
 20
309.189953
 30
0.0
 11
382.969381
 21
308.45073
 31
0.0
  0
LINE
  8
LC-002-002-----0
  6
CONTINUOUS
  5
704
 10
382.969381
 20
302.429177
 30
0.0
 11
385.7282
 21
301.689953
 31
0.0
  0
LINE
  8
LC-002-002-----0
  6
CONTINUOUS
  5
705
 10
385.7282
 20
311.689953
 30
0.0
 11
385.7282
 21
309.189953
 31
0.0
  0
LINE
  8
LC-002-002-----0
  6
CONTINUOUS
  5
706
 10
382.2282
 20
313.395102
 30
0.0
 11
382.2282
 21
317.416755
 31
0.0
  0
LINE
  8
LC-002-002-----0
  6
CONTINUOUS
  5
707
 10
382.969381
 20
312.429177
 30
0.0
 11
385.7282
 21
311.689953
 31
0.0
  0
LINE
  8
LC-002-002-----0
  6
CONTINUOUS
  5
708
 10
195.7282
 20
320.916755
 30
0.0
 11
213.474934
 21
320.916755
 31
0.0
  0
LINE
  8
LC-003-100-D10-0
  6
CONTINUOUS
 62
     7
  5
709
 10
358.475464
 20
342.416755
 30
0.0
 11
387.7282
 21
342.416755
 31
0.0
  0
LINE
  8
LC-002-002-----0
  6
CONTINUOUS
  5
70A
 10
376.542512
 20
320.916755
 30
0.0
 11
380.7282
 21
320.916755
 31
0.0
  0
CIRCLE
  8
LC-002-002-----0
  6
CONTINUOUS
  5
70B
 10
384.477176
 20
225.632822
 30
0.0
 40
2.25
  0
CIRCLE
  8
LC-002-002-----0
  6
CONTINUOUS
  5
70C
 10
191.977176
 20
225.632822
 30
0.0
 40
2.25
  0
ARC
  8
LC-002-002-----0
  6
CONTINUOUS
  5
70D
 10
186.389269
 20
344.416755
 30
0.0
 40
2.0
 50
270.0
 51
357.0
  0
ARC
  8
LC-002-002-----0
  6
CONTINUOUS
  5
70E
 10
187.227794
 20
360.416755
 30
0.0
 40
2.0
 50
357.0
 51
90.0
  0
ARC
  8
LC-002-002-----0
  6
CONTINUOUS
  5
70F
 10
226.060836
 20
344.416755
 30
0.0
 40
2.0
 50
183.0
 51
270.0
  0
ARC
  8
LC-002-002-----0
  6
CONTINUOUS
  5
710
 10
225.222312
 20
360.416755
 30
0.0
 40
2.0
 50
90.0
 51
183.0
  0
ARC
  8
LC-002-002-----0
  6
CONTINUOUS
  5
711
 10
179.565354
 20
344.416755
 30
0.0
 40
2.0
 50
183.0
 51
270.0
  0
ARC
  8
LC-002-002-----0
  6
CONTINUOUS
  5
712
 10
178.72683
 20
360.416755
 30
0.0
 40
2.0
 50
90.0
 51
183.0
  0
ARC
  8
LC-002-002-----0
  6
CONTINUOUS
  5
713
 10
386.065354
 20
344.416755
 30
0.0
 40
2.0
 50
183.0
 51
270.0
  0
ARC
  8
LC-002-002-----0
  6
CONTINUOUS
  5
714
 10
385.22683
 20
360.416755
 30
0.0
 40
2.0
 50
90.0
 51
183.0
  0
ARC
  8
LC-002-002-----0
  6
CONTINUOUS
  5
715
 10
350.388305
 20
344.416755
 30
0.0
 40
2.0
 50
270.0
 51
357.0
  0
ARC
  8
LC-002-002-----0
  6
CONTINUOUS
  5
716
 10
351.22683
 20
360.416755
 30
0.0
 40
2.0
 50
357.0
 51
90.0
  0
ARC
  8
LC-002-002-----0
  6
CONTINUOUS
  5
717
 10
396.891046
 20
344.416755
 30
0.0
 40
2.0
 50
270.0
 51
357.0
  0
ARC
  8
LC-002-002-----0
  6
CONTINUOUS
  5
718
 10
397.729571
 20
360.416755
 30
0.0
 40
2.0
 50
357.0
 51
90.0
  0
LINE
  8
LC-004-006-----0
  5
719
 10
288.2282
 20
364.752452
 30
0.0
 11
288.2282
 21
61.865138
 31
0.0
  0
LINE
  8
LC-002-002-----0
  6
CONTINUOUS
  5
71A
 10
226.060836
 20
342.416755
 30
0.0
 11
226.060836
 21
340.551364
 31
0.0
  0
LINE
  8
LC-002-002-----0
  6
CONTINUOUS
  5
71B
 10
350.388305
 20
340.549688
 30
0.0
 11
297.834802
 21
328.416755
 31
0.0
  0
LINE
  8
LC-002-002-----0
  6
CONTINUOUS
  5
71C
 10
350.388305
 20
342.416755
 30
0.0
 11
350.388305
 21
340.549688
 31
0.0
  0
LINE
  8
LC-002-002-----0
  6
CONTINUOUS
  5
71D
 10
350.388305
 20
342.416755
 30
0.0
 11
386.065354
 21
342.416755
 31
0.0
  0
LINE
  8
LC-002-002-----0
  6
CONTINUOUS
  5
71E
 10
186.389269
 20
342.416755
 30
0.0
 11
226.060836
 21
342.416755
 31
0.0
  0
LINE
  8
LC-003-100-D10-0
  6
CONTINUOUS
 62
     7
  5
71F
 10
179.565354
 20
342.416755
 30
0.0
 11
186.389269
 21
342.416755
 31
0.0
  0
LINE
  8
LC-002-002-----0
  6
CONTINUOUS
  5
720
 10
225.222312
 20
362.416755
 30
0.0
 11
187.227794
 21
362.416755
 31
0.0
  0
LINE
  8
LC-002-002-----0
  6
CONTINUOUS
  5
721
 10
188.386528
 20
344.312083
 30
0.0
 11
189.225053
 21
360.312083
 31
0.0
  0
LINE
  8
LC-002-002-----0
  6
CONTINUOUS
  5
722
 10
223.225053
 20
360.312083
 30
0.0
 11
224.063577
 21
344.312083
 31
0.0
  0
LINE
  8
LC-002-002-----0
  6
CONTINUOUS
  5
723
 10
434.06098
 20
237.218157
 30
0.0
 11
446.7282
 21
240.612328
 31
0.0
  0
LINE
  8
LC-002-002-----0
  6
CONTINUOUS
  5
724
 10
169.4813
 20
222.71808
 30
0.0
 11
169.2282
 21
237.218157
 31
0.0
  0
LINE
  8
LC-002-002-----0
  6
CONTINUOUS
  5
725
 10
169.990026
 20
222.218157
 30
0.0
 11
173.466374
 21
222.218157
 31
0.0
  0
LINE
  8
LC-002-002-----0
  6
CONTINUOUS
  5
726
 10
169.990026
 20
222.218157
 30
0.0
 11
169.4813
 21
222.71808
 31
0.0
  0
LINE
  8
LC-002-002-----0
  6
CONTINUOUS
  5
727
 10
173.975101
 20
222.71808
 30
0.0
 11
169.4813
 21
222.71808
 31
0.0
  0
LINE
  8
LC-002-002-----0
  6
CONTINUOUS
  5
728
 10
173.466374
 20
222.218157
 30
0.0
 11
173.975101
 21
222.71808
 31
0.0
  0
LINE
  8
LC-002-002-----0
  6
CONTINUOUS
  5
729
 10
173.975101
 20
222.71808
 30
0.0
 11
174.2282
 21
237.218157
 31
0.0
  0
LINE
  8
LC-002-002-----0
  6
CONTINUOUS
  5
72A
 10
185.2282
 20
234.718157
 30
0.0
 11
185.2282
 21
239.718157
 31
0.0
  0
LINE
  8
LC-002-002-----0
  6
CONTINUOUS
  5
72B
 10
184.7282
 20
234.218157
 30
0.0
 11
180.4782
 21
234.218157
 31
0.0
  0
LINE
  8
LC-002-002-----0
  6
CONTINUOUS
  5
72C
 10
179.9782
 20
234.718157
 30
0.0
 11
179.9782
 21
239.718157
 31
0.0
  0
LINE
  8
LC-002-002-----0
  6
CONTINUOUS
  5
72D
 10
177.9782
 20
234.718157
 30
0.0
 11
177.7282
 21
234.718157
 31
0.0
  0
LINE
  8
LC-002-002-----0
  6
CONTINUOUS
  5
72E
 10
177.7282
 20
239.718157
 30
0.0
 11
177.9782
 21
239.718157
 31
0.0
  0
LINE
  8
LC-002-002-----0
  6
CONTINUOUS
  5
72F
 10
177.9782
 20
234.718157
 30
0.0
 11
177.9782
 21
239.718157
 31
0.0
  0
LINE
  8
LC-002-002-----0
  6
CONTINUOUS
  5
730
 10
177.2282
 20
240.218157
 30
0.0
 11
178.4782
 21
240.218157
 31
0.0
  0
LINE
  8
LC-002-002-----0
  6
CONTINUOUS
  5
731
 10
174.7282
 20
240.218157
 30
0.0
 11
177.2282
 21
240.218157
 31
0.0
  0
LINE
  8
LC-002-002-----0
  6
CONTINUOUS
  5
732
 10
168.7282
 20
240.218157
 30
0.0
 11
174.7282
 21
240.218157
 31
0.0
  0
LINE
  8
LC-002-002-----0
  6
CONTINUOUS
  5
733
 10
174.2282
 20
239.718157
 30
0.0
 11
174.2282
 21
237.218157
 31
0.0
  0
LINE
  8
LC-002-002-----0
  6
CONTINUOUS
  5
734
 10
166.2282
 20
240.218157
 30
0.0
 11
168.7282
 21
240.218157
 31
0.0
  0
LINE
  8
LC-002-002-----0
  6
CONTINUOUS
  5
735
 10
169.2282
 20
239.718157
 30
0.0
 11
169.2282
 21
237.218157
 31
0.0
  0
LINE
  8
LC-002-002-----0
  6
CONTINUOUS
  5
736
 10
165.7282
 20
234.718157
 30
0.0
 11
165.7282
 21
239.718157
 31
0.0
  0
LINE
  8
LC-002-002-----0
  6
CONTINUOUS
  5
737
 10
169.2282
 20
239.718157
 30
0.0
 11
174.2282
 21
239.718157
 31
0.0
  0
LINE
  8
LC-002-002-----0
  6
CONTINUOUS
  5
738
 10
178.4782
 20
240.218157
 30
0.0
 11
179.4782
 21
240.218157
 31
0.0
  0
LINE
  8
LC-002-002-----0
  6
CONTINUOUS
  5
739
 10
177.7282
 20
234.285144
 30
0.0
 11
177.7282
 21
239.718157
 31
0.0
  0
LINE
  8
LC-002-002-----0
  6
CONTINUOUS
  5
73A
 10
185.2282
 20
234.718157
 30
0.0
 11
179.9782
 21
234.718157
 31
0.0
  0
LINE
  8
LC-002-002-----0
  6
CONTINUOUS
  5
73B
 10
196.7282
 20
218.218157
 30
0.0
 11
189.2282
 21
218.218157
 31
0.0
  0
LINE
  8
LC-002-002-----0
  6
CONTINUOUS
  5
73C
 10
203.31054
 20
218.218157
 30
0.0
 11
196.7282
 21
218.218157
 31
0.0
  0
LINE
  8
LC-002-002-----0
  6
CONTINUOUS
  5
73D
 10
428.7282
 20
240.718157
 30
0.0
 11
429.016875
 21
240.218157
 31
0.0
  0
LINE
  8
LC-002-002-----0
  6
CONTINUOUS
  5
73E
 10
427.7282
 20
240.718157
 30
0.0
 11
428.016875
 21
240.218157
 31
0.0
  0
LINE
  8
LC-002-002-----0
  6
CONTINUOUS
  5
73F
 10
425.439525
 20
240.218157
 30
0.0
 11
425.7282
 21
240.718157
 31
0.0
  0
LINE
  8
LC-002-002-----0
  6
CONTINUOUS
  5
740
 10
428.439525
 20
240.218157
 30
0.0
 11
428.7282
 21
240.718157
 31
0.0
  0
LINE
  8
LC-002-002-----0
  6
CONTINUOUS
  5
741
 10
426.7282
 20
240.718157
 30
0.0
 11
427.016875
 21
240.218157
 31
0.0
  0
LINE
  8
LC-002-002-----0
  6
CONTINUOUS
  5
742
 10
425.7282
 20
240.718157
 30
0.0
 11
426.016875
 21
240.218157
 31
0.0
  0
LINE
  8
LC-002-002-----0
  6
CONTINUOUS
  5
743
 10
429.7282
 20
240.718157
 30
0.0
 11
430.016875
 21
240.218157
 31
0.0
  0
LINE
  8
LC-002-002-----0
  6
CONTINUOUS
  5
744
 10
188.7282
 20
240.218157
 30
0.0
 11
185.7282
 21
240.218157
 31
0.0
  0
LINE
  8
LC-002-002-----0
  6
CONTINUOUS
  5
745
 10
185.2282
 20
239.718157
 30
0.0
 11
179.9782
 21
239.718157
 31
0.0
  0
LINE
  8
LC-002-002-----0
  6
CONTINUOUS
  5
746
 10
185.7282
 20
240.218157
 30
0.0
 11
179.4782
 21
240.218157
 31
0.0
  0
LINE
  8
LC-002-002-----0
  6
CONTINUOUS
  5
747
 10
373.7282
 20
182.218157
 30
0.0
 11
373.7282
 21
164.218157
 31
0.0
  0
LINE
  8
LC-002-002-----0
  6
CONTINUOUS
  5
748
 10
202.7282
 20
182.218157
 30
0.0
 11
202.7282
 21
164.218157
 31
0.0
  0
LINE
  8
LC-002-002-----0
  6
CONTINUOUS
  5
749
 10
373.7282
 20
164.218157
 30
0.0
 11
299.094057
 21
164.218157
 31
0.0
  0
LINE
  8
LC-002-002-----0
  6
CONTINUOUS
  5
74A
 10
428.439525
 20
240.218157
 30
0.0
 11
428.016875
 21
240.218157
 31
0.0
  0
LINE
  8
LC-002-002-----0
  6
CONTINUOUS
  5
74B
 10
429.439525
 20
240.218157
 30
0.0
 11
429.016875
 21
240.218157
 31
0.0
  0
LINE
  8
LC-002-002-----0
  6
CONTINUOUS
  5
74C
 10
430.439525
 20
240.218157
 30
0.0
 11
430.016875
 21
240.218157
 31
0.0
  0
LINE
  8
LC-002-002-----0
  6
CONTINUOUS
  5
74D
 10
429.439525
 20
240.218157
 30
0.0
 11
429.7282
 21
240.718157
 31
0.0
  0
LINE
  8
LC-002-002-----0
  6
CONTINUOUS
  5
74E
 10
427.439525
 20
240.218157
 30
0.0
 11
427.016875
 21
240.218157
 31
0.0
  0
LINE
  8
LC-002-002-----0
  6
CONTINUOUS
  5
74F
 10
425.439525
 20
240.218157
 30
0.0
 11
423.835895
 21
240.218157
 31
0.0
  0
LINE
  8
LC-002-002-----0
  6
CONTINUOUS
  5
750
 10
426.439525
 20
240.218157
 30
0.0
 11
426.016875
 21
240.218157
 31
0.0
  0
LINE
  8
LC-002-002-----0
  6
CONTINUOUS
  5
751
 10
422.2282
 20
234.218157
 30
0.0
 11
415.7282
 21
234.218157
 31
0.0
  0
LINE
  8
LC-002-002-----0
  6
CONTINUOUS
  5
752
 10
413.7282
 20
239.718157
 30
0.0
 11
413.7282
 21
234.718157
 31
0.0
  0
LINE
  8
LC-002-002-----0
  6
CONTINUOUS
  5
753
 10
410.7282
 20
234.718157
 30
0.0
 11
413.7282
 21
234.718157
 31
0.0
  0
LINE
  8
LC-002-002-----0
  6
CONTINUOUS
  5
754
 10
410.7282
 20
239.718157
 30
0.0
 11
413.7282
 21
239.718157
 31
0.0
  0
LINE
  8
LC-002-002-----0
  6
CONTINUOUS
  5
755
 10
423.835895
 20
240.218157
 30
0.0
 11
415.2282
 21
240.218157
 31
0.0
  0
LINE
  8
LC-002-002-----0
  6
CONTINUOUS
  5
756
 10
415.2282
 20
240.218157
 30
0.0
 11
414.2282
 21
240.218157
 31
0.0
  0
LINE
  8
LC-002-002-----0
  6
CONTINUOUS
  5
757
 10
410.2282
 20
240.218157
 30
0.0
 11
414.2282
 21
240.218157
 31
0.0
  0
LINE
  8
LC-002-002-----0
  6
CONTINUOUS
  5
758
 10
415.7282
 20
239.718157
 30
0.0
 11
415.7282
 21
234.218157
 31
0.0
  0
LINE
  8
LC-002-002-----0
  6
CONTINUOUS
  5
759
 10
422.2282
 20
234.218157
 30
0.0
 11
423.835895
 21
240.218157
 31
0.0
  0
LINE
  8
LC-002-002-----0
  6
CONTINUOUS
  5
75A
 10
411.2282
 20
234.218157
 30
0.0
 11
413.2282
 21
234.218157
 31
0.0
  0
LINE
  8
LC-002-002-----0
  6
CONTINUOUS
  5
75B
 10
407.7282
 20
240.218157
 30
0.0
 11
410.2282
 21
240.218157
 31
0.0
  0
LINE
  8
LC-002-002-----0
  6
CONTINUOUS
  5
75C
 10
398.4782
 20
239.718157
 30
0.0
 11
398.7282
 21
239.718157
 31
0.0
  0
LINE
  8
LC-002-002-----0
  6
CONTINUOUS
  5
75D
 10
398.4782
 20
234.718157
 30
0.0
 11
398.4782
 21
239.718157
 31
0.0
  0
LINE
  8
LC-002-002-----0
  6
CONTINUOUS
  5
75E
 10
399.2282
 20
240.218157
 30
0.0
 11
401.7282
 21
240.218157
 31
0.0
  0
LINE
  8
LC-002-002-----0
  6
CONTINUOUS
  5
75F
 10
398.4782
 20
234.718157
 30
0.0
 11
398.7282
 21
234.718157
 31
0.0
  0
LINE
  8
LC-002-002-----0
  6
CONTINUOUS
  5
760
 10
397.9782
 20
240.218157
 30
0.0
 11
399.2282
 21
240.218157
 31
0.0
  0
LINE
  8
LC-002-002-----0
  6
CONTINUOUS
  5
761
 10
402.972571
 20
223.218157
 30
0.0
 11
406.483829
 21
223.218157
 31
0.0
  0
LINE
  8
LC-002-002-----0
  6
CONTINUOUS
  5
762
 10
406.483829
 20
223.218157
 30
0.0
 11
406.992556
 21
223.71808
 31
0.0
  0
LINE
  8
LC-002-002-----0
  6
CONTINUOUS
  5
763
 10
402.972571
 20
223.218157
 30
0.0
 11
402.463845
 21
223.71808
 31
0.0
  0
LINE
  8
LC-002-002-----0
  6
CONTINUOUS
  5
764
 10
410.7282
 20
234.718157
 30
0.0
 11
410.7282
 21
239.718157
 31
0.0
  0
LINE
  8
LC-002-002-----0
  6
CONTINUOUS
  5
765
 10
407.7282
 20
240.218157
 30
0.0
 11
401.7282
 21
240.218157
 31
0.0
  0
LINE
  8
LC-002-002-----0
  6
CONTINUOUS
  5
766
 10
402.2282
 20
237.218157
 30
0.0
 11
402.2282
 21
239.718157
 31
0.0
  0
LINE
  8
LC-002-002-----0
  6
CONTINUOUS
  5
767
 10
407.2282
 20
237.218157
 30
0.0
 11
407.2282
 21
239.718157
 31
0.0
  0
LINE
  8
LC-002-002-----0
  6
CONTINUOUS
  5
768
 10
407.2282
 20
239.718157
 30
0.0
 11
402.2282
 21
239.718157
 31
0.0
  0
LINE
  8
LC-002-002-----0
  6
CONTINUOUS
  5
769
 10
402.463845
 20
223.71808
 30
0.0
 11
402.2282
 21
237.218157
 31
0.0
  0
LINE
  8
LC-002-002-----0
  6
CONTINUOUS
  5
76A
 10
406.992556
 20
223.71808
 30
0.0
 11
407.2282
 21
237.218157
 31
0.0
  0
LINE
  8
LC-002-002-----0
  6
CONTINUOUS
  5
76B
 10
396.9782
 20
240.218157
 30
0.0
 11
397.9782
 21
240.218157
 31
0.0
  0
LINE
  8
LC-002-002-----0
  6
CONTINUOUS
  5
76C
 10
388.208298
 20
240.218157
 30
0.0
 11
387.7282
 21
240.218157
 31
0.0
  0
LINE
  8
LC-002-002-----0
  6
CONTINUOUS
  5
76D
 10
388.208397
 20
240.218157
 30
0.0
 11
388.208298
 21
240.218157
 31
0.0
  0
LINE
  8
LC-002-002-----0
  6
CONTINUOUS
  5
76E
 10
390.7282
 20
240.218157
 30
0.0
 11
390.2282
 21
240.218157
 31
0.0
  0
LINE
  8
LC-002-002-----0
  6
CONTINUOUS
  5
76F
 10
388.2282
 20
240.218157
 30
0.0
 11
388.208397
 21
240.218157
 31
0.0
  0
LINE
  8
LC-002-002-----0
  6
CONTINUOUS
  5
770
 10
391.2282
 20
234.718157
 30
0.0
 11
391.2282
 21
239.718157
 31
0.0
  0
LINE
  8
LC-002-002-----0
  6
CONTINUOUS
  5
771
 10
396.4782
 20
234.718157
 30
0.0
 11
391.2282
 21
234.718157
 31
0.0
  0
LINE
  8
LC-002-002-----0
  6
CONTINUOUS
  5
772
 10
396.4782
 20
234.718157
 30
0.0
 11
396.4782
 21
239.718157
 31
0.0
  0
LINE
  8
LC-002-002-----0
  6
CONTINUOUS
  5
773
 10
395.9782
 20
234.218157
 30
0.0
 11
391.7282
 21
234.218157
 31
0.0
  0
LINE
  8
LC-002-002-----0
  6
CONTINUOUS
  5
774
 10
396.4782
 20
239.718157
 30
0.0
 11
391.2282
 21
239.718157
 31
0.0
  0
LINE
  8
LC-002-002-----0
  6
CONTINUOUS
  5
775
 10
378.7282
 20
179.218157
 30
0.0
 11
379.40765
 21
179.218157
 31
0.0
  0
LINE
  8
LC-002-002-----0
  6
CONTINUOUS
  5
776
 10
378.7282
 20
217.218157
 30
0.0
 11
378.7282
 21
213.541032
 31
0.0
  0
LINE
  8
LC-002-002-----0
  6
CONTINUOUS
  5
777
 10
387.7282
 20
240.218157
 30
0.0
 11
385.7282
 21
240.218157
 31
0.0
  0
LINE
  8
LC-002-002-----0
  6
CONTINUOUS
  5
778
 10
387.2282
 20
218.218157
 30
0.0
 11
387.2282
 21
239.718157
 31
0.0
  0
LINE
  8
LC-002-002-----0
  6
CONTINUOUS
  5
779
 10
373.145861
 20
218.218157
 30
0.0
 11
379.7282
 21
218.218157
 31
0.0
  0
LINE
  8
LC-002-002-----0
  6
CONTINUOUS
  5
77A
 10
226.754915
 20
67.243353
 30
0.0
 11
209.349792
 21
68.766104
 31
0.0
  0
LINE
  8
LC-007-005-D10-0
  6
CONTINUOUS
  5
77C
 10
385.476817
 20
299.122595
 30
0.0
 11
385.7282
 21
299.373979
 31
0.0
  0
LINE
  8
LC-007-005-D10-0
  6
CONTINUOUS
  5
77D
 10
407.402529
 20
359.232074
 30
0.0
 11
408.212882
 21
360.042427
 31
0.0
  0
LINE
  8
LC-002-002-----0
  6
CONTINUOUS
  5
77E
 10
190.7282
 20
231.6532
 30
0.0
 11
190.778407
 21
231.703406
 31
0.0
  0
LINE
  8
LC-002-002-----0
  6
CONTINUOUS
  5
77F
 10
386.095775
 20
210.281961
 30
0.0
 11
386.500417
 21
210.355692
 31
0.0
  0
ARC
  8
LC-002-002-----0
  6
CONTINUOUS
  5
780
 10
385.248712
 20
215.86771
 30
0.0
 40
5.649611
 50
269.7397
 51
278.623045
  0
ARC
  8
LC-002-002-----0
  6
CONTINUOUS
  5
781
 10
426.729621
 20
236.149291
 30
0.0
 40
1.068877
 50
90.269681
 51
98.093297
  0
LINE
  8
LC-002-002-----0
  6
CONTINUOUS
  5
782
 10
426.507136
 20
237.194228
 30
0.0
 11
426.579139
 21
237.207523
 31
0.0
  0
LINE
  8
LC-002-002-----0
  6
CONTINUOUS
  5
783
 10
426.436298
 20
237.175701
 30
0.0
 11
426.507136
 21
237.194228
 31
0.0
  0
ARC
  8
LC-002-002-----0
  6
CONTINUOUS
  5
784
 10
426.724652
 20
236.217956
 30
0.0
 40
1.000212
 50
106.755786
 51
118.058135
  0
ARC
  8
LC-002-002-----0
  6
CONTINUOUS
  5
785
 10
426.726041
 20
236.215935
 30
0.0
 40
1.002649
 50
118.073847
 51
129.321489
  0
LINE
  8
LC-002-002-----0
  6
CONTINUOUS
  5
786
 10
426.017469
 20
236.925268
 30
0.0
 11
426.090692
 21
236.991587
 31
0.0
  0
ARC
  8
LC-002-002-----0
  6
CONTINUOUS
  5
787
 10
426.72532
 20
236.217504
 30
0.0
 40
1.000991
 50
135.003513
 51
144.418418
  0
LINE
  8
LC-002-002-----0
  6
CONTINUOUS
  5
788
 10
425.866164
 20
236.731131
 30
0.0
 11
425.911226
 21
236.799942
 31
0.0
  0
ARC
  8
LC-002-002-----0
  6
CONTINUOUS
  5
789
 10
426.68647
 20
236.237517
 30
0.0
 40
0.95737
 50
148.962862
 51
157.130144
  0
ARC
  8
LC-002-002-----0
  6
CONTINUOUS
  5
78A
 10
426.666991
 20
236.23899
 30
0.0
 40
0.938871
 50
156.750966
 51
163.448783
  0
LINE
  8
LC-002-002-----0
  6
CONTINUOUS
  5
78B
 10
425.748494
 20
236.435611
 30
0.0
 11
425.767022
 21
236.506448
 31
0.0
  0
LINE
  8
LC-002-002-----0
  6
CONTINUOUS
  5
78C
 10
425.735199
 20
236.363608
 30
0.0
 11
425.748494
 21
236.435611
 31
0.0
  0
ARC
  8
LC-002-002-----0
  6
CONTINUOUS
  5
78D
 10
426.725644
 20
236.218076
 30
0.0
 40
1.001081
 50
171.640987
 51
179.995369
  0
LINE
  8
LC-002-002-----0
  6
CONTINUOUS
  5
78E
 10
422.943243
 20
231.226143
 30
0.0
 11
422.724483
 21
231.218157
 31
0.0
  0
LINE
  8
LC-002-002-----0
  6
CONTINUOUS
  5
78F
 10
423.16084
 20
231.250059
 30
0.0
 11
422.943243
 21
231.226143
 31
0.0
  0
ARC
  8
LC-002-002-----0
  6
CONTINUOUS
  5
790
 10
422.67929
 20
234.421178
 30
0.0
 40
3.207473
 50
278.634663
 51
286.483289
  0
LINE
  8
LC-002-002-----0
  6
CONTINUOUS
  5
791
 10
423.754917
 20
231.400664
 30
0.0
 11
423.589365
 21
231.345524
 31
0.0
  0
LINE
  8
LC-002-002-----0
  6
CONTINUOUS
  5
792
 10
423.93505
 20
231.473233
 30
0.0
 11
423.754917
 21
231.400664
 31
0.0
  0
ARC
  8
LC-002-002-----0
  6
CONTINUOUS
  5
793
 10
422.645399
 20
234.371334
 30
0.0
 40
3.172096
 50
293.989003
 51
300.669094
  0
LINE
  8
LC-002-002-----0
  6
CONTINUOUS
  5
794
 10
424.411375
 20
231.73732
 30
0.0
 11
424.263418
 21
231.642927
 31
0.0
  0
LINE
  8
LC-002-002-----0
  6
CONTINUOUS
  5
795
 10
424.569338
 20
231.852423
 30
0.0
 11
424.411375
 21
231.73732
 31
0.0
  0
ARC
  8
LC-002-002-----0
  6
CONTINUOUS
  5
796
 10
422.823892
 20
234.105808
 30
0.0
 40
2.85032
 50
307.76096
 51
315.184336
  0
LINE
  8
LC-002-002-----0
  6
CONTINUOUS
  5
797
 10
425.013012
 20
232.278332
 30
0.0
 11
424.845847
 21
232.096822
 31
0.0
  0
ARC
  8
LC-002-002-----0
  6
CONTINUOUS
  5
798
 10
422.720103
 20
234.221383
 30
0.0
 40
3.005475
 50
319.721484
 51
329.128471
  0
LINE
  8
LC-002-002-----0
  6
CONTINUOUS
  5
799
 10
425.389677
 20
232.840796
 30
0.0
 11
425.299762
 21
232.679229
 31
0.0
  0
LINE
  8
LC-002-002-----0
  6
CONTINUOUS
  5
79A
 10
425.469469
 20
233.007595
 30
0.0
 11
425.389677
 21
232.840796
 31
0.0
  0
ARC
  8
LC-002-002-----0
  6
CONTINUOUS
  5
79B
 10
422.722402
 20
234.218981
 30
0.0
 40
3.002305
 50
336.203743
 51
343.240951
  0
LINE
  8
LC-002-002-----0
  6
CONTINUOUS
  5
79C
 10
425.649691
 20
233.552107
 30
0.0
 11
425.597186
 21
233.353274
 31
0.0
  0
LINE
  8
LC-002-002-----0
  6
CONTINUOUS
  5
79D
 10
425.692658
 20
233.781797
 30
0.0
 11
425.649691
 21
233.552107
 31
0.0
  0
ARC
  8
LC-002-002-----0
  6
CONTINUOUS
  5
79E
 10
422.721322
 20
234.218399
 30
0.0
 40
3.003242
 50
351.640883
 51
359.995369
  0
LINE
  8
LC-002-002-----0
  6
CONTINUOUS
  5
79F
 10
410.485377
 20
228.214829
 30
0.0
 11
410.529879
 21
230.727011
 31
0.0
  0
LINE
  8
LC-002-002-----0
  6
CONTINUOUS
  5
7A0
 10
410.441139
 20
225.71808
 30
0.0
 11
410.485377
 21
228.214829
 31
0.0
  0
LINE
  8
LC-002-002-----0
  6
CONTINUOUS
  5
7A1
 10
410.34365
 20
220.218004
 30
0.0
 11
410.441139
 21
225.71808
 31
0.0
  0
LINE
  8
LC-002-002-----0
  6
CONTINUOUS
  5
7A2
 10
399.982706
 20
219.378701
 30
0.0
 11
400.149794
 21
219.218157
 31
0.0
  0
LINE
  8
LC-002-002-----0
  6
CONTINUOUS
  5
7A3
 10
399.630797
 20
219.717587
 30
0.0
 11
399.982706
 21
219.378701
 31
0.0
  0
LINE
  8
LC-002-002-----0
  6
CONTINUOUS
  5
7A4
 10
399.463477
 20
219.879032
 30
0.0
 11
399.630797
 21
219.717587
 31
0.0
  0
LINE
  8
LC-002-002-----0
  6
CONTINUOUS
  5
7A5
 10
399.112751
 20
220.218004
 30
0.0
 11
399.463477
 21
219.879032
 31
0.0
  0
LINE
  8
LC-002-002-----0
  6
CONTINUOUS
  5
7A6
 10
410.165563
 20
220.045796
 30
0.0
 11
410.34365
 21
220.218004
 31
0.0
  0
LINE
  8
LC-002-002-----0
  6
CONTINUOUS
  5
7A7
 10
409.825603
 20
219.717587
 30
0.0
 11
410.165563
 21
220.045796
 31
0.0
  0
LINE
  8
LC-002-002-----0
  6
CONTINUOUS
  5
7A8
 10
409.646641
 20
219.545127
 30
0.0
 11
409.825603
 21
219.717587
 31
0.0
  0
LINE
  8
LC-002-002-----0
  6
CONTINUOUS
  5
7A9
 10
409.306606
 20
219.218157
 30
0.0
 11
409.646641
 21
219.545127
 31
0.0
  0
LINE
  8
LC-002-002-----0
  6
CONTINUOUS
  5
7AA
 10
399.064248
 20
222.954056
 30
0.0
 11
399.112751
 21
220.218004
 31
0.0
  0
LINE
  8
LC-002-002-----0
  6
CONTINUOUS
  5
7AB
 10
399.015262
 20
225.71808
 30
0.0
 11
399.064248
 21
222.954056
 31
0.0
  0
LINE
  8
LC-002-002-----0
  6
CONTINUOUS
  5
7AC
 10
398.926522
 20
230.727011
 30
0.0
 11
399.015262
 21
225.71808
 31
0.0
  0
LINE
  8
LC-002-002-----0
  6
CONTINUOUS
  5
7AD
 10
392.155101
 20
231.215822
 30
0.0
 11
392.223392
 21
231.218157
 31
0.0
  0
LINE
  8
LC-002-002-----0
  6
CONTINUOUS
  5
7AE
 10
392.077939
 20
231.207523
 30
0.0
 11
392.155101
 21
231.215822
 31
0.0
  0
ARC
  8
LC-002-002-----0
  6
CONTINUOUS
  5
7AF
 10
392.210592
 20
230.275529
 30
0.0
 40
0.941386
 50
98.100624
 51
107.016616
  0
LINE
  8
LC-002-002-----0
  6
CONTINUOUS
  5
7B0
 10
391.842019
 20
231.142585
 30
0.0
 11
391.935096
 21
231.175702
 31
0.0
  0
ARC
  8
LC-002-002-----0
  6
CONTINUOUS
  5
7B1
 10
392.224063
 20
230.216818
 30
0.0
 40
1.0015
 50
112.424877
 51
123.685554
  0
ARC
  8
LC-002-002-----0
  6
CONTINUOUS
  5
7B2
 10
392.225778
 20
230.215176
 30
0.0
 40
1.003817
 50
123.714983
 51
134.976649
  0
LINE
  8
LC-002-002-----0
  6
CONTINUOUS
  5
7B3
 10
391.460537
 20
230.864768
 30
0.0
 11
391.516261
 21
230.925271
 31
0.0
  0
ARC
  8
LC-002-002-----0
  6
CONTINUOUS
  5
7B4
 10
392.224831
 20
230.217073
 30
0.0
 40
1.001825
 50
139.72065
 51
149.127729
  0
LINE
  8
LC-002-002-----0
  6
CONTINUOUS
  5
7B5
 10
391.325776
 20
230.65902
 30
0.0
 11
391.364951
 21
230.731136
 31
0.0
  0
ARC
  8
LC-002-002-----0
  6
CONTINUOUS
  5
7B6
 10
392.225012
 20
230.217486
 30
0.0
 40
1.001787
 50
153.848475
 51
163.234728
  0
LINE
  8
LC-002-002-----0
  6
CONTINUOUS
  5
7B7
 10
391.247277
 20
230.435615
 30
0.0
 11
391.265807
 21
230.506453
 31
0.0
  0
LINE
  8
LC-002-002-----0
  6
CONTINUOUS
  5
7B8
 10
391.233981
 20
230.363611
 30
0.0
 11
391.247277
 21
230.435615
 31
0.0
  0
ARC
  8
LC-002-002-----0
  6
CONTINUOUS
  5
7B9
 10
392.224406
 20
230.218076
 30
0.0
 40
1.00106
 50
171.640652
 51
179.995368
  0
LINE
  8
LC-002-002-----0
  6
CONTINUOUS
  5
7BA
 10
388.21115
 20
244.770562
 30
0.0
 11
388.208397
 21
244.718157
 31
0.0
  0
ARC
  8
LC-002-002-----0
  6
CONTINUOUS
  5
7BB
 10
388.709286
 20
244.717986
 30
0.0
 40
0.500903
 50
162.021181
 51
173.974992
  0
ARC
  8
LC-002-002-----0
  6
CONTINUOUS
  5
7BC
 10
388.710397
 20
244.717303
 30
0.0
 40
0.502171
 50
150.030506
 51
161.986115
  0
ARC
  8
LC-002-002-----0
  6
CONTINUOUS
  5
7BD
 10
388.708474
 20
244.718144
 30
0.0
 40
0.500085
 50
137.998686
 51
150.003916
  0
ARC
  8
LC-002-002-----0
  6
CONTINUOUS
  5
7BE
 10
388.709352
 20
244.717134
 30
0.0
 40
0.501413
 50
126.03967
 51
137.980059
  0
ARC
  8
LC-002-002-----0
  6
CONTINUOUS
  5
7BF
 10
388.708907
 20
244.717273
 30
0.0
 40
0.501039
 50
114.002001
 51
126.007827
  0
ARC
  8
LC-002-002-----0
  6
CONTINUOUS
  5
7C0
 10
388.708556
 20
244.717546
 30
0.0
 40
0.500647
 50
102.02017
 51
113.978056
  0
ARC
  8
LC-002-002-----0
  6
CONTINUOUS
  5
7C1
 10
388.708522
 20
244.716227
 30
0.0
 40
0.50193
 50
90.025565
 51
101.984986
  0
LINE
  8
LC-002-002-----0
  6
CONTINUOUS
  5
7C2
 10
187.227794
 20
362.416755
 30
0.0
 11
178.72683
 21
362.416755
 31
0.0
  0
LINE
  8
LC-002-002-----0
  6
CONTINUOUS
  5
7C3
 10
176.729571
 20
360.312083
 30
0.0
 11
177.568095
 21
344.312083
 31
0.0
  0
LINE
  8
LC-002-002-----0
  6
CONTINUOUS
  5
7C4
 10
386.065354
 20
342.416755
 30
0.0
 11
396.891046
 21
342.416755
 31
0.0
  0
LINE
  8
LC-002-002-----0
  6
CONTINUOUS
  5
7C5
 10
351.22683
 20
362.416755
 30
0.0
 11
288.2282
 21
362.416755
 31
0.0
  0
LINE
  8
LC-002-002-----0
  6
CONTINUOUS
  5
7C6
 10
385.22683
 20
362.416755
 30
0.0
 11
351.22683
 21
362.416755
 31
0.0
  0
LINE
  8
LC-002-002-----0
  6
CONTINUOUS
  5
7C7
 10
383.229571
 20
360.312083
 30
0.0
 11
384.068095
 21
344.312083
 31
0.0
  0
LINE
  8
LC-002-002-----0
  6
CONTINUOUS
  5
7C8
 10
352.385564
 20
344.312083
 30
0.0
 11
353.224089
 21
360.312083
 31
0.0
  0
LINE
  8
LC-002-002-----0
  6
CONTINUOUS
  5
7C9
 10
397.729571
 20
362.416755
 30
0.0
 11
385.22683
 21
362.416755
 31
0.0
  0
LINE
  8
LC-002-002-----0
  6
CONTINUOUS
  5
7CA
 10
398.888305
 20
344.312083
 30
0.0
 11
399.72683
 21
360.312083
 31
0.0
  0
LINE
  8
LC-002-002-----0
  6
CONTINUOUS
  5
7CB
 10
278.621599
 20
328.416755
 30
0.0
 11
288.2282
 21
328.416755
 31
0.0
  0
LINE
  8
LC-002-002-----0
  6
CONTINUOUS
  5
7CC
 10
278.621599
 20
328.416755
 30
0.0
 11
226.060836
 21
340.551364
 31
0.0
  0
LINE
  8
LC-002-002-----0
  6
CONTINUOUS
  5
7CD
 10
288.2282
 20
362.416755
 30
0.0
 11
225.222312
 21
362.416755
 31
0.0
  0
LINE
  8
LC-002-002-----0
  6
CONTINUOUS
  5
7CE
 10
288.2282
 20
328.416755
 30
0.0
 11
297.834802
 21
328.416755
 31
0.0
  0
ARC
  8
LC-002-002-----0
  6
CONTINUOUS
  5
7CF
 10
178.0298
 20
230.718157
 30
0.0
 40
0.5
 50
90.0
 51
178.985257
  0
ARC
  8
LC-002-002-----0
  6
CONTINUOUS
  5
7D0
 10
165.4266
 20
230.718157
 30
0.0
 40
0.5
 50
1.014743
 51
90.0
  0
ARC
  8
LC-002-002-----0
  6
CONTINUOUS
  5
7D1
 10
398.4266
 20
230.718157
 30
0.0
 40
0.5
 50
1.014743
 51
90.0
  0
ARC
  8
LC-002-002-----0
  6
CONTINUOUS
  5
7D2
 10
411.0298
 20
230.718157
 30
0.0
 40
0.5
 50
90.0
 51
178.985257
  0
ARC
  8
LC-002-002-----0
  6
CONTINUOUS
  5
7D3
 10
190.2282
 20
215.218157
 30
0.0
 40
1.0
 50
180.0
 51
270.0
  0
ARC
  8
LC-002-002-----0
  6
CONTINUOUS
  5
7D4
 10
193.22953
 20
209.218157
 30
0.0
 40
1.0
 50
0.0
 51
90.0
  0
ARC
  8
LC-002-002-----0
  6
CONTINUOUS
  5
7D5
 10
383.22687
 20
209.218157
 30
0.0
 40
1.0
 50
90.0
 51
180.0
  0
ARC
  8
LC-002-002-----0
  6
CONTINUOUS
  5
7D6
 10
386.2282
 20
215.218157
 30
0.0
 40
1.0
 50
270.0
 51
0.0
  0
LINE
  8
LC-002-002-----0
  6
CONTINUOUS
  5
7D7
 10
260.72291
 20
81.682258
 30
0.0
 11
258.668053
 21
74.199944
 31
0.0
  0
ARC
  8
LC-002-002-----0
  6
CONTINUOUS
  5
7D8
 10
149.726779
 20
236.149291
 30
0.0
 40
1.068877
 50
81.906703
 51
89.730319
  0
LINE
  8
LC-002-002-----0
  6
CONTINUOUS
  5
7D9
 10
149.949265
 20
237.194228
 30
0.0
 11
149.877262
 21
237.207523
 31
0.0
  0
LINE
  8
LC-002-002-----0
  6
CONTINUOUS
  5
7DA
 10
150.020102
 20
237.175701
 30
0.0
 11
149.949265
 21
237.194228
 31
0.0
  0
ARC
  8
LC-002-002-----0
  6
CONTINUOUS
  5
7DB
 10
149.731748
 20
236.217956
 30
0.0
 40
1.000212
 50
61.941865
 51
73.244214
  0
ARC
  8
LC-002-002-----0
  6
CONTINUOUS
  5
7DC
 10
149.730359
 20
236.215935
 30
0.0
 40
1.002649
 50
50.678511
 51
61.926153
  0
LINE
  8
LC-002-002-----0
  6
CONTINUOUS
  5
7DD
 10
150.438931
 20
236.925268
 30
0.0
 11
150.365709
 21
236.991587
 31
0.0
  0
ARC
  8
LC-002-002-----0
  6
CONTINUOUS
  5
7DE
 10
149.73108
 20
236.217504
 30
0.0
 40
1.000991
 50
35.581582
 51
44.996487
  0
LINE
  8
LC-002-002-----0
  6
CONTINUOUS
  5
7DF
 10
150.590237
 20
236.731131
 30
0.0
 11
150.545174
 21
236.799942
 31
0.0
  0
ARC
  8
LC-002-002-----0
  6
CONTINUOUS
  5
7E0
 10
149.769931
 20
236.237517
 30
0.0
 40
0.95737
 50
22.869856
 51
31.037138
  0
ARC
  8
LC-002-002-----0
  6
CONTINUOUS
  5
7E1
 10
149.789409
 20
236.23899
 30
0.0
 40
0.938871
 50
16.551217
 51
23.249034
  0
LINE
  8
LC-002-002-----0
  6
CONTINUOUS
  5
7E2
 10
150.707907
 20
236.435611
 30
0.0
 11
150.689378
 21
236.506448
 31
0.0
  0
LINE
  8
LC-002-002-----0
  6
CONTINUOUS
  5
7E3
 10
150.721202
 20
236.363608
 30
0.0
 11
150.707907
 21
236.435611
 31
0.0
  0
ARC
  8
LC-002-002-----0
  6
CONTINUOUS
  5
7E4
 10
149.730756
 20
236.218076
 30
0.0
 40
1.001081
 50
0.004631
 51
8.359013
  0
LINE
  8
LC-002-002-----0
  6
CONTINUOUS
  5
7E5
 10
153.513157
 20
231.226143
 30
0.0
 11
153.731918
 21
231.218157
 31
0.0
  0
LINE
  8
LC-002-002-----0
  6
CONTINUOUS
  5
7E6
 10
153.295561
 20
231.250059
 30
0.0
 11
153.513157
 21
231.226143
 31
0.0
  0
ARC
  8
LC-002-002-----0
  6
CONTINUOUS
  5
7E7
 10
153.77711
 20
234.421178
 30
0.0
 40
3.207473
 50
253.516711
 51
261.365337
  0
LINE
  8
LC-002-002-----0
  6
CONTINUOUS
  5
7E8
 10
152.701483
 20
231.400664
 30
0.0
 11
152.867036
 21
231.345524
 31
0.0
  0
LINE
  8
LC-002-002-----0
  6
CONTINUOUS
  5
7E9
 10
152.521351
 20
231.473233
 30
0.0
 11
152.701483
 21
231.400664
 31
0.0
  0
ARC
  8
LC-002-002-----0
  6
CONTINUOUS
  5
7EA
 10
153.811002
 20
234.371334
 30
0.0
 40
3.172096
 50
239.330906
 51
246.010997
  0
LINE
  8
LC-002-002-----0
  6
CONTINUOUS
  5
7EB
 10
152.045025
 20
231.73732
 30
0.0
 11
152.192983
 21
231.642927
 31
0.0
  0
LINE
  8
LC-002-002-----0
  6
CONTINUOUS
  5
7EC
 10
151.887062
 20
231.852423
 30
0.0
 11
152.045025
 21
231.73732
 31
0.0
  0
ARC
  8
LC-002-002-----0
  6
CONTINUOUS
  5
7ED
 10
153.632509
 20
234.105808
 30
0.0
 40
2.85032
 50
224.815664
 51
232.23904
  0
LINE
  8
LC-002-002-----0
  6
CONTINUOUS
  5
7EE
 10
151.443389
 20
232.278332
 30
0.0
 11
151.610554
 21
232.096822
 31
0.0
  0
ARC
  8
LC-002-002-----0
  6
CONTINUOUS
  5
7EF
 10
153.736298
 20
234.221383
 30
0.0
 40
3.005475
 50
210.871529
 51
220.278516
  0
LINE
  8
LC-002-002-----0
  6
CONTINUOUS
  5
7F0
 10
151.066723
 20
232.840796
 30
0.0
 11
151.156639
 21
232.679229
 31
0.0
  0
LINE
  8
LC-002-002-----0
  6
CONTINUOUS
  5
7F1
 10
150.986932
 20
233.007595
 30
0.0
 11
151.066723
 21
232.840796
 31
0.0
  0
ARC
  8
LC-002-002-----0
  6
CONTINUOUS
  5
7F2
 10
153.733999
 20
234.218981
 30
0.0
 40
3.002305
 50
196.759049
 51
203.796257
  0
LINE
  8
LC-002-002-----0
  6
CONTINUOUS
  5
7F3
 10
150.80671
 20
233.552107
 30
0.0
 11
150.859214
 21
233.353274
 31
0.0
  0
LINE
  8
LC-002-002-----0
  6
CONTINUOUS
  5
7F4
 10
150.763742
 20
233.781797
 30
0.0
 11
150.80671
 21
233.552107
 31
0.0
  0
ARC
  8
LC-002-002-----0
  6
CONTINUOUS
  5
7F5
 10
153.735078
 20
234.218399
 30
0.0
 40
3.003242
 50
180.004631
 51
188.359117
  0
LINE
  8
LC-002-002-----0
  6
CONTINUOUS
  5
7F6
 10
165.971024
 20
228.214829
 30
0.0
 11
165.926522
 21
230.727011
 31
0.0
  0
LINE
  8
LC-002-002-----0
  6
CONTINUOUS
  5
7F7
 10
166.015262
 20
225.71808
 30
0.0
 11
165.971024
 21
228.214829
 31
0.0
  0
LINE
  8
LC-002-002-----0
  6
CONTINUOUS
  5
7F8
 10
166.112751
 20
220.218004
 30
0.0
 11
166.015262
 21
225.71808
 31
0.0
  0
LINE
  8
LC-002-002-----0
  6
CONTINUOUS
  5
7F9
 10
166.290838
 20
220.045796
 30
0.0
 11
166.112751
 21
220.218004
 31
0.0
  0
LINE
  8
LC-002-002-----0
  6
CONTINUOUS
  5
7FA
 10
166.630797
 20
219.717587
 30
0.0
 11
166.290838
 21
220.045796
 31
0.0
  0
LINE
  8
LC-002-002-----0
  6
CONTINUOUS
  5
7FB
 10
166.80976
 20
219.545127
 30
0.0
 11
166.630797
 21
219.717587
 31
0.0
  0
LINE
  8
LC-002-002-----0
  6
CONTINUOUS
  5
7FC
 10
167.149794
 20
219.218157
 30
0.0
 11
166.80976
 21
219.545127
 31
0.0
  0
LINE
  8
LC-002-002-----0
  6
CONTINUOUS
  5
7FD
 10
176.473695
 20
219.378701
 30
0.0
 11
176.306606
 21
219.218157
 31
0.0
  0
LINE
  8
LC-002-002-----0
  6
CONTINUOUS
  5
7FE
 10
176.825603
 20
219.717587
 30
0.0
 11
176.473695
 21
219.378701
 31
0.0
  0
LINE
  8
LC-002-002-----0
  6
CONTINUOUS
  5
7FF
 10
176.992924
 20
219.879032
 30
0.0
 11
176.825603
 21
219.717587
 31
0.0
  0
LINE
  8
LC-002-002-----0
  6
CONTINUOUS
  5
800
 10
177.34365
 20
220.218004
 30
0.0
 11
176.992924
 21
219.879032
 31
0.0
  0
LINE
  8
LC-002-002-----0
  6
CONTINUOUS
  5
801
 10
177.392152
 20
222.954056
 30
0.0
 11
177.34365
 21
220.218004
 31
0.0
  0
LINE
  8
LC-002-002-----0
  6
CONTINUOUS
  5
802
 10
177.441139
 20
225.71808
 30
0.0
 11
177.392152
 21
222.954056
 31
0.0
  0
LINE
  8
LC-002-002-----0
  6
CONTINUOUS
  5
803
 10
177.529879
 20
230.727011
 30
0.0
 11
177.441139
 21
225.71808
 31
0.0
  0
LINE
  8
LC-002-002-----0
  6
CONTINUOUS
  5
804
 10
184.3013
 20
231.215822
 30
0.0
 11
184.233008
 21
231.218157
 31
0.0
  0
LINE
  8
LC-002-002-----0
  6
CONTINUOUS
  5
805
 10
184.378462
 20
231.207523
 30
0.0
 11
184.3013
 21
231.215822
 31
0.0
  0
ARC
  8
LC-002-002-----0
  6
CONTINUOUS
  5
806
 10
184.245809
 20
230.275529
 30
0.0
 40
0.941386
 50
72.983384
 51
81.899376
  0
LINE
  8
LC-002-002-----0
  6
CONTINUOUS
  5
807
 10
184.614381
 20
231.142585
 30
0.0
 11
184.521305
 21
231.175702
 31
0.0
  0
ARC
  8
LC-002-002-----0
  6
CONTINUOUS
  5
808
 10
184.232337
 20
230.216818
 30
0.0
 40
1.0015
 50
56.314446
 51
67.575123
  0
ARC
  8
LC-002-002-----0
  6
CONTINUOUS
  5
809
 10
184.230623
 20
230.215176
 30
0.0
 40
1.003817
 50
45.023351
 51
56.285017
  0
LINE
  8
LC-002-002-----0
  6
CONTINUOUS
  5
80A
 10
184.995863
 20
230.864768
 30
0.0
 11
184.94014
 21
230.925271
 31
0.0
  0
ARC
  8
LC-002-002-----0
  6
CONTINUOUS
  5
80B
 10
184.231569
 20
230.217073
 30
0.0
 40
1.001825
 50
30.872271
 51
40.27935
  0
LINE
  8
LC-002-002-----0
  6
CONTINUOUS
  5
80C
 10
185.130624
 20
230.65902
 30
0.0
 11
185.091449
 21
230.731136
 31
0.0
  0
ARC
  8
LC-002-002-----0
  6
CONTINUOUS
  5
80D
 10
184.231389
 20
230.217486
 30
0.0
 40
1.001787
 50
16.765272
 51
26.151525
  0
LINE
  8
LC-002-002-----0
  6
CONTINUOUS
  5
80E
 10
185.209123
 20
230.435615
 30
0.0
 11
185.190594
 21
230.506453
 31
0.0
  0
LINE
  8
LC-002-002-----0
  6
CONTINUOUS
  5
80F
 10
185.222419
 20
230.363611
 30
0.0
 11
185.209123
 21
230.435615
 31
0.0
  0
ARC
  8
LC-002-002-----0
  6
CONTINUOUS
  5
810
 10
184.231995
 20
230.218076
 30
0.0
 40
1.00106
 50
0.004632
 51
8.359348
  0
LINE
  8
LC-002-002-----0
  6
CONTINUOUS
  5
811
 10
185.24903
 20
215.780624
 30
0.0
 11
185.233055
 21
216.218157
 31
0.0
  0
LINE
  8
LC-002-002-----0
  6
CONTINUOUS
  5
812
 10
185.296869
 20
215.345421
 30
0.0
 11
185.24903
 21
215.780624
 31
0.0
  0
ARC
  8
LC-002-002-----0
  6
CONTINUOUS
  5
813
 10
191.638536
 20
216.308559
 30
0.0
 40
6.414388
 50
188.635778
 51
196.485215
  0
LINE
  8
LC-002-002-----0
  6
CONTINUOUS
  5
814
 10
185.604921
 20
214.138755
 30
0.0
 11
185.487825
 21
214.488361
 31
0.0
  0
LINE
  8
LC-002-002-----0
  6
CONTINUOUS
  5
815
 10
185.74327
 20
213.797001
 30
0.0
 11
185.604921
 21
214.138755
 31
0.0
  0
ARC
  8
LC-002-002-----0
  6
CONTINUOUS
  5
816
 10
191.539059
 20
216.376427
 30
0.0
 40
6.343864
 50
203.991541
 51
210.672089
  0
LINE
  8
LC-002-002-----0
  6
CONTINUOUS
  5
817
 10
186.271499
 20
212.844364
 30
0.0
 11
186.082696
 21
213.14027
 31
0.0
  0
LINE
  8
LC-002-002-----0
  6
CONTINUOUS
  5
818
 10
186.501725
 20
212.528448
 30
0.0
 11
186.271499
 21
212.844364
 31
0.0
  0
ARC
  8
LC-002-002-----0
  6
CONTINUOUS
  5
819
 10
191.236645
 20
216.221459
 30
0.0
 40
6.004815
 50
217.952524
 51
224.99935
  0
LINE
  8
LC-002-002-----0
  6
CONTINUOUS
  5
81A
 10
187.353594
 20
211.641149
 30
0.0
 11
186.990552
 21
211.975462
 31
0.0
  0
ARC
  8
LC-002-002-----0
  6
CONTINUOUS
  5
81B
 10
191.239626
 20
216.227416
 30
0.0
 40
6.011247
 50
229.724749
 51
239.131435
  0
LINE
  8
LC-002-002-----0
  6
CONTINUOUS
  5
81C
 10
188.496205
 20
210.878795
 30
0.0
 11
188.155434
 21
211.067683
 31
0.0
  0
LINE
  8
LC-002-002-----0
  6
CONTINUOUS
  5
81D
 10
188.812179
 20
210.728301
 30
0.0
 11
188.496205
 21
210.878795
 31
0.0
  0
ARC
  8
LC-002-002-----0
  6
CONTINUOUS
  5
81E
 10
191.129438
 20
215.937443
 30
0.0
 40
5.701302
 50
246.018362
 51
253.43056
  0
LINE
  8
LC-002-002-----0
  6
CONTINUOUS
  5
81F
 10
189.955984
 20
210.355692
 30
0.0
 11
189.503557
 21
210.472888
 31
0.0
  0
LINE
  8
LC-002-002-----0
  6
CONTINUOUS
  5
820
 10
190.360625
 20
210.281961
 30
0.0
 11
189.955984
 21
210.355692
 31
0.0
  0
ARC
  8
LC-002-002-----0
  6
CONTINUOUS
  5
821
 10
191.207688
 20
215.86771
 30
0.0
 40
5.649611
 50
261.376955
 51
270.2603
  0
LINE
  8
LC-002-002-----0
  6
CONTINUOUS
  5
822
 10
391.207371
 20
215.780624
 30
0.0
 11
391.223346
 21
216.218157
 31
0.0
  0
LINE
  8
LC-002-002-----0
  6
CONTINUOUS
  5
823
 10
391.159531
 20
215.345421
 30
0.0
 11
391.207371
 21
215.780624
 31
0.0
  0
ARC
  8
LC-002-002-----0
  6
CONTINUOUS
  5
824
 10
384.817864
 20
216.308559
 30
0.0
 40
6.414388
 50
343.514785
 51
351.364222
  0
LINE
  8
LC-002-002-----0
  6
CONTINUOUS
  5
825
 10
390.85148
 20
214.138755
 30
0.0
 11
390.968576
 21
214.488361
 31
0.0
  0
LINE
  8
LC-002-002-----0
  6
CONTINUOUS
  5
826
 10
390.713131
 20
213.797001
 30
0.0
 11
390.85148
 21
214.138755
 31
0.0
  0
ARC
  8
LC-002-002-----0
  6
CONTINUOUS
  5
827
 10
384.917342
 20
216.376427
 30
0.0
 40
6.343864
 50
329.327911
 51
336.008459
  0
LINE
  8
LC-002-002-----0
  6
CONTINUOUS
  5
828
 10
390.184901
 20
212.844364
 30
0.0
 11
390.373705
 21
213.14027
 31
0.0
  0
LINE
  8
LC-002-002-----0
  6
CONTINUOUS
  5
829
 10
389.954675
 20
212.528448
 30
0.0
 11
390.184901
 21
212.844364
 31
0.0
  0
ARC
  8
LC-002-002-----0
  6
CONTINUOUS
  5
82A
 10
385.219755
 20
216.221459
 30
0.0
 40
6.004815
 50
315.00065
 51
322.047476
  0
LINE
  8
LC-002-002-----0
  6
CONTINUOUS
  5
82B
 10
389.102806
 20
211.641149
 30
0.0
 11
389.465848
 21
211.975462
 31
0.0
  0
ARC
  8
LC-002-002-----0
  6
CONTINUOUS
  5
82C
 10
385.216774
 20
216.227416
 30
0.0
 40
6.011247
 50
300.868565
 51
310.275251
  0
LINE
  8
LC-002-002-----0
  6
CONTINUOUS
  5
82D
 10
387.960195
 20
210.878795
 30
0.0
 11
388.300967
 21
211.067683
 31
0.0
  0
LINE
  8
LC-002-002-----0
  6
CONTINUOUS
  5
82E
 10
387.644221
 20
210.728301
 30
0.0
 11
387.960195
 21
210.878795
 31
0.0
  0
ARC
  8
LC-002-002-----0
  6
CONTINUOUS
  5
82F
 10
385.326962
 20
215.937443
 30
0.0
 40
5.701302
 50
286.56944
 51
293.981638
  0
LINE
  8
LC-002-002-----0
  6
CONTINUOUS
  5
830
 10
386.500417
 20
210.355692
 30
0.0
 11
386.952843
 21
210.472888
 31
0.0
  0
ARC
  8
LC-002-002-----0
  6
CONTINUOUS
  5
831
 10
332.244429
 20
110.152071
 30
0.0
 40
8.070854
 50
74.370463
 51
84.464498
  0
ARC
  8
LC-002-002-----0
  6
CONTINUOUS
  5
832
 10
331.710273
 20
108.349073
 30
0.0
 40
9.951136
 50
65.640439
 51
74.205514
  0
ARC
  8
LC-002-002-----0
  6
CONTINUOUS
  5
833
 10
330.228648
 20
105.148238
 30
0.0
 40
13.478162
 50
58.800406
 51
65.515029
  0
ARC
  8
LC-002-002-----0
  6
CONTINUOUS
  5
834
 10
327.060622
 20
99.966397
 30
0.0
 40
19.551663
 50
53.805237
 51
58.725604
  0
ARC
  8
LC-002-002-----0
  6
CONTINUOUS
  5
835
 10
320.575686
 20
91.135272
 30
0.0
 40
30.508075
 50
50.44843
 51
53.770727
  0
ARC
  8
LC-002-002-----0
  6
CONTINUOUS
  5
836
 10
304.984212
 20
72.270225
 30
0.0
 40
54.982224
 50
48.525406
 51
50.438956
  0
LINE
  8
LC-002-002-----0
  6
CONTINUOUS
  5
837
 10
342.794158
 20
112.218157
 30
0.0
 11
341.398273
 21
113.465627
 31
0.0
  0
ARC
  8
LC-002-002-----0
  6
CONTINUOUS
  5
838
 10
329.697019
 20
120.216277
 30
0.0
 40
3.694008
 50
354.159034
 51
359.487753
  0
ARC
  8
LC-002-002-----0
  6
CONTINUOUS
  5
839
 10
329.965169
 20
120.185677
 30
0.0
 40
3.424137
 50
348.596528
 51
354.211779
  0
ARC
  8
LC-002-002-----0
  6
CONTINUOUS
  5
83A
 10
330.403805
 20
120.092376
 30
0.0
 40
2.975717
 50
342.510319
 51
348.68768
  0
ARC
  8
LC-002-002-----0
  6
CONTINUOUS
  5
83B
 10
330.927572
 20
119.921032
 30
0.0
 40
2.424676
 50
335.55845
 51
342.652401
  0
ARC
  8
LC-002-002-----0
  6
CONTINUOUS
  5
83C
 10
331.441301
 20
119.68005
 30
0.0
 40
1.857288
 50
327.280695
 51
335.768933
  0
ARC
  8
LC-002-002-----0
  6
CONTINUOUS
  5
83D
 10
331.863658
 20
119.400453
 30
0.0
 40
1.350836
 50
317.065632
 51
327.575022
  0
ARC
  8
LC-002-002-----0
  6
CONTINUOUS
  5
83E
 10
332.146797
 20
119.128751
 30
0.0
 40
0.958487
 50
304.213552
 51
317.427867
  0
ARC
  8
LC-002-002-----0
  6
CONTINUOUS
  5
83F
 10
332.287117
 20
118.91551
 30
0.0
 40
0.70326
 50
288.313962
 51
304.528344
  0
ARC
  8
LC-002-002-----0
  6
CONTINUOUS
  5
840
 10
332.324088
 20
118.80274
 30
0.0
 40
0.584585
 50
270.091439
 51
288.346861
  0
ARC
  8
LC-002-002-----0
  6
CONTINUOUS
  5
841
 10
336.635738
 20
112.435112
 30
0.0
 40
7.483795
 50
358.071395
 51
10.684239
  0
ARC
  8
LC-002-002-----0
  6
CONTINUOUS
  5
842
 10
337.674171
 20
112.650753
 30
0.0
 40
6.423415
 50
10.511372
 51
23.887079
  0
ARC
  8
LC-002-002-----0
  6
CONTINUOUS
  5
843
 10
337.804751
 20
112.710579
 30
0.0
 40
6.279794
 50
23.870424
 51
36.885365
  0
ARC
  8
LC-002-002-----0
  6
CONTINUOUS
  5
844
 10
337.286739
 20
112.310381
 30
0.0
 40
6.934331
 50
36.961168
 51
48.643652
  0
ARC
  8
LC-002-002-----0
  6
CONTINUOUS
  5
845
 10
336.383185
 20
111.264006
 30
0.0
 40
8.316781
 50
48.734321
 51
58.660884
  0
ARC
  8
LC-002-002-----0
  6
CONTINUOUS
  5
846
 10
335.347572
 20
109.540558
 30
0.0
 40
10.327415
 50
58.726618
 51
66.967141
  0
ARC
  8
LC-002-002-----0
  6
CONTINUOUS
  5
847
 10
334.261275
 20
106.908649
 30
0.0
 40
13.174569
 50
67.097868
 51
75.987615
  0
ARC
  8
LC-002-002-----0
  6
CONTINUOUS
  5
848
 10
333.544009
 20
104.074639
 30
0.0
 40
16.097923
 50
75.953024
 51
83.333745
  0
ARC
  8
LC-002-002-----0
  6
CONTINUOUS
  5
849
 10
333.394251
 20
103.079554
 30
0.0
 40
17.103698
 50
83.222427
 51
90.011295
  0
LINE
  8
LC-002-002-----0
  6
CONTINUOUS
  5
84A
 10
266.448162
 20
73.75804
 30
0.0
 11
267.515399
 21
73.715471
 31
0.0
  0
LINE
  8
LC-002-002-----0
  6
CONTINUOUS
  5
84B
 10
265.411504
 20
73.792416
 30
0.0
 11
266.448162
 21
73.75804
 31
0.0
  0
ARC
  8
LC-002-002-----0
  6
CONTINUOUS
  5
84C
 10
263.98323
 20
23.470993
 30
0.0
 40
50.341688
 50
88.374209
 51
89.485732
  0
ARC
  8
LC-002-002-----0
  6
CONTINUOUS
  5
84D
 10
264.157585
 20
46.151103
 30
0.0
 40
27.660942
 50
89.425211
 51
91.265484
  0
ARC
  8
LC-002-002-----0
  6
CONTINUOUS
  5
84E
 10
263.838704
 20
59.024029
 30
0.0
 40
14.784153
 50
91.131765
 51
94.139531
  0
ARC
  8
LC-002-002-----0
  6
CONTINUOUS
  5
84F
 10
263.253173
 20
66.586248
 30
0.0
 40
7.199497
 50
93.836154
 51
98.965487
  0
ARC
  8
LC-002-002-----0
  6
CONTINUOUS
  5
850
 10
262.559889
 20
70.730181
 30
0.0
 40
2.998405
 50
98.219742
 51
107.797491
  0
ARC
  8
LC-002-002-----0
  6
CONTINUOUS
  5
851
 10
261.923138
 20
72.601646
 30
0.0
 40
1.022453
 50
105.877407
 51
126.073166
  0
ARC
  8
LC-002-002-----0
  6
CONTINUOUS
  5
852
 10
261.527988
 20
73.120461
 30
0.0
 40
0.370702
 50
123.924453
 51
163.691018
  0
LINE
  8
LC-002-002-----0
  6
CONTINUOUS
  5
853
 10
267.015115
 20
67.997197
 30
0.0
 11
266.992464
 21
67.738303
 31
0.0
  0
LINE
  8
LC-002-002-----0
  6
CONTINUOUS
  5
854
 10
267.030442
 20
68.172386
 30
0.0
 11
267.015115
 21
67.997197
 31
0.0
  0
LINE
  8
LC-002-002-----0
  6
CONTINUOUS
  5
855
 10
267.058787
 20
68.496373
 30
0.0
 11
267.030442
 21
68.172386
 31
0.0
  0
LINE
  8
LC-002-002-----0
  6
CONTINUOUS
  5
856
 10
267.08826
 20
68.833255
 30
0.0
 11
267.058787
 21
68.496373
 31
0.0
  0
LINE
  8
LC-002-002-----0
  6
CONTINUOUS
  5
857
 10
267.12391
 20
69.240732
 30
0.0
 11
267.08826
 21
68.833255
 31
0.0
  0
LINE
  8
LC-002-002-----0
  6
CONTINUOUS
  5
858
 10
267.145628
 20
69.488975
 30
0.0
 11
267.12391
 21
69.240732
 31
0.0
  0
LINE
  8
LC-002-002-----0
  6
CONTINUOUS
  5
859
 10
267.22477
 20
70.393574
 30
0.0
 11
267.145628
 21
69.488975
 31
0.0
  0
LINE
  8
LC-002-002-----0
  6
CONTINUOUS
  5
85A
 10
267.31483
 20
71.422956
 30
0.0
 11
267.22477
 21
70.393574
 31
0.0
  0
LINE
  8
LC-002-002-----0
  6
CONTINUOUS
  5
85B
 10
267.363162
 20
71.975391
 30
0.0
 11
267.31483
 21
71.422956
 31
0.0
  0
LINE
  8
LC-002-002-----0
  6
CONTINUOUS
  5
85C
 10
267.515399
 20
73.715471
 30
0.0
 11
267.363162
 21
71.975391
 31
0.0
  0
LINE
  8
LC-002-002-----0
  6
CONTINUOUS
  5
85D
 10
343.510565
 20
89.674593
 30
0.0
 11
344.115294
 21
112.183252
 31
0.0
  0
LINE
  8
LC-002-002-----0
  6
CONTINUOUS
  5
85E
 10
342.90708
 20
67.357263
 30
0.0
 11
343.510565
 21
89.674593
 31
0.0
  0
LINE
  8
LC-002-002-----0
  6
CONTINUOUS
  5
85F
 10
342.197626
 20
89.709498
 30
0.0
 11
342.794158
 21
112.218157
 31
0.0
  0
LINE
  8
LC-002-002-----0
  6
CONTINUOUS
  5
860
 10
341.598208
 20
67.234065
 30
0.0
 11
342.197626
 21
89.709498
 31
0.0
  0
ARC
  8
LC-005-102-D10-0
  6
CONTINUOUS
  5
861
 10
388.708298
 20
244.718157
 30
0.0
 40
0.5
 50
90.0
 51
180.0
  0
ARC
  8
LC-002-002-----0
  6
CONTINUOUS
  5
862
 10
388.7282
 20
244.718157
 30
0.0
 40
0.5
 50
90.0
 51
180.0
  0
ARC
  8
LC-002-002-----0
  6
CONTINUOUS
  5
863
 10
389.7282
 20
244.718157
 30
0.0
 40
0.5
 50
0.0
 51
90.0
  0
ARC
  8
LC-002-002-----0
  6
CONTINUOUS
  5
864
 10
162.2282
 20
239.718157
 30
0.0
 40
0.5
 50
0.0
 51
90.0
  0
ARC
  8
LC-002-002-----0
  6
CONTINUOUS
  5
865
 10
228.495503
 20
55.45133
 30
0.0
 40
1.0
 50
270.0
 51
359.0
  0
ARC
  8
LC-002-002-----0
  6
CONTINUOUS
  5
866
 10
227.960898
 20
55.45133
 30
0.0
 40
1.0
 50
181.0
 51
270.0
  0
ARC
  8
LC-002-002-----0
  6
CONTINUOUS
  5
867
 10
165.2282
 20
234.718157
 30
0.0
 40
0.5
 50
270.0
 51
0.0
  0
ARC
  8
LC-002-002-----0
  6
CONTINUOUS
  5
868
 10
163.2282
 20
234.718157
 30
0.0
 40
0.5
 50
180.0
 51
270.0
  0
ARC
  8
LC-002-002-----0
  6
CONTINUOUS
  5
869
 10
161.2282
 20
239.718157
 30
0.0
 40
0.5
 50
90.0
 51
180.0
  0
ARC
  8
LC-002-002-----0
  6
CONTINUOUS
  5
86A
 10
197.7282
 20
178.218157
 30
0.0
 40
1.0
 50
0.0
 51
90.0
  0
ARC
  8
LC-002-002-----0
  6
CONTINUOUS
  5
86B
 10
377.2282
 20
183.718157
 30
0.0
 40
5.0
 50
295.841933
 51
1.321463
  0
ARC
  8
LC-002-002-----0
  6
CONTINUOUS
  5
86C
 10
199.2282
 20
183.718157
 30
0.0
 40
5.0
 50
178.678537
 51
244.158067
  0
ARC
  8
LC-002-002-----0
  6
CONTINUOUS
  5
86D
 10
201.7282
 20
182.218157
 30
0.0
 40
1.0
 50
0.0
 51
90.0
  0
ARC
  8
LC-002-002-----0
  6
CONTINUOUS
  5
86E
 10
196.2282
 20
212.218157
 30
0.0
 40
2.0
 50
0.0
 51
90.0
  0
ARC
  8
LC-002-002-----0
  6
CONTINUOUS
  5
86F
 10
198.7282
 20
183.718157
 30
0.0
 40
0.5
 50
180.0
 51
270.0
  0
ARC
  8
LC-005-102-D10-0
  6
CONTINUOUS
  5
870
 10
287.2282
 20
217.718157
 30
0.0
 40
0.5
 50
90.0
 51
180.0
  0
ARC
  8
LC-002-002-----0
  6
CONTINUOUS
  5
871
 10
177.4782
 20
234.718157
 30
0.0
 40
0.5
 50
300.0
 51
0.0
  0
ARC
  8
LC-002-002-----0
  6
CONTINUOUS
  5
872
 10
178.4782
 20
239.718157
 30
0.0
 40
0.5
 50
90.0
 51
180.0
  0
ARC
  8
LC-002-002-----0
  6
CONTINUOUS
  5
873
 10
177.2282
 20
239.718157
 30
0.0
 40
0.5
 50
0.0
 51
90.0
  0
ARC
  8
LC-002-002-----0
  6
CONTINUOUS
  5
874
 10
168.7282
 20
239.718157
 30
0.0
 40
0.5
 50
0.0
 51
90.0
  0
ARC
  8
LC-002-002-----0
  6
CONTINUOUS
  5
875
 10
166.2282
 20
239.718157
 30
0.0
 40
0.5
 50
90.0
 51
180.0
  0
ARC
  8
LC-002-002-----0
  6
CONTINUOUS
  5
876
 10
174.7282
 20
239.718157
 30
0.0
 40
0.5
 50
90.0
 51
180.0
  0
ARC
  8
LC-002-002-----0
  6
CONTINUOUS
  5
877
 10
180.4782
 20
234.718157
 30
0.0
 40
0.5
 50
180.0
 51
270.0
  0
ARC
  8
LC-002-002-----0
  6
CONTINUOUS
  5
878
 10
184.7282
 20
234.718157
 30
0.0
 40
0.5
 50
270.0
 51
0.0
  0
ARC
  8
LC-002-002-----0
  6
CONTINUOUS
  5
879
 10
196.7282
 20
217.218157
 30
0.0
 40
1.0
 50
0.0
 51
90.0
  0
ARC
  8
LC-002-002-----0
  6
CONTINUOUS
  5
87A
 10
188.7282
 20
239.718157
 30
0.0
 40
0.5
 50
0.0
 51
90.0
  0
ARC
  8
LC-002-002-----0
  6
CONTINUOUS
  5
87B
 10
399.2282
 20
239.718157
 30
0.0
 40
0.5
 50
90.0
 51
180.0
  0
ARC
  8
LC-005-102-D10-0
  6
CONTINUOUS
  5
87C
 10
185.7282
 20
239.718157
 30
0.0
 40
0.5
 50
90.0
 51
180.0
  0
ARC
  8
LC-002-002-----0
  6
CONTINUOUS
  5
87D
 10
179.4782
 20
239.718157
 30
0.0
 40
0.5
 50
0.0
 51
90.0
  0
ARC
  8
LC-002-002-----0
  6
CONTINUOUS
  5
87E
 10
414.2282
 20
239.718157
 30
0.0
 40
0.5
 50
90.0
 51
180.0
  0
ARC
  8
LC-002-002-----0
  6
CONTINUOUS
  5
87F
 10
415.2282
 20
239.718157
 30
0.0
 40
0.5
 50
0.0
 51
90.0
  0
ARC
  8
LC-002-002-----0
  6
CONTINUOUS
  5
880
 10
413.2282
 20
234.718157
 30
0.0
 40
0.5
 50
270.0
 51
0.0
  0
ARC
  8
LC-002-002-----0
  6
CONTINUOUS
  5
881
 10
398.9782
 20
234.718157
 30
0.0
 40
0.5
 50
180.0
 51
240.0
  0
ARC
  8
LC-002-002-----0
  6
CONTINUOUS
  5
882
 10
410.2282
 20
239.718157
 30
0.0
 40
0.5
 50
0.0
 51
90.0
  0
ARC
  8
LC-002-002-----0
  6
CONTINUOUS
  5
883
 10
411.2282
 20
234.718157
 30
0.0
 40
0.5
 50
180.0
 51
270.0
  0
ARC
  8
LC-002-002-----0
  6
CONTINUOUS
  5
884
 10
397.9782
 20
239.718157
 30
0.0
 40
0.5
 50
0.0
 51
90.0
  0
ARC
  8
LC-002-002-----0
  6
CONTINUOUS
  5
885
 10
401.7282
 20
239.718157
 30
0.0
 40
0.5
 50
0.0
 51
90.0
  0
ARC
  8
LC-002-002-----0
  6
CONTINUOUS
  5
886
 10
407.7282
 20
239.718157
 30
0.0
 40
0.5
 50
90.0
 51
180.0
  0
ARC
  8
LC-002-002-----0
  6
CONTINUOUS
  5
887
 10
396.9782
 20
239.718157
 30
0.0
 40
0.5
 50
90.0
 51
180.0
  0
ARC
  8
LC-002-002-----0
  6
CONTINUOUS
  5
888
 10
395.9782
 20
234.718157
 30
0.0
 40
0.5
 50
270.0
 51
0.0
  0
ARC
  8
LC-002-002-----0
  6
CONTINUOUS
  5
889
 10
391.7282
 20
234.718157
 30
0.0
 40
0.5
 50
180.0
 51
270.0
  0
ARC
  8
LC-002-002-----0
  6
CONTINUOUS
  5
88A
 10
390.7282
 20
239.718157
 30
0.0
 40
0.5
 50
0.0
 51
90.0
  0
ARC
  8
LC-002-002-----0
  6
CONTINUOUS
  5
88B
 10
377.7282
 20
183.718157
 30
0.0
 40
0.5
 50
270.0
 51
0.0
  0
ARC
  8
LC-002-002-----0
  6
CONTINUOUS
  5
88C
 10
378.7282
 20
178.218157
 30
0.0
 40
1.0
 50
90.0
 51
180.0
  0
ARC
  8
LC-002-002-----0
  6
CONTINUOUS
  5
88D
 10
380.2282
 20
212.218157
 30
0.0
 40
2.0
 50
90.0
 51
180.0
  0
ARC
  8
LC-002-002-----0
  6
CONTINUOUS
  5
88E
 10
379.7282
 20
217.218157
 30
0.0
 40
1.0
 50
90.0
 51
180.0
  0
ARC
  8
LC-005-102-D10-0
  6
CONTINUOUS
  5
88F
 10
289.2282
 20
217.718157
 30
0.0
 40
0.5
 50
0.0
 51
90.0
  0
ARC
  8
LC-002-002-----0
  6
CONTINUOUS
  5
890
 10
374.7282
 20
182.218157
 30
0.0
 40
1.0
 50
90.0
 51
180.0
  0
ARC
  8
LC-002-002-----0
  6
CONTINUOUS
  5
891
 10
209.117438
 20
78.695951
 30
0.0
 40
8.893914
 50
187.274996
 51
193.652726
  0
LINE
  8
LC-002-002-----0
  6
CONTINUOUS
  5
892
 10
200.75475
 20
75.650742
 30
0.0
 11
200.474829
 21
76.596663
 31
0.0
  0
LINE
  8
LC-002-002-----0
  6
CONTINUOUS
  5
893
 10
201.128769
 20
74.736721
 30
0.0
 11
200.75475
 21
75.650742
 31
0.0
  0
ARC
  8
LC-002-002-----0
  6
CONTINUOUS
  5
894
 10
210.641404
 20
79.195718
 30
0.0
 40
10.505851
 50
205.114585
 51
214.220704
  0
LINE
  8
LC-002-002-----0
  6
CONTINUOUS
  5
895
 10
202.312688
 20
72.791062
 30
0.0
 11
201.954354
 21
73.287415
 31
0.0
  0
ARC
  8
LC-002-002-----0
  6
CONTINUOUS
  5
896
 10
210.493922
 20
79.022488
 30
0.0
 40
10.284126
 50
217.295548
 51
223.147645
  0
LINE
  8
LC-002-002-----0
  6
CONTINUOUS
  5
897
 10
203.789117
 20
71.215918
 30
0.0
 11
202.990687
 21
71.989372
 31
0.0
  0
ARC
  8
LC-002-002-----0
  6
CONTINUOUS
  5
898
 10
210.754104
 20
79.171518
 30
0.0
 40
10.573675
 50
228.798433
 51
240.822206
  0
LINE
  8
LC-002-002-----0
  6
CONTINUOUS
  5
899
 10
206.017778
 20
69.719134
 30
0.0
 11
205.599212
 21
69.939525
 31
0.0
  0
LINE
  8
LC-002-002-----0
  6
CONTINUOUS
  5
89A
 10
206.4833
 20
69.50259
 30
0.0
 11
206.017778
 21
69.719134
 31
0.0
  0
ARC
  8
LC-002-002-----0
  6
CONTINUOUS
  5
89B
 10
210.451096
 20
78.688931
 30
0.0
 40
10.006612
 50
246.639354
 51
252.318224
  0
LINE
  8
LC-002-002-----0
  6
CONTINUOUS
  5
89C
 10
207.888465
 20
69.018167
 30
0.0
 11
207.411788
 21
69.155051
 31
0.0
  0
LINE
  8
LC-002-002-----0
  6
CONTINUOUS
  5
89D
 10
208.372416
 20
68.907004
 30
0.0
 11
207.888465
 21
69.018167
 31
0.0
  0
ARC
  8
LC-002-002-----0
  6
CONTINUOUS
  5
89E
 10
210.17386
 20
77.942734
 30
0.0
 40
9.213557
 50
258.724835
 51
264.868561
  0
LINE
  8
LC-002-002-----0
  6
CONTINUOUS
  5
89F
 10
342.126124
 20
67.279272
 30
0.0
 11
342.295669
 21
67.294513
 31
0.0
  0
LINE
  8
LC-002-002-----0
  6
CONTINUOUS
  5
8A0
 10
341.952498
 20
67.26414
 30
0.0
 11
342.126124
 21
67.279272
 31
0.0
  0
LINE
  8
LC-002-002-----0
  6
CONTINUOUS
  5
8A1
 10
341.598208
 20
67.234065
 30
0.0
 11
341.952498
 21
67.26414
 31
0.0
  0
LINE
  8
LC-002-002-----0
  6
CONTINUOUS
  5
8A2
 10
348.470439
 20
66.905408
 30
0.0
 11
342.90708
 21
67.357263
 31
0.0
  0
LINE
  8
LC-002-002-----0
  6
CONTINUOUS
  5
8A3
 10
354.647731
 20
66.403698
 30
0.0
 11
348.470439
 21
66.905408
 31
0.0
  0
LINE
  8
LC-002-002-----0
  6
CONTINUOUS
  5
8A4
 10
357.952018
 20
66.135331
 30
0.0
 11
354.647731
 21
66.403698
 31
0.0
  0
LINE
  8
LC-002-002-----0
  6
CONTINUOUS
  5
8A5
 10
363.194899
 20
65.709522
 30
0.0
 11
357.952018
 21
66.135331
 31
0.0
  0
LINE
  8
LC-002-002-----0
  6
CONTINUOUS
  5
8A6
 10
367.872853
 20
65.329599
 30
0.0
 11
363.194899
 21
65.709522
 31
0.0
  0
LINE
  8
LC-002-002-----0
  6
CONTINUOUS
  5
8A7
 10
341.942794
 20
63.241474
 30
0.0
 11
341.982906
 21
63.09786
 31
0.0
  0
LINE
  8
LC-002-002-----0
  6
CONTINUOUS
  5
8A8
 10
341.907722
 20
63.366084
 30
0.0
 11
341.942794
 21
63.241474
 31
0.0
  0
LINE
  8
LC-002-002-----0
  6
CONTINUOUS
  5
8A9
 10
341.874771
 20
63.484482
 30
0.0
 11
341.907722
 21
63.366084
 31
0.0
  0
LINE
  8
LC-002-002-----0
  6
CONTINUOUS
  5
8AA
 10
341.841896
 20
63.606408
 30
0.0
 11
341.874771
 21
63.484482
 31
0.0
  0
ARC
  8
LC-002-002-----0
  6
CONTINUOUS
  5
8AB
 10
352.261378
 20
66.355813
 30
0.0
 40
10.776122
 50
194.056376
 51
194.781795
  0
ARC
  8
LC-002-002-----0
  6
CONTINUOUS
  5
8AC
 10
351.928323
 20
66.268477
 30
0.0
 40
10.431829
 50
193.210364
 51
194.035345
  0
ARC
  8
LC-002-002-----0
  6
CONTINUOUS
  5
8AD
 10
351.527294
 20
66.171256
 30
0.0
 40
10.019195
 50
192.252885
 51
193.193192
  0
ARC
  8
LC-002-002-----0
  6
CONTINUOUS
  5
8AE
 10
350.418737
 20
65.929015
 30
0.0
 40
8.884481
 50
191.10869
 51
192.24349
  0
LINE
  8
LC-002-002-----0
  6
CONTINUOUS
  5
8AF
 10
341.308847
 20
66.086613
 30
0.0
 11
341.598208
 21
67.234065
 31
0.0
  0
LINE
  8
LC-002-002-----0
  6
CONTINUOUS
  5
8B0
 10
341.022289
 20
64.97958
 30
0.0
 11
341.308847
 21
66.086613
 31
0.0
  0
LINE
  8
LC-002-002-----0
  6
CONTINUOUS
  5
8B1
 10
340.910699
 20
64.563106
 30
0.0
 11
341.022289
 21
64.97958
 31
0.0
  0
ARC
  8
LC-002-002-----0
  6
CONTINUOUS
  5
8B2
 10
296.642745
 20
76.533314
 30
0.0
 40
45.857798
 50
343.850571
 51
344.868881
  0
ARC
  8
LC-002-002-----0
  6
CONTINUOUS
  5
8B3
 10
315.456423
 20
71.058654
 30
0.0
 40
26.263788
 50
342.299385
 51
343.906696
  0
ARC
  8
LC-002-002-----0
  6
CONTINUOUS
  5
8B4
 10
338.23085
 20
66.654272
 30
0.0
 40
4.227012
 50
302.096135
 51
305.413733
  0
ARC
  8
LC-002-002-----0
  6
CONTINUOUS
  5
8B5
 10
338.698854
 20
66.003636
 30
0.0
 40
3.425556
 50
305.340304
 51
308.882745
  0
ARC
  8
LC-002-002-----0
  6
CONTINUOUS
  5
8B6
 10
338.643243
 20
66.074396
 30
0.0
 40
3.515547
 50
308.864349
 51
312.048588
  0
ARC
  8
LC-002-002-----0
  6
CONTINUOUS
  5
8B7
 10
338.0217
 20
66.762935
 30
0.0
 40
4.443126
 50
312.053589
 51
314.522648
  0
ARC
  8
LC-002-002-----0
  6
CONTINUOUS
  5
8B8
 10
336.747114
 20
68.058577
 30
0.0
 40
6.260612
 50
314.524964
 51
316.319155
  0
ARC
  8
LC-002-002-----0
  6
CONTINUOUS
  5
8B9
 10
335.293586
 20
69.447579
 30
0.0
 40
8.271102
 50
316.314592
 51
317.736506
  0
ARC
  8
LC-002-002-----0
  6
CONTINUOUS
  5
8BA
 10
335.059748
 20
69.661766
 30
0.0
 40
8.588206
 50
317.728197
 51
319.165524
  0
ARC
  8
LC-002-002-----0
  6
CONTINUOUS
  5
8BB
 10
336.396063
 20
68.509295
 30
0.0
 40
6.823575
 50
319.150218
 51
321.023275
  0
LINE
  8
LC-002-002-----0
  6
CONTINUOUS
  5
8BC
 10
340.412841
 20
62.87718
 30
0.0
 11
340.476836
 21
63.073326
 31
0.0
  0
ARC
  8
LC-002-002-----0
  6
CONTINUOUS
  5
8BD
 10
327.828862
 20
67.04568
 30
0.0
 40
13.256429
 50
340.017289
 51
341.672314
  0
ARC
  8
LC-002-002-----0
  6
CONTINUOUS
  5
8BE
 10
332.315938
 20
65.401314
 30
0.0
 40
8.477563
 50
337.795522
 51
340.09819
  0
ARC
  8
LC-002-002-----0
  6
CONTINUOUS
  5
8BF
 10
335.472479
 20
64.099209
 30
0.0
 40
5.063041
 50
334.59305
 51
337.938609
  0
LINE
  8
LC-002-002-----0
  6
CONTINUOUS
  5
8C0
 10
339.987678
 20
61.810517
 30
0.0
 11
340.045839
 21
61.926938
 31
0.0
  0
ARC
  8
LC-002-002-----0
  6
CONTINUOUS
  5
8C1
 10
338.248065
 20
62.704877
 30
0.0
 40
1.95605
 50
326.385091
 51
332.791654
  0
ARC
  8
LC-002-002-----0
  6
CONTINUOUS
  5
8C2
 10
339.12397
 20
62.108093
 30
0.0
 40
0.896314
 50
316.202068
 51
327.157267
  0
ARC
  8
LC-002-002-----0
  6
CONTINUOUS
  5
8C3
 10
339.49941
 20
61.734651
 30
0.0
 40
0.366989
 50
297.574956
 51
317.716158
  0
ARC
  8
LC-002-002-----0
  6
CONTINUOUS
  5
8C4
 10
339.585174
 20
61.56374
 30
0.0
 40
0.175819
 50
265.725935
 51
298.583216
  0
ARC
  8
LC-002-002-----0
  6
CONTINUOUS
  5
8C5
 10
339.710271
 20
62.994956
 30
0.0
 40
1.612479
 50
265.083336
 51
278.605643
  0
ARC
  8
LC-002-002-----0
  6
CONTINUOUS
  5
8C6
 10
339.670801
 20
63.21939
 30
0.0
 40
1.8403
 50
278.775117
 51
290.877882
  0
ARC
  8
LC-002-002-----0
  6
CONTINUOUS
  5
8C7
 10
339.513635
 20
63.611583
 30
0.0
 40
2.262764
 50
291.057111
 51
301.411287
  0
ARC
  8
LC-002-002-----0
  6
CONTINUOUS
  5
8C8
 10
339.192818
 20
64.12212
 30
0.0
 40
2.865694
 50
301.565637
 51
310.293031
  0
ARC
  8
LC-002-002-----0
  6
CONTINUOUS
  5
8C9
 10
338.699758
 20
64.69158
 30
0.0
 40
3.618916
 50
310.416711
 51
317.822822
  0
ARC
  8
LC-002-002-----0
  6
CONTINUOUS
  5
8CA
 10
338.062396
 20
65.258793
 30
0.0
 40
4.472095
 50
317.920134
 51
324.327315
  0
ARC
  8
LC-002-002-----0
  6
CONTINUOUS
  5
8CB
 10
337.337597
 20
65.77024
 30
0.0
 40
5.359152
 50
324.404183
 51
330.088803
  0
LINE
  8
LC-002-002-----0
  6
CONTINUOUS
  5
8CC
 10
365.047795
 20
59.163017
 30
0.0
 11
364.849858
 21
59.17689
 31
0.0
  0
LINE
  8
LC-002-002-----0
  6
CONTINUOUS
  5
8CD
 10
365.250565
 20
59.156235
 30
0.0
 11
365.047795
 21
59.163017
 31
0.0
  0
ARC
  8
LC-002-002-----0
  6
CONTINUOUS
  5
8CE
 10
365.321127
 20
64.054518
 30
0.0
 40
4.898792
 50
269.174689
 51
273.425088
  0
LINE
  8
LC-002-002-----0
  6
CONTINUOUS
  5
8CF
 10
365.794924
 20
59.179245
 30
0.0
 11
365.613798
 21
59.164477
 31
0.0
  0
LINE
  8
LC-002-002-----0
  6
CONTINUOUS
  5
8D0
 10
365.970532
 20
59.200975
 30
0.0
 11
365.794924
 21
59.179245
 31
0.0
  0
ARC
  8
LC-002-002-----0
  6
CONTINUOUS
  5
8D1
 10
365.487571
 20
62.682983
 30
0.0
 40
3.515342
 50
277.896655
 51
290.463385
  0
LINE
  8
LC-002-002-----0
  6
CONTINUOUS
  5
8D2
 10
366.985975
 20
59.504838
 30
0.0
 11
366.716565
 21
59.389473
 31
0.0
  0
LINE
  8
LC-002-002-----0
  6
CONTINUOUS
  5
8D3
 10
367.217936
 20
59.630316
 30
0.0
 11
366.985975
 21
59.504838
 31
0.0
  0
ARC
  8
LC-002-002-----0
  6
CONTINUOUS
  5
8D4
 10
365.773887
 20
62.042904
 30
0.0
 40
2.811736
 50
300.902527
 51
310.535189
  0
LINE
  8
LC-002-002-----0
  6
CONTINUOUS
  5
8D5
 10
367.896489
 20
60.199366
 30
0.0
 11
367.601276
 21
59.905965
 31
0.0
  0
ARC
  8
LC-002-002-----0
  6
CONTINUOUS
  5
8D6
 10
365.656104
 20
62.124965
 30
0.0
 40
2.954193
 50
319.321112
 51
335.513749
  0
LINE
  8
LC-002-002-----0
  6
CONTINUOUS
  5
8D7
 10
368.496541
 20
61.300917
 30
0.0
 11
368.344599
 21
60.900526
 31
0.0
  0
ARC
  8
LC-002-002-----0
  6
CONTINUOUS
  5
8D8
 10
364.762388
 20
62.421889
 30
0.0
 40
3.898779
 50
343.290538
 51
356.290997
  0
ARC
  8
LC-002-002-----0
  6
CONTINUOUS
  5
8D9
 10
363.789206
 20
62.461517
 30
0.0
 40
4.872543
 50
356.566258
 51
7.894099
  0
LINE
  8
LC-002-002-----0
  6
CONTINUOUS
  5
8DA
 10
368.547572
 20
63.520274
 30
0.0
 11
368.615575
 21
63.130725
 31
0.0
  0
ARC
  8
LC-002-002-----0
  6
CONTINUOUS
  5
8DB
 10
362.78158
 20
62.311779
 30
0.0
 40
5.891275
 50
11.837288
 51
18.610527
  0
LINE
  8
LC-002-002-----0
  6
CONTINUOUS
  5
8DC
 10
368.239969
 20
64.536107
 30
0.0
 11
368.364799
 21
64.191882
 31
0.0
  0
ARC
  8
LC-002-002-----0
  6
CONTINUOUS
  5
8DD
 10
360.769503
 20
61.561501
 30
0.0
 40
8.040905
 50
21.711562
 51
27.944504
  0
LINE
  8
LC-002-002-----0
  6
CONTINUOUS
  5
8DE
 10
204.25198
 20
78.148201
 30
0.0
 11
204.222263
 21
78.623337
 31
0.0
  0
ARC
  8
LC-002-002-----0
  6
CONTINUOUS
  5
8DF
 10
209.775515
 20
78.747372
 30
0.0
 40
5.555938
 50
186.191006
 51
195.962841
  0
ARC
  8
LC-002-002-----0
  6
CONTINUOUS
  5
8E0
 10
210.148247
 20
78.854989
 30
0.0
 40
5.943894
 50
195.972101
 51
205.103604
  0
LINE
  8
LC-002-002-----0
  6
CONTINUOUS
  5
8E1
 10
204.8972
 20
76.068988
 30
0.0
 11
204.765801
 21
76.333254
 31
0.0
  0
ARC
  8
LC-002-002-----0
  6
CONTINUOUS
  5
8E2
 10
210.804042
 20
79.208445
 30
0.0
 40
6.689318
 50
207.990421
 51
214.042949
  0
LINE
  8
LC-002-002-----0
  6
CONTINUOUS
  5
8E3
 10
205.476153
 20
75.165858
 30
0.0
 11
205.261152
 21
75.46367
 31
0.0
  0
ARC
  8
LC-002-002-----0
  6
CONTINUOUS
  5
8E4
 10
210.384893
 20
78.904712
 30
0.0
 40
6.170475
 50
217.295543
 51
223.147643
  0
LINE
  8
LC-002-002-----0
  6
CONTINUOUS
  5
8E5
 10
206.14267
 20
74.42152
 30
0.0
 11
205.882952
 21
74.684844
 31
0.0
  0
ARC
  8
LC-002-002-----0
  6
CONTINUOUS
  5
8E6
 10
210.384728
 20
78.822015
 30
0.0
 40
6.112235
 50
226.050235
 51
231.949222
  0
LINE
  8
LC-002-002-----0
  6
CONTINUOUS
  5
8E7
 10
206.85698
 20
73.829131
 30
0.0
 11
206.617394
 21
74.008845
 31
0.0
  0
ARC
  8
LC-002-002-----0
  6
CONTINUOUS
  5
8E8
 10
210.647572
 20
79.162877
 30
0.0
 40
6.543503
 50
234.599312
 51
240.727812
  0
LINE
  8
LC-002-002-----0
  6
CONTINUOUS
  5
8E9
 10
207.723427
 20
73.310733
 30
0.0
 11
207.448067
 21
73.454935
 31
0.0
  0
LINE
  8
LC-002-002-----0
  6
CONTINUOUS
  5
8EA
 10
207.97852
 20
73.192774
 30
0.0
 11
207.723427
 21
73.310733
 31
0.0
  0
ARC
  8
LC-002-002-----0
  6
CONTINUOUS
  5
8EB
 10
210.18028
 20
78.226583
 30
0.0
 40
5.494268
 50
246.375697
 51
252.581886
  0
LINE
  8
LC-002-002-----0
  6
CONTINUOUS
  5
8EC
 10
208.916185
 20
72.87857
 30
0.0
 11
208.535613
 21
72.984251
 31
0.0
  0
ARC
  8
LC-002-002-----0
  6
CONTINUOUS
  5
8ED
 10
210.171158
 20
78.10686
 30
0.0
 40
5.3768
 50
256.502363
 51
264.955885
  0
LINE
  8
LC-002-002-----0
  6
CONTINUOUS
  5
8EE
 10
204.508543
 20
78.600076
 30
0.0
 11
204.222263
 21
78.623337
 31
0.0
  0
LINE
  8
LC-002-002-----0
  6
CONTINUOUS
  5
8EF
 10
204.794822
 20
78.576816
 30
0.0
 11
204.508543
 21
78.600076
 31
0.0
  0
LINE
  8
LC-002-002-----0
  6
CONTINUOUS
  5
8F0
 10
212.614442
 20
77.941482
 30
0.0
 11
204.794822
 21
78.576816
 31
0.0
  0
LINE
  8
LC-002-002-----0
  6
CONTINUOUS
  5
8F1
 10
219.191575
 20
77.407108
 30
0.0
 11
212.614442
 21
77.941482
 31
0.0
  0
LINE
  8
LC-002-002-----0
  6
CONTINUOUS
  5
8F2
 10
226.268561
 20
76.832132
 30
0.0
 11
219.191575
 21
77.407108
 31
0.0
  0
LINE
  8
LC-002-002-----0
  6
CONTINUOUS
  5
8F3
 10
241.55257
 20
75.590406
 30
0.0
 11
226.268561
 21
76.832132
 31
0.0
  0
LINE
  8
LC-002-002-----0
  6
CONTINUOUS
  5
8F4
 10
249.731956
 20
74.925905
 30
0.0
 11
241.55257
 21
75.590406
 31
0.0
  0
LINE
  8
LC-002-002-----0
  6
CONTINUOUS
  5
8F5
 10
258.668053
 20
74.199944
 30
0.0
 11
249.731956
 21
74.925905
 31
0.0
  0
LINE
  8
LC-002-002-----0
  6
CONTINUOUS
  5
8F6
 10
333.022964
 20
118.185288
 30
0.0
 11
332.325021
 21
118.218157
 31
0.0
  0
LINE
  8
LC-002-002-----0
  6
CONTINUOUS
  5
8F7
 10
220.7282
 20
296.610156
 30
0.0
 11
218.410141
 21
298.928215
 31
0.0
  0
LINE
  8
LC-002-002-----0
  6
CONTINUOUS
  5
8F8
 10
355.7282
 20
296.610156
 30
0.0
 11
358.046259
 21
298.928215
 31
0.0
  0
ENDSEC
  0
EOF
