  0
SECTION
  2
HEADER
  9
$ACADVER
  1
AC1009
  9
$INSBASE
 10
0.0
 20
0.0
 30
0.0
  9
$EXTMIN
 10
0.0
 20
0.0
 30
0.0
  9
$EXTMAX
 10
1188.0
 20
840.0
 30
0.0
  9
$LIMMIN
 10
0.0
 20
0.0
  9
$LIMMAX
 10
1188.0
 20
840.0
  9
$ORTHOMODE
 70
     0
  9
$REGENMODE
 70
     1
  9
$FILLMODE
 70
     1
  9
$QTEXTMODE
 70
     0
  9
$MIRRTEXT
 70
     1
  9
$DRAGMODE
 70
     2
  9
$LTSCALE
 40
2.0
  9
$OSMODE
 70
     0
  9
$ATTMODE
 70
     1
  9
$TEXTSIZE
 40
0.2
  9
$TRACEWID
 40
0.05
  9
$TEXTSTYLE
  7
STANDARD
  9
$CLAYER
  8
0
  9
$CELTYPE
  6
BYLAYER
  9
$CECOLOR
 62
     7
  9
$DIMSCALE
 40
2.0
  9
$DIMASZ
 40
3.5
  9
$DIMEXO
 40
0.0625
  9
$DIMDLI
 40
0.38
  9
$DIMRND
 40
0.0
  9
$DIMDLE
 40
0.0
  9
$DIMEXE
 40
0.18
  9
$DIMTP
 40
0.0
  9
$DIMTM
 40
0.0
  9
$DIMTXT
 40
3.5
  9
$DIMCEN
 40
0.09
  9
$DIMTSZ
 40
0.0
  9
$DIMTOL
 70
     0
  9
$DIMLIM
 70
     0
  9
$DIMTIH
 70
     1
  9
$DIMTOH
 70
     1
  9
$DIMSE1
 70
     0
  9
$DIMSE2
 70
     0
  9
$DIMTAD
 70
     1
  9
$DIMZIN
 70
     0
  9
$DIMBLK
  1

  9
$DIMASO
 70
     1
  9
$DIMSHO
 70
     1
  9
$DIMPOST
  1

  9
$DIMAPOST
  1

  9
$DIMALT
 70
     0
  9
$DIMALTD
 70
     2
  9
$DIMALTF
 40
25.4
  9
$DIMLFAC
 40
1.0
  9
$DIMTOFL
 70
     0
  9
$DIMTVP
 40
0.0
  9
$DIMTIX
 70
     0
  9
$DIMSOXD
 70
     0
  9
$DIMSAH
 70
     0
  9
$DIMBLK1
  1

  9
$DIMBLK2
  1

  9
$DIMSTYLE
  2
STANDARD
  9
$DIMCLRD
 70
     0
  9
$DIMCLRE
 70
     0
  9
$DIMCLRT
 70
     0
  9
$DIMTFAC
 40
1.0
  9
$DIMGAP
 40
0.09
  9
$LUNITS
 70
     2
  9
$LUPREC
 70
     2
  9
$AXISMODE
 70
     0
  9
$AXISUNIT
 10
0.0
 20
0.0
  9
$SKETCHINC
 40
0.1
  9
$FILLETRAD
 40
0.0
  9
$AUNITS
 70
     0
  9
$AUPREC
 70
     0
  9
$MENU
  1
acad
  9
$ELEVATION
 40
0.0
  9
$PELEVATION
 40
0.0
  9
$THICKNESS
 40
0.0
  9
$LIMCHECK
 70
     0
  9
$BLIPMODE
 70
     1
  9
$CHAMFERA
 40
0.0
  9
$CHAMFERB
 40
0.0
  9
$SKPOLY
 70
     0
  9
$TDCREATE
 40
0.000000000
  9
$TDUPDATE
 40
0.000000000
  9
$TDINDWG
 40
0.0000000000
  9
$TDUSRTIMER
 40
0.0000000000
  9
$USRTIMER
 70
     1
  9
$ANGBASE
 50
0.0
  9
$ANGDIR
 70
     0
  9
$PDMODE
 70
     0
  9
$PDSIZE
 40
0.0
  9
$PLINEWID
 40
0.0
  9
$COORDS
 70
     0
  9
$SPLFRAME
 70
     0
  9
$SPLINETYPE
 70
     6
  9
$SPLINESEGS
 70
     8
  9
$ATTDIA
 70
     0
  9
$ATTREQ
 70
     1
  9
$HANDLING
 70
     1
  9
$HANDSEED
  5
67D
  9
$SURFTAB1
 70
     6
  9
$SURFTAB2
 70
     6
  9
$SURFTYPE
 70
     6
  9
$SURFU
 70
     6
  9
$SURFV
 70
     6
  9
$UCSNAME
  2

  9
$UCSORG
 10
0.0
 20
0.0
 30
0.0
  9
$UCSXDIR
 10
1.0
 20
0.0
 30
0.0
  9
$UCSYDIR
 10
0.0
 20
1.0
 30
0.0
  9
$PUCSNAME
  2

  9
$PUCSORG
 10
0.0
 20
0.0
 30
0.0
  9
$PUCSXDIR
 10
1.0
 20
0.0
 30
0.0
  9
$PUCSYDIR
 10
0.0
 20
1.0
 30
0.0
  9
$USERI1
 70
     0
  9
$USERI2
 70
     0
  9
$USERI3
 70
     0
  9
$USERI4
 70
     0
  9
$USERI5
 70
     0
  9
$USERR1
 40
0.0
  9
$USERR2
 40
0.0
  9
$USERR3
 40
0.0
  9
$USERR4
 40
0.0
  9
$USERR5
 40
0.0
  9
$WORLDVIEW
 70
     1
  9
$SHADEDGE
 70
     3
  9
$SHADEDIF
 70
    70
  9
$TILEMODE
 70
     1
  9
$MAXACTVP
 70
    16
  9
$PINSBASE
 10
0.0
 20
0.0
 30
0.0
  9
$PLIMCHECK
 70
     0
  9
$PEXTMIN
 10
1.000000E+20
 20
1.000000E+20
 30
1.000000E+20
  9
$PEXTMAX
 10
-1.000000E+20
 20
-1.000000E+20
 30
-1.000000E+20
  9
$PLIMMIN
 10
0.0
 20
0.0
  9
$PLIMMAX
 10
1188.0
 20
840.0
  9
$UNITMODE
 70
     0
  9
$VISRETAIN
 70
     0
  9
$PLINEGEN
 70
     1
  9
$PSLTSCALE
 70
     0
  9
$TREEDEPTH
 70
  3020
  9
$DWGCODEPAGE
  3
dos850
  0
ENDSEC
  0
SECTION
  2
TABLES
  0
TABLE
  2
VPORT
 70
     1
  0
VPORT
  2
*ACTIVE
 70
     0
 10
0.0
 20
0.0
 11
1.0
 21
1.0
 12
594.0
 22
420.0
 13
0.0
 23
0.0
 14
1.0
 24
1.0
 15
0.0
 25
0.0
 16
0.0
 26
0.0
 36
1.0
 17
0.0
 27
0.0
 37
0.0
 40
840.0
 41
1.604229
 42
50.0
 43
0.0
 44
0.0
 50
0.0
 51
0.0
 71
     0
 72
   100
 73
     1
 74
     1
 75
     0
 76
     0
 77
     0
 78
     0
  0
ENDTAB
  0
TABLE
  2
LTYPE
 70
     3
  0
LTYPE
  2
CONTINUOUS
 70
    64
  3
Solid line
 72
    65
 73
     0
 40
0.0
  0
LTYPE
  2
DASHED
 70
    64
  3
__ __ __ __ __
 72
    65
 73
     2
 40
6.25
 49
5.0
 49
-1.25
  0
LTYPE
  2
DASHDOT
 70
    64
  3
__ . __ . __ . __ . __
 72
    65
 73
     4
 40
7.5
 49
5.0
 49
-1.25
 49
0.0
 49
-1.25
  0
ENDTAB
  0
TABLE
  2
LAYER
 70
    13
  0
LAYER
  2
0
 70
     0
 62
     7
  6
CONTINUOUS
  0
LAYER
  2
LC-INFO-1-2-MM-A2-0
 70
     1
 62
    -1
  6
CONTINUOUS
  0
LAYER
  2
LC-003-003-MTH-0
 70
     0
 62
     2
  6
CONTINUOUS
  0
LAYER
  2
LC-004-003-MTG-0
 70
     0
 62
     2
  6
CONTINUOUS
  0
LAYER
  2
LC-002-003-----0
 70
     0
 62
     2
  6
CONTINUOUS
  0
LAYER
  2
LC-006-005-----0
 70
     0
 62
     2
  6
CONTINUOUS
  0
LAYER
  2
LC-007-000-----0
 70
     0
 62
     7
  6
CONTINUOUS
  0
LAYER
  2
LC-009-100-D02-0
 70
     0
 62
     7
  6
CONTINUOUS
  0
LAYER
  2
LC-001-002-----0
 70
     0
 62
     2
  6
CONTINUOUS
  0
LAYER
  2
LC-005-002-RND-0
 70
     0
 62
     1
  6
CONTINUOUS
  0
LAYER
  2
LC-008-061-----0
 70
     0
 62
     2
  6
DASHDOT
  0
LAYER
  2
LC-010-100-D00-0
 70
     0
 62
     7
  6
CONTINUOUS
  0
LAYER
  2
LC-000
 70
     0
 62
     7
  6
CONTINUOUS
  0
ENDTAB
  0
TABLE
  2
STYLE
 70
     4
  0
STYLE
  2
STANDARD
 70
     0
 40
0.0
 41
1.0
 50
0.0
 71
     0
 42
0.0
  3
txt
  4

  0
STYLE
  2
LC-STANDARD
 70
    64
 40
0.0
 41
1.0
 50
0.0
 71
     0
 42
3.5
  3
MONOTXT
  4

  0
STYLE
  2
LC-TXTSTYLE-150-400-0-0-D2
 70
    64
 40
0.0
 41
1.0
 50
15.0
 71
     0
 42
3.5
  3
MONOTXT
  4

  0
STYLE
  2
LC-TXTSTYLE-150-400-0-0-D3
 70
    64
 40
0.0
 41
1.0
 50
15.0
 71
     0
 42
3.5
  3
LC-STANDARD
  4

  0
ENDTAB
  0
TABLE
  2
VIEW
 70
     0
  0
ENDTAB
  0
TABLE
  2
UCS
 70
     0
  0
ENDTAB
  0
TABLE
  2
APPID
 70
     1
  0
APPID
  2
ACAD
 70
     0
  0
ENDTAB
  0
TABLE
  2
DIMSTYLE
 70
     3
  0
DIMSTYLE
  2
STANDARD
 70
     0
  3

  4

  5

  6

  7

 40
1.0
 41
0.18
 42
0.0625
 43
0.38
 44
0.18
 45
0.0
 46
0.0
 47
0.0
 48
0.0
 71
     0
 72
     0
 73
     1
 74
     1
 75
     0
 76
     0
 77
     0
 78
     0
140
0.18
141
0.09
142
0.0
143
25.4
144
1.0
145
0.0
146
1.0
147
0.09
170
     0
171
     2
172
     0
173
     0
174
     0
175
     0
176
     0
177
     0
178
     0
  0
DIMSTYLE
  2
LC-STANDARD
 70
     0
  3

  4

  5

  6

  7

 40
1.0
 41
3.5
 42
0.0
 43
7.5
 44
1.8
 45
0.0
 46
0.0
 47
0.0
 48
0.0
 71
     0
 72
     0
 73
     0
 74
     0
 75
     0
 76
     0
 77
     1
 78
     8
140
3.5
141
0.0
142
0.0
143
25.4
144
1.0
145
0.0
146
0.71
147
1.5
170
     0
171
     2
172
     1
173
     0
174
     0
175
     0
176
     0
177
     0
178
     3
  0
DIMSTYLE
  2
LC-DIM-L-0090-02-02
 70
     0
  3

  4

  5

  6

  7

 40
2.0
 41
3.5
 42
0.0
 43
7.5
 44
1.8
 45
0.0
 46
0.0
 47
0.0
 48
0.0
 71
     0
 72
     0
 73
     0
 74
     0
 75
     0
 76
     0
 77
     1
 78
     8
140
9.0
141
0.0
142
0.0
143
25.4
144
1.0
145
0.0
146
0.71
147
1.5
170
     0
171
     2
172
     0
173
     0
174
     0
175
     0
176
     2
177
     2
178
     6
  0
ENDTAB
  0
ENDSEC
  0
SECTION
  2
BLOCKS
  0
BLOCK
  8
0
  5
23
  2
*D0
 70
    65
 10
0.0
 20
0.0
 30
0.0
  3
*D0
  0
LINE
  8
LC-003-003-MTH-0
  6
CONTINUOUS
  5
25
 10
459.373135
 20
303.161947
 30
0.0
 11
459.373135
 21
140.4
 31
0.0
  0
LINE
  8
LC-003-003-MTH-0
  6
CONTINUOUS
  5
26
 10
625.614514
 20
303.161947
 30
0.0
 11
625.614514
 21
140.4
 31
0.0
  0
LINE
  8
LC-004-003-MTG-0
  6
CONTINUOUS
  5
28
 10
459.373135
 20
151.2
 30
0.0
 11
625.614514
 21
151.2
 31
0.0
  0
LINE
  8
LC-002-003-----0
  6
CONTINUOUS
  5
2A
 10
477.219142
 20
153.549471
 30
0.0
 11
459.373135
 21
151.2
 31
0.0
  0
LINE
  8
LC-002-003-----0
  6
CONTINUOUS
  5
2B
 10
459.373135
 20
151.2
 30
0.0
 11
477.219142
 21
148.850529
 31
0.0
  0
LINE
  8
LC-002-003-----0
  6
CONTINUOUS
  5
2C
 10
477.219142
 20
148.850529
 30
0.0
 11
477.219142
 21
153.549471
 31
0.0
  0
LINE
  8
LC-002-003-----0
  6
CONTINUOUS
  5
2D
 10
477.25918
 20
152.938609
 30
0.0
 11
464.053135
 21
151.2
 31
0.0
  0
LINE
  8
LC-002-003-----0
  6
CONTINUOUS
  5
2E
 10
464.053135
 20
151.2
 30
0.0
 11
477.25918
 21
149.461391
 31
0.0
  0
LINE
  8
LC-002-003-----0
  6
CONTINUOUS
  5
2F
 10
477.299218
 20
152.327746
 30
0.0
 11
468.733135
 21
151.2
 31
0.0
  0
LINE
  8
LC-002-003-----0
  6
CONTINUOUS
  5
30
 10
468.733135
 20
151.2
 30
0.0
 11
477.299218
 21
150.072254
 31
0.0
  0
LINE
  8
LC-002-003-----0
  6
CONTINUOUS
  5
31
 10
477.339256
 20
151.716884
 30
0.0
 11
473.413135
 21
151.2
 31
0.0
  0
LINE
  8
LC-002-003-----0
  6
CONTINUOUS
  5
32
 10
473.413135
 20
151.2
 30
0.0
 11
477.339256
 21
150.683116
 31
0.0
  0
LINE
  8
LC-002-003-----0
  6
CONTINUOUS
  5
33
 10
607.768506
 20
148.850529
 30
0.0
 11
625.614514
 21
151.2
 31
0.0
  0
LINE
  8
LC-002-003-----0
  6
CONTINUOUS
  5
34
 10
625.614514
 20
151.2
 30
0.0
 11
607.768506
 21
153.549471
 31
0.0
  0
LINE
  8
LC-002-003-----0
  6
CONTINUOUS
  5
35
 10
607.768506
 20
153.549471
 30
0.0
 11
607.768506
 21
148.850529
 31
0.0
  0
LINE
  8
LC-002-003-----0
  6
CONTINUOUS
  5
36
 10
607.728468
 20
149.461391
 30
0.0
 11
620.934514
 21
151.2
 31
0.0
  0
LINE
  8
LC-002-003-----0
  6
CONTINUOUS
  5
37
 10
620.934514
 20
151.2
 30
0.0
 11
607.728468
 21
152.938609
 31
0.0
  0
LINE
  8
LC-002-003-----0
  6
CONTINUOUS
  5
38
 10
607.68843
 20
150.072254
 30
0.0
 11
616.254514
 21
151.2
 31
0.0
  0
LINE
  8
LC-002-003-----0
  6
CONTINUOUS
  5
39
 10
616.254514
 20
151.2
 30
0.0
 11
607.68843
 21
152.327746
 31
0.0
  0
LINE
  8
LC-002-003-----0
  6
CONTINUOUS
  5
3A
 10
607.648392
 20
150.683116
 30
0.0
 11
611.574514
 21
151.2
 31
0.0
  0
LINE
  8
LC-002-003-----0
  6
CONTINUOUS
  5
3B
 10
611.574514
 20
151.2
 30
0.0
 11
607.648392
 21
151.716884
 31
0.0
  0
TEXT
  8
LC-002-003-----0
  6
CONTINUOUS
 62
     6
  5
3D
 10
520.797731
 20
156.231999
 30
0.0
 40
18.0
  1
Ø166
 41
0.9
 51
15.0
  7
LC-TXTSTYLE-150-400-0-0-D0
 72
     1
 11
545.28907
 21
156.231999
 31
0.0
  0
ENDBLK
  8
0
  5
3E
  0
BLOCK
  8
0
  5
40
  2
*D1
 70
    65
 10
0.0
 20
0.0
 30
0.0
  3
*D1
  0
LINE
  8
LC-003-003-MTH-0
  6
CONTINUOUS
  5
41
 10
424.047574
 20
586.62943
 30
0.0
 11
349.2
 21
586.62943
 31
0.0
  0
LINE
  8
LC-003-003-MTH-0
  6
CONTINUOUS
  5
42
 10
426.017574
 20
609.28443
 30
0.0
 11
349.2
 21
609.28443
 31
0.0
  0
LINE
  8
LC-002-003-----0
  6
CONTINUOUS
  5
43
 10
362.349471
 20
568.783422
 30
0.0
 11
360.0
 21
586.62943
 31
0.0
  0
LINE
  8
LC-002-003-----0
  6
CONTINUOUS
  5
44
 10
360.0
 20
586.62943
 30
0.0
 11
357.650529
 21
568.783422
 31
0.0
  0
LINE
  8
LC-002-003-----0
  6
CONTINUOUS
  5
45
 10
357.650529
 20
568.783422
 30
0.0
 11
362.349471
 21
568.783422
 31
0.0
  0
LINE
  8
LC-002-003-----0
  6
CONTINUOUS
  5
46
 10
361.738609
 20
568.743384
 30
0.0
 11
360.0
 21
581.94943
 31
0.0
  0
LINE
  8
LC-002-003-----0
  6
CONTINUOUS
  5
47
 10
360.0
 20
581.94943
 30
0.0
 11
358.261391
 21
568.743384
 31
0.0
  0
LINE
  8
LC-002-003-----0
  6
CONTINUOUS
  5
48
 10
361.127746
 20
568.703346
 30
0.0
 11
360.0
 21
577.26943
 31
0.0
  0
LINE
  8
LC-002-003-----0
  6
CONTINUOUS
  5
49
 10
360.0
 20
577.26943
 30
0.0
 11
358.872254
 21
568.703346
 31
0.0
  0
LINE
  8
LC-002-003-----0
  6
CONTINUOUS
  5
4A
 10
360.516884
 20
568.663308
 30
0.0
 11
360.0
 21
572.58943
 31
0.0
  0
LINE
  8
LC-002-003-----0
  6
CONTINUOUS
  5
4B
 10
360.0
 20
572.58943
 30
0.0
 11
359.483116
 21
568.663308
 31
0.0
  0
LINE
  8
LC-002-003-----0
  6
CONTINUOUS
  5
4C
 10
357.650529
 20
627.130437
 30
0.0
 11
360.0
 21
609.28443
 31
0.0
  0
LINE
  8
LC-002-003-----0
  6
CONTINUOUS
  5
4D
 10
360.0
 20
609.28443
 30
0.0
 11
362.349471
 21
627.130437
 31
0.0
  0
LINE
  8
LC-002-003-----0
  6
CONTINUOUS
  5
4E
 10
362.349471
 20
627.130437
 30
0.0
 11
357.650529
 21
627.130437
 31
0.0
  0
LINE
  8
LC-002-003-----0
  6
CONTINUOUS
  5
4F
 10
358.261391
 20
627.170475
 30
0.0
 11
360.0
 21
613.96443
 31
0.0
  0
LINE
  8
LC-002-003-----0
  6
CONTINUOUS
  5
50
 10
360.0
 20
613.96443
 30
0.0
 11
361.738609
 21
627.170475
 31
0.0
  0
LINE
  8
LC-002-003-----0
  6
CONTINUOUS
  5
51
 10
358.872254
 20
627.210513
 30
0.0
 11
360.0
 21
618.64443
 31
0.0
  0
LINE
  8
LC-002-003-----0
  6
CONTINUOUS
  5
52
 10
360.0
 20
618.64443
 30
0.0
 11
361.127746
 21
627.210513
 31
0.0
  0
LINE
  8
LC-002-003-----0
  6
CONTINUOUS
  5
53
 10
359.483116
 20
627.250551
 30
0.0
 11
360.0
 21
623.32443
 31
0.0
  0
LINE
  8
LC-002-003-----0
  6
CONTINUOUS
  5
54
 10
360.0
 20
623.32443
 30
0.0
 11
360.516884
 21
627.250551
 31
0.0
  0
LINE
  8
LC-004-003-MTG-0
  6
CONTINUOUS
  5
55
 10
360.0
 20
561.42943
 30
0.0
 11
360.0
 21
667.286949
 31
0.0
  0
TEXT
  8
LC-002-003-----0
  6
CONTINUOUS
 62
     6
  5
56
 10
349.568001
 20
636.559675
 30
0.0
 40
18.0
  1
23
 50
90.0
 51
15.0
  7
LC-TXTSTYLE-150-400-0-0-D0
  0
ENDBLK
  8
0
  5
57
  0
BLOCK
  8
0
  5
59
  2
*X2
 70
    65
 10
443.993824
 20
469.849896
 30
0.0
  3
*X2
  0
LINE
  8
LC-006-005-----0
  6
CONTINUOUS
  5
5B
 10
447.115234
 20
470.025494
 30
0.0
 11
448.318227
 21
471.228486
 31
0.0
  0
LINE
  8
LC-006-005-----0
  6
CONTINUOUS
  5
5C
 10
446.704448
 20
469.897551
 30
0.0
 11
448.44617
 21
471.639272
 31
0.0
  0
LINE
  8
LC-006-005-----0
  6
CONTINUOUS
  5
5D
 10
446.377952
 20
469.853897
 30
0.0
 11
448.489823
 21
471.965768
 31
0.0
  0
LINE
  8
LC-006-005-----0
  6
CONTINUOUS
  5
5E
 10
446.095971
 20
469.854759
 30
0.0
 11
448.493824
 21
472.252612
 31
0.0
  0
LINE
  8
LC-006-005-----0
  6
CONTINUOUS
  5
5F
 10
445.844063
 20
469.885694
 30
0.0
 11
448.493824
 21
472.535455
 31
0.0
  0
LINE
  8
LC-006-005-----0
  6
CONTINUOUS
  5
60
 10
445.615062
 20
469.939535
 30
0.0
 11
448.493824
 21
472.818298
 31
0.0
  0
LINE
  8
LC-006-005-----0
  6
CONTINUOUS
  5
61
 10
445.404849
 20
470.012165
 30
0.0
 11
448.493824
 21
473.10114
 31
0.0
  0
LINE
  8
LC-006-005-----0
  6
CONTINUOUS
  5
62
 10
445.210864
 20
470.101023
 30
0.0
 11
448.493824
 21
473.383983
 31
0.0
  0
LINE
  8
LC-006-005-----0
  6
CONTINUOUS
  5
63
 10
445.03146
 20
470.204461
 30
0.0
 11
448.493824
 21
473.666826
 31
0.0
  0
LINE
  8
LC-006-005-----0
  6
CONTINUOUS
  5
64
 10
444.865583
 20
470.321427
 30
0.0
 11
448.493824
 21
473.949668
 31
0.0
  0
LINE
  8
LC-006-005-----0
  6
CONTINUOUS
  5
65
 10
444.712609
 20
470.451296
 30
0.0
 11
448.493168
 21
474.231855
 31
0.0
  0
LINE
  8
LC-006-005-----0
  6
CONTINUOUS
  5
66
 10
444.572257
 20
470.593787
 30
0.0
 11
448.471581
 21
474.493111
 31
0.0
  0
LINE
  8
LC-006-005-----0
  6
CONTINUOUS
  5
67
 10
444.444553
 20
470.748925
 30
0.0
 11
448.425079
 21
474.729451
 31
0.0
  0
LINE
  8
LC-006-005-----0
  6
CONTINUOUS
  5
68
 10
444.329832
 20
470.917047
 30
0.0
 11
448.358591
 21
474.945806
 31
0.0
  0
LINE
  8
LC-006-005-----0
  6
CONTINUOUS
  5
69
 10
444.228784
 20
471.098841
 30
0.0
 11
448.275116
 21
475.145174
 31
0.0
  0
LINE
  8
LC-006-005-----0
  6
CONTINUOUS
  5
6A
 10
444.142548
 20
471.295448
 30
0.0
 11
448.176571
 21
475.329471
 31
0.0
  0
LINE
  8
LC-006-005-----0
  6
CONTINUOUS
  5
6B
 10
444.072899
 20
471.508642
 30
0.0
 11
448.064189
 21
475.499932
 31
0.0
  0
LINE
  8
LC-006-005-----0
  6
CONTINUOUS
  5
6C
 10
444.022602
 20
471.741188
 30
0.0
 11
447.93873
 21
475.657315
 31
0.0
  0
LINE
  8
LC-006-005-----0
  6
CONTINUOUS
  5
6D
 10
443.996152
 20
471.99758
 30
0.0
 11
447.800587
 21
475.802016
 31
0.0
  0
LINE
  8
LC-006-005-----0
  6
CONTINUOUS
  5
6E
 10
443.993824
 20
472.278096
 30
0.0
 11
447.649841
 21
475.934112
 31
0.0
  0
LINE
  8
LC-006-005-----0
  6
CONTINUOUS
  5
6F
 10
443.993824
 20
472.560938
 30
0.0
 11
447.486264
 21
476.053378
 31
0.0
  0
LINE
  8
LC-006-005-----0
  6
CONTINUOUS
  5
70
 10
443.993824
 20
472.843781
 30
0.0
 11
447.309297
 21
476.159253
 31
0.0
  0
LINE
  8
LC-006-005-----0
  6
CONTINUOUS
  5
71
 10
443.993824
 20
473.126624
 30
0.0
 11
447.117971
 21
476.25077
 31
0.0
  0
LINE
  8
LC-006-005-----0
  6
CONTINUOUS
  5
72
 10
443.993824
 20
473.409466
 30
0.0
 11
446.91076
 21
476.326402
 31
0.0
  0
LINE
  8
LC-006-005-----0
  6
CONTINUOUS
  5
73
 10
443.993824
 20
473.692309
 30
0.0
 11
446.685299
 21
476.383783
 31
0.0
  0
LINE
  8
LC-006-005-----0
  6
CONTINUOUS
  5
74
 10
443.993824
 20
473.975152
 30
0.0
 11
446.437814
 21
476.419141
 31
0.0
  0
LINE
  8
LC-006-005-----0
  6
CONTINUOUS
  5
75
 10
443.995318
 20
474.259488
 30
0.0
 11
446.161856
 21
476.426026
 31
0.0
  0
LINE
  8
LC-006-005-----0
  6
CONTINUOUS
  5
76
 10
444.02948
 20
474.576493
 30
0.0
 11
445.844851
 21
476.391864
 31
0.0
  0
LINE
  8
LC-006-005-----0
  6
CONTINUOUS
  5
77
 10
444.136719
 20
474.966575
 30
0.0
 11
445.454769
 21
476.284625
 31
0.0
  0
LINE
  8
LC-006-005-----0
  6
CONTINUOUS
  5
78
 10
444.585512
 20
475.698211
 30
0.0
 11
444.723133
 21
475.835832
 31
0.0
  0
ENDBLK
  8
0
  5
79
  0
BLOCK
  8
0
  5
7B
  2
*X3
 70
    65
 10
422.077574
 20
466.161947
 30
0.0
  3
*X3
  0
LINE
  8
LC-006-005-----0
  6
CONTINUOUS
  5
7C
 10
449.191385
 20
466.161947
 30
0.0
 11
451.381324
 21
468.351887
 31
0.0
  0
LINE
  8
LC-006-005-----0
  6
CONTINUOUS
  5
7D
 10
445.550178
 20
466.763382
 30
0.0
 11
451.381324
 21
472.594528
 31
0.0
  0
LINE
  8
LC-006-005-----0
  6
CONTINUOUS
  5
7E
 10
448.524824
 20
473.980668
 30
0.0
 11
451.381324
 21
476.837168
 31
0.0
  0
LINE
  8
LC-006-005-----0
  6
CONTINUOUS
  5
7F
 10
446.626498
 20
476.324983
 30
0.0
 11
451.381324
 21
481.079809
 31
0.0
  0
LINE
  8
LC-006-005-----0
  6
CONTINUOUS
  5
80
 10
444.732574
 20
478.6737
 30
0.0
 11
445.581229
 21
479.522354
 31
0.0
  0
LINE
  8
LC-006-005-----0
  6
CONTINUOUS
  5
81
 10
448.524824
 20
482.46595
 30
0.0
 11
451.381324
 21
485.32245
 31
0.0
  0
LINE
  8
LC-006-005-----0
  6
CONTINUOUS
  5
82
 10
447.702817
 20
485.886584
 30
0.0
 11
451.381324
 21
489.56509
 31
0.0
  0
LINE
  8
LC-006-005-----0
  6
CONTINUOUS
  5
83
 10
444.732574
 20
487.158981
 30
0.0
 11
447.445469
 21
489.871876
 31
0.0
  0
LINE
  8
LC-006-005-----0
  6
CONTINUOUS
  5
84
 10
448.524824
 20
490.951231
 30
0.0
 11
451.381324
 21
493.807731
 31
0.0
  0
LINE
  8
LC-006-005-----0
  6
CONTINUOUS
  5
85
 10
448.455203
 20
495.124251
 30
0.0
 11
451.381324
 21
498.050372
 31
0.0
  0
LINE
  8
LC-006-005-----0
  6
CONTINUOUS
  5
86
 10
445.433072
 20
496.34476
 30
0.0
 11
451.381324
 21
502.293013
 31
0.0
  0
LINE
  8
LC-006-005-----0
  6
CONTINUOUS
  5
87
 10
448.524824
 20
503.679153
 30
0.0
 11
451.381324
 21
506.535653
 31
0.0
  0
LINE
  8
LC-006-005-----0
  6
CONTINUOUS
  5
88
 10
446.509391
 20
505.906361
 30
0.0
 11
451.381324
 21
510.778294
 31
0.0
  0
LINE
  8
LC-006-005-----0
  6
CONTINUOUS
  5
89
 10
444.732574
 20
508.372185
 30
0.0
 11
445.378395
 21
509.018005
 31
0.0
  0
LINE
  8
LC-006-005-----0
  6
CONTINUOUS
  5
8A
 10
448.524824
 20
512.164435
 30
0.0
 11
451.381324
 21
515.020935
 31
0.0
  0
LINE
  8
LC-006-005-----0
  6
CONTINUOUS
  5
8B
 10
447.585711
 20
515.467962
 30
0.0
 11
451.381324
 21
519.263575
 31
0.0
  0
LINE
  8
LC-006-005-----0
  6
CONTINUOUS
  5
8C
 10
444.732574
 20
516.857466
 30
0.0
 11
447.242635
 21
519.367526
 31
0.0
  0
LINE
  8
LC-006-005-----0
  6
CONTINUOUS
  5
8D
 10
448.524824
 20
520.649716
 30
0.0
 11
451.381324
 21
523.506216
 31
0.0
  0
LINE
  8
LC-006-005-----0
  6
CONTINUOUS
  5
8E
 10
448.408094
 20
524.775626
 30
0.0
 11
451.381324
 21
527.748857
 31
0.0
  0
LINE
  8
LC-006-005-----0
  6
CONTINUOUS
  5
8F
 10
445.315966
 20
525.926139
 30
0.0
 11
451.381324
 21
531.991497
 31
0.0
  0
LINE
  8
LC-006-005-----0
  6
CONTINUOUS
  5
90
 10
448.524824
 20
533.377638
 30
0.0
 11
451.381324
 21
536.234138
 31
0.0
  0
LINE
  8
LC-006-005-----0
  6
CONTINUOUS
  5
91
 10
446.392285
 20
535.48774
 30
0.0
 11
451.381324
 21
540.476779
 31
0.0
  0
LINE
  8
LC-006-005-----0
  6
CONTINUOUS
  5
92
 10
444.732574
 20
538.070669
 30
0.0
 11
445.17556
 21
538.513656
 31
0.0
  0
LINE
  8
LC-006-005-----0
  6
CONTINUOUS
  5
93
 10
448.524824
 20
541.862919
 30
0.0
 11
451.381324
 21
544.719419
 31
0.0
  0
LINE
  8
LC-006-005-----0
  6
CONTINUOUS
  5
94
 10
447.468605
 20
545.049341
 30
0.0
 11
451.381324
 21
548.96206
 31
0.0
  0
LINE
  8
LC-006-005-----0
  6
CONTINUOUS
  5
95
 10
444.732574
 20
546.555951
 30
0.0
 11
447.039801
 21
548.863177
 31
0.0
  0
LINE
  8
LC-006-005-----0
  6
CONTINUOUS
  5
96
 10
448.524824
 20
550.348201
 30
0.0
 11
451.381324
 21
553.204701
 31
0.0
  0
LINE
  8
LC-006-005-----0
  6
CONTINUOUS
  5
97
 10
448.35192
 20
554.417938
 30
0.0
 11
451.381324
 21
557.447341
 31
0.0
  0
LINE
  8
LC-006-005-----0
  6
CONTINUOUS
  5
98
 10
445.198859
 20
555.507517
 30
0.0
 11
451.381324
 21
561.689982
 31
0.0
  0
LINE
  8
LC-006-005-----0
  6
CONTINUOUS
  5
99
 10
448.524824
 20
563.076123
 30
0.0
 11
451.363325
 21
565.914624
 31
0.0
  0
LINE
  8
LC-006-005-----0
  6
CONTINUOUS
  5
9A
 10
445.86999
 20
564.66393
 30
0.0
 11
448.82499
 21
567.61893
 31
0.0
  0
LINE
  8
LC-006-005-----0
  6
CONTINUOUS
  5
9B
 10
442.079381
 20
565.115961
 30
0.0
 11
444.594818
 21
567.631397
 31
0.0
  0
LINE
  8
LC-006-005-----0
  6
CONTINUOUS
  5
9C
 10
441.038824
 20
568.318045
 30
0.0
 11
443.766043
 21
571.045264
 31
0.0
  0
LINE
  8
LC-006-005-----0
  6
CONTINUOUS
  5
9D
 10
441.038824
 20
572.560686
 30
0.0
 11
443.766043
 21
575.287904
 31
0.0
  0
LINE
  8
LC-006-005-----0
  6
CONTINUOUS
  5
9E
 10
441.038824
 20
576.803326
 30
0.0
 11
443.766043
 21
579.530545
 31
0.0
  0
LINE
  8
LC-006-005-----0
  6
CONTINUOUS
  5
9F
 10
441.038824
 20
581.045967
 30
0.0
 11
443.766043
 21
583.773186
 31
0.0
  0
LINE
  8
LC-006-005-----0
  6
CONTINUOUS
  5
A0
 10
440.853752
 20
585.103535
 30
0.0
 11
443.766043
 21
588.015826
 31
0.0
  0
LINE
  8
LC-006-005-----0
  6
CONTINUOUS
  5
A1
 10
438.137005
 20
586.62943
 30
0.0
 11
441.092005
 21
589.58443
 31
0.0
  0
LINE
  8
LC-006-005-----0
  6
CONTINUOUS
  5
A2
 10
433.894365
 20
586.62943
 30
0.0
 11
436.849365
 21
589.58443
 31
0.0
  0
LINE
  8
LC-006-005-----0
  6
CONTINUOUS
  5
A3
 10
429.651724
 20
586.62943
 30
0.0
 11
432.606724
 21
589.58443
 31
0.0
  0
LINE
  8
LC-006-005-----0
  6
CONTINUOUS
  5
A4
 10
425.409083
 20
586.62943
 30
0.0
 11
428.364083
 21
589.58443
 31
0.0
  0
LINE
  8
LC-006-005-----0
  6
CONTINUOUS
  5
A5
 10
422.571835
 20
588.034822
 30
0.0
 11
424.121443
 21
589.58443
 31
0.0
  0
LINE
  8
LC-006-005-----0
  6
CONTINUOUS
  5
A6
 10
425.032574
 20
590.495561
 30
0.0
 11
427.987574
 21
593.450561
 31
0.0
  0
LINE
  8
LC-006-005-----0
  6
CONTINUOUS
  5
A7
 10
425.032574
 20
594.738202
 30
0.0
 11
427.987574
 21
597.693202
 31
0.0
  0
LINE
  8
LC-006-005-----0
  6
CONTINUOUS
  5
A8
 10
425.032574
 20
598.980842
 30
0.0
 11
427.987574
 21
601.935842
 31
0.0
  0
LINE
  8
LC-006-005-----0
  6
CONTINUOUS
  5
A9
 10
425.032574
 20
603.223483
 30
0.0
 11
427.987574
 21
606.178483
 31
0.0
  0
LINE
  8
LC-006-005-----0
  6
CONTINUOUS
  5
AA
 10
423.86336
 20
606.296909
 30
0.0
 11
426.72101
 21
609.154559
 31
0.0
  0
ENDBLK
  8
0
  5
AB
  0
BLOCK
  8
0
  5
AD
  2
*X4
 70
    65
 10
633.606324
 20
466.161947
 30
0.0
  3
*X4
  0
LINE
  8
LC-006-005-----0
  6
CONTINUOUS
  5
AE
 10
635.867575
 20
466.161947
 30
0.0
 11
639.383991
 21
469.678364
 31
0.0
  0
LINE
  8
LC-006-005-----0
  6
CONTINUOUS
  5
AF
 10
633.606324
 20
468.143337
 30
0.0
 11
636.482754
 21
471.019767
 31
0.0
  0
LINE
  8
LC-006-005-----0
  6
CONTINUOUS
  5
B0
 10
633.606324
 20
472.385978
 30
0.0
 11
636.484
 21
475.263654
 31
0.0
  0
LINE
  8
LC-006-005-----0
  6
CONTINUOUS
  5
B1
 10
637.246717
 20
476.026371
 30
0.0
 11
640.255074
 21
479.034728
 31
0.0
  0
LINE
  8
LC-006-005-----0
  6
CONTINUOUS
  5
B2
 10
633.606324
 20
476.628619
 30
0.0
 11
637.116873
 21
480.139168
 31
0.0
  0
LINE
  8
LC-006-005-----0
  6
CONTINUOUS
  5
B3
 10
633.606324
 20
480.87126
 30
0.0
 11
636.462824
 21
483.72776
 31
0.0
  0
LINE
  8
LC-006-005-----0
  6
CONTINUOUS
  5
B4
 10
639.110957
 20
486.375893
 30
0.0
 11
640.255074
 21
487.52001
 31
0.0
  0
LINE
  8
LC-006-005-----0
  6
CONTINUOUS
  5
B5
 10
633.606324
 20
485.1139
 30
0.0
 11
638.190565
 21
489.698141
 31
0.0
  0
LINE
  8
LC-006-005-----0
  6
CONTINUOUS
  5
B6
 10
633.606324
 20
489.356541
 30
0.0
 11
636.462824
 21
492.213041
 31
0.0
  0
LINE
  8
LC-006-005-----0
  6
CONTINUOUS
  5
B7
 10
633.606324
 20
493.599182
 30
0.0
 11
639.266885
 21
499.259742
 31
0.0
  0
LINE
  8
LC-006-005-----0
  6
CONTINUOUS
  5
B8
 10
633.606324
 20
497.841822
 30
0.0
 11
636.465061
 21
500.700559
 31
0.0
  0
LINE
  8
LC-006-005-----0
  6
CONTINUOUS
  5
B9
 10
633.606324
 20
502.084463
 30
0.0
 11
636.56095
 21
505.039089
 31
0.0
  0
LINE
  8
LC-006-005-----0
  6
CONTINUOUS
  5
BA
 10
637.019246
 20
505.497384
 30
0.0
 11
640.255074
 21
508.733213
 31
0.0
  0
LINE
  8
LC-006-005-----0
  6
CONTINUOUS
  5
BB
 10
633.606324
 20
506.327104
 30
0.0
 11
637.012529
 21
509.733309
 31
0.0
  0
LINE
  8
LC-006-005-----0
  6
CONTINUOUS
  5
BC
 10
633.606324
 20
510.569744
 30
0.0
 11
636.462824
 21
513.426244
 31
0.0
  0
LINE
  8
LC-006-005-----0
  6
CONTINUOUS
  5
BD
 10
638.908123
 20
515.871543
 30
0.0
 11
640.255074
 21
517.218494
 31
0.0
  0
LINE
  8
LC-006-005-----0
  6
CONTINUOUS
  5
BE
 10
633.606324
 20
514.812385
 30
0.0
 11
638.073459
 21
519.27952
 31
0.0
  0
LINE
  8
LC-006-005-----0
  6
CONTINUOUS
  5
BF
 10
633.606324
 20
519.055026
 30
0.0
 11
636.462824
 21
521.911526
 31
0.0
  0
LINE
  8
LC-006-005-----0
  6
CONTINUOUS
  5
C0
 10
633.606324
 20
523.297666
 30
0.0
 11
639.149779
 21
528.841121
 31
0.0
  0
LINE
  8
LC-006-005-----0
  6
CONTINUOUS
  5
C1
 10
633.606324
 20
527.540307
 30
0.0
 11
636.462824
 21
530.396807
 31
0.0
  0
LINE
  8
LC-006-005-----0
  6
CONTINUOUS
  5
C2
 10
633.606324
 20
531.782948
 30
0.0
 11
640.226098
 21
538.402722
 31
0.0
  0
LINE
  8
LC-006-005-----0
  6
CONTINUOUS
  5
C3
 10
633.606324
 20
536.025588
 30
0.0
 11
636.917556
 21
539.33682
 31
0.0
  0
LINE
  8
LC-006-005-----0
  6
CONTINUOUS
  5
C4
 10
633.606324
 20
540.268229
 30
0.0
 11
636.462824
 21
543.124729
 31
0.0
  0
LINE
  8
LC-006-005-----0
  6
CONTINUOUS
  5
C5
 10
638.705289
 20
545.367194
 30
0.0
 11
640.255074
 21
546.916979
 31
0.0
  0
LINE
  8
LC-006-005-----0
  6
CONTINUOUS
  5
C6
 10
633.606324
 20
544.51087
 30
0.0
 11
637.956353
 21
548.860898
 31
0.0
  0
LINE
  8
LC-006-005-----0
  6
CONTINUOUS
  5
C7
 10
633.606324
 20
548.753511
 30
0.0
 11
636.462824
 21
551.610011
 31
0.0
  0
LINE
  8
LC-006-005-----0
  6
CONTINUOUS
  5
C8
 10
633.606324
 20
552.996151
 30
0.0
 11
639.032672
 21
558.422499
 31
0.0
  0
LINE
  8
LC-006-005-----0
  6
CONTINUOUS
  5
C9
 10
633.606324
 20
557.238792
 30
0.0
 11
636.462824
 21
560.095292
 31
0.0
  0
LINE
  8
LC-006-005-----0
  6
CONTINUOUS
  5
CA
 10
641.031462
 20
564.66393
 30
0.0
 11
643.948824
 21
567.581292
 31
0.0
  0
LINE
  8
LC-006-005-----0
  6
CONTINUOUS
  5
CB
 10
633.606324
 20
561.481433
 30
0.0
 11
639.743821
 21
567.61893
 31
0.0
  0
LINE
  8
LC-006-005-----0
  6
CONTINUOUS
  5
CC
 10
641.221606
 20
569.096714
 30
0.0
 11
643.948824
 21
571.823933
 31
0.0
  0
LINE
  8
LC-006-005-----0
  6
CONTINUOUS
  5
CD
 10
658.754321
 20
586.62943
 30
0.0
 11
661.56885
 21
589.443959
 31
0.0
  0
LINE
  8
LC-006-005-----0
  6
CONTINUOUS
  5
CE
 10
633.607815
 20
565.725564
 30
0.0
 11
635.499689
 21
567.617438
 31
0.0
  0
LINE
  8
LC-006-005-----0
  6
CONTINUOUS
  5
CF
 10
641.221606
 20
573.339355
 30
0.0
 11
643.948824
 21
576.066573
 31
0.0
  0
LINE
  8
LC-006-005-----0
  6
CONTINUOUS
  5
D0
 10
654.511681
 20
586.62943
 30
0.0
 11
659.955074
 21
592.072823
 31
0.0
  0
LINE
  8
LC-006-005-----0
  6
CONTINUOUS
  5
D1
 10
641.221606
 20
577.581995
 30
0.0
 11
643.948824
 21
580.309214
 31
0.0
  0
LINE
  8
LC-006-005-----0
  6
CONTINUOUS
  5
D2
 10
650.26904
 20
586.62943
 30
0.0
 11
653.22404
 21
589.58443
 31
0.0
  0
LINE
  8
LC-006-005-----0
  6
CONTINUOUS
  5
D3
 10
657.000074
 20
593.360464
 30
0.0
 11
659.955074
 21
596.315464
 31
0.0
  0
LINE
  8
LC-006-005-----0
  6
CONTINUOUS
  5
D4
 10
641.221606
 20
581.824636
 30
0.0
 11
643.985117
 21
584.588147
 31
0.0
  0
LINE
  8
LC-006-005-----0
  6
CONTINUOUS
  5
D5
 10
645.990106
 20
586.593137
 30
0.0
 11
648.981399
 21
589.58443
 31
0.0
  0
LINE
  8
LC-006-005-----0
  6
CONTINUOUS
  5
D6
 10
657.000074
 20
597.603105
 30
0.0
 11
659.955074
 21
600.558105
 31
0.0
  0
LINE
  8
LC-006-005-----0
  6
CONTINUOUS
  5
D7
 10
641.221606
 20
586.067277
 30
0.0
 11
644.738758
 21
589.58443
 31
0.0
  0
LINE
  8
LC-006-005-----0
  6
CONTINUOUS
  5
D8
 10
657.000074
 20
601.845745
 30
0.0
 11
659.955074
 21
604.800745
 31
0.0
  0
LINE
  8
LC-006-005-----0
  6
CONTINUOUS
  5
D9
 10
661.483758
 20
606.32943
 30
0.0
 11
662.417574
 21
607.263245
 31
0.0
  0
LINE
  8
LC-006-005-----0
  6
CONTINUOUS
  5
DA
 10
657.000074
 20
606.088386
 30
0.0
 11
660.196118
 21
609.28443
 31
0.0
  0
ENDBLK
  8
0
  5
DB
  0
BLOCK
  8
0
  5
DD
  2
*X5
 70
    65
 10
445.493824
 20
577.194179
 30
0.0
  3
*X5
  0
LINE
  8
LC-006-005-----0
  6
CONTINUOUS
  5
DE
 10
469.713948
 20
577.194179
 30
0.0
 11
470.326943
 21
577.807174
 31
0.0
  0
LINE
  8
LC-006-005-----0
  6
CONTINUOUS
  5
DF
 10
467.803692
 20
578.11235
 30
0.0
 11
470.16439
 21
580.473048
 31
0.0
  0
LINE
  8
LC-006-005-----0
  6
CONTINUOUS
  5
E0
 10
467.641139
 20
580.778224
 30
0.0
 11
470.001837
 21
583.138922
 31
0.0
  0
LINE
  8
LC-006-005-----0
  6
CONTINUOUS
  5
E1
 10
467.249999
 20
583.215511
 30
0.0
 11
469.557655
 21
585.523167
 31
0.0
  0
LINE
  8
LC-006-005-----0
  6
CONTINUOUS
  5
E2
 10
464.649119
 20
583.443058
 30
0.0
 11
466.956775
 21
585.750714
 31
0.0
  0
LINE
  8
LC-006-005-----0
  6
CONTINUOUS
  5
E3
 10
462.04824
 20
583.670606
 30
0.0
 11
464.355895
 21
585.978262
 31
0.0
  0
LINE
  8
LC-006-005-----0
  6
CONTINUOUS
  5
E4
 10
459.44736
 20
583.898153
 30
0.0
 11
461.755016
 21
586.205809
 31
0.0
  0
LINE
  8
LC-006-005-----0
  6
CONTINUOUS
  5
E5
 10
456.84648
 20
584.125701
 30
0.0
 11
459.154136
 21
586.433357
 31
0.0
  0
LINE
  8
LC-006-005-----0
  6
CONTINUOUS
  5
E6
 10
454.245601
 20
584.353248
 30
0.0
 11
456.553256
 21
586.660904
 31
0.0
  0
LINE
  8
LC-006-005-----0
  6
CONTINUOUS
  5
E7
 10
451.644721
 20
584.580796
 30
0.0
 11
453.952377
 21
586.888452
 31
0.0
  0
LINE
  8
LC-006-005-----0
  6
CONTINUOUS
  5
E8
 10
449.043841
 20
584.808343
 30
0.0
 11
451.351497
 21
587.115999
 31
0.0
  0
LINE
  8
LC-006-005-----0
  6
CONTINUOUS
  5
E9
 10
446.442962
 20
585.035891
 30
0.0
 11
448.750618
 21
587.343547
 31
0.0
  0
LINE
  8
LC-006-005-----0
  6
CONTINUOUS
  5
EA
 10
445.493824
 20
586.915181
 30
0.0
 11
446.149738
 21
587.571094
 31
0.0
  0
ENDBLK
  8
0
  5
EB
  0
BLOCK
  8
0
  5
ED
  2
*X6
 70
    65
 10
469.749922
 20
529.519753
 30
0.0
  3
*X6
  0
LINE
  8
LC-006-005-----0
  6
CONTINUOUS
  5
EE
 10
524.026177
 20
529.683031
 30
0.0
 11
525.493824
 21
531.150679
 31
0.0
  0
LINE
  8
LC-006-005-----0
  6
CONTINUOUS
  5
EF
 10
521.480914
 20
529.966195
 30
0.0
 11
523.735571
 21
532.220853
 31
0.0
  0
LINE
  8
LC-006-005-----0
  6
CONTINUOUS
  5
F0
 10
518.935651
 20
530.249359
 30
0.0
 11
521.190978
 21
532.504687
 31
0.0
  0
LINE
  8
LC-006-005-----0
  6
CONTINUOUS
  5
F1
 10
516.390388
 20
530.532524
 30
0.0
 11
518.646386
 21
532.788521
 31
0.0
  0
LINE
  8
LC-006-005-----0
  6
CONTINUOUS
  5
F2
 10
513.845125
 20
530.815688
 30
0.0
 11
516.101793
 21
533.072356
 31
0.0
  0
LINE
  8
LC-006-005-----0
  6
CONTINUOUS
  5
F3
 10
511.299862
 20
531.098852
 30
0.0
 11
513.5572
 21
533.35619
 31
0.0
  0
LINE
  8
LC-006-005-----0
  6
CONTINUOUS
  5
F4
 10
508.754599
 20
531.382016
 30
0.0
 11
511.012608
 21
533.640025
 31
0.0
  0
LINE
  8
LC-006-005-----0
  6
CONTINUOUS
  5
F5
 10
506.209336
 20
531.66518
 30
0.0
 11
508.468015
 21
533.923859
 31
0.0
  0
LINE
  8
LC-006-005-----0
  6
CONTINUOUS
  5
F6
 10
503.664073
 20
531.948344
 30
0.0
 11
505.923422
 21
534.207694
 31
0.0
  0
LINE
  8
LC-006-005-----0
  6
CONTINUOUS
  5
F7
 10
501.11881
 20
532.231508
 30
0.0
 11
503.37883
 21
534.491528
 31
0.0
  0
LINE
  8
LC-006-005-----0
  6
CONTINUOUS
  5
F8
 10
498.573547
 20
532.514672
 30
0.0
 11
500.834237
 21
534.775362
 31
0.0
  0
LINE
  8
LC-006-005-----0
  6
CONTINUOUS
  5
F9
 10
496.028284
 20
532.797837
 30
0.0
 11
498.289644
 21
535.059197
 31
0.0
  0
LINE
  8
LC-006-005-----0
  6
CONTINUOUS
  5
FA
 10
493.483021
 20
533.081001
 30
0.0
 11
495.745052
 21
535.343031
 31
0.0
  0
LINE
  8
LC-006-005-----0
  6
CONTINUOUS
  5
FB
 10
490.937758
 20
533.364165
 30
0.0
 11
493.200459
 21
535.626866
 31
0.0
  0
LINE
  8
LC-006-005-----0
  6
CONTINUOUS
  5
FC
 10
488.392495
 20
533.647329
 30
0.0
 11
490.655866
 21
535.9107
 31
0.0
  0
LINE
  8
LC-006-005-----0
  6
CONTINUOUS
  5
FD
 10
485.847232
 20
533.930493
 30
0.0
 11
488.111273
 21
536.194535
 31
0.0
  0
LINE
  8
LC-006-005-----0
  6
CONTINUOUS
  5
FE
 10
483.301969
 20
534.213657
 30
0.0
 11
485.566681
 21
536.478369
 31
0.0
  0
LINE
  8
LC-006-005-----0
  6
CONTINUOUS
  5
FF
 10
480.756706
 20
534.496821
 30
0.0
 11
483.022088
 21
536.762203
 31
0.0
  0
LINE
  8
LC-006-005-----0
  6
CONTINUOUS
  5
100
 10
478.261616
 20
534.830158
 30
0.0
 11
480.477495
 21
537.046038
 31
0.0
  0
LINE
  8
LC-006-005-----0
  6
CONTINUOUS
  5
101
 10
476.23737
 20
535.63434
 30
0.0
 11
478.109443
 21
537.506412
 31
0.0
  0
LINE
  8
LC-006-005-----0
  6
CONTINUOUS
  5
102
 10
474.64301
 20
536.868407
 30
0.0
 11
476.424663
 21
538.65006
 31
0.0
  0
LINE
  8
LC-006-005-----0
  6
CONTINUOUS
  5
103
 10
473.432768
 20
538.486592
 30
0.0
 11
475.330482
 21
540.384306
 31
0.0
  0
LINE
  8
LC-006-005-----0
  6
CONTINUOUS
  5
104
 10
472.659055
 20
540.541306
 30
0.0
 11
474.963388
 21
542.845639
 31
0.0
  0
LINE
  8
LC-006-005-----0
  6
CONTINUOUS
  5
105
 10
471.990984
 20
542.701662
 30
0.0
 11
473.869033
 21
544.579711
 31
0.0
  0
LINE
  8
LC-006-005-----0
  6
CONTINUOUS
  5
106
 10
470.576771
 20
544.115876
 30
0.0
 11
472.454819
 21
545.993925
 31
0.0
  0
LINE
  8
LC-006-005-----0
  6
CONTINUOUS
  5
107
 10
469.754331
 20
546.121864
 30
0.0
 11
469.826647
 21
546.194179
 31
0.0
  0
ENDBLK
  8
0
  5
108
  0
BLOCK
  8
0
  5
10A
  2
*X7
 70
    65
 10
529.493824
 20
527.628479
 30
0.0
  3
*X7
  0
LINE
  8
LC-006-005-----0
  6
CONTINUOUS
  5
10B
 10
541.843018
 20
527.700882
 30
0.0
 11
542.493824
 21
528.351689
 31
0.0
  0
LINE
  8
LC-006-005-----0
  6
CONTINUOUS
  5
10C
 10
539.297755
 20
527.984046
 30
0.0
 11
541.54772
 21
530.234012
 31
0.0
  0
LINE
  8
LC-006-005-----0
  6
CONTINUOUS
  5
10D
 10
536.752492
 20
528.267211
 30
0.0
 11
539.003127
 21
530.517846
 31
0.0
  0
LINE
  8
LC-006-005-----0
  6
CONTINUOUS
  5
10E
 10
534.207229
 20
528.550375
 30
0.0
 11
536.458535
 21
530.80168
 31
0.0
  0
LINE
  8
LC-006-005-----0
  6
CONTINUOUS
  5
10F
 10
531.661966
 20
528.833539
 30
0.0
 11
533.913942
 21
531.085515
 31
0.0
  0
LINE
  8
LC-006-005-----0
  6
CONTINUOUS
  5
110
 10
529.493824
 20
529.493824
 30
0.0
 11
531.369349
 21
531.369349
 31
0.0
  0
ENDBLK
  8
0
  5
111
  0
BLOCK
  8
0
  5
113
  2
*X8
 70
    65
 10
542.493824
 20
527.628479
 30
0.0
  3
*X8
  0
LINE
  8
LC-006-005-----0
  6
CONTINUOUS
  5
114
 10
554.410017
 20
528.954172
 30
0.0
 11
555.493824
 21
530.03798
 31
0.0
  0
LINE
  8
LC-006-005-----0
  6
CONTINUOUS
  5
115
 10
551.227534
 20
528.600117
 30
0.0
 11
554.044282
 21
531.416865
 31
0.0
  0
LINE
  8
LC-006-005-----0
  6
CONTINUOUS
  5
116
 10
548.045051
 20
528.246061
 30
0.0
 11
550.860751
 21
531.061761
 31
0.0
  0
LINE
  8
LC-006-005-----0
  6
CONTINUOUS
  5
117
 10
544.862568
 20
527.892005
 30
0.0
 11
547.677219
 21
530.706657
 31
0.0
  0
LINE
  8
LC-006-005-----0
  6
CONTINUOUS
  5
118
 10
542.493824
 20
528.351689
 30
0.0
 11
544.493688
 21
530.351552
 31
0.0
  0
ENDBLK
  8
0
  5
119
  0
BLOCK
  8
0
  5
11B
  2
*X9
 70
    65
 10
559.493824
 20
529.519753
 30
0.0
  3
*X9
  0
LINE
  8
LC-006-005-----0
  6
CONTINUOUS
  5
11C
 10
605.329742
 20
534.619064
 30
0.0
 11
612.490343
 21
541.779665
 31
0.0
  0
LINE
  8
LC-006-005-----0
  6
CONTINUOUS
  5
11D
 10
602.14726
 20
534.265009
 30
0.0
 11
604.980785
 21
537.098534
 31
0.0
  0
LINE
  8
LC-006-005-----0
  6
CONTINUOUS
  5
11E
 10
609.978571
 20
542.09632
 30
0.0
 11
614.07643
 21
546.194179
 31
0.0
  0
LINE
  8
LC-006-005-----0
  6
CONTINUOUS
  5
11F
 10
598.964777
 20
533.910953
 30
0.0
 11
601.797254
 21
536.74343
 31
0.0
  0
LINE
  8
LC-006-005-----0
  6
CONTINUOUS
  5
120
 10
595.782294
 20
533.556897
 30
0.0
 11
598.613722
 21
536.388326
 31
0.0
  0
LINE
  8
LC-006-005-----0
  6
CONTINUOUS
  5
121
 10
592.599811
 20
533.202841
 30
0.0
 11
595.430191
 21
536.033221
 31
0.0
  0
LINE
  8
LC-006-005-----0
  6
CONTINUOUS
  5
122
 10
589.417328
 20
532.848786
 30
0.0
 11
592.246659
 21
535.678117
 31
0.0
  0
LINE
  8
LC-006-005-----0
  6
CONTINUOUS
  5
123
 10
586.234845
 20
532.49473
 30
0.0
 11
589.063128
 21
535.323013
 31
0.0
  0
LINE
  8
LC-006-005-----0
  6
CONTINUOUS
  5
124
 10
583.052362
 20
532.140674
 30
0.0
 11
585.879597
 21
534.967908
 31
0.0
  0
LINE
  8
LC-006-005-----0
  6
CONTINUOUS
  5
125
 10
579.86988
 20
531.786618
 30
0.0
 11
582.696065
 21
534.612804
 31
0.0
  0
LINE
  8
LC-006-005-----0
  6
CONTINUOUS
  5
126
 10
576.687397
 20
531.432563
 30
0.0
 11
579.512534
 21
534.2577
 31
0.0
  0
LINE
  8
LC-006-005-----0
  6
CONTINUOUS
  5
127
 10
573.504914
 20
531.078507
 30
0.0
 11
576.329002
 21
533.902595
 31
0.0
  0
LINE
  8
LC-006-005-----0
  6
CONTINUOUS
  5
128
 10
570.322431
 20
530.724451
 30
0.0
 11
573.145471
 21
533.547491
 31
0.0
  0
LINE
  8
LC-006-005-----0
  6
CONTINUOUS
  5
129
 10
567.139948
 20
530.370395
 30
0.0
 11
569.961939
 21
533.192387
 31
0.0
  0
LINE
  8
LC-006-005-----0
  6
CONTINUOUS
  5
12A
 10
563.957465
 20
530.01634
 30
0.0
 11
566.778408
 21
532.837282
 31
0.0
  0
LINE
  8
LC-006-005-----0
  6
CONTINUOUS
  5
12B
 10
560.774982
 20
529.662284
 30
0.0
 11
563.594876
 21
532.482178
 31
0.0
  0
LINE
  8
LC-006-005-----0
  6
CONTINUOUS
  5
12C
 10
559.493824
 20
531.209553
 30
0.0
 11
560.411345
 21
532.127074
 31
0.0
  0
ENDBLK
  8
0
  5
12D
  0
BLOCK
  8
0
  5
12F
  2
*X10
 70
    65
 10
614.623327
 20
577.194179
 30
0.0
  3
*X10
  0
LINE
  8
LC-006-005-----0
  6
CONTINUOUS
  5
130
 10
638.798184
 20
585.058069
 30
0.0
 11
639.493824
 21
585.753709
 31
0.0
  0
LINE
  8
LC-006-005-----0
  6
CONTINUOUS
  5
131
 10
635.698577
 20
584.786888
 30
0.0
 11
638.448734
 21
587.537046
 31
0.0
  0
LINE
  8
LC-006-005-----0
  6
CONTINUOUS
  5
132
 10
632.598969
 20
584.515708
 30
0.0
 11
635.349126
 21
587.265865
 31
0.0
  0
LINE
  8
LC-006-005-----0
  6
CONTINUOUS
  5
133
 10
629.499361
 20
584.244527
 30
0.0
 11
632.249518
 21
586.994685
 31
0.0
  0
LINE
  8
LC-006-005-----0
  6
CONTINUOUS
  5
134
 10
626.399754
 20
583.973347
 30
0.0
 11
629.149911
 21
586.723504
 31
0.0
  0
LINE
  8
LC-006-005-----0
  6
CONTINUOUS
  5
135
 10
616.792159
 20
577.194179
 30
0.0
 11
617.149777
 21
577.551797
 31
0.0
  0
LINE
  8
LC-006-005-----0
  6
CONTINUOUS
  5
136
 10
623.300146
 20
583.702166
 30
0.0
 11
626.050303
 21
586.452323
 31
0.0
  0
LINE
  8
LC-006-005-----0
  6
CONTINUOUS
  5
137
 10
614.666158
 20
577.896606
 30
0.0
 11
617.333441
 21
580.563888
 31
0.0
  0
LINE
  8
LC-006-005-----0
  6
CONTINUOUS
  5
138
 10
620.200538
 20
583.430986
 30
0.0
 11
622.950696
 21
586.181143
 31
0.0
  0
LINE
  8
LC-006-005-----0
  6
CONTINUOUS
  5
139
 10
614.849822
 20
580.908697
 30
0.0
 11
619.851088
 21
585.909962
 31
0.0
  0
LINE
  8
LC-006-005-----0
  6
CONTINUOUS
  5
13A
 10
615.033486
 20
583.920788
 30
0.0
 11
616.75148
 21
585.638782
 31
0.0
  0
ENDBLK
  8
0
  5
13B
  0
BLOCK
  8
0
  5
13D
  2
*D11
 70
    65
 10
0.0
 20
0.0
 30
0.0
  3
*D11
  0
LINE
  8
LC-003-003-MTH-0
  6
CONTINUOUS
  5
13E
 10
422.570074
 20
607.31443
 30
0.0
 11
422.570074
 21
690.8
 31
0.0
  0
LINE
  8
LC-003-003-MTH-0
  6
CONTINUOUS
  5
13F
 10
662.417574
 20
607.31443
 30
0.0
 11
662.417574
 21
690.8
 31
0.0
  0
LINE
  8
LC-004-003-MTG-0
  6
CONTINUOUS
  5
140
 10
422.570074
 20
680.0
 30
0.0
 11
662.417574
 21
680.0
 31
0.0
  0
LINE
  8
LC-002-003-----0
  6
CONTINUOUS
  5
141
 10
440.416082
 20
682.349471
 30
0.0
 11
422.570074
 21
680.0
 31
0.0
  0
LINE
  8
LC-002-003-----0
  6
CONTINUOUS
  5
142
 10
422.570074
 20
680.0
 30
0.0
 11
440.416082
 21
677.650529
 31
0.0
  0
LINE
  8
LC-002-003-----0
  6
CONTINUOUS
  5
143
 10
440.416082
 20
677.650529
 30
0.0
 11
440.416082
 21
682.349471
 31
0.0
  0
LINE
  8
LC-002-003-----0
  6
CONTINUOUS
  5
144
 10
440.45612
 20
681.738609
 30
0.0
 11
427.250074
 21
680.0
 31
0.0
  0
LINE
  8
LC-002-003-----0
  6
CONTINUOUS
  5
145
 10
427.250074
 20
680.0
 30
0.0
 11
440.45612
 21
678.261391
 31
0.0
  0
LINE
  8
LC-002-003-----0
  6
CONTINUOUS
  5
146
 10
440.496158
 20
681.127746
 30
0.0
 11
431.930074
 21
680.0
 31
0.0
  0
LINE
  8
LC-002-003-----0
  6
CONTINUOUS
  5
147
 10
431.930074
 20
680.0
 30
0.0
 11
440.496158
 21
678.872254
 31
0.0
  0
LINE
  8
LC-002-003-----0
  6
CONTINUOUS
  5
148
 10
440.536196
 20
680.516884
 30
0.0
 11
436.610074
 21
680.0
 31
0.0
  0
LINE
  8
LC-002-003-----0
  6
CONTINUOUS
  5
149
 10
436.610074
 20
680.0
 30
0.0
 11
440.536196
 21
679.483116
 31
0.0
  0
LINE
  8
LC-002-003-----0
  6
CONTINUOUS
  5
14A
 10
644.571567
 20
677.650529
 30
0.0
 11
662.417574
 21
680.0
 31
0.0
  0
LINE
  8
LC-002-003-----0
  6
CONTINUOUS
  5
14B
 10
662.417574
 20
680.0
 30
0.0
 11
644.571567
 21
682.349471
 31
0.0
  0
LINE
  8
LC-002-003-----0
  6
CONTINUOUS
  5
14C
 10
644.571567
 20
682.349471
 30
0.0
 11
644.571567
 21
677.650529
 31
0.0
  0
LINE
  8
LC-002-003-----0
  6
CONTINUOUS
  5
14D
 10
644.531529
 20
678.261391
 30
0.0
 11
657.737574
 21
680.0
 31
0.0
  0
LINE
  8
LC-002-003-----0
  6
CONTINUOUS
  5
14E
 10
657.737574
 20
680.0
 30
0.0
 11
644.531529
 21
681.738609
 31
0.0
  0
LINE
  8
LC-002-003-----0
  6
CONTINUOUS
  5
14F
 10
644.491491
 20
678.872254
 30
0.0
 11
653.057574
 21
680.0
 31
0.0
  0
LINE
  8
LC-002-003-----0
  6
CONTINUOUS
  5
150
 10
653.057574
 20
680.0
 30
0.0
 11
644.491491
 21
681.127746
 31
0.0
  0
LINE
  8
LC-002-003-----0
  6
CONTINUOUS
  5
151
 10
644.451453
 20
679.483116
 30
0.0
 11
648.377574
 21
680.0
 31
0.0
  0
LINE
  8
LC-002-003-----0
  6
CONTINUOUS
  5
152
 10
648.377574
 20
680.0
 30
0.0
 11
644.451453
 21
680.516884
 31
0.0
  0
TEXT
  8
LC-002-003-----0
  6
CONTINUOUS
 62
     6
  5
153
 10
530.230958
 20
690.431999
 30
0.0
 40
18.0
  1
240
 51
15.0
  7
LC-TXTSTYLE-150-400-0-0-D0
 72
     1
 11
549.364816
 21
690.431999
 31
0.0
  0
ENDBLK
  8
0
  5
154
  0
BLOCK
  8
0
  5
156
  2
*X12
 70
    65
 10
636.493824
 20
469.849896
 30
0.0
  3
*X12
  0
LINE
  8
LC-006-005-----0
  6
CONTINUOUS
  5
157
 10
639.841373
 20
470.135746
 30
0.0
 11
640.707975
 21
471.002347
 31
0.0
  0
LINE
  8
LC-006-005-----0
  6
CONTINUOUS
  5
158
 10
639.358179
 20
469.935394
 30
0.0
 11
640.908326
 21
471.485541
 31
0.0
  0
LINE
  8
LC-006-005-----0
  6
CONTINUOUS
  5
159
 10
639.005054
 20
469.865112
 30
0.0
 11
640.978608
 21
471.838666
 31
0.0
  0
LINE
  8
LC-006-005-----0
  6
CONTINUOUS
  5
15A
 10
638.707292
 20
469.850193
 30
0.0
 11
640.993824
 21
472.136725
 31
0.0
  0
LINE
  8
LC-006-005-----0
  6
CONTINUOUS
  5
15B
 10
638.444193
 20
469.869936
 30
0.0
 11
640.993824
 21
472.419568
 31
0.0
  0
LINE
  8
LC-006-005-----0
  6
CONTINUOUS
  5
15C
 10
638.206429
 20
469.915015
 30
0.0
 11
640.993824
 21
472.70241
 31
0.0
  0
LINE
  8
LC-006-005-----0
  6
CONTINUOUS
  5
15D
 10
637.988896
 20
469.980325
 30
0.0
 11
640.993824
 21
472.985253
 31
0.0
  0
LINE
  8
LC-006-005-----0
  6
CONTINUOUS
  5
15E
 10
637.788503
 20
470.062775
 30
0.0
 11
640.993824
 21
473.268096
 31
0.0
  0
LINE
  8
LC-006-005-----0
  6
CONTINUOUS
  5
15F
 10
637.603281
 20
470.160396
 30
0.0
 11
640.993824
 21
473.550938
 31
0.0
  0
LINE
  8
LC-006-005-----0
  6
CONTINUOUS
  5
160
 10
637.431959
 20
470.271916
 30
0.0
 11
640.993824
 21
473.833781
 31
0.0
  0
LINE
  8
LC-006-005-----0
  6
CONTINUOUS
  5
161
 10
637.273751
 20
470.396551
 30
0.0
 11
640.993824
 21
474.116624
 31
0.0
  0
LINE
  8
LC-006-005-----0
  6
CONTINUOUS
  5
162
 10
637.128242
 20
470.533884
 30
0.0
 11
640.98382
 21
474.389462
 31
0.0
  0
LINE
  8
LC-006-005-----0
  6
CONTINUOUS
  5
163
 10
636.995333
 20
470.683818
 30
0.0
 11
640.946772
 21
474.635257
 31
0.0
  0
LINE
  8
LC-006-005-----0
  6
CONTINUOUS
  5
164
 10
636.87523
 20
470.846558
 30
0.0
 11
640.888026
 21
474.859354
 31
0.0
  0
LINE
  8
LC-006-005-----0
  6
CONTINUOUS
  5
165
 10
636.768471
 20
471.022641
 30
0.0
 11
640.81123
 21
475.065401
 31
0.0
  0
LINE
  8
LC-006-005-----0
  6
CONTINUOUS
  5
166
 10
636.675993
 20
471.213006
 30
0.0
 11
640.718678
 21
475.255691
 31
0.0
  0
LINE
  8
LC-006-005-----0
  6
CONTINUOUS
  5
167
 10
636.599281
 20
471.419137
 30
0.0
 11
640.611849
 21
475.431705
 31
0.0
  0
LINE
  8
LC-006-005-----0
  6
CONTINUOUS
  5
168
 10
636.540634
 20
471.643332
 30
0.0
 11
640.491682
 21
475.59438
 31
0.0
  0
LINE
  8
LC-006-005-----0
  6
CONTINUOUS
  5
169
 10
636.503707
 20
471.889248
 30
0.0
 11
640.358709
 21
475.744251
 31
0.0
  0
LINE
  8
LC-006-005-----0
  6
CONTINUOUS
  5
16A
 10
636.493824
 20
472.162208
 30
0.0
 11
640.213137
 21
475.881521
 31
0.0
  0
LINE
  8
LC-006-005-----0
  6
CONTINUOUS
  5
16B
 10
636.493824
 20
472.445051
 30
0.0
 11
640.054864
 21
476.006091
 31
0.0
  0
LINE
  8
LC-006-005-----0
  6
CONTINUOUS
  5
16C
 10
636.493824
 20
472.727894
 30
0.0
 11
639.883475
 21
476.117544
 31
0.0
  0
LINE
  8
LC-006-005-----0
  6
CONTINUOUS
  5
16D
 10
636.493824
 20
473.010736
 30
0.0
 11
639.698181
 21
476.215093
 31
0.0
  0
LINE
  8
LC-006-005-----0
  6
CONTINUOUS
  5
16E
 10
636.493824
 20
473.293579
 30
0.0
 11
639.497708
 21
476.297463
 31
0.0
  0
LINE
  8
LC-006-005-----0
  6
CONTINUOUS
  5
16F
 10
636.493824
 20
473.576422
 30
0.0
 11
639.280083
 21
476.36268
 31
0.0
  0
LINE
  8
LC-006-005-----0
  6
CONTINUOUS
  5
170
 10
636.493824
 20
473.859265
 30
0.0
 11
639.042207
 21
476.407647
 31
0.0
  0
LINE
  8
LC-006-005-----0
  6
CONTINUOUS
  5
171
 10
636.493824
 20
474.142107
 30
0.0
 11
638.778962
 21
476.427245
 31
0.0
  0
LINE
  8
LC-006-005-----0
  6
CONTINUOUS
  5
172
 10
636.509229
 20
474.440354
 30
0.0
 11
638.48099
 21
476.412115
 31
0.0
  0
LINE
  8
LC-006-005-----0
  6
CONTINUOUS
  5
173
 10
636.579885
 20
474.793854
 30
0.0
 11
638.12749
 21
476.341459
 31
0.0
  0
LINE
  8
LC-006-005-----0
  6
CONTINUOUS
  5
174
 10
636.781476
 20
475.278287
 30
0.0
 11
637.643057
 21
476.139868
 31
0.0
  0
ENDBLK
  8
0
  5
175
  0
BLOCK
  8
0
  5
177
  2
*X13
 70
    65
 10
606.793318
 20
583.536161
 30
0.0
  3
*X13
  0
LINE
  8
LC-006-005-----0
  6
CONTINUOUS
  5
178
 10
616.944512
 20
585.831813
 30
0.0
 11
617.0628
 21
585.950102
 31
0.0
  0
LINE
  8
LC-006-005-----0
  6
CONTINUOUS
  5
179
 10
615.281805
 20
585.58332
 30
0.0
 11
617.160512
 21
587.462027
 31
0.0
  0
LINE
  8
LC-006-005-----0
  6
CONTINUOUS
  5
17A
 10
612.456445
 20
584.172173
 30
0.0
 11
615.996636
 21
587.712365
 31
0.0
  0
LINE
  8
LC-006-005-----0
  6
CONTINUOUS
  5
17B
 10
610.793738
 20
583.92368
 30
0.0
 11
614.333929
 21
587.463871
 31
0.0
  0
LINE
  8
LC-006-005-----0
  6
CONTINUOUS
  5
17C
 10
609.131031
 20
583.675187
 30
0.0
 11
613.458275
 21
588.002431
 31
0.0
  0
LINE
  8
LC-006-005-----0
  6
CONTINUOUS
  5
17D
 10
607.842736
 20
583.801106
 30
0.0
 11
612.171169
 21
588.129539
 31
0.0
  0
LINE
  8
LC-006-005-----0
  6
CONTINUOUS
  5
17E
 10
607.075593
 20
584.448176
 30
0.0
 11
610.508462
 21
587.881045
 31
0.0
  0
LINE
  8
LC-006-005-----0
  6
CONTINUOUS
  5
17F
 10
606.891718
 20
585.678514
 30
0.0
 11
608.845756
 21
587.632552
 31
0.0
  0
ENDBLK
  8
0
  5
180
  0
BLOCK
  8
0
  5
182
  2
BLK1
 70
    64
 10
0.0
 20
0.0
 30
0.0
  3
BLK1
  0
ENDBLK
  8
0
  5
183
  0
BLOCK
  8
0
  5
185
  2
*X15
 70
    65
 10
384.493824
 20
235.161947
 30
0.0
  3
*X15
  0
LINE
  8
LC-006-005-----0
  6
CONTINUOUS
  5
186
 10
489.720389
 20
235.161947
 30
0.0
 11
491.493824
 21
236.935383
 31
0.0
  0
LINE
  8
LC-006-005-----0
  6
CONTINUOUS
  5
187
 10
488.317598
 20
236.587583
 30
0.0
 11
491.493824
 21
239.76381
 31
0.0
  0
LINE
  8
LC-006-005-----0
  6
CONTINUOUS
  5
188
 10
487.719881
 20
238.818294
 30
0.0
 11
491.493824
 21
242.592237
 31
0.0
  0
LINE
  8
LC-006-005-----0
  6
CONTINUOUS
  5
189
 10
487.493824
 20
241.420664
 30
0.0
 11
491.493824
 21
245.420664
 31
0.0
  0
LINE
  8
LC-006-005-----0
  6
CONTINUOUS
  5
18A
 10
487.493824
 20
244.249092
 30
0.0
 11
491.493824
 21
248.249092
 31
0.0
  0
LINE
  8
LC-006-005-----0
  6
CONTINUOUS
  5
18B
 10
487.493824
 20
247.077519
 30
0.0
 11
491.493824
 21
251.077519
 31
0.0
  0
LINE
  8
LC-006-005-----0
  6
CONTINUOUS
  5
18C
 10
487.493824
 20
249.905946
 30
0.0
 11
491.493824
 21
253.905946
 31
0.0
  0
LINE
  8
LC-006-005-----0
  6
CONTINUOUS
  5
18D
 10
487.493824
 20
252.734373
 30
0.0
 11
491.493824
 21
256.734373
 31
0.0
  0
LINE
  8
LC-006-005-----0
  6
CONTINUOUS
  5
18E
 10
487.493824
 20
255.5628
 30
0.0
 11
491.493824
 21
259.5628
 31
0.0
  0
LINE
  8
LC-006-005-----0
  6
CONTINUOUS
  5
18F
 10
487.493824
 20
258.391227
 30
0.0
 11
491.493824
 21
262.391227
 31
0.0
  0
LINE
  8
LC-006-005-----0
  6
CONTINUOUS
  5
190
 10
487.493824
 20
261.219654
 30
0.0
 11
491.493824
 21
265.219654
 31
0.0
  0
LINE
  8
LC-006-005-----0
  6
CONTINUOUS
  5
191
 10
487.493824
 20
264.048081
 30
0.0
 11
491.493824
 21
268.048081
 31
0.0
  0
LINE
  8
LC-006-005-----0
  6
CONTINUOUS
  5
192
 10
487.493824
 20
266.876509
 30
0.0
 11
491.493824
 21
270.876509
 31
0.0
  0
LINE
  8
LC-006-005-----0
  6
CONTINUOUS
  5
193
 10
487.493824
 20
269.704936
 30
0.0
 11
491.493824
 21
273.704936
 31
0.0
  0
LINE
  8
LC-006-005-----0
  6
CONTINUOUS
  5
194
 10
487.493824
 20
272.533363
 30
0.0
 11
491.493824
 21
276.533363
 31
0.0
  0
LINE
  8
LC-006-005-----0
  6
CONTINUOUS
  5
195
 10
487.493824
 20
275.36179
 30
0.0
 11
491.493824
 21
279.36179
 31
0.0
  0
LINE
  8
LC-006-005-----0
  6
CONTINUOUS
  5
196
 10
487.493824
 20
278.190217
 30
0.0
 11
491.493824
 21
282.190217
 31
0.0
  0
LINE
  8
LC-006-005-----0
  6
CONTINUOUS
  5
197
 10
487.493824
 20
281.018644
 30
0.0
 11
491.493824
 21
285.018644
 31
0.0
  0
LINE
  8
LC-006-005-----0
  6
CONTINUOUS
  5
198
 10
487.493824
 20
283.847071
 30
0.0
 11
491.493824
 21
287.847071
 31
0.0
  0
LINE
  8
LC-006-005-----0
  6
CONTINUOUS
  5
199
 10
487.493824
 20
286.675498
 30
0.0
 11
491.493824
 21
290.675498
 31
0.0
  0
LINE
  8
LC-006-005-----0
  6
CONTINUOUS
  5
19A
 10
487.493824
 20
289.503926
 30
0.0
 11
491.493824
 21
293.503926
 31
0.0
  0
LINE
  8
LC-006-005-----0
  6
CONTINUOUS
  5
19B
 10
487.493824
 20
292.332353
 30
0.0
 11
491.493824
 21
296.332353
 31
0.0
  0
LINE
  8
LC-006-005-----0
  6
CONTINUOUS
  5
19C
 10
487.493824
 20
295.16078
 30
0.0
 11
491.493824
 21
299.16078
 31
0.0
  0
LINE
  8
LC-006-005-----0
  6
CONTINUOUS
  5
19D
 10
486.666565
 20
297.161947
 30
0.0
 11
490.666565
 21
301.161947
 31
0.0
  0
LINE
  8
LC-006-005-----0
  6
CONTINUOUS
  5
19E
 10
483.838138
 20
297.161947
 30
0.0
 11
487.838138
 21
301.161947
 31
0.0
  0
LINE
  8
LC-006-005-----0
  6
CONTINUOUS
  5
19F
 10
481.00971
 20
297.161947
 30
0.0
 11
485.00971
 21
301.161947
 31
0.0
  0
LINE
  8
LC-006-005-----0
  6
CONTINUOUS
  5
1A0
 10
478.181283
 20
297.161947
 30
0.0
 11
482.181283
 21
301.161947
 31
0.0
  0
LINE
  8
LC-006-005-----0
  6
CONTINUOUS
  5
1A1
 10
475.352856
 20
297.161947
 30
0.0
 11
479.352856
 21
301.161947
 31
0.0
  0
LINE
  8
LC-006-005-----0
  6
CONTINUOUS
  5
1A2
 10
472.524429
 20
297.161947
 30
0.0
 11
476.524429
 21
301.161947
 31
0.0
  0
LINE
  8
LC-006-005-----0
  6
CONTINUOUS
  5
1A3
 10
469.696002
 20
297.161947
 30
0.0
 11
473.696002
 21
301.161947
 31
0.0
  0
LINE
  8
LC-006-005-----0
  6
CONTINUOUS
  5
1A4
 10
466.867575
 20
297.161947
 30
0.0
 11
470.867575
 21
301.161947
 31
0.0
  0
LINE
  8
LC-006-005-----0
  6
CONTINUOUS
  5
1A5
 10
464.039148
 20
297.161947
 30
0.0
 11
468.039148
 21
301.161947
 31
0.0
  0
LINE
  8
LC-006-005-----0
  6
CONTINUOUS
  5
1A6
 10
462.24189
 20
298.193117
 30
0.0
 11
465.210721
 21
301.161947
 31
0.0
  0
LINE
  8
LC-006-005-----0
  6
CONTINUOUS
  5
1A7
 10
461.206614
 20
299.986268
 30
0.0
 11
464.134817
 21
302.914471
 31
0.0
  0
LINE
  8
LC-006-005-----0
  6
CONTINUOUS
  5
1A8
 10
460.171338
 20
301.779419
 30
0.0
 11
463.276461
 21
304.884542
 31
0.0
  0
LINE
  8
LC-006-005-----0
  6
CONTINUOUS
  5
1A9
 10
459.336274
 20
303.772782
 30
0.0
 11
463.115494
 21
307.552002
 31
0.0
  0
LINE
  8
LC-006-005-----0
  6
CONTINUOUS
  5
1AA
 10
459.175307
 20
306.440242
 30
0.0
 11
462.954527
 21
310.219462
 31
0.0
  0
LINE
  8
LC-006-005-----0
  6
CONTINUOUS
  5
1AB
 10
459.014339
 20
309.107701
 30
0.0
 11
462.793559
 21
312.886921
 31
0.0
  0
LINE
  8
LC-006-005-----0
  6
CONTINUOUS
  5
1AC
 10
458.853372
 20
311.775161
 30
0.0
 11
462.632592
 21
315.554381
 31
0.0
  0
LINE
  8
LC-006-005-----0
  6
CONTINUOUS
  5
1AD
 10
458.692404
 20
314.442621
 30
0.0
 11
462.471624
 21
318.221841
 31
0.0
  0
LINE
  8
LC-006-005-----0
  6
CONTINUOUS
  5
1AE
 10
458.531437
 20
317.110081
 30
0.0
 11
462.310657
 21
320.889301
 31
0.0
  0
LINE
  8
LC-006-005-----0
  6
CONTINUOUS
  5
1AF
 10
458.37047
 20
319.77754
 30
0.0
 11
462.14969
 21
323.55676
 31
0.0
  0
LINE
  8
LC-006-005-----0
  6
CONTINUOUS
  5
1B0
 10
458.209502
 20
322.445
 30
0.0
 11
461.988722
 21
326.22422
 31
0.0
  0
LINE
  8
LC-006-005-----0
  6
CONTINUOUS
  5
1B1
 10
458.048535
 20
325.11246
 30
0.0
 11
461.827755
 21
328.89168
 31
0.0
  0
LINE
  8
LC-006-005-----0
  6
CONTINUOUS
  5
1B2
 10
457.887567
 20
327.77992
 30
0.0
 11
461.666787
 21
331.55914
 31
0.0
  0
LINE
  8
LC-006-005-----0
  6
CONTINUOUS
  5
1B3
 10
457.7266
 20
330.447379
 30
0.0
 11
461.50582
 21
334.226599
 31
0.0
  0
LINE
  8
LC-006-005-----0
  6
CONTINUOUS
  5
1B4
 10
457.565633
 20
333.114839
 30
0.0
 11
461.344853
 21
336.894059
 31
0.0
  0
LINE
  8
LC-006-005-----0
  6
CONTINUOUS
  5
1B5
 10
457.404665
 20
335.782299
 30
0.0
 11
461.183885
 21
339.561519
 31
0.0
  0
LINE
  8
LC-006-005-----0
  6
CONTINUOUS
  5
1B6
 10
457.243698
 20
338.449758
 30
0.0
 11
461.022918
 21
342.228978
 31
0.0
  0
LINE
  8
LC-006-005-----0
  6
CONTINUOUS
  5
1B7
 10
457.08273
 20
341.117218
 30
0.0
 11
460.86195
 21
344.896438
 31
0.0
  0
LINE
  8
LC-006-005-----0
  6
CONTINUOUS
  5
1B8
 10
456.921763
 20
343.784678
 30
0.0
 11
460.700983
 21
347.563898
 31
0.0
  0
LINE
  8
LC-006-005-----0
  6
CONTINUOUS
  5
1B9
 10
456.760796
 20
346.452138
 30
0.0
 11
460.540016
 21
350.231358
 31
0.0
  0
LINE
  8
LC-006-005-----0
  6
CONTINUOUS
  5
1BA
 10
456.599828
 20
349.119597
 30
0.0
 11
460.379048
 21
352.898817
 31
0.0
  0
LINE
  8
LC-006-005-----0
  6
CONTINUOUS
  5
1BB
 10
456.438861
 20
351.787057
 30
0.0
 11
460.218081
 21
355.566277
 31
0.0
  0
LINE
  8
LC-006-005-----0
  6
CONTINUOUS
  5
1BC
 10
456.277893
 20
354.454517
 30
0.0
 11
460.057113
 21
358.233737
 31
0.0
  0
LINE
  8
LC-006-005-----0
  6
CONTINUOUS
  5
1BD
 10
456.116926
 20
357.121977
 30
0.0
 11
459.896146
 21
360.901197
 31
0.0
  0
LINE
  8
LC-006-005-----0
  6
CONTINUOUS
  5
1BE
 10
455.955959
 20
359.789436
 30
0.0
 11
459.735179
 21
363.568656
 31
0.0
  0
LINE
  8
LC-006-005-----0
  6
CONTINUOUS
  5
1BF
 10
455.794991
 20
362.456896
 30
0.0
 11
459.574211
 21
366.236116
 31
0.0
  0
LINE
  8
LC-006-005-----0
  6
CONTINUOUS
  5
1C0
 10
455.634024
 20
365.124356
 30
0.0
 11
459.413244
 21
368.903576
 31
0.0
  0
LINE
  8
LC-006-005-----0
  6
CONTINUOUS
  5
1C1
 10
455.473056
 20
367.791815
 30
0.0
 11
459.252276
 21
371.571035
 31
0.0
  0
LINE
  8
LC-006-005-----0
  6
CONTINUOUS
  5
1C2
 10
455.312089
 20
370.459275
 30
0.0
 11
459.091309
 21
374.238495
 31
0.0
  0
LINE
  8
LC-006-005-----0
  6
CONTINUOUS
  5
1C3
 10
455.151122
 20
373.126735
 30
0.0
 11
458.930342
 21
376.905955
 31
0.0
  0
LINE
  8
LC-006-005-----0
  6
CONTINUOUS
  5
1C4
 10
454.990154
 20
375.794195
 30
0.0
 11
458.769374
 21
379.573415
 31
0.0
  0
LINE
  8
LC-006-005-----0
  6
CONTINUOUS
  5
1C5
 10
454.829187
 20
378.461654
 30
0.0
 11
458.608407
 21
382.240874
 31
0.0
  0
LINE
  8
LC-006-005-----0
  6
CONTINUOUS
  5
1C6
 10
454.668219
 20
381.129114
 30
0.0
 11
458.447439
 21
384.908334
 31
0.0
  0
LINE
  8
LC-006-005-----0
  6
CONTINUOUS
  5
1C7
 10
454.507252
 20
383.796574
 30
0.0
 11
458.286472
 21
387.575794
 31
0.0
  0
LINE
  8
LC-006-005-----0
  6
CONTINUOUS
  5
1C8
 10
454.346285
 20
386.464034
 30
0.0
 11
458.125505
 21
390.243254
 31
0.0
  0
LINE
  8
LC-006-005-----0
  6
CONTINUOUS
  5
1C9
 10
454.185317
 20
389.131493
 30
0.0
 11
457.964537
 21
392.910713
 31
0.0
  0
LINE
  8
LC-006-005-----0
  6
CONTINUOUS
  5
1CA
 10
454.02435
 20
391.798953
 30
0.0
 11
457.80357
 21
395.578173
 31
0.0
  0
LINE
  8
LC-006-005-----0
  6
CONTINUOUS
  5
1CB
 10
453.863382
 20
394.466413
 30
0.0
 11
457.642602
 21
398.245633
 31
0.0
  0
LINE
  8
LC-006-005-----0
  6
CONTINUOUS
  5
1CC
 10
453.702415
 20
397.133872
 30
0.0
 11
457.481635
 21
400.913092
 31
0.0
  0
LINE
  8
LC-006-005-----0
  6
CONTINUOUS
  5
1CD
 10
453.541448
 20
399.801332
 30
0.0
 11
457.320668
 21
403.580552
 31
0.0
  0
LINE
  8
LC-006-005-----0
  6
CONTINUOUS
  5
1CE
 10
453.38048
 20
402.468792
 30
0.0
 11
457.1597
 21
406.248012
 31
0.0
  0
LINE
  8
LC-006-005-----0
  6
CONTINUOUS
  5
1CF
 10
453.219513
 20
405.136252
 30
0.0
 11
456.998733
 21
408.915472
 31
0.0
  0
LINE
  8
LC-006-005-----0
  6
CONTINUOUS
  5
1D0
 10
453.058545
 20
407.803711
 30
0.0
 11
456.837765
 21
411.582931
 31
0.0
  0
LINE
  8
LC-006-005-----0
  6
CONTINUOUS
  5
1D1
 10
452.897578
 20
410.471171
 30
0.0
 11
456.676798
 21
414.250391
 31
0.0
  0
LINE
  8
LC-006-005-----0
  6
CONTINUOUS
  5
1D2
 10
452.736611
 20
413.138631
 30
0.0
 11
456.515831
 21
416.917851
 31
0.0
  0
LINE
  8
LC-006-005-----0
  6
CONTINUOUS
  5
1D3
 10
452.575643
 20
415.806091
 30
0.0
 11
456.499744
 21
419.730192
 31
0.0
  0
LINE
  8
LC-006-005-----0
  6
CONTINUOUS
  5
1D4
 10
452.493824
 20
418.552699
 30
0.0
 11
456.49828
 21
422.557155
 31
0.0
  0
LINE
  8
LC-006-005-----0
  6
CONTINUOUS
  5
1D5
 10
452.493824
 20
421.381126
 30
0.0
 11
456.496816
 21
425.384118
 31
0.0
  0
LINE
  8
LC-006-005-----0
  6
CONTINUOUS
  5
1D6
 10
452.493824
 20
424.209553
 30
0.0
 11
456.495352
 21
428.211081
 31
0.0
  0
LINE
  8
LC-006-005-----0
  6
CONTINUOUS
  5
1D7
 10
452.493824
 20
427.03798
 30
0.0
 11
456.493888
 21
431.038044
 31
0.0
  0
LINE
  8
LC-006-005-----0
  6
CONTINUOUS
  5
1D8
 10
450.388343
 20
427.760926
 30
0.0
 11
453.789364
 21
431.161947
 31
0.0
  0
LINE
  8
LC-006-005-----0
  6
CONTINUOUS
  5
1D9
 10
449.004778
 20
429.205788
 30
0.0
 11
452.493824
 21
432.694834
 31
0.0
  0
LINE
  8
LC-006-005-----0
  6
CONTINUOUS
  5
1DA
 10
448.493824
 20
431.523262
 30
0.0
 11
452.493824
 21
435.523262
 31
0.0
  0
LINE
  8
LC-006-005-----0
  6
CONTINUOUS
  5
1DB
 10
448.493824
 20
434.351689
 30
0.0
 11
452.493824
 21
438.351689
 31
0.0
  0
LINE
  8
LC-006-005-----0
  6
CONTINUOUS
  5
1DC
 10
448.493824
 20
437.180116
 30
0.0
 11
452.493824
 21
441.180116
 31
0.0
  0
LINE
  8
LC-006-005-----0
  6
CONTINUOUS
  5
1DD
 10
448.493824
 20
440.008543
 30
0.0
 11
452.493824
 21
444.008543
 31
0.0
  0
LINE
  8
LC-006-005-----0
  6
CONTINUOUS
  5
1DE
 10
448.493824
 20
442.83697
 30
0.0
 11
452.493824
 21
446.83697
 31
0.0
  0
LINE
  8
LC-006-005-----0
  6
CONTINUOUS
  5
1DF
 10
448.493824
 20
445.665397
 30
0.0
 11
452.493824
 21
449.665397
 31
0.0
  0
LINE
  8
LC-006-005-----0
  6
CONTINUOUS
  5
1E0
 10
448.493824
 20
448.493824
 30
0.0
 11
452.493824
 21
452.493824
 31
0.0
  0
LINE
  8
LC-006-005-----0
  6
CONTINUOUS
  5
1E1
 10
448.493824
 20
451.322251
 30
0.0
 11
452.493824
 21
455.322251
 31
0.0
  0
LINE
  8
LC-006-005-----0
  6
CONTINUOUS
  5
1E2
 10
448.493824
 20
454.150679
 30
0.0
 11
452.493824
 21
458.150679
 31
0.0
  0
LINE
  8
LC-006-005-----0
  6
CONTINUOUS
  5
1E3
 10
448.493824
 20
456.979106
 30
0.0
 11
452.493824
 21
460.979106
 31
0.0
  0
LINE
  8
LC-006-005-----0
  6
CONTINUOUS
  5
1E4
 10
446.920559
 20
458.234268
 30
0.0
 11
450.848239
 21
462.161947
 31
0.0
  0
LINE
  8
LC-006-005-----0
  6
CONTINUOUS
  5
1E5
 10
444.720245
 20
458.86238
 30
0.0
 11
448.019812
 21
462.161947
 31
0.0
  0
LINE
  8
LC-006-005-----0
  6
CONTINUOUS
  5
1E6
 10
442.96753
 20
459.938093
 30
0.0
 11
445.828285
 21
462.798848
 31
0.0
  0
LINE
  8
LC-006-005-----0
  6
CONTINUOUS
  5
1E7
 10
441.580617
 20
461.379607
 30
0.0
 11
444.470058
 21
464.269048
 31
0.0
  0
LINE
  8
LC-006-005-----0
  6
CONTINUOUS
  5
1E8
 10
440.565266
 20
463.192683
 30
0.0
 11
443.993824
 21
466.621241
 31
0.0
  0
LINE
  8
LC-006-005-----0
  6
CONTINUOUS
  5
1E9
 10
440.023039
 20
465.478883
 30
0.0
 11
443.993824
 21
469.449668
 31
0.0
  0
LINE
  8
LC-006-005-----0
  6
CONTINUOUS
  5
1EA
 10
439.993824
 20
468.278096
 30
0.0
 11
443.993824
 21
472.278096
 31
0.0
  0
LINE
  8
LC-006-005-----0
  6
CONTINUOUS
  5
1EB
 10
439.993824
 20
471.106523
 30
0.0
 11
443.993824
 21
475.106523
 31
0.0
  0
LINE
  8
LC-006-005-----0
  6
CONTINUOUS
  5
1EC
 10
439.993824
 20
473.93495
 30
0.0
 11
443.993824
 21
477.93495
 31
0.0
  0
LINE
  8
LC-006-005-----0
  6
CONTINUOUS
  5
1ED
 10
439.993824
 20
476.763377
 30
0.0
 11
443.993824
 21
480.763377
 31
0.0
  0
LINE
  8
LC-006-005-----0
  6
CONTINUOUS
  5
1EE
 10
439.993824
 20
479.591804
 30
0.0
 11
443.993824
 21
483.591804
 31
0.0
  0
LINE
  8
LC-006-005-----0
  6
CONTINUOUS
  5
1EF
 10
425.907576
 20
468.333982
 30
0.0
 11
432.293824
 21
474.720231
 31
0.0
  0
LINE
  8
LC-006-005-----0
  6
CONTINUOUS
  5
1F0
 10
439.993824
 20
482.420231
 30
0.0
 11
443.993824
 21
486.420231
 31
0.0
  0
LINE
  8
LC-006-005-----0
  6
CONTINUOUS
  5
1F1
 10
424.493362
 20
469.748196
 30
0.0
 11
426.614682
 21
471.869516
 31
0.0
  0
LINE
  8
LC-006-005-----0
  6
CONTINUOUS
  5
1F2
 10
428.993824
 20
474.248658
 30
0.0
 11
432.293824
 21
477.548658
 31
0.0
  0
LINE
  8
LC-006-005-----0
  6
CONTINUOUS
  5
1F3
 10
439.343356
 20
484.59819
 30
0.0
 11
442.907113
 21
488.161947
 31
0.0
  0
LINE
  8
LC-006-005-----0
  6
CONTINUOUS
  5
1F4
 10
423.079148
 20
471.16241
 30
0.0
 11
425.200469
 21
473.28373
 31
0.0
  0
LINE
  8
LC-006-005-----0
  6
CONTINUOUS
  5
1F5
 10
428.993824
 20
477.077085
 30
0.0
 11
432.293824
 21
480.377085
 31
0.0
  0
LINE
  8
LC-006-005-----0
  6
CONTINUOUS
  5
1F6
 10
436.778686
 20
484.861947
 30
0.0
 11
440.078686
 21
488.161947
 31
0.0
  0
LINE
  8
LC-006-005-----0
  6
CONTINUOUS
  5
1F7
 10
421.664935
 20
472.576623
 30
0.0
 11
424.593824
 21
475.505513
 31
0.0
  0
LINE
  8
LC-006-005-----0
  6
CONTINUOUS
  5
1F8
 10
428.993824
 20
479.905513
 30
0.0
 11
432.293824
 21
483.205513
 31
0.0
  0
LINE
  8
LC-006-005-----0
  6
CONTINUOUS
  5
1F9
 10
433.950259
 20
484.861947
 30
0.0
 11
437.250259
 21
488.161947
 31
0.0
  0
LINE
  8
LC-006-005-----0
  6
CONTINUOUS
  5
1FA
 10
421.293824
 20
475.03394
 30
0.0
 11
424.593824
 21
478.33394
 31
0.0
  0
LINE
  8
LC-006-005-----0
  6
CONTINUOUS
  5
1FB
 10
428.993824
 20
482.73394
 30
0.0
 11
434.421832
 21
488.161947
 31
0.0
  0
LINE
  8
LC-006-005-----0
  6
CONTINUOUS
  5
1FC
 10
421.293824
 20
477.862367
 30
0.0
 11
424.593824
 21
481.162367
 31
0.0
  0
LINE
  8
LC-006-005-----0
  6
CONTINUOUS
  5
1FD
 10
428.993824
 20
485.562367
 30
0.0
 11
431.593405
 21
488.161947
 31
0.0
  0
LINE
  8
LC-006-005-----0
  6
CONTINUOUS
  5
1FE
 10
421.293824
 20
480.690794
 30
0.0
 11
424.593824
 21
483.990794
 31
0.0
  0
LINE
  8
LC-006-005-----0
  6
CONTINUOUS
  5
1FF
 10
416.738849
 20
478.964245
 30
0.0
 11
417.592098
 21
479.817494
 31
0.0
  0
LINE
  8
LC-006-005-----0
  6
CONTINUOUS
  5
200
 10
421.293824
 20
483.519221
 30
0.0
 11
424.593824
 21
486.819221
 31
0.0
  0
LINE
  8
LC-006-005-----0
  6
CONTINUOUS
  5
201
 10
413.808123
 20
478.861947
 30
0.0
 11
417.929463
 21
482.983287
 31
0.0
  0
LINE
  8
LC-006-005-----0
  6
CONTINUOUS
  5
202
 10
419.808123
 20
484.861947
 30
0.0
 11
423.108123
 21
488.161947
 31
0.0
  0
LINE
  8
LC-006-005-----0
  6
CONTINUOUS
  5
203
 10
410.979696
 20
478.861947
 30
0.0
 11
414.779696
 21
482.661947
 31
0.0
  0
LINE
  8
LC-006-005-----0
  6
CONTINUOUS
  5
204
 10
415.093824
 20
482.976075
 30
0.0
 11
420.279696
 21
488.161947
 31
0.0
  0
LINE
  8
LC-006-005-----0
  6
CONTINUOUS
  5
205
 10
408.151269
 20
478.861947
 30
0.0
 11
411.951269
 21
482.661947
 31
0.0
  0
LINE
  8
LC-006-005-----0
  6
CONTINUOUS
  5
206
 10
415.093824
 20
485.804502
 30
0.0
 11
417.451269
 21
488.161947
 31
0.0
  0
LINE
  8
LC-006-005-----0
  6
CONTINUOUS
  5
207
 10
405.850815
 20
479.389921
 30
0.0
 11
409.122842
 21
482.661947
 31
0.0
  0
LINE
  8
LC-006-005-----0
  6
CONTINUOUS
  5
208
 10
405.367402
 20
481.734935
 30
0.0
 11
408.093824
 21
484.461357
 31
0.0
  0
LINE
  8
LC-006-005-----0
  6
CONTINUOUS
  5
209
 10
404.979539
 20
484.175499
 30
0.0
 11
408.093824
 21
487.289784
 31
0.0
  0
LINE
  8
LC-006-005-----0
  6
CONTINUOUS
  5
20A
 10
402.837561
 20
484.861947
 30
0.0
 11
406.137561
 21
488.161947
 31
0.0
  0
LINE
  8
LC-006-005-----0
  6
CONTINUOUS
  5
20B
 10
400.009134
 20
484.861947
 30
0.0
 11
403.309134
 21
488.161947
 31
0.0
  0
LINE
  8
LC-006-005-----0
  6
CONTINUOUS
  5
20C
 10
397.180706
 20
484.861947
 30
0.0
 11
400.480706
 21
488.161947
 31
0.0
  0
LINE
  8
LC-006-005-----0
  6
CONTINUOUS
  5
20D
 10
394.673289
 20
485.182957
 30
0.0
 11
397.652279
 21
488.161947
 31
0.0
  0
LINE
  8
LC-006-005-----0
  6
CONTINUOUS
  5
20E
 10
392.268832
 20
485.606927
 30
0.0
 11
395.149123
 21
488.487218
 31
0.0
  0
LINE
  8
LC-006-005-----0
  6
CONTINUOUS
  5
20F
 10
389.864376
 20
486.030898
 30
0.0
 11
392.744666
 21
488.911189
 31
0.0
  0
LINE
  8
LC-006-005-----0
  6
CONTINUOUS
  5
210
 10
387.459919
 20
486.454869
 30
0.0
 11
390.34021
 21
489.335159
 31
0.0
  0
LINE
  8
LC-006-005-----0
  6
CONTINUOUS
  5
211
 10
385.055463
 20
486.878839
 30
0.0
 11
387.935753
 21
489.75913
 31
0.0
  0
LINE
  8
LC-006-005-----0
  6
CONTINUOUS
  5
212
 10
384.493824
 20
489.145628
 30
0.0
 11
385.531297
 21
490.1831
 31
0.0
  0
ENDBLK
  8
0
  5
213
  0
BLOCK
  8
0
  5
215
  2
*X16
 70
    65
 10
453.493824
 20
323.39747
 30
0.0
  3
*X16
  0
LINE
  8
LC-006-005-----0
  6
CONTINUOUS
  5
216
 10
541.382343
 20
323.593454
 30
0.0
 11
542.493824
 21
324.704936
 31
0.0
  0
LINE
  8
LC-006-005-----0
  6
CONTINUOUS
  5
217
 10
538.977886
 20
324.017425
 30
0.0
 11
541.56754
 21
326.607079
 31
0.0
  0
LINE
  8
LC-006-005-----0
  6
CONTINUOUS
  5
218
 10
536.57343
 20
324.441395
 30
0.0
 11
539.163084
 21
327.031049
 31
0.0
  0
LINE
  8
LC-006-005-----0
  6
CONTINUOUS
  5
219
 10
534.168973
 20
324.865366
 30
0.0
 11
536.758627
 21
327.45502
 31
0.0
  0
LINE
  8
LC-006-005-----0
  6
CONTINUOUS
  5
21A
 10
531.764517
 20
325.289336
 30
0.0
 11
534.354171
 21
327.87899
 31
0.0
  0
LINE
  8
LC-006-005-----0
  6
CONTINUOUS
  5
21B
 10
529.36006
 20
325.713307
 30
0.0
 11
531.949714
 21
328.302961
 31
0.0
  0
LINE
  8
LC-006-005-----0
  6
CONTINUOUS
  5
21C
 10
526.955603
 20
326.137278
 30
0.0
 11
529.545257
 21
328.726932
 31
0.0
  0
LINE
  8
LC-006-005-----0
  6
CONTINUOUS
  5
21D
 10
524.551147
 20
326.561248
 30
0.0
 11
527.140801
 21
329.150902
 31
0.0
  0
LINE
  8
LC-006-005-----0
  6
CONTINUOUS
  5
21E
 10
522.14669
 20
326.985219
 30
0.0
 11
524.736344
 21
329.574873
 31
0.0
  0
LINE
  8
LC-006-005-----0
  6
CONTINUOUS
  5
21F
 10
519.742234
 20
327.409189
 30
0.0
 11
522.331888
 21
329.998843
 31
0.0
  0
LINE
  8
LC-006-005-----0
  6
CONTINUOUS
  5
220
 10
517.337777
 20
327.83316
 30
0.0
 11
519.927431
 21
330.422814
 31
0.0
  0
LINE
  8
LC-006-005-----0
  6
CONTINUOUS
  5
221
 10
514.933321
 20
328.25713
 30
0.0
 11
517.522975
 21
330.846784
 31
0.0
  0
LINE
  8
LC-006-005-----0
  6
CONTINUOUS
  5
222
 10
512.528864
 20
328.681101
 30
0.0
 11
515.118518
 21
331.270755
 31
0.0
  0
LINE
  8
LC-006-005-----0
  6
CONTINUOUS
  5
223
 10
510.124408
 20
329.105072
 30
0.0
 11
512.714061
 21
331.694725
 31
0.0
  0
LINE
  8
LC-006-005-----0
  6
CONTINUOUS
  5
224
 10
507.719951
 20
329.529042
 30
0.0
 11
510.309605
 21
332.118696
 31
0.0
  0
LINE
  8
LC-006-005-----0
  6
CONTINUOUS
  5
225
 10
505.315494
 20
329.953013
 30
0.0
 11
507.905148
 21
332.542667
 31
0.0
  0
LINE
  8
LC-006-005-----0
  6
CONTINUOUS
  5
226
 10
502.911038
 20
330.376983
 30
0.0
 11
505.500692
 21
332.966637
 31
0.0
  0
LINE
  8
LC-006-005-----0
  6
CONTINUOUS
  5
227
 10
500.506581
 20
330.800954
 30
0.0
 11
503.096235
 21
333.390608
 31
0.0
  0
LINE
  8
LC-006-005-----0
  6
CONTINUOUS
  5
228
 10
498.102125
 20
331.224924
 30
0.0
 11
500.691779
 21
333.814578
 31
0.0
  0
LINE
  8
LC-006-005-----0
  6
CONTINUOUS
  5
229
 10
495.697668
 20
331.648895
 30
0.0
 11
498.287322
 21
334.238549
 31
0.0
  0
LINE
  8
LC-006-005-----0
  6
CONTINUOUS
  5
22A
 10
493.293212
 20
332.072865
 30
0.0
 11
495.882866
 21
334.662519
 31
0.0
  0
LINE
  8
LC-006-005-----0
  6
CONTINUOUS
  5
22B
 10
490.888755
 20
332.496836
 30
0.0
 11
493.478409
 21
335.08649
 31
0.0
  0
LINE
  8
LC-006-005-----0
  6
CONTINUOUS
  5
22C
 10
488.484298
 20
332.920807
 30
0.0
 11
491.073952
 21
335.510461
 31
0.0
  0
LINE
  8
LC-006-005-----0
  6
CONTINUOUS
  5
22D
 10
486.079842
 20
333.344777
 30
0.0
 11
488.669496
 21
335.934431
 31
0.0
  0
LINE
  8
LC-006-005-----0
  6
CONTINUOUS
  5
22E
 10
483.770324
 20
333.863686
 30
0.0
 11
486.267014
 21
336.360376
 31
0.0
  0
LINE
  8
LC-006-005-----0
  6
CONTINUOUS
  5
22F
 10
481.633994
 20
334.555784
 30
0.0
 11
483.998685
 21
336.920475
 31
0.0
  0
LINE
  8
LC-006-005-----0
  6
CONTINUOUS
  5
230
 10
479.648325
 20
335.398542
 30
0.0
 11
481.918802
 21
337.669019
 31
0.0
  0
LINE
  8
LC-006-005-----0
  6
CONTINUOUS
  5
231
 10
477.798203
 20
336.376847
 30
0.0
 11
480.002074
 21
338.580718
 31
0.0
  0
LINE
  8
LC-006-005-----0
  6
CONTINUOUS
  5
232
 10
476.073441
 20
337.480512
 30
0.0
 11
478.232361
 21
339.639432
 31
0.0
  0
LINE
  8
LC-006-005-----0
  6
CONTINUOUS
  5
233
 10
474.467402
 20
338.7029
 30
0.0
 11
476.599523
 21
340.835021
 31
0.0
  0
LINE
  8
LC-006-005-----0
  6
CONTINUOUS
  5
234
 10
472.976221
 20
340.040146
 30
0.0
 11
475.097788
 21
342.161713
 31
0.0
  0
LINE
  8
LC-006-005-----0
  6
CONTINUOUS
  5
235
 10
471.598393
 20
341.490745
 30
0.0
 11
473.724935
 21
343.617287
 31
0.0
  0
LINE
  8
LC-006-005-----0
  6
CONTINUOUS
  5
236
 10
470.334626
 20
343.055406
 30
0.0
 11
472.482008
 21
345.202787
 31
0.0
  0
LINE
  8
LC-006-005-----0
  6
CONTINUOUS
  5
237
 10
469.18791
 20
344.737116
 30
0.0
 11
471.373446
 21
346.922652
 31
0.0
  0
LINE
  8
LC-006-005-----0
  6
CONTINUOUS
  5
238
 10
468.163823
 20
346.541457
 30
0.0
 11
470.407692
 21
348.785326
 31
0.0
  0
LINE
  8
LC-006-005-----0
  6
CONTINUOUS
  5
239
 10
467.271164
 20
348.477225
 30
0.0
 11
469.598482
 21
350.804542
 31
0.0
  0
LINE
  8
LC-006-005-----0
  6
CONTINUOUS
  5
23A
 10
466.523072
 20
350.55756
 30
0.0
 11
468.967322
 21
353.001809
 31
0.0
  0
LINE
  8
LC-006-005-----0
  6
CONTINUOUS
  5
23B
 10
465.939037
 20
352.801952
 30
0.0
 11
468.548437
 21
355.411352
 31
0.0
  0
LINE
  8
LC-006-005-----0
  6
CONTINUOUS
  5
23C
 10
465.548656
 20
355.239998
 30
0.0
 11
468.312206
 21
358.003548
 31
0.0
  0
LINE
  8
LC-006-005-----0
  6
CONTINUOUS
  5
23D
 10
465.315472
 20
357.835241
 30
0.0
 11
468.084659
 21
360.604428
 31
0.0
  0
LINE
  8
LC-006-005-----0
  6
CONTINUOUS
  5
23E
 10
465.087924
 20
360.43612
 30
0.0
 11
467.857111
 21
363.205307
 31
0.0
  0
LINE
  8
LC-006-005-----0
  6
CONTINUOUS
  5
23F
 10
464.860377
 20
363.037
 30
0.0
 11
467.629564
 21
365.806187
 31
0.0
  0
LINE
  8
LC-006-005-----0
  6
CONTINUOUS
  5
240
 10
464.632829
 20
365.63788
 30
0.0
 11
467.402016
 21
368.407067
 31
0.0
  0
LINE
  8
LC-006-005-----0
  6
CONTINUOUS
  5
241
 10
464.405282
 20
368.238759
 30
0.0
 11
467.174469
 21
371.007946
 31
0.0
  0
LINE
  8
LC-006-005-----0
  6
CONTINUOUS
  5
242
 10
464.177734
 20
370.839639
 30
0.0
 11
466.946921
 21
373.608826
 31
0.0
  0
LINE
  8
LC-006-005-----0
  6
CONTINUOUS
  5
243
 10
463.950187
 20
373.440519
 30
0.0
 11
466.719374
 21
376.209706
 31
0.0
  0
LINE
  8
LC-006-005-----0
  6
CONTINUOUS
  5
244
 10
463.722639
 20
376.041398
 30
0.0
 11
466.491826
 21
378.810585
 31
0.0
  0
LINE
  8
LC-006-005-----0
  6
CONTINUOUS
  5
245
 10
463.495092
 20
378.642278
 30
0.0
 11
466.264279
 21
381.411465
 31
0.0
  0
LINE
  8
LC-006-005-----0
  6
CONTINUOUS
  5
246
 10
463.267544
 20
381.243158
 30
0.0
 11
466.036731
 21
384.012345
 31
0.0
  0
LINE
  8
LC-006-005-----0
  6
CONTINUOUS
  5
247
 10
463.039997
 20
383.844037
 30
0.0
 11
465.809184
 21
386.613224
 31
0.0
  0
LINE
  8
LC-006-005-----0
  6
CONTINUOUS
  5
248
 10
462.812449
 20
386.444917
 30
0.0
 11
465.581636
 21
389.214104
 31
0.0
  0
LINE
  8
LC-006-005-----0
  6
CONTINUOUS
  5
249
 10
462.584902
 20
389.045796
 30
0.0
 11
465.354089
 21
391.814984
 31
0.0
  0
LINE
  8
LC-006-005-----0
  6
CONTINUOUS
  5
24A
 10
462.357354
 20
391.646676
 30
0.0
 11
465.126541
 21
394.415863
 31
0.0
  0
LINE
  8
LC-006-005-----0
  6
CONTINUOUS
  5
24B
 10
462.129807
 20
394.247556
 30
0.0
 11
464.898994
 21
397.016743
 31
0.0
  0
LINE
  8
LC-006-005-----0
  6
CONTINUOUS
  5
24C
 10
461.902259
 20
396.848435
 30
0.0
 11
464.671446
 21
399.617622
 31
0.0
  0
LINE
  8
LC-006-005-----0
  6
CONTINUOUS
  5
24D
 10
461.674712
 20
399.449315
 30
0.0
 11
464.443899
 21
402.218502
 31
0.0
  0
LINE
  8
LC-006-005-----0
  6
CONTINUOUS
  5
24E
 10
461.447164
 20
402.050195
 30
0.0
 11
464.216351
 21
404.819382
 31
0.0
  0
LINE
  8
LC-006-005-----0
  6
CONTINUOUS
  5
24F
 10
461.219617
 20
404.651074
 30
0.0
 11
463.988804
 21
407.420261
 31
0.0
  0
LINE
  8
LC-006-005-----0
  6
CONTINUOUS
  5
250
 10
460.992069
 20
407.251954
 30
0.0
 11
463.761256
 21
410.021141
 31
0.0
  0
LINE
  8
LC-006-005-----0
  6
CONTINUOUS
  5
251
 10
460.764522
 20
409.852834
 30
0.0
 11
463.533709
 21
412.622021
 31
0.0
  0
LINE
  8
LC-006-005-----0
  6
CONTINUOUS
  5
252
 10
460.536974
 20
412.453713
 30
0.0
 11
463.306161
 21
415.2229
 31
0.0
  0
LINE
  8
LC-006-005-----0
  6
CONTINUOUS
  5
253
 10
460.309427
 20
415.054593
 30
0.0
 11
463.078614
 21
417.82378
 31
0.0
  0
LINE
  8
LC-006-005-----0
  6
CONTINUOUS
  5
254
 10
460.081879
 20
417.655473
 30
0.0
 11
462.993824
 21
420.567417
 31
0.0
  0
LINE
  8
LC-006-005-----0
  6
CONTINUOUS
  5
255
 10
458.259927
 20
418.661947
 30
0.0
 11
462.993824
 21
423.395845
 31
0.0
  0
LINE
  8
LC-006-005-----0
  6
CONTINUOUS
  5
256
 10
457.243824
 20
420.474272
 30
0.0
 11
457.99001
 21
421.220457
 31
0.0
  0
LINE
  8
LC-006-005-----0
  6
CONTINUOUS
  5
257
 10
460.493824
 20
423.724272
 30
0.0
 11
462.993824
 21
426.224272
 31
0.0
  0
LINE
  8
LC-006-005-----0
  6
CONTINUOUS
  5
258
 10
460.493824
 20
426.552699
 30
0.0
 11
462.993824
 21
429.052699
 31
0.0
  0
LINE
  8
LC-006-005-----0
  6
CONTINUOUS
  5
259
 10
458.18224
 20
427.069542
 30
0.0
 11
461.884235
 21
430.771537
 31
0.0
  0
LINE
  8
LC-006-005-----0
  6
CONTINUOUS
  5
25A
 10
457.243824
 20
428.959553
 30
0.0
 11
460.470021
 21
432.18575
 31
0.0
  0
LINE
  8
LC-006-005-----0
  6
CONTINUOUS
  5
25B
 10
457.117791
 20
431.661947
 30
0.0
 11
459.055808
 21
433.599964
 31
0.0
  0
LINE
  8
LC-006-005-----0
  6
CONTINUOUS
  5
25C
 10
454.408345
 20
431.780928
 30
0.0
 11
457.289364
 21
434.661947
 31
0.0
  0
LINE
  8
LC-006-005-----0
  6
CONTINUOUS
  5
25D
 10
453.674325
 20
433.875336
 30
0.0
 11
454.280436
 21
434.481446
 31
0.0
  0
ENDBLK
  8
0
  5
25E
  0
BLOCK
  8
0
  5
260
  2
*X17
 70
    65
 10
527.615945
 20
384.235389
 30
0.0
  3
*X17
  0
LINE
  8
LC-006-005-----0
  6
CONTINUOUS
  5
261
 10
542.089862
 20
386.526371
 30
0.0
 11
542.493824
 21
386.930332
 31
0.0
  0
LINE
  8
LC-006-005-----0
  6
CONTINUOUS
  5
262
 10
541.665892
 20
388.930827
 30
0.0
 11
542.493824
 21
389.75876
 31
0.0
  0
LINE
  8
LC-006-005-----0
  6
CONTINUOUS
  5
263
 10
541.241921
 20
391.335284
 30
0.0
 11
542.493824
 21
392.587187
 31
0.0
  0
LINE
  8
LC-006-005-----0
  6
CONTINUOUS
  5
264
 10
540.817951
 20
393.73974
 30
0.0
 11
542.493824
 21
395.415614
 31
0.0
  0
LINE
  8
LC-006-005-----0
  6
CONTINUOUS
  5
265
 10
540.39398
 20
396.144197
 30
0.0
 11
542.493824
 21
398.244041
 31
0.0
  0
LINE
  8
LC-006-005-----0
  6
CONTINUOUS
  5
266
 10
539.97001
 20
398.548653
 30
0.0
 11
542.493824
 21
401.072468
 31
0.0
  0
LINE
  8
LC-006-005-----0
  6
CONTINUOUS
  5
267
 10
539.546039
 20
400.95311
 30
0.0
 11
542.493824
 21
403.900895
 31
0.0
  0
LINE
  8
LC-006-005-----0
  6
CONTINUOUS
  5
268
 10
539.122068
 20
403.357566
 30
0.0
 11
542.143331
 21
406.378829
 31
0.0
  0
ENDBLK
  8
0
  5
269
  0
BLOCK
  8
0
  5
26B
  2
*X18
 70
    65
 10
531.843698
 20
397.337261
 30
0.0
  3
*X18
  0
LINE
  8
LC-006-005-----0
  6
CONTINUOUS
  5
26C
 10
537.857255
 20
402.092753
 30
0.0
 11
539.122068
 21
403.357566
 31
0.0
  0
LINE
  8
LC-006-005-----0
  6
CONTINUOUS
  5
26D
 10
535.452798
 20
402.516723
 30
0.0
 11
538.031684
 21
405.095609
 31
0.0
  0
LINE
  8
LC-006-005-----0
  6
CONTINUOUS
  5
26E
 10
533.048342
 20
402.940694
 30
0.0
 11
535.627227
 21
405.519579
 31
0.0
  0
LINE
  8
LC-006-005-----0
  6
CONTINUOUS
  5
26F
 10
532.145837
 20
404.866616
 30
0.0
 11
535.844259
 21
408.565039
 31
0.0
  0
LINE
  8
LC-006-005-----0
  6
CONTINUOUS
  5
270
 10
541.507966
 20
414.228745
 30
0.0
 11
542.493824
 21
415.214604
 31
0.0
  0
LINE
  8
LC-006-005-----0
  6
CONTINUOUS
  5
271
 10
532.751329
 20
408.300536
 30
0.0
 11
541.738172
 21
417.287379
 31
0.0
  0
LINE
  8
LC-006-005-----0
  6
CONTINUOUS
  5
272
 10
534.249359
 20
412.626992
 30
0.0
 11
537.446012
 21
415.823646
 31
0.0
  0
ENDBLK
  8
0
  5
273
  0
BLOCK
  8
0
  5
275
  2
*X19
 70
    65
 10
527.615945
 20
405.339254
 30
0.0
  3
*X19
  0
LINE
  8
LC-006-005-----0
  6
CONTINUOUS
  5
276
 10
538.698098
 20
405.762023
 30
0.0
 11
541.719361
 21
408.783286
 31
0.0
  0
LINE
  8
LC-006-005-----0
  6
CONTINUOUS
  5
277
 10
538.274127
 20
408.16648
 30
0.0
 11
538.350071
 21
408.242423
 31
0.0
  0
ENDBLK
  8
0
  5
278
  0
BLOCK
  8
0
  5
27A
  2
*X20
 70
    65
 10
542.493824
 20
321.537645
 30
0.0
  3
*X20
  0
LINE
  8
LC-006-005-----0
  6
CONTINUOUS
  5
27B
 10
551.000169
 20
321.897572
 30
0.0
 11
552.681488
 21
323.578891
 31
0.0
  0
LINE
  8
LC-006-005-----0
  6
CONTINUOUS
  5
27C
 10
548.595712
 20
322.321542
 30
0.0
 11
551.185366
 21
324.911196
 31
0.0
  0
LINE
  8
LC-006-005-----0
  6
CONTINUOUS
  5
27D
 10
546.191256
 20
322.745513
 30
0.0
 11
548.78091
 21
325.335167
 31
0.0
  0
LINE
  8
LC-006-005-----0
  6
CONTINUOUS
  5
27E
 10
543.786799
 20
323.169484
 30
0.0
 11
546.376453
 21
325.759138
 31
0.0
  0
LINE
  8
LC-006-005-----0
  6
CONTINUOUS
  5
27F
 10
542.493824
 20
324.704936
 30
0.0
 11
543.971997
 21
326.183108
 31
0.0
  0
ENDBLK
  8
0
  5
280
  0
BLOCK
  8
0
  5
282
  2
*X21
 70
    65
 10
542.493824
 20
321.24072
 30
0.0
  3
*X21
  0
LINE
  8
LC-006-005-----0
  6
CONTINUOUS
  5
283
 10
556.513668
 20
321.754216
 30
0.0
 11
556.982301
 21
322.22285
 31
0.0
  0
LINE
  8
LC-006-005-----0
  6
CONTINUOUS
  5
284
 10
553.537068
 20
321.606043
 30
0.0
 11
556.558331
 21
324.627306
 31
0.0
  0
LINE
  8
LC-006-005-----0
  6
CONTINUOUS
  5
285
 10
553.113097
 20
324.0105
 30
0.0
 11
556.13436
 21
327.031763
 31
0.0
  0
LINE
  8
LC-006-005-----0
  6
CONTINUOUS
  5
286
 10
552.689127
 20
326.414957
 30
0.0
 11
555.71039
 21
329.43622
 31
0.0
  0
LINE
  8
LC-006-005-----0
  6
CONTINUOUS
  5
287
 10
552.265156
 20
328.819413
 30
0.0
 11
555.286419
 21
331.840676
 31
0.0
  0
LINE
  8
LC-006-005-----0
  6
CONTINUOUS
  5
288
 10
551.841185
 20
331.22387
 30
0.0
 11
554.862448
 21
334.245133
 31
0.0
  0
LINE
  8
LC-006-005-----0
  6
CONTINUOUS
  5
289
 10
551.417215
 20
333.628326
 30
0.0
 11
554.438478
 21
336.649589
 31
0.0
  0
LINE
  8
LC-006-005-----0
  6
CONTINUOUS
  5
28A
 10
550.993244
 20
336.032783
 30
0.0
 11
554.014507
 21
339.054046
 31
0.0
  0
LINE
  8
LC-006-005-----0
  6
CONTINUOUS
  5
28B
 10
550.569274
 20
338.437239
 30
0.0
 11
553.590537
 21
341.458502
 31
0.0
  0
LINE
  8
LC-006-005-----0
  6
CONTINUOUS
  5
28C
 10
550.145303
 20
340.841696
 30
0.0
 11
553.166566
 21
343.862959
 31
0.0
  0
LINE
  8
LC-006-005-----0
  6
CONTINUOUS
  5
28D
 10
549.721333
 20
343.246153
 30
0.0
 11
552.742596
 21
346.267415
 31
0.0
  0
LINE
  8
LC-006-005-----0
  6
CONTINUOUS
  5
28E
 10
549.297362
 20
345.650609
 30
0.0
 11
552.318625
 21
348.671872
 31
0.0
  0
LINE
  8
LC-006-005-----0
  6
CONTINUOUS
  5
28F
 10
548.873391
 20
348.055066
 30
0.0
 11
551.894654
 21
351.076329
 31
0.0
  0
LINE
  8
LC-006-005-----0
  6
CONTINUOUS
  5
290
 10
548.449421
 20
350.459522
 30
0.0
 11
551.470684
 21
353.480785
 31
0.0
  0
LINE
  8
LC-006-005-----0
  6
CONTINUOUS
  5
291
 10
548.02545
 20
352.863979
 30
0.0
 11
551.046713
 21
355.885242
 31
0.0
  0
LINE
  8
LC-006-005-----0
  6
CONTINUOUS
  5
292
 10
547.60148
 20
355.268435
 30
0.0
 11
550.622743
 21
358.289698
 31
0.0
  0
LINE
  8
LC-006-005-----0
  6
CONTINUOUS
  5
293
 10
547.177509
 20
357.672892
 30
0.0
 11
550.198772
 21
360.694155
 31
0.0
  0
LINE
  8
LC-006-005-----0
  6
CONTINUOUS
  5
294
 10
546.753539
 20
360.077348
 30
0.0
 11
549.774802
 21
363.098611
 31
0.0
  0
LINE
  8
LC-006-005-----0
  6
CONTINUOUS
  5
295
 10
546.329568
 20
362.481805
 30
0.0
 11
549.350831
 21
365.503068
 31
0.0
  0
LINE
  8
LC-006-005-----0
  6
CONTINUOUS
  5
296
 10
545.905598
 20
364.886262
 30
0.0
 11
548.92686
 21
367.907525
 31
0.0
  0
LINE
  8
LC-006-005-----0
  6
CONTINUOUS
  5
297
 10
545.481627
 20
367.290718
 30
0.0
 11
548.50289
 21
370.311981
 31
0.0
  0
LINE
  8
LC-006-005-----0
  6
CONTINUOUS
  5
298
 10
545.057656
 20
369.695175
 30
0.0
 11
548.078919
 21
372.716438
 31
0.0
  0
LINE
  8
LC-006-005-----0
  6
CONTINUOUS
  5
299
 10
544.633686
 20
372.099631
 30
0.0
 11
547.654949
 21
375.120894
 31
0.0
  0
LINE
  8
LC-006-005-----0
  6
CONTINUOUS
  5
29A
 10
544.209715
 20
374.504088
 30
0.0
 11
547.230978
 21
377.525351
 31
0.0
  0
LINE
  8
LC-006-005-----0
  6
CONTINUOUS
  5
29B
 10
543.785745
 20
376.908544
 30
0.0
 11
546.807008
 21
379.929807
 31
0.0
  0
LINE
  8
LC-006-005-----0
  6
CONTINUOUS
  5
29C
 10
543.361774
 20
379.313001
 30
0.0
 11
546.383037
 21
382.334264
 31
0.0
  0
LINE
  8
LC-006-005-----0
  6
CONTINUOUS
  5
29D
 10
542.937804
 20
381.717457
 30
0.0
 11
545.959067
 21
384.73872
 31
0.0
  0
LINE
  8
LC-006-005-----0
  6
CONTINUOUS
  5
29E
 10
542.513833
 20
384.121914
 30
0.0
 11
545.535096
 21
387.143177
 31
0.0
  0
LINE
  8
LC-006-005-----0
  6
CONTINUOUS
  5
29F
 10
542.493824
 20
386.930332
 30
0.0
 11
545.111125
 21
389.547634
 31
0.0
  0
LINE
  8
LC-006-005-----0
  6
CONTINUOUS
  5
2A0
 10
542.493824
 20
389.75876
 30
0.0
 11
544.687155
 21
391.95209
 31
0.0
  0
LINE
  8
LC-006-005-----0
  6
CONTINUOUS
  5
2A1
 10
542.493824
 20
392.587187
 30
0.0
 11
544.263184
 21
394.356547
 31
0.0
  0
LINE
  8
LC-006-005-----0
  6
CONTINUOUS
  5
2A2
 10
542.493824
 20
395.415614
 30
0.0
 11
543.839214
 21
396.761003
 31
0.0
  0
LINE
  8
LC-006-005-----0
  6
CONTINUOUS
  5
2A3
 10
542.493824
 20
398.244041
 30
0.0
 11
543.415243
 21
399.16546
 31
0.0
  0
LINE
  8
LC-006-005-----0
  6
CONTINUOUS
  5
2A4
 10
542.493824
 20
401.072468
 30
0.0
 11
542.991273
 21
401.569916
 31
0.0
  0
LINE
  8
LC-006-005-----0
  6
CONTINUOUS
  5
2A5
 10
542.493824
 20
403.900895
 30
0.0
 11
542.567302
 21
403.974373
 31
0.0
  0
ENDBLK
  8
0
  5
2A6
  0
BLOCK
  8
0
  5
2A8
  2
*X22
 70
    65
 10
456.493824
 20
421.309293
 30
0.0
  3
*X22
  0
LINE
  8
LC-006-005-----0
  6
DASHED
  5
2AA
 10
457.167596
 20
421.812257
 30
0.0
 11
460.490205
 21
425.134866
 31
0.0
  0
LINE
  8
LC-006-005-----0
  6
DASHED
  5
2AB
 10
456.601891
 20
422.660765
 30
0.0
 11
460.120004
 21
426.178878
 31
0.0
  0
LINE
  8
LC-006-005-----0
  6
CONTINUOUS
  5
2AC
 10
456.536036
 20
425.423338
 30
0.0
 11
458.085088
 21
426.972389
 31
0.0
  0
ENDBLK
  8
0
  5
2AD
  0
BLOCK
  8
0
  5
2AF
  2
*X23
 70
    65
 10
624.493824
 20
421.309293
 30
0.0
  3
*X23
  0
LINE
  8
LC-006-005-----0
  6
DASHED
  5
2B0
 10
625.329734
 20
421.682981
 30
0.0
 11
628.493824
 21
424.847071
 31
0.0
  0
LINE
  8
LC-006-005-----0
  6
DASHED
  5
2B1
 10
624.686127
 20
422.453588
 30
0.0
 11
628.233614
 21
426.001075
 31
0.0
  0
LINE
  8
LC-006-005-----0
  6
CONTINUOUS
  5
2B2
 10
624.495291
 20
425.091179
 30
0.0
 11
626.402634
 21
426.998522
 31
0.0
  0
ENDBLK
  8
0
  5
2B3
  0
BLOCK
  8
0
  5
2B5
  2
*X24
 70
    65
 10
542.493824
 20
414.334189
 30
0.0
  3
*X24
  0
LINE
  8
LC-006-005-----0
  6
CONTINUOUS
  5
2B6
 10
625.140708
 20
418.665528
 30
0.0
 11
627.59101
 21
421.11583
 31
0.0
  0
LINE
  8
LC-006-005-----0
  6
CONTINUOUS
  5
2B7
 10
622.155851
 20
418.509098
 30
0.0
 11
625.186553
 21
421.5398
 31
0.0
  0
LINE
  8
LC-006-005-----0
  6
CONTINUOUS
  5
2B8
 10
619.170995
 20
418.352669
 30
0.0
 11
624.493824
 21
423.675498
 31
0.0
  0
LINE
  8
LC-006-005-----0
  6
CONTINUOUS
  5
2B9
 10
616.186138
 20
418.196239
 30
0.0
 11
619.356401
 21
421.366503
 31
0.0
  0
LINE
  8
LC-006-005-----0
  6
CONTINUOUS
  5
2BA
 10
621.993824
 20
424.003926
 30
0.0
 11
624.493824
 21
426.503926
 31
0.0
  0
LINE
  8
LC-006-005-----0
  6
CONTINUOUS
  5
2BB
 10
624.685674
 20
426.695776
 30
0.0
 11
627.743824
 21
429.753926
 31
0.0
  0
LINE
  8
LC-006-005-----0
  6
CONTINUOUS
  5
2BC
 10
629.651846
 20
431.661947
 30
0.0
 11
631.461512
 21
433.471613
 31
0.0
  0
LINE
  8
LC-006-005-----0
  6
CONTINUOUS
  5
2BD
 10
613.201281
 20
418.039809
 30
0.0
 11
616.371544
 21
421.210073
 31
0.0
  0
LINE
  8
LC-006-005-----0
  6
CONTINUOUS
  5
2BE
 10
621.993824
 20
426.832353
 30
0.0
 11
629.823419
 21
434.661947
 31
0.0
  0
LINE
  8
LC-006-005-----0
  6
CONTINUOUS
  5
2BF
 10
610.216424
 20
417.88338
 30
0.0
 11
613.386688
 21
421.053643
 31
0.0
  0
LINE
  8
LC-006-005-----0
  6
CONTINUOUS
  5
2C0
 10
621.993824
 20
429.66078
 30
0.0
 11
626.994992
 21
434.661947
 31
0.0
  0
LINE
  8
LC-006-005-----0
  6
CONTINUOUS
  5
2C1
 10
607.231567
 20
417.72695
 30
0.0
 11
610.401831
 21
420.897213
 31
0.0
  0
LINE
  8
LC-006-005-----0
  6
CONTINUOUS
  5
2C2
 10
604.24671
 20
417.57052
 30
0.0
 11
607.416974
 21
420.740784
 31
0.0
  0
LINE
  8
LC-006-005-----0
  6
CONTINUOUS
  5
2C3
 10
601.261854
 20
417.41409
 30
0.0
 11
604.432117
 21
420.584354
 31
0.0
  0
LINE
  8
LC-006-005-----0
  6
CONTINUOUS
  5
2C4
 10
598.276997
 20
417.257661
 30
0.0
 11
601.44726
 21
420.427924
 31
0.0
  0
LINE
  8
LC-006-005-----0
  6
CONTINUOUS
  5
2C5
 10
595.29214
 20
417.101231
 30
0.0
 11
598.462403
 21
420.271494
 31
0.0
  0
LINE
  8
LC-006-005-----0
  6
CONTINUOUS
  5
2C6
 10
592.307283
 20
416.944801
 30
0.0
 11
595.477546
 21
420.115065
 31
0.0
  0
LINE
  8
LC-006-005-----0
  6
CONTINUOUS
  5
2C7
 10
589.322426
 20
416.788372
 30
0.0
 11
592.49269
 21
419.958635
 31
0.0
  0
LINE
  8
LC-006-005-----0
  6
CONTINUOUS
  5
2C8
 10
586.337569
 20
416.631942
 30
0.0
 11
589.507833
 21
419.802205
 31
0.0
  0
LINE
  8
LC-006-005-----0
  6
CONTINUOUS
  5
2C9
 10
583.352712
 20
416.475512
 30
0.0
 11
586.522976
 21
419.645776
 31
0.0
  0
LINE
  8
LC-006-005-----0
  6
CONTINUOUS
  5
2CA
 10
580.367856
 20
416.319082
 30
0.0
 11
583.538119
 21
419.489346
 31
0.0
  0
LINE
  8
LC-006-005-----0
  6
CONTINUOUS
  5
2CB
 10
577.382999
 20
416.162653
 30
0.0
 11
580.553262
 21
419.332916
 31
0.0
  0
LINE
  8
LC-006-005-----0
  6
CONTINUOUS
  5
2CC
 10
574.398142
 20
416.006223
 30
0.0
 11
577.568405
 21
419.176486
 31
0.0
  0
LINE
  8
LC-006-005-----0
  6
CONTINUOUS
  5
2CD
 10
571.413285
 20
415.849793
 30
0.0
 11
574.583549
 21
419.020057
 31
0.0
  0
LINE
  8
LC-006-005-----0
  6
CONTINUOUS
  5
2CE
 10
568.428428
 20
415.693364
 30
0.0
 11
571.598692
 21
418.863627
 31
0.0
  0
LINE
  8
LC-006-005-----0
  6
CONTINUOUS
  5
2CF
 10
565.443571
 20
415.536934
 30
0.0
 11
568.613835
 21
418.707197
 31
0.0
  0
LINE
  8
LC-006-005-----0
  6
CONTINUOUS
  5
2D0
 10
562.458715
 20
415.380504
 30
0.0
 11
565.628978
 21
418.550768
 31
0.0
  0
LINE
  8
LC-006-005-----0
  6
CONTINUOUS
  5
2D1
 10
559.473858
 20
415.224074
 30
0.0
 11
562.644121
 21
418.394338
 31
0.0
  0
LINE
  8
LC-006-005-----0
  6
CONTINUOUS
  5
2D2
 10
556.489001
 20
415.067645
 30
0.0
 11
559.659264
 21
418.237908
 31
0.0
  0
LINE
  8
LC-006-005-----0
  6
CONTINUOUS
  5
2D3
 10
553.504144
 20
414.911215
 30
0.0
 11
556.674408
 21
418.081478
 31
0.0
  0
LINE
  8
LC-006-005-----0
  6
CONTINUOUS
  5
2D4
 10
550.519287
 20
414.754785
 30
0.0
 11
553.689551
 21
417.925049
 31
0.0
  0
LINE
  8
LC-006-005-----0
  6
CONTINUOUS
  5
2D5
 10
547.53443
 20
414.598355
 30
0.0
 11
550.704694
 21
417.768619
 31
0.0
  0
LINE
  8
LC-006-005-----0
  6
CONTINUOUS
  5
2D6
 10
544.549573
 20
414.441926
 30
0.0
 11
547.719837
 21
417.612189
 31
0.0
  0
LINE
  8
LC-006-005-----0
  6
CONTINUOUS
  5
2D7
 10
542.493824
 20
415.214604
 30
0.0
 11
544.73498
 21
417.45576
 31
0.0
  0
ENDBLK
  8
0
  5
2D8
  0
BLOCK
  8
0
  5
2DA
  2
*X25
 70
    65
 10
593.493824
 20
235.161947
 30
0.0
  3
*X25
  0
LINE
  8
LC-006-005-----0
  6
CONTINUOUS
  5
2DB
 10
594.372192
 20
235.161947
 30
0.0
 11
596.989307
 21
237.779062
 31
0.0
  0
LINE
  8
LC-006-005-----0
  6
CONTINUOUS
  5
2DC
 10
593.493824
 20
237.112007
 30
0.0
 11
597.493824
 21
241.112007
 31
0.0
  0
LINE
  8
LC-006-005-----0
  6
CONTINUOUS
  5
2DD
 10
593.493824
 20
239.940434
 30
0.0
 11
597.493824
 21
243.940434
 31
0.0
  0
LINE
  8
LC-006-005-----0
  6
CONTINUOUS
  5
2DE
 10
593.493824
 20
242.768861
 30
0.0
 11
597.493824
 21
246.768861
 31
0.0
  0
LINE
  8
LC-006-005-----0
  6
CONTINUOUS
  5
2DF
 10
593.493824
 20
245.597288
 30
0.0
 11
597.493824
 21
249.597288
 31
0.0
  0
LINE
  8
LC-006-005-----0
  6
CONTINUOUS
  5
2E0
 10
593.493824
 20
248.425715
 30
0.0
 11
597.493824
 21
252.425715
 31
0.0
  0
LINE
  8
LC-006-005-----0
  6
CONTINUOUS
  5
2E1
 10
593.493824
 20
251.254142
 30
0.0
 11
597.493824
 21
255.254142
 31
0.0
  0
LINE
  8
LC-006-005-----0
  6
CONTINUOUS
  5
2E2
 10
593.493824
 20
254.082569
 30
0.0
 11
597.493824
 21
258.082569
 31
0.0
  0
LINE
  8
LC-006-005-----0
  6
CONTINUOUS
  5
2E3
 10
593.493824
 20
256.910996
 30
0.0
 11
597.493824
 21
260.910996
 31
0.0
  0
LINE
  8
LC-006-005-----0
  6
CONTINUOUS
  5
2E4
 10
593.493824
 20
259.739424
 30
0.0
 11
597.493824
 21
263.739424
 31
0.0
  0
LINE
  8
LC-006-005-----0
  6
CONTINUOUS
  5
2E5
 10
593.493824
 20
262.567851
 30
0.0
 11
597.493824
 21
266.567851
 31
0.0
  0
LINE
  8
LC-006-005-----0
  6
CONTINUOUS
  5
2E6
 10
593.493824
 20
265.396278
 30
0.0
 11
597.493824
 21
269.396278
 31
0.0
  0
LINE
  8
LC-006-005-----0
  6
CONTINUOUS
  5
2E7
 10
593.493824
 20
268.224705
 30
0.0
 11
597.493824
 21
272.224705
 31
0.0
  0
LINE
  8
LC-006-005-----0
  6
CONTINUOUS
  5
2E8
 10
593.493824
 20
271.053132
 30
0.0
 11
597.493824
 21
275.053132
 31
0.0
  0
LINE
  8
LC-006-005-----0
  6
CONTINUOUS
  5
2E9
 10
619.60264
 20
297.161947
 30
0.0
 11
625.615277
 21
303.174584
 31
0.0
  0
LINE
  8
LC-006-005-----0
  6
CONTINUOUS
  5
2EA
 10
593.493824
 20
273.881559
 30
0.0
 11
597.493824
 21
277.881559
 31
0.0
  0
LINE
  8
LC-006-005-----0
  6
CONTINUOUS
  5
2EB
 10
616.774212
 20
297.161947
 30
0.0
 11
625.796919
 21
306.184654
 31
0.0
  0
LINE
  8
LC-006-005-----0
  6
CONTINUOUS
  5
2EC
 10
593.493824
 20
276.709986
 30
0.0
 11
597.493824
 21
280.709986
 31
0.0
  0
LINE
  8
LC-006-005-----0
  6
CONTINUOUS
  5
2ED
 10
613.945785
 20
297.161947
 30
0.0
 11
617.945785
 21
301.161947
 31
0.0
  0
LINE
  8
LC-006-005-----0
  6
CONTINUOUS
  5
2EE
 10
621.713936
 20
304.930098
 30
0.0
 11
625.978561
 21
309.194723
 31
0.0
  0
LINE
  8
LC-006-005-----0
  6
CONTINUOUS
  5
2EF
 10
593.493824
 20
279.538413
 30
0.0
 11
597.493824
 21
283.538413
 31
0.0
  0
LINE
  8
LC-006-005-----0
  6
CONTINUOUS
  5
2F0
 10
611.117358
 20
297.161947
 30
0.0
 11
615.117358
 21
301.161947
 31
0.0
  0
LINE
  8
LC-006-005-----0
  6
CONTINUOUS
  5
2F1
 10
621.895578
 20
307.940168
 30
0.0
 11
626.160203
 21
312.204792
 31
0.0
  0
LINE
  8
LC-006-005-----0
  6
CONTINUOUS
  5
2F2
 10
593.493824
 20
282.366841
 30
0.0
 11
597.493824
 21
286.366841
 31
0.0
  0
LINE
  8
LC-006-005-----0
  6
CONTINUOUS
  5
2F3
 10
608.288931
 20
297.161947
 30
0.0
 11
612.288931
 21
301.161947
 31
0.0
  0
LINE
  8
LC-006-005-----0
  6
CONTINUOUS
  5
2F4
 10
622.077221
 20
310.950237
 30
0.0
 11
626.341845
 21
315.214861
 31
0.0
  0
LINE
  8
LC-006-005-----0
  6
CONTINUOUS
  5
2F5
 10
593.493824
 20
285.195268
 30
0.0
 11
597.493824
 21
289.195268
 31
0.0
  0
LINE
  8
LC-006-005-----0
  6
CONTINUOUS
  5
2F6
 10
605.460504
 20
297.161947
 30
0.0
 11
609.460504
 21
301.161947
 31
0.0
  0
LINE
  8
LC-006-005-----0
  6
CONTINUOUS
  5
2F7
 10
622.258863
 20
313.960306
 30
0.0
 11
626.523487
 21
318.22493
 31
0.0
  0
LINE
  8
LC-006-005-----0
  6
CONTINUOUS
  5
2F8
 10
593.493824
 20
288.023695
 30
0.0
 11
597.493824
 21
292.023695
 31
0.0
  0
LINE
  8
LC-006-005-----0
  6
CONTINUOUS
  5
2F9
 10
602.632077
 20
297.161947
 30
0.0
 11
606.632077
 21
301.161947
 31
0.0
  0
LINE
  8
LC-006-005-----0
  6
CONTINUOUS
  5
2FA
 10
622.440505
 20
316.970375
 30
0.0
 11
626.705129
 21
321.235
 31
0.0
  0
LINE
  8
LC-006-005-----0
  6
CONTINUOUS
  5
2FB
 10
593.493824
 20
290.852122
 30
0.0
 11
597.493824
 21
294.852122
 31
0.0
  0
LINE
  8
LC-006-005-----0
  6
CONTINUOUS
  5
2FC
 10
599.80365
 20
297.161947
 30
0.0
 11
603.80365
 21
301.161947
 31
0.0
  0
LINE
  8
LC-006-005-----0
  6
CONTINUOUS
  5
2FD
 10
622.622147
 20
319.980445
 30
0.0
 11
626.886771
 21
324.245069
 31
0.0
  0
LINE
  8
LC-006-005-----0
  6
CONTINUOUS
  5
2FE
 10
593.493824
 20
293.680549
 30
0.0
 11
600.975223
 21
301.161947
 31
0.0
  0
LINE
  8
LC-006-005-----0
  6
CONTINUOUS
  5
2FF
 10
622.803789
 20
322.990514
 30
0.0
 11
627.068413
 21
327.255138
 31
0.0
  0
LINE
  8
LC-006-005-----0
  6
CONTINUOUS
  5
300
 10
593.493824
 20
296.508976
 30
0.0
 11
598.146795
 21
301.161947
 31
0.0
  0
LINE
  8
LC-006-005-----0
  6
CONTINUOUS
  5
301
 10
622.985431
 20
326.000583
 30
0.0
 11
627.250055
 21
330.265207
 31
0.0
  0
LINE
  8
LC-006-005-----0
  6
CONTINUOUS
  5
302
 10
593.493824
 20
299.337403
 30
0.0
 11
595.318368
 21
301.161947
 31
0.0
  0
LINE
  8
LC-006-005-----0
  6
CONTINUOUS
  5
303
 10
623.167073
 20
329.010652
 30
0.0
 11
627.431698
 21
333.275277
 31
0.0
  0
LINE
  8
LC-006-005-----0
  6
CONTINUOUS
  5
304
 10
623.348715
 20
332.020721
 30
0.0
 11
627.61334
 21
336.285346
 31
0.0
  0
LINE
  8
LC-006-005-----0
  6
CONTINUOUS
  5
305
 10
623.530357
 20
335.030791
 30
0.0
 11
627.794982
 21
339.295415
 31
0.0
  0
LINE
  8
LC-006-005-----0
  6
CONTINUOUS
  5
306
 10
623.712
 20
338.04086
 30
0.0
 11
627.976624
 21
342.305484
 31
0.0
  0
LINE
  8
LC-006-005-----0
  6
CONTINUOUS
  5
307
 10
623.893642
 20
341.050929
 30
0.0
 11
628.158266
 21
345.315554
 31
0.0
  0
LINE
  8
LC-006-005-----0
  6
CONTINUOUS
  5
308
 10
624.075284
 20
344.060998
 30
0.0
 11
628.339908
 21
348.325623
 31
0.0
  0
LINE
  8
LC-006-005-----0
  6
CONTINUOUS
  5
309
 10
624.256926
 20
347.071068
 30
0.0
 11
628.52155
 21
351.335692
 31
0.0
  0
LINE
  8
LC-006-005-----0
  6
CONTINUOUS
  5
30A
 10
624.438568
 20
350.081137
 30
0.0
 11
628.703192
 21
354.345761
 31
0.0
  0
LINE
  8
LC-006-005-----0
  6
CONTINUOUS
  5
30B
 10
624.62021
 20
353.091206
 30
0.0
 11
628.884834
 21
357.35583
 31
0.0
  0
LINE
  8
LC-006-005-----0
  6
CONTINUOUS
  5
30C
 10
624.801852
 20
356.101275
 30
0.0
 11
629.066477
 21
360.3659
 31
0.0
  0
LINE
  8
LC-006-005-----0
  6
CONTINUOUS
  5
30D
 10
624.983494
 20
359.111345
 30
0.0
 11
629.248119
 21
363.375969
 31
0.0
  0
LINE
  8
LC-006-005-----0
  6
CONTINUOUS
  5
30E
 10
625.165136
 20
362.121414
 30
0.0
 11
629.429761
 21
366.386038
 31
0.0
  0
LINE
  8
LC-006-005-----0
  6
CONTINUOUS
  5
30F
 10
625.346778
 20
365.131483
 30
0.0
 11
629.611403
 21
369.396107
 31
0.0
  0
LINE
  8
LC-006-005-----0
  6
CONTINUOUS
  5
310
 10
625.528421
 20
368.141552
 30
0.0
 11
629.793045
 21
372.406177
 31
0.0
  0
LINE
  8
LC-006-005-----0
  6
CONTINUOUS
  5
311
 10
625.710063
 20
371.151621
 30
0.0
 11
629.974687
 21
375.416246
 31
0.0
  0
LINE
  8
LC-006-005-----0
  6
CONTINUOUS
  5
312
 10
625.891705
 20
374.161691
 30
0.0
 11
630.156329
 21
378.426315
 31
0.0
  0
LINE
  8
LC-006-005-----0
  6
CONTINUOUS
  5
313
 10
626.073347
 20
377.17176
 30
0.0
 11
630.337971
 21
381.436384
 31
0.0
  0
LINE
  8
LC-006-005-----0
  6
CONTINUOUS
  5
314
 10
626.254989
 20
380.181829
 30
0.0
 11
630.519613
 21
384.446454
 31
0.0
  0
LINE
  8
LC-006-005-----0
  6
CONTINUOUS
  5
315
 10
626.436631
 20
383.191898
 30
0.0
 11
630.701256
 21
387.456523
 31
0.0
  0
LINE
  8
LC-006-005-----0
  6
CONTINUOUS
  5
316
 10
626.618273
 20
386.201968
 30
0.0
 11
630.882898
 21
390.466592
 31
0.0
  0
LINE
  8
LC-006-005-----0
  6
CONTINUOUS
  5
317
 10
626.799915
 20
389.212037
 30
0.0
 11
631.06454
 21
393.476661
 31
0.0
  0
LINE
  8
LC-006-005-----0
  6
CONTINUOUS
  5
318
 10
626.981557
 20
392.222106
 30
0.0
 11
631.246182
 21
396.486731
 31
0.0
  0
LINE
  8
LC-006-005-----0
  6
CONTINUOUS
  5
319
 10
627.1632
 20
395.232175
 30
0.0
 11
631.427824
 21
399.4968
 31
0.0
  0
LINE
  8
LC-006-005-----0
  6
CONTINUOUS
  5
31A
 10
627.344842
 20
398.242245
 30
0.0
 11
631.609466
 21
402.506869
 31
0.0
  0
LINE
  8
LC-006-005-----0
  6
CONTINUOUS
  5
31B
 10
627.526484
 20
401.252314
 30
0.0
 11
631.791108
 21
405.516938
 31
0.0
  0
LINE
  8
LC-006-005-----0
  6
CONTINUOUS
  5
31C
 10
627.708126
 20
404.262383
 30
0.0
 11
631.97275
 21
408.527007
 31
0.0
  0
LINE
  8
LC-006-005-----0
  6
CONTINUOUS
  5
31D
 10
627.889768
 20
407.272452
 30
0.0
 11
632.154392
 21
411.537077
 31
0.0
  0
LINE
  8
LC-006-005-----0
  6
CONTINUOUS
  5
31E
 10
628.07141
 20
410.282522
 30
0.0
 11
632.336035
 21
414.547146
 31
0.0
  0
LINE
  8
LC-006-005-----0
  6
CONTINUOUS
  5
31F
 10
628.253052
 20
413.292591
 30
0.0
 11
632.493824
 21
417.533363
 31
0.0
  0
LINE
  8
LC-006-005-----0
  6
CONTINUOUS
  5
320
 10
628.434694
 20
416.30266
 30
0.0
 11
632.493824
 21
420.36179
 31
0.0
  0
LINE
  8
LC-006-005-----0
  6
CONTINUOUS
  5
321
 10
698.813644
 20
486.68161
 30
0.0
 11
700.493824
 21
488.36179
 31
0.0
  0
LINE
  8
LC-006-005-----0
  6
CONTINUOUS
  5
322
 10
628.487621
 20
419.184014
 30
0.0
 11
632.493824
 21
423.190217
 31
0.0
  0
LINE
  8
LC-006-005-----0
  6
CONTINUOUS
  5
323
 10
695.379725
 20
486.076117
 30
0.0
 11
699.493206
 21
490.189599
 31
0.0
  0
LINE
  8
LC-006-005-----0
  6
CONTINUOUS
  5
324
 10
628.489087
 20
422.013907
 30
0.0
 11
632.493824
 21
426.018644
 31
0.0
  0
LINE
  8
LC-006-005-----0
  6
CONTINUOUS
  5
325
 10
633.887933
 20
427.412752
 30
0.0
 11
636.243019
 21
429.767839
 31
0.0
  0
LINE
  8
LC-006-005-----0
  6
CONTINUOUS
  5
326
 10
691.945805
 20
485.470625
 30
0.0
 11
696.059286
 21
489.584106
 31
0.0
  0
LINE
  8
LC-006-005-----0
  6
CONTINUOUS
  5
327
 10
628.490552
 20
424.843799
 30
0.0
 11
636.493824
 21
432.847071
 31
0.0
  0
LINE
  8
LC-006-005-----0
  6
CONTINUOUS
  5
328
 10
688.511885
 20
484.865132
 30
0.0
 11
692.625366
 21
488.978613
 31
0.0
  0
LINE
  8
LC-006-005-----0
  6
CONTINUOUS
  5
329
 10
628.492018
 20
427.673692
 30
0.0
 11
631.980273
 21
431.161947
 31
0.0
  0
LINE
  8
LC-006-005-----0
  6
CONTINUOUS
  5
32A
 10
632.493824
 20
431.675498
 30
0.0
 11
636.493824
 21
435.675498
 31
0.0
  0
LINE
  8
LC-006-005-----0
  6
CONTINUOUS
  5
32B
 10
685.680273
 20
484.861947
 30
0.0
 11
689.191446
 21
488.37312
 31
0.0
  0
LINE
  8
LC-006-005-----0
  6
CONTINUOUS
  5
32C
 10
628.493483
 20
430.503585
 30
0.0
 11
629.151846
 21
431.161947
 31
0.0
  0
LINE
  8
LC-006-005-----0
  6
CONTINUOUS
  5
32D
 10
632.493824
 20
434.503926
 30
0.0
 11
636.493824
 21
438.503926
 31
0.0
  0
LINE
  8
LC-006-005-----0
  6
CONTINUOUS
  5
32E
 10
676.851846
 20
478.861947
 30
0.0
 11
679.610219
 21
481.62032
 31
0.0
  0
LINE
  8
LC-006-005-----0
  6
CONTINUOUS
  5
32F
 10
682.851846
 20
484.861947
 30
0.0
 11
686.151846
 21
488.161947
 31
0.0
  0
LINE
  8
LC-006-005-----0
  6
CONTINUOUS
  5
330
 10
632.493824
 20
437.332353
 30
0.0
 11
636.493824
 21
441.332353
 31
0.0
  0
LINE
  8
LC-006-005-----0
  6
CONTINUOUS
  5
331
 10
674.023419
 20
478.861947
 30
0.0
 11
683.323419
 21
488.161947
 31
0.0
  0
LINE
  8
LC-006-005-----0
  6
CONTINUOUS
  5
332
 10
632.493824
 20
440.16078
 30
0.0
 11
636.493824
 21
444.16078
 31
0.0
  0
LINE
  8
LC-006-005-----0
  6
CONTINUOUS
  5
333
 10
671.194992
 20
478.861947
 30
0.0
 11
674.994992
 21
482.661947
 31
0.0
  0
LINE
  8
LC-006-005-----0
  6
CONTINUOUS
  5
334
 10
676.893824
 20
484.56078
 30
0.0
 11
680.494992
 21
488.161947
 31
0.0
  0
LINE
  8
LC-006-005-----0
  6
CONTINUOUS
  5
335
 10
632.493824
 20
442.989207
 30
0.0
 11
636.493824
 21
446.989207
 31
0.0
  0
LINE
  8
LC-006-005-----0
  6
CONTINUOUS
  5
336
 10
657.578382
 20
468.073765
 30
0.0
 11
663.693824
 21
474.189207
 31
0.0
  0
LINE
  8
LC-006-005-----0
  6
CONTINUOUS
  5
337
 10
668.415032
 20
478.910414
 30
0.0
 11
672.166565
 21
482.661947
 31
0.0
  0
LINE
  8
LC-006-005-----0
  6
CONTINUOUS
  5
338
 10
676.893824
 20
487.389207
 30
0.0
 11
677.666565
 21
488.161947
 31
0.0
  0
LINE
  8
LC-006-005-----0
  6
CONTINUOUS
  5
339
 10
632.493824
 20
445.817634
 30
0.0
 11
636.493824
 21
449.817634
 31
0.0
  0
LINE
  8
LC-006-005-----0
  6
CONTINUOUS
  5
33A
 10
656.158874
 20
469.482684
 30
0.0
 11
663.693824
 21
477.017634
 31
0.0
  0
LINE
  8
LC-006-005-----0
  6
CONTINUOUS
  5
33B
 10
667.26746
 20
480.59127
 30
0.0
 11
669.893824
 21
483.217634
 31
0.0
  0
LINE
  8
LC-006-005-----0
  6
CONTINUOUS
  5
33C
 10
632.493824
 20
448.646061
 30
0.0
 11
636.493824
 21
452.646061
 31
0.0
  0
LINE
  8
LC-006-005-----0
  6
CONTINUOUS
  5
33D
 10
654.744661
 20
470.896897
 30
0.0
 11
656.865981
 21
473.018218
 31
0.0
  0
LINE
  8
LC-006-005-----0
  6
CONTINUOUS
  5
33E
 10
660.393824
 20
476.546061
 30
0.0
 11
663.693824
 21
479.846061
 31
0.0
  0
LINE
  8
LC-006-005-----0
  6
CONTINUOUS
  5
33F
 10
667.039913
 20
483.19215
 30
0.0
 11
669.893824
 21
486.046061
 31
0.0
  0
LINE
  8
LC-006-005-----0
  6
CONTINUOUS
  5
340
 10
632.493824
 20
451.474488
 30
0.0
 11
636.493824
 21
455.474488
 31
0.0
  0
LINE
  8
LC-006-005-----0
  6
CONTINUOUS
  5
341
 10
639.627082
 20
458.607746
 30
0.0
 11
644.548025
 21
463.528689
 31
0.0
  0
LINE
  8
LC-006-005-----0
  6
CONTINUOUS
  5
342
 10
653.330447
 20
472.311111
 30
0.0
 11
655.993824
 21
474.974488
 31
0.0
  0
LINE
  8
LC-006-005-----0
  6
CONTINUOUS
  5
343
 10
660.393824
 20
479.374488
 30
0.0
 11
663.693824
 21
482.674488
 31
0.0
  0
LINE
  8
LC-006-005-----0
  6
CONTINUOUS
  5
344
 10
665.845411
 20
484.826075
 30
0.0
 11
669.181283
 21
488.161947
 31
0.0
  0
LINE
  8
LC-006-005-----0
  6
CONTINUOUS
  5
345
 10
632.493824
 20
454.302915
 30
0.0
 11
644.993824
 21
466.802915
 31
0.0
  0
LINE
  8
LC-006-005-----0
  6
CONTINUOUS
  5
346
 10
652.693824
 20
474.502915
 30
0.0
 11
655.993824
 21
477.802915
 31
0.0
  0
LINE
  8
LC-006-005-----0
  6
CONTINUOUS
  5
347
 10
660.393824
 20
482.202915
 30
0.0
 11
666.352856
 21
488.161947
 31
0.0
  0
LINE
  8
LC-006-005-----0
  6
CONTINUOUS
  5
348
 10
632.493824
 20
457.131343
 30
0.0
 11
637.56549
 21
462.203008
 31
0.0
  0
LINE
  8
LC-006-005-----0
  6
CONTINUOUS
  5
349
 10
640.952763
 20
465.590282
 30
0.0
 11
644.993824
 21
469.631343
 31
0.0
  0
LINE
  8
LC-006-005-----0
  6
CONTINUOUS
  5
34A
 10
652.693824
 20
477.331343
 30
0.0
 11
655.993824
 21
480.631343
 31
0.0
  0
LINE
  8
LC-006-005-----0
  6
CONTINUOUS
  5
34B
 10
660.393824
 20
485.031343
 30
0.0
 11
663.524429
 21
488.161947
 31
0.0
  0
LINE
  8
LC-006-005-----0
  6
CONTINUOUS
  5
34C
 10
632.493824
 20
459.95977
 30
0.0
 11
634.696002
 21
462.161947
 31
0.0
  0
LINE
  8
LC-006-005-----0
  6
CONTINUOUS
  5
34D
 10
640.993824
 20
468.45977
 30
0.0
 11
644.993824
 21
472.45977
 31
0.0
  0
LINE
  8
LC-006-005-----0
  6
CONTINUOUS
  5
34E
 10
652.693824
 20
480.15977
 30
0.0
 11
655.993824
 21
483.45977
 31
0.0
  0
LINE
  8
LC-006-005-----0
  6
CONTINUOUS
  5
34F
 10
660.393824
 20
487.85977
 30
0.0
 11
660.696002
 21
488.161947
 31
0.0
  0
LINE
  8
LC-006-005-----0
  6
CONTINUOUS
  5
350
 10
640.993824
 20
471.288197
 30
0.0
 11
644.993824
 21
475.288197
 31
0.0
  0
LINE
  8
LC-006-005-----0
  6
CONTINUOUS
  5
351
 10
652.693824
 20
482.988197
 30
0.0
 11
655.993824
 21
486.288197
 31
0.0
  0
LINE
  8
LC-006-005-----0
  6
CONTINUOUS
  5
352
 10
640.993824
 20
474.116624
 30
0.0
 11
644.993824
 21
478.116624
 31
0.0
  0
LINE
  8
LC-006-005-----0
  6
CONTINUOUS
  5
353
 10
651.738164
 20
484.860964
 30
0.0
 11
655.039148
 21
488.161947
 31
0.0
  0
LINE
  8
LC-006-005-----0
  6
CONTINUOUS
  5
354
 10
640.993824
 20
476.945051
 30
0.0
 11
644.993824
 21
480.945051
 31
0.0
  0
LINE
  8
LC-006-005-----0
  6
CONTINUOUS
  5
355
 10
648.910721
 20
484.861947
 30
0.0
 11
652.210721
 21
488.161947
 31
0.0
  0
LINE
  8
LC-006-005-----0
  6
CONTINUOUS
  5
356
 10
640.993824
 20
479.773478
 30
0.0
 11
645.078154
 21
483.857808
 31
0.0
  0
LINE
  8
LC-006-005-----0
  6
CONTINUOUS
  5
357
 10
645.997964
 20
484.777618
 30
0.0
 11
649.382293
 21
488.161947
 31
0.0
  0
LINE
  8
LC-006-005-----0
  6
CONTINUOUS
  5
358
 10
640.993824
 20
482.601905
 30
0.0
 11
646.553866
 21
488.161947
 31
0.0
  0
LINE
  8
LC-006-005-----0
  6
CONTINUOUS
  5
359
 10
640.993824
 20
485.430332
 30
0.0
 11
643.725439
 21
488.161947
 31
0.0
  0
ENDBLK
  8
0
  5
35A
  0
BLOCK
  8
0
  5
35C
  2
*D26
 70
    65
 10
0.0
 20
0.0
 30
0.0
  3
*D26
  0
LINE
  8
LC-003-003-MTH-0
  6
CONTINUOUS
  5
35D
 10
487.493824
 20
239.661947
 30
0.0
 11
487.493824
 21
169.2
 31
0.0
  0
LINE
  8
LC-003-003-MTH-0
  6
CONTINUOUS
  5
35E
 10
597.493824
 20
239.661947
 30
0.0
 11
597.493824
 21
169.2
 31
0.0
  0
LINE
  8
LC-004-003-MTG-0
  6
CONTINUOUS
  5
35F
 10
487.493824
 20
180.0
 30
0.0
 11
597.493824
 21
180.0
 31
0.0
  0
LINE
  8
LC-002-003-----0
  6
CONTINUOUS
  5
360
 10
505.339832
 20
182.349471
 30
0.0
 11
487.493824
 21
180.0
 31
0.0
  0
LINE
  8
LC-002-003-----0
  6
CONTINUOUS
  5
361
 10
487.493824
 20
180.0
 30
0.0
 11
505.339832
 21
177.650529
 31
0.0
  0
LINE
  8
LC-002-003-----0
  6
CONTINUOUS
  5
362
 10
505.339832
 20
177.650529
 30
0.0
 11
505.339832
 21
182.349471
 31
0.0
  0
LINE
  8
LC-002-003-----0
  6
CONTINUOUS
  5
363
 10
505.37987
 20
181.738609
 30
0.0
 11
492.173824
 21
180.0
 31
0.0
  0
LINE
  8
LC-002-003-----0
  6
CONTINUOUS
  5
364
 10
492.173824
 20
180.0
 30
0.0
 11
505.37987
 21
178.261391
 31
0.0
  0
LINE
  8
LC-002-003-----0
  6
CONTINUOUS
  5
365
 10
505.419908
 20
181.127746
 30
0.0
 11
496.853824
 21
180.0
 31
0.0
  0
LINE
  8
LC-002-003-----0
  6
CONTINUOUS
  5
366
 10
496.853824
 20
180.0
 30
0.0
 11
505.419908
 21
178.872254
 31
0.0
  0
LINE
  8
LC-002-003-----0
  6
CONTINUOUS
  5
367
 10
505.459946
 20
180.516884
 30
0.0
 11
501.533824
 21
180.0
 31
0.0
  0
LINE
  8
LC-002-003-----0
  6
CONTINUOUS
  5
368
 10
501.533824
 20
180.0
 30
0.0
 11
505.459946
 21
179.483116
 31
0.0
  0
LINE
  8
LC-002-003-----0
  6
CONTINUOUS
  5
369
 10
579.647817
 20
177.650529
 30
0.0
 11
597.493824
 21
180.0
 31
0.0
  0
LINE
  8
LC-002-003-----0
  6
CONTINUOUS
  5
36A
 10
597.493824
 20
180.0
 30
0.0
 11
579.647817
 21
182.349471
 31
0.0
  0
LINE
  8
LC-002-003-----0
  6
CONTINUOUS
  5
36B
 10
579.647817
 20
182.349471
 30
0.0
 11
579.647817
 21
177.650529
 31
0.0
  0
LINE
  8
LC-002-003-----0
  6
CONTINUOUS
  5
36C
 10
579.607779
 20
178.261391
 30
0.0
 11
592.813824
 21
180.0
 31
0.0
  0
LINE
  8
LC-002-003-----0
  6
CONTINUOUS
  5
36D
 10
592.813824
 20
180.0
 30
0.0
 11
579.607779
 21
181.738609
 31
0.0
  0
LINE
  8
LC-002-003-----0
  6
CONTINUOUS
  5
36E
 10
579.567741
 20
178.872254
 30
0.0
 11
588.133824
 21
180.0
 31
0.0
  0
LINE
  8
LC-002-003-----0
  6
CONTINUOUS
  5
36F
 10
588.133824
 20
180.0
 30
0.0
 11
579.567741
 21
181.127746
 31
0.0
  0
LINE
  8
LC-002-003-----0
  6
CONTINUOUS
  5
370
 10
579.527703
 20
179.483116
 30
0.0
 11
583.453824
 21
180.0
 31
0.0
  0
LINE
  8
LC-002-003-----0
  6
CONTINUOUS
  5
371
 10
583.453824
 20
180.0
 30
0.0
 11
579.527703
 21
180.516884
 31
0.0
  0
TEXT
  8
LC-002-003-----0
  6
CONTINUOUS
 62
     6
  5
372
 10
511.613479
 20
190.431999
 30
0.0
 40
18.0
  1
DN100
 51
15.0
  7
LC-TXTSTYLE-150-400-0-0-D0
 72
     1
 11
545.28907
 21
190.431999
 31
0.0
  0
ENDBLK
  8
0
  5
373
  0
BLOCK
  8
0
  5
375
  2
*D27
 70
    65
 10
0.0
 20
0.0
 30
0.0
  3
*D27
  0
LINE
  8
LC-003-003-MTH-0
  6
CONTINUOUS
  5
376
 10
448.493824
 20
433.861947
 30
0.0
 11
448.493824
 21
97.2
 31
0.0
  0
LINE
  8
LC-003-003-MTH-0
  6
CONTINUOUS
  5
377
 10
636.493824
 20
433.861947
 30
0.0
 11
636.493824
 21
97.2
 31
0.0
  0
LINE
  8
LC-004-003-MTG-0
  6
CONTINUOUS
  5
378
 10
448.493824
 20
108.0
 30
0.0
 11
636.493824
 21
108.0
 31
0.0
  0
LINE
  8
LC-002-003-----0
  6
CONTINUOUS
  5
379
 10
466.339832
 20
110.349471
 30
0.0
 11
448.493824
 21
108.0
 31
0.0
  0
LINE
  8
LC-002-003-----0
  6
CONTINUOUS
  5
37A
 10
448.493824
 20
108.0
 30
0.0
 11
466.339832
 21
105.650529
 31
0.0
  0
LINE
  8
LC-002-003-----0
  6
CONTINUOUS
  5
37B
 10
466.339832
 20
105.650529
 30
0.0
 11
466.339832
 21
110.349471
 31
0.0
  0
LINE
  8
LC-002-003-----0
  6
CONTINUOUS
  5
37C
 10
466.37987
 20
109.738609
 30
0.0
 11
453.173824
 21
108.0
 31
0.0
  0
LINE
  8
LC-002-003-----0
  6
CONTINUOUS
  5
37D
 10
453.173824
 20
108.0
 30
0.0
 11
466.37987
 21
106.261391
 31
0.0
  0
LINE
  8
LC-002-003-----0
  6
CONTINUOUS
  5
37E
 10
466.419908
 20
109.127746
 30
0.0
 11
457.853824
 21
108.0
 31
0.0
  0
LINE
  8
LC-002-003-----0
  6
CONTINUOUS
  5
37F
 10
457.853824
 20
108.0
 30
0.0
 11
466.419908
 21
106.872254
 31
0.0
  0
LINE
  8
LC-002-003-----0
  6
CONTINUOUS
  5
380
 10
466.459946
 20
108.516884
 30
0.0
 11
462.533824
 21
108.0
 31
0.0
  0
LINE
  8
LC-002-003-----0
  6
CONTINUOUS
  5
381
 10
462.533824
 20
108.0
 30
0.0
 11
466.459946
 21
107.483116
 31
0.0
  0
LINE
  8
LC-002-003-----0
  6
CONTINUOUS
  5
382
 10
618.647817
 20
105.650529
 30
0.0
 11
636.493824
 21
108.0
 31
0.0
  0
LINE
  8
LC-002-003-----0
  6
CONTINUOUS
  5
383
 10
636.493824
 20
108.0
 30
0.0
 11
618.647817
 21
110.349471
 31
0.0
  0
LINE
  8
LC-002-003-----0
  6
CONTINUOUS
  5
384
 10
618.647817
 20
110.349471
 30
0.0
 11
618.647817
 21
105.650529
 31
0.0
  0
LINE
  8
LC-002-003-----0
  6
CONTINUOUS
  5
385
 10
618.607779
 20
106.261391
 30
0.0
 11
631.813824
 21
108.0
 31
0.0
  0
LINE
  8
LC-002-003-----0
  6
CONTINUOUS
  5
386
 10
631.813824
 20
108.0
 30
0.0
 11
618.607779
 21
109.738609
 31
0.0
  0
LINE
  8
LC-002-003-----0
  6
CONTINUOUS
  5
387
 10
618.567741
 20
106.872254
 30
0.0
 11
627.133824
 21
108.0
 31
0.0
  0
LINE
  8
LC-002-003-----0
  6
CONTINUOUS
  5
388
 10
627.133824
 20
108.0
 30
0.0
 11
618.567741
 21
109.127746
 31
0.0
  0
LINE
  8
LC-002-003-----0
  6
CONTINUOUS
  5
389
 10
618.527703
 20
107.483116
 30
0.0
 11
622.453824
 21
108.0
 31
0.0
  0
LINE
  8
LC-002-003-----0
  6
CONTINUOUS
  5
38A
 10
622.453824
 20
108.0
 30
0.0
 11
618.527703
 21
108.516884
 31
0.0
  0
TEXT
  8
LC-002-003-----0
  6
CONTINUOUS
 62
     6
  5
38B
 10
520.797731
 20
118.431999
 30
0.0
 40
18.0
  1
Ø188
 51
15.0
  7
LC-TXTSTYLE-150-400-0-0-D0
 72
     1
 11
545.28907
 21
118.431999
 31
0.0
  0
ENDBLK
  8
0
  5
38C
  0
BLOCK
  8
0
  5
38E
  2
*D28
 70
    65
 10
0.0
 20
0.0
 30
0.0
  3
*D28
  0
LINE
  8
LC-003-003-MTH-0
  6
CONTINUOUS
  5
38F
 10
439.993824
 20
466.161947
 30
0.0
 11
439.993824
 21
61.2
 31
0.0
  0
LINE
  8
LC-003-003-MTH-0
  6
CONTINUOUS
  5
390
 10
644.993824
 20
466.161947
 30
0.0
 11
644.993824
 21
61.2
 31
0.0
  0
LINE
  8
LC-004-003-MTG-0
  6
CONTINUOUS
  5
391
 10
439.993824
 20
72.0
 30
0.0
 11
644.993824
 21
72.0
 31
0.0
  0
LINE
  8
LC-002-003-----0
  6
CONTINUOUS
  5
392
 10
457.839832
 20
74.349471
 30
0.0
 11
439.993824
 21
72.0
 31
0.0
  0
LINE
  8
LC-002-003-----0
  6
CONTINUOUS
  5
393
 10
439.993824
 20
72.0
 30
0.0
 11
457.839832
 21
69.650529
 31
0.0
  0
LINE
  8
LC-002-003-----0
  6
CONTINUOUS
  5
394
 10
457.839832
 20
69.650529
 30
0.0
 11
457.839832
 21
74.349471
 31
0.0
  0
LINE
  8
LC-002-003-----0
  6
CONTINUOUS
  5
395
 10
457.87987
 20
73.738609
 30
0.0
 11
444.673824
 21
72.0
 31
0.0
  0
LINE
  8
LC-002-003-----0
  6
CONTINUOUS
  5
396
 10
444.673824
 20
72.0
 30
0.0
 11
457.87987
 21
70.261391
 31
0.0
  0
LINE
  8
LC-002-003-----0
  6
CONTINUOUS
  5
397
 10
457.919908
 20
73.127746
 30
0.0
 11
449.353824
 21
72.0
 31
0.0
  0
LINE
  8
LC-002-003-----0
  6
CONTINUOUS
  5
398
 10
449.353824
 20
72.0
 30
0.0
 11
457.919908
 21
70.872254
 31
0.0
  0
LINE
  8
LC-002-003-----0
  6
CONTINUOUS
  5
399
 10
457.959946
 20
72.516884
 30
0.0
 11
454.033824
 21
72.0
 31
0.0
  0
LINE
  8
LC-002-003-----0
  6
CONTINUOUS
  5
39A
 10
454.033824
 20
72.0
 30
0.0
 11
457.959946
 21
71.483116
 31
0.0
  0
LINE
  8
LC-002-003-----0
  6
CONTINUOUS
  5
39B
 10
627.147817
 20
69.650529
 30
0.0
 11
644.993824
 21
72.0
 31
0.0
  0
LINE
  8
LC-002-003-----0
  6
CONTINUOUS
  5
39C
 10
644.993824
 20
72.0
 30
0.0
 11
627.147817
 21
74.349471
 31
0.0
  0
LINE
  8
LC-002-003-----0
  6
CONTINUOUS
  5
39D
 10
627.147817
 20
74.349471
 30
0.0
 11
627.147817
 21
69.650529
 31
0.0
  0
LINE
  8
LC-002-003-----0
  6
CONTINUOUS
  5
39E
 10
627.107779
 20
70.261391
 30
0.0
 11
640.313824
 21
72.0
 31
0.0
  0
LINE
  8
LC-002-003-----0
  6
CONTINUOUS
  5
39F
 10
640.313824
 20
72.0
 30
0.0
 11
627.107779
 21
73.738609
 31
0.0
  0
LINE
  8
LC-002-003-----0
  6
CONTINUOUS
  5
3A0
 10
627.067741
 20
70.872254
 30
0.0
 11
635.633824
 21
72.0
 31
0.0
  0
LINE
  8
LC-002-003-----0
  6
CONTINUOUS
  5
3A1
 10
635.633824
 20
72.0
 30
0.0
 11
627.067741
 21
73.127746
 31
0.0
  0
LINE
  8
LC-002-003-----0
  6
CONTINUOUS
  5
3A2
 10
627.027703
 20
71.483116
 30
0.0
 11
630.953824
 21
72.0
 31
0.0
  0
LINE
  8
LC-002-003-----0
  6
CONTINUOUS
  5
3A3
 10
630.953824
 20
72.0
 30
0.0
 11
627.027703
 21
72.516884
 31
0.0
  0
TEXT
  8
LC-002-003-----0
  6
CONTINUOUS
 62
     6
  5
3A4
 10
520.797731
 20
82.431999
 30
0.0
 40
18.0
  1
Ø205
 51
15.0
  7
LC-TXTSTYLE-150-400-0-0-D0
 72
     1
 11
545.28907
 21
82.431999
 31
0.0
  0
ENDBLK
  8
0
  5
3A5
  0
BLOCK
  8
0
  5
3A7
  2
*D29
 70
    65
 10
0.0
 20
0.0
 30
0.0
  3
*D29
  0
LINE
  8
LC-003-003-MTH-0
  6
CONTINUOUS
  5
3A8
 10
384.493824
 20
490.366035
 30
0.0
 11
384.493824
 21
730.8
 31
0.0
  0
LINE
  8
LC-003-003-MTH-0
  6
CONTINUOUS
  5
3A9
 10
700.493824
 20
490.366035
 30
0.0
 11
700.493824
 21
730.8
 31
0.0
  0
LINE
  8
LC-004-003-MTG-0
  6
CONTINUOUS
  5
3AA
 10
384.493824
 20
720.0
 30
0.0
 11
700.493824
 21
720.0
 31
0.0
  0
LINE
  8
LC-002-003-----0
  6
CONTINUOUS
  5
3AB
 10
402.339832
 20
722.349471
 30
0.0
 11
384.493824
 21
720.0
 31
0.0
  0
LINE
  8
LC-002-003-----0
  6
CONTINUOUS
  5
3AC
 10
384.493824
 20
720.0
 30
0.0
 11
402.339832
 21
717.650529
 31
0.0
  0
LINE
  8
LC-002-003-----0
  6
CONTINUOUS
  5
3AD
 10
402.339832
 20
717.650529
 30
0.0
 11
402.339832
 21
722.349471
 31
0.0
  0
LINE
  8
LC-002-003-----0
  6
CONTINUOUS
  5
3AE
 10
402.37987
 20
721.738609
 30
0.0
 11
389.173824
 21
720.0
 31
0.0
  0
LINE
  8
LC-002-003-----0
  6
CONTINUOUS
  5
3AF
 10
389.173824
 20
720.0
 30
0.0
 11
402.37987
 21
718.261391
 31
0.0
  0
LINE
  8
LC-002-003-----0
  6
CONTINUOUS
  5
3B0
 10
402.419908
 20
721.127746
 30
0.0
 11
393.853824
 21
720.0
 31
0.0
  0
LINE
  8
LC-002-003-----0
  6
CONTINUOUS
  5
3B1
 10
393.853824
 20
720.0
 30
0.0
 11
402.419908
 21
718.872254
 31
0.0
  0
LINE
  8
LC-002-003-----0
  6
CONTINUOUS
  5
3B2
 10
402.459946
 20
720.516884
 30
0.0
 11
398.533824
 21
720.0
 31
0.0
  0
LINE
  8
LC-002-003-----0
  6
CONTINUOUS
  5
3B3
 10
398.533824
 20
720.0
 30
0.0
 11
402.459946
 21
719.483116
 31
0.0
  0
LINE
  8
LC-002-003-----0
  6
CONTINUOUS
  5
3B4
 10
682.647817
 20
717.650529
 30
0.0
 11
700.493824
 21
720.0
 31
0.0
  0
LINE
  8
LC-002-003-----0
  6
CONTINUOUS
  5
3B5
 10
700.493824
 20
720.0
 30
0.0
 11
682.647817
 21
722.349471
 31
0.0
  0
LINE
  8
LC-002-003-----0
  6
CONTINUOUS
  5
3B6
 10
682.647817
 20
722.349471
 30
0.0
 11
682.647817
 21
717.650529
 31
0.0
  0
LINE
  8
LC-002-003-----0
  6
CONTINUOUS
  5
3B7
 10
682.607779
 20
718.261391
 30
0.0
 11
695.813824
 21
720.0
 31
0.0
  0
LINE
  8
LC-002-003-----0
  6
CONTINUOUS
  5
3B8
 10
695.813824
 20
720.0
 30
0.0
 11
682.607779
 21
721.738609
 31
0.0
  0
LINE
  8
LC-002-003-----0
  6
CONTINUOUS
  5
3B9
 10
682.567741
 20
718.872254
 30
0.0
 11
691.133824
 21
720.0
 31
0.0
  0
LINE
  8
LC-002-003-----0
  6
CONTINUOUS
  5
3BA
 10
691.133824
 20
720.0
 30
0.0
 11
682.567741
 21
721.127746
 31
0.0
  0
LINE
  8
LC-002-003-----0
  6
CONTINUOUS
  5
3BB
 10
682.527703
 20
719.483116
 30
0.0
 11
686.453824
 21
720.0
 31
0.0
  0
LINE
  8
LC-002-003-----0
  6
CONTINUOUS
  5
3BC
 10
686.453824
 20
720.0
 30
0.0
 11
682.527703
 21
720.516884
 31
0.0
  0
TEXT
  8
LC-002-003-----0
  6
CONTINUOUS
 62
     6
  5
3BD
 10
516.030913
 20
730.431999
 30
0.0
 40
18.0
  1
Ø315
 51
15.0
  7
LC-TXTSTYLE-150-400-0-0-D0
 72
     1
 11
540.522252
 21
730.431999
 31
0.0
  0
ENDBLK
  8
0
  5
3BE
  0
BLOCK
  8
0
  5
3C0
  2
*D30
 70
    65
 10
0.0
 20
0.0
 30
0.0
  3
*D30
  0
LINE
  8
LC-003-003-MTH-0
  6
CONTINUOUS
  5
3C1
 10
700.493824
 20
490.366035
 30
0.0
 11
766.8
 21
490.366035
 31
0.0
  0
LINE
  8
LC-003-003-MTH-0
  6
CONTINUOUS
  5
3C2
 10
660.447574
 20
609.28443
 30
0.0
 11
766.8
 21
609.28443
 31
0.0
  0
LINE
  8
LC-004-003-MTG-0
  6
CONTINUOUS
  5
3C3
 10
756.0
 20
490.366035
 30
0.0
 11
756.0
 21
609.28443
 31
0.0
  0
LINE
  8
LC-002-003-----0
  6
CONTINUOUS
  5
3C4
 10
753.650529
 20
508.212042
 30
0.0
 11
756.0
 21
490.366035
 31
0.0
  0
LINE
  8
LC-002-003-----0
  6
CONTINUOUS
  5
3C5
 10
756.0
 20
490.366035
 30
0.0
 11
758.349471
 21
508.212042
 31
0.0
  0
LINE
  8
LC-002-003-----0
  6
CONTINUOUS
  5
3C6
 10
758.349471
 20
508.212042
 30
0.0
 11
753.650529
 21
508.212042
 31
0.0
  0
LINE
  8
LC-002-003-----0
  6
CONTINUOUS
  5
3C7
 10
754.261391
 20
508.25208
 30
0.0
 11
756.0
 21
495.046035
 31
0.0
  0
LINE
  8
LC-002-003-----0
  6
CONTINUOUS
  5
3C8
 10
756.0
 20
495.046035
 30
0.0
 11
757.738609
 21
508.25208
 31
0.0
  0
LINE
  8
LC-002-003-----0
  6
CONTINUOUS
  5
3C9
 10
754.872254
 20
508.292118
 30
0.0
 11
756.0
 21
499.726035
 31
0.0
  0
LINE
  8
LC-002-003-----0
  6
CONTINUOUS
  5
3CA
 10
756.0
 20
499.726035
 30
0.0
 11
757.127746
 21
508.292118
 31
0.0
  0
LINE
  8
LC-002-003-----0
  6
CONTINUOUS
  5
3CB
 10
755.483116
 20
508.332156
 30
0.0
 11
756.0
 21
504.406035
 31
0.0
  0
LINE
  8
LC-002-003-----0
  6
CONTINUOUS
  5
3CC
 10
756.0
 20
504.406035
 30
0.0
 11
756.516884
 21
508.332156
 31
0.0
  0
LINE
  8
LC-002-003-----0
  6
CONTINUOUS
  5
3CD
 10
758.349471
 20
591.438422
 30
0.0
 11
756.0
 21
609.28443
 31
0.0
  0
LINE
  8
LC-002-003-----0
  6
CONTINUOUS
  5
3CE
 10
756.0
 20
609.28443
 30
0.0
 11
753.650529
 21
591.438422
 31
0.0
  0
LINE
  8
LC-002-003-----0
  6
CONTINUOUS
  5
3CF
 10
753.650529
 20
591.438422
 30
0.0
 11
758.349471
 21
591.438422
 31
0.0
  0
LINE
  8
LC-002-003-----0
  6
CONTINUOUS
  5
3D0
 10
757.738609
 20
591.398384
 30
0.0
 11
756.0
 21
604.60443
 31
0.0
  0
LINE
  8
LC-002-003-----0
  6
CONTINUOUS
  5
3D1
 10
756.0
 20
604.60443
 30
0.0
 11
754.261391
 21
591.398384
 31
0.0
  0
LINE
  8
LC-002-003-----0
  6
CONTINUOUS
  5
3D2
 10
757.127746
 20
591.358346
 30
0.0
 11
756.0
 21
599.92443
 31
0.0
  0
LINE
  8
LC-002-003-----0
  6
CONTINUOUS
  5
3D3
 10
756.0
 20
599.92443
 30
0.0
 11
754.872254
 21
591.358346
 31
0.0
  0
LINE
  8
LC-002-003-----0
  6
CONTINUOUS
  5
3D4
 10
756.516884
 20
591.318308
 30
0.0
 11
756.0
 21
595.24443
 31
0.0
  0
LINE
  8
LC-002-003-----0
  6
CONTINUOUS
  5
3D5
 10
756.0
 20
595.24443
 30
0.0
 11
755.483116
 21
591.318308
 31
0.0
  0
TEXT
  8
LC-002-003-----0
  6
CONTINUOUS
 62
     6
  5
3D6
 10
745.568001
 20
510.844887
 30
0.0
 40
18.0
  1
42-130
 50
90.0
 51
15.0
  7
LC-TXTSTYLE-150-400-0-0-D0
 72
     1
 11
745.568001
 21
552.620478
 31
0.0
  0
ENDBLK
  8
0
  5
3D7
  0
BLOCK
  8
0
  5
3D9
  2
*D31
 70
    65
 10
0.0
 20
0.0
 30
0.0
  3
*D31
  0
LINE
  8
LC-003-003-MTH-0
  6
CONTINUOUS
  5
3DA
 10
622.150412
 20
297.161947
 30
0.0
 11
766.8
 21
297.161947
 31
0.0
  0
LINE
  8
LC-003-003-MTH-0
  6
CONTINUOUS
  5
3DB
 10
700.493824
 20
490.366035
 30
0.0
 11
766.8
 21
490.366035
 31
0.0
  0
LINE
  8
LC-004-003-MTG-0
  6
CONTINUOUS
  5
3DC
 10
756.0
 20
297.161947
 30
0.0
 11
756.0
 21
490.366035
 31
0.0
  0
LINE
  8
LC-002-003-----0
  6
CONTINUOUS
  5
3DD
 10
753.650529
 20
315.007955
 30
0.0
 11
756.0
 21
297.161947
 31
0.0
  0
LINE
  8
LC-002-003-----0
  6
CONTINUOUS
  5
3DE
 10
756.0
 20
297.161947
 30
0.0
 11
758.349471
 21
315.007955
 31
0.0
  0
LINE
  8
LC-002-003-----0
  6
CONTINUOUS
  5
3DF
 10
758.349471
 20
315.007955
 30
0.0
 11
753.650529
 21
315.007955
 31
0.0
  0
LINE
  8
LC-002-003-----0
  6
CONTINUOUS
  5
3E0
 10
754.261391
 20
315.047993
 30
0.0
 11
756.0
 21
301.841947
 31
0.0
  0
LINE
  8
LC-002-003-----0
  6
CONTINUOUS
  5
3E1
 10
756.0
 20
301.841947
 30
0.0
 11
757.738609
 21
315.047993
 31
0.0
  0
LINE
  8
LC-002-003-----0
  6
CONTINUOUS
  5
3E2
 10
754.872254
 20
315.088031
 30
0.0
 11
756.0
 21
306.521947
 31
0.0
  0
LINE
  8
LC-002-003-----0
  6
CONTINUOUS
  5
3E3
 10
756.0
 20
306.521947
 30
0.0
 11
757.127746
 21
315.088031
 31
0.0
  0
LINE
  8
LC-002-003-----0
  6
CONTINUOUS
  5
3E4
 10
755.483116
 20
315.128069
 30
0.0
 11
756.0
 21
311.201947
 31
0.0
  0
LINE
  8
LC-002-003-----0
  6
CONTINUOUS
  5
3E5
 10
756.0
 20
311.201947
 30
0.0
 11
756.516884
 21
315.128069
 31
0.0
  0
LINE
  8
LC-002-003-----0
  6
CONTINUOUS
  5
3E6
 10
758.349471
 20
472.520027
 30
0.0
 11
756.0
 21
490.366035
 31
0.0
  0
LINE
  8
LC-002-003-----0
  6
CONTINUOUS
  5
3E7
 10
756.0
 20
490.366035
 30
0.0
 11
753.650529
 21
472.520027
 31
0.0
  0
LINE
  8
LC-002-003-----0
  6
CONTINUOUS
  5
3E8
 10
753.650529
 20
472.520027
 30
0.0
 11
758.349471
 21
472.520027
 31
0.0
  0
LINE
  8
LC-002-003-----0
  6
CONTINUOUS
  5
3E9
 10
757.738609
 20
472.479989
 30
0.0
 11
756.0
 21
485.686035
 31
0.0
  0
LINE
  8
LC-002-003-----0
  6
CONTINUOUS
  5
3EA
 10
756.0
 20
485.686035
 30
0.0
 11
754.261391
 21
472.479989
 31
0.0
  0
LINE
  8
LC-002-003-----0
  6
CONTINUOUS
  5
3EB
 10
757.127746
 20
472.439951
 30
0.0
 11
756.0
 21
481.006035
 31
0.0
  0
LINE
  8
LC-002-003-----0
  6
CONTINUOUS
  5
3EC
 10
756.0
 20
481.006035
 30
0.0
 11
754.872254
 21
472.439951
 31
0.0
  0
LINE
  8
LC-002-003-----0
  6
CONTINUOUS
  5
3ED
 10
756.516884
 20
472.399913
 30
0.0
 11
756.0
 21
476.326035
 31
0.0
  0
LINE
  8
LC-002-003-----0
  6
CONTINUOUS
  5
3EE
 10
756.0
 20
476.326035
 30
0.0
 11
755.483116
 21
472.399913
 31
0.0
  0
TEXT
  8
LC-002-003-----0
  6
CONTINUOUS
 62
     6
  5
3EF
 10
745.568001
 20
377.425378
 30
0.0
 40
18.0
  1
197
 50
90.0
 51
15.0
  7
LC-TXTSTYLE-150-400-0-0-D0
 72
     1
 11
745.568001
 21
396.559237
 31
0.0
  0
ENDBLK
  8
0
  5
3F0
  0
BLOCK
  8
0
  5
3F2
  2
*D32
 70
    65
 10
0.0
 20
0.0
 30
0.0
  3
*D32
  0
LINE
  8
LC-003-003-MTH-0
  6
CONTINUOUS
  5
3F3
 10
596.288053
 20
235.161947
 30
0.0
 11
766.8
 21
235.161947
 31
0.0
  0
LINE
  8
LC-003-003-MTH-0
  6
CONTINUOUS
  5
3F4
 10
622.150412
 20
297.161947
 30
0.0
 11
766.8
 21
297.161947
 31
0.0
  0
LINE
  8
LC-004-003-MTG-0
  6
CONTINUOUS
  5
3F5
 10
756.0
 20
235.161947
 30
0.0
 11
756.0
 21
297.161947
 31
0.0
  0
LINE
  8
LC-002-003-----0
  6
CONTINUOUS
  5
3F6
 10
753.650529
 20
253.007955
 30
0.0
 11
756.0
 21
235.161947
 31
0.0
  0
LINE
  8
LC-002-003-----0
  6
CONTINUOUS
  5
3F7
 10
756.0
 20
235.161947
 30
0.0
 11
758.349471
 21
253.007955
 31
0.0
  0
LINE
  8
LC-002-003-----0
  6
CONTINUOUS
  5
3F8
 10
758.349471
 20
253.007955
 30
0.0
 11
753.650529
 21
253.007955
 31
0.0
  0
LINE
  8
LC-002-003-----0
  6
CONTINUOUS
  5
3F9
 10
754.261391
 20
253.047993
 30
0.0
 11
756.0
 21
239.841947
 31
0.0
  0
LINE
  8
LC-002-003-----0
  6
CONTINUOUS
  5
3FA
 10
756.0
 20
239.841947
 30
0.0
 11
757.738609
 21
253.047993
 31
0.0
  0
LINE
  8
LC-002-003-----0
  6
CONTINUOUS
  5
3FB
 10
754.872254
 20
253.088031
 30
0.0
 11
756.0
 21
244.521947
 31
0.0
  0
LINE
  8
LC-002-003-----0
  6
CONTINUOUS
  5
3FC
 10
756.0
 20
244.521947
 30
0.0
 11
757.127746
 21
253.088031
 31
0.0
  0
LINE
  8
LC-002-003-----0
  6
CONTINUOUS
  5
3FD
 10
755.483116
 20
253.128069
 30
0.0
 11
756.0
 21
249.201947
 31
0.0
  0
LINE
  8
LC-002-003-----0
  6
CONTINUOUS
  5
3FE
 10
756.0
 20
249.201947
 30
0.0
 11
756.516884
 21
253.128069
 31
0.0
  0
LINE
  8
LC-002-003-----0
  6
CONTINUOUS
  5
3FF
 10
758.349471
 20
279.31594
 30
0.0
 11
756.0
 21
297.161947
 31
0.0
  0
LINE
  8
LC-002-003-----0
  6
CONTINUOUS
  5
400
 10
756.0
 20
297.161947
 30
0.0
 11
753.650529
 21
279.31594
 31
0.0
  0
LINE
  8
LC-002-003-----0
  6
CONTINUOUS
  5
401
 10
753.650529
 20
279.31594
 30
0.0
 11
758.349471
 21
279.31594
 31
0.0
  0
LINE
  8
LC-002-003-----0
  6
CONTINUOUS
  5
402
 10
757.738609
 20
279.275902
 30
0.0
 11
756.0
 21
292.481947
 31
0.0
  0
LINE
  8
LC-002-003-----0
  6
CONTINUOUS
  5
403
 10
756.0
 20
292.481947
 30
0.0
 11
754.261391
 21
279.275902
 31
0.0
  0
LINE
  8
LC-002-003-----0
  6
CONTINUOUS
  5
404
 10
757.127746
 20
279.235864
 30
0.0
 11
756.0
 21
287.801947
 31
0.0
  0
LINE
  8
LC-002-003-----0
  6
CONTINUOUS
  5
405
 10
756.0
 20
287.801947
 30
0.0
 11
754.872254
 21
279.235864
 31
0.0
  0
LINE
  8
LC-002-003-----0
  6
CONTINUOUS
  5
406
 10
756.516884
 20
279.195826
 30
0.0
 11
756.0
 21
283.121947
 31
0.0
  0
LINE
  8
LC-002-003-----0
  6
CONTINUOUS
  5
407
 10
756.0
 20
283.121947
 30
0.0
 11
755.483116
 21
279.195826
 31
0.0
  0
TEXT
  8
LC-002-003-----0
  6
CONTINUOUS
 62
     6
  5
408
 10
745.568001
 20
257.094201
 30
0.0
 40
18.0
  1
62
 50
90.0
 51
15.0
  7
LC-TXTSTYLE-150-400-0-0-D0
 72
     1
 11
745.568001
 21
268.957193
 31
0.0
  0
ENDBLK
  8
0
  5
409
  0
BLOCK
  8
0
  5
40B
  2
BLK2
 70
    64
 10
0.0
 20
0.0
 30
0.0
  3
BLK2
  0
ENDBLK
  8
0
  5
40C
  0
BLOCK
  8
0
  5
40E
  2
*X34
 70
    65
 10
477.491565
 20
575.28443
 30
0.0
  3
*X34
  0
LINE
  8
LC-006-005-----0
  6
CONTINUOUS
  5
40F
 10
607.288857
 20
603.277952
 30
0.0
 11
601.28238
 21
609.28443
 31
0.0
  0
LINE
  8
LC-006-005-----0
  6
CONTINUOUS
  5
410
 10
607.148007
 20
600.590375
 30
0.0
 11
598.453953
 21
609.28443
 31
0.0
  0
LINE
  8
LC-006-005-----0
  6
CONTINUOUS
  5
411
 10
606.866308
 20
595.21522
 30
0.0
 11
592.797098
 21
609.28443
 31
0.0
  0
LINE
  8
LC-006-005-----0
  6
CONTINUOUS
  5
412
 10
606.725458
 20
592.527643
 30
0.0
 11
589.968671
 21
609.28443
 31
0.0
  0
LINE
  8
LC-006-005-----0
  6
CONTINUOUS
  5
413
 10
604.657559
 20
588.938688
 30
0.0
 11
584.311817
 21
609.28443
 31
0.0
  0
LINE
  8
LC-006-005-----0
  6
CONTINUOUS
  5
414
 10
603.595625
 20
587.172195
 30
0.0
 11
581.48339
 21
609.28443
 31
0.0
  0
LINE
  8
LC-006-005-----0
  6
CONTINUOUS
  5
415
 10
598.9998
 20
586.111165
 30
0.0
 11
575.826536
 21
609.28443
 31
0.0
  0
LINE
  8
LC-006-005-----0
  6
CONTINUOUS
  5
416
 10
596.701888
 20
585.58065
 30
0.0
 11
572.998109
 21
609.28443
 31
0.0
  0
LINE
  8
LC-006-005-----0
  6
CONTINUOUS
  5
417
 10
592.106063
 20
584.519621
 30
0.0
 11
567.341254
 21
609.28443
 31
0.0
  0
LINE
  8
LC-006-005-----0
  6
CONTINUOUS
  5
418
 10
589.808151
 20
583.989106
 30
0.0
 11
564.512827
 21
609.28443
 31
0.0
  0
LINE
  8
LC-006-005-----0
  6
CONTINUOUS
  5
419
 10
585.212326
 20
582.928076
 30
0.0
 11
558.855973
 21
609.28443
 31
0.0
  0
LINE
  8
LC-006-005-----0
  6
CONTINUOUS
  5
41A
 10
582.914414
 20
582.397561
 30
0.0
 11
556.027546
 21
609.28443
 31
0.0
  0
LINE
  8
LC-006-005-----0
  6
CONTINUOUS
  5
41B
 10
578.31859
 20
581.336532
 30
0.0
 11
550.370692
 21
609.28443
 31
0.0
  0
LINE
  8
LC-006-005-----0
  6
CONTINUOUS
  5
41C
 10
576.020677
 20
580.806017
 30
0.0
 11
547.542264
 21
609.28443
 31
0.0
  0
LINE
  8
LC-006-005-----0
  6
CONTINUOUS
  5
41D
 10
571.424853
 20
579.744987
 30
0.0
 11
541.88541
 21
609.28443
 31
0.0
  0
LINE
  8
LC-006-005-----0
  6
CONTINUOUS
  5
41E
 10
569.12694
 20
579.214472
 30
0.0
 11
539.056983
 21
609.28443
 31
0.0
  0
LINE
  8
LC-006-005-----0
  6
CONTINUOUS
  5
41F
 10
564.531116
 20
578.153442
 30
0.0
 11
533.400129
 21
609.28443
 31
0.0
  0
LINE
  8
LC-006-005-----0
  6
CONTINUOUS
  5
420
 10
562.233204
 20
577.622928
 30
0.0
 11
530.571702
 21
609.28443
 31
0.0
  0
LINE
  8
LC-006-005-----0
  6
CONTINUOUS
  5
421
 10
557.637379
 20
576.561898
 30
0.0
 11
524.914847
 21
609.28443
 31
0.0
  0
LINE
  8
LC-006-005-----0
  6
CONTINUOUS
  5
422
 10
555.339467
 20
576.031383
 30
0.0
 11
522.08642
 21
609.28443
 31
0.0
  0
LINE
  8
LC-006-005-----0
  6
CONTINUOUS
  5
423
 10
550.429566
 20
575.28443
 30
0.0
 11
516.429566
 21
609.28443
 31
0.0
  0
LINE
  8
LC-006-005-----0
  6
CONTINUOUS
  5
424
 10
547.601139
 20
575.28443
 30
0.0
 11
513.601139
 21
609.28443
 31
0.0
  0
LINE
  8
LC-006-005-----0
  6
CONTINUOUS
  5
425
 10
541.944285
 20
575.28443
 30
0.0
 11
507.944285
 21
609.28443
 31
0.0
  0
LINE
  8
LC-006-005-----0
  6
CONTINUOUS
  5
426
 10
539.115858
 20
575.28443
 30
0.0
 11
505.115858
 21
609.28443
 31
0.0
  0
LINE
  8
LC-006-005-----0
  6
CONTINUOUS
  5
427
 10
533.459003
 20
575.28443
 30
0.0
 11
499.459003
 21
609.28443
 31
0.0
  0
LINE
  8
LC-006-005-----0
  6
CONTINUOUS
  5
428
 10
529.952115
 20
575.96289
 30
0.0
 11
496.630576
 21
609.28443
 31
0.0
  0
LINE
  8
LC-006-005-----0
  6
CONTINUOUS
  5
429
 10
522.597259
 20
577.660893
 30
0.0
 11
490.973722
 21
609.28443
 31
0.0
  0
LINE
  8
LC-006-005-----0
  6
CONTINUOUS
  5
42A
 10
518.91983
 20
578.509894
 30
0.0
 11
488.145295
 21
609.28443
 31
0.0
  0
LINE
  8
LC-006-005-----0
  6
CONTINUOUS
  5
42B
 10
511.564974
 20
580.207897
 30
0.0
 11
482.488441
 21
609.28443
 31
0.0
  0
LINE
  8
LC-006-005-----0
  6
CONTINUOUS
  5
42C
 10
507.887545
 20
581.056898
 30
0.0
 11
479.660013
 21
609.28443
 31
0.0
  0
LINE
  8
LC-006-005-----0
  6
CONTINUOUS
  5
42D
 10
500.532689
 20
582.7549
 30
0.0
 11
477.570987
 21
605.716602
 31
0.0
  0
LINE
  8
LC-006-005-----0
  6
CONTINUOUS
  5
42E
 10
496.85526
 20
583.603901
 30
0.0
 11
477.727417
 21
602.731745
 31
0.0
  0
LINE
  8
LC-006-005-----0
  6
CONTINUOUS
  5
42F
 10
489.500403
 20
585.301904
 30
0.0
 11
478.040276
 21
596.762031
 31
0.0
  0
LINE
  8
LC-006-005-----0
  6
CONTINUOUS
  5
430
 10
485.822975
 20
586.150905
 30
0.0
 11
478.196706
 21
593.777175
 31
0.0
  0
ENDBLK
  8
0
  5
431
  0
BLOCK
  8
0
  5
433
  2
*X35
 70
    65
 10
637.496083
 20
589.28443
 30
0.0
  3
*X35
  0
LINE
  8
LC-006-005-----0
  6
CONTINUOUS
  5
434
 10
653.988201
 20
607.490297
 30
0.0
 11
652.204692
 21
609.273806
 31
0.0
  0
LINE
  8
LC-006-005-----0
  6
CONTINUOUS
  5
435
 10
653.729455
 20
602.092188
 30
0.0
 11
646.537214
 21
609.28443
 31
0.0
  0
LINE
  8
LC-006-005-----0
  6
CONTINUOUS
  5
436
 10
653.588605
 20
599.404611
 30
0.0
 11
643.708787
 21
609.28443
 31
0.0
  0
LINE
  8
LC-006-005-----0
  6
CONTINUOUS
  5
437
 10
653.306905
 20
594.029457
 30
0.0
 11
638.387372
 21
608.94899
 31
0.0
  0
LINE
  8
LC-006-005-----0
  6
CONTINUOUS
  5
438
 10
653.166055
 20
591.34188
 30
0.0
 11
637.508262
 21
606.999673
 31
0.0
  0
LINE
  8
LC-006-005-----0
  6
CONTINUOUS
  5
439
 10
649.566651
 20
589.28443
 30
0.0
 11
637.821122
 21
601.029959
 31
0.0
  0
LINE
  8
LC-006-005-----0
  6
CONTINUOUS
  5
43A
 10
646.738224
 20
589.28443
 30
0.0
 11
637.977551
 21
598.045102
 31
0.0
  0
LINE
  8
LC-006-005-----0
  6
CONTINUOUS
  5
43B
 10
641.08137
 20
589.28443
 30
0.0
 11
638.290411
 21
592.075389
 31
0.0
  0
ENDBLK
  8
0
  5
43C
  0
BLOCK
  8
0
  5
43E
  2
*X36
 70
    65
 10
430.996083
 20
589.28443
 30
0.0
  3
*X36
  0
LINE
  8
LC-006-005-----0
  6
CONTINUOUS
  5
43F
 10
443.287344
 20
603.230692
 30
0.0
 11
437.233607
 21
609.28443
 31
0.0
  0
LINE
  8
LC-006-005-----0
  6
CONTINUOUS
  5
440
 10
443.146494
 20
600.543115
 30
0.0
 11
434.405179
 21
609.28443
 31
0.0
  0
LINE
  8
LC-006-005-----0
  6
CONTINUOUS
  5
441
 10
442.864795
 20
595.16796
 30
0.0
 11
431.006889
 21
607.025865
 31
0.0
  0
LINE
  8
LC-006-005-----0
  6
CONTINUOUS
  5
442
 10
442.723945
 20
592.480383
 30
0.0
 11
431.163319
 21
604.041009
 31
0.0
  0
LINE
  8
LC-006-005-----0
  6
CONTINUOUS
  5
443
 10
440.263044
 20
589.28443
 30
0.0
 11
431.476179
 21
598.071295
 31
0.0
  0
LINE
  8
LC-006-005-----0
  6
CONTINUOUS
  5
444
 10
437.434617
 20
589.28443
 30
0.0
 11
431.632608
 21
595.086438
 31
0.0
  0
ENDBLK
  8
0
  5
445
  0
BLOCK
  8
0
  5
447
  2
*D37
 70
    65
 10
0.0
 20
0.0
 30
0.0
  3
*D37
  0
LINE
  8
LC-003-003-MTH-0
  6
CONTINUOUS
  5
448
 10
430.996083
 20
607.28443
 30
0.0
 11
430.996083
 21
654.8
 31
0.0
  0
LINE
  8
LC-003-003-MTH-0
  6
CONTINUOUS
  5
449
 10
653.996083
 20
607.179758
 30
0.0
 11
653.996083
 21
654.8
 31
0.0
  0
LINE
  8
LC-004-003-MTG-0
  6
CONTINUOUS
  5
44A
 10
430.996083
 20
644.0
 30
0.0
 11
653.996083
 21
644.0
 31
0.0
  0
LINE
  8
LC-002-003-----0
  6
CONTINUOUS
  5
44B
 10
448.842091
 20
646.349471
 30
0.0
 11
430.996083
 21
644.0
 31
0.0
  0
LINE
  8
LC-002-003-----0
  6
CONTINUOUS
  5
44C
 10
430.996083
 20
644.0
 30
0.0
 11
448.842091
 21
641.650529
 31
0.0
  0
LINE
  8
LC-002-003-----0
  6
CONTINUOUS
  5
44D
 10
448.842091
 20
641.650529
 30
0.0
 11
448.842091
 21
646.349471
 31
0.0
  0
LINE
  8
LC-002-003-----0
  6
CONTINUOUS
  5
44E
 10
448.882129
 20
645.738609
 30
0.0
 11
435.676083
 21
644.0
 31
0.0
  0
LINE
  8
LC-002-003-----0
  6
CONTINUOUS
  5
44F
 10
435.676083
 20
644.0
 30
0.0
 11
448.882129
 21
642.261391
 31
0.0
  0
LINE
  8
LC-002-003-----0
  6
CONTINUOUS
  5
450
 10
448.922167
 20
645.127746
 30
0.0
 11
440.356083
 21
644.0
 31
0.0
  0
LINE
  8
LC-002-003-----0
  6
CONTINUOUS
  5
451
 10
440.356083
 20
644.0
 30
0.0
 11
448.922167
 21
642.872254
 31
0.0
  0
LINE
  8
LC-002-003-----0
  6
CONTINUOUS
  5
452
 10
448.962205
 20
644.516884
 30
0.0
 11
445.036083
 21
644.0
 31
0.0
  0
LINE
  8
LC-002-003-----0
  6
CONTINUOUS
  5
453
 10
445.036083
 20
644.0
 30
0.0
 11
448.962205
 21
643.483116
 31
0.0
  0
LINE
  8
LC-002-003-----0
  6
CONTINUOUS
  5
454
 10
636.150076
 20
641.650529
 30
0.0
 11
653.996083
 21
644.0
 31
0.0
  0
LINE
  8
LC-002-003-----0
  6
CONTINUOUS
  5
455
 10
653.996083
 20
644.0
 30
0.0
 11
636.150076
 21
646.349471
 31
0.0
  0
LINE
  8
LC-002-003-----0
  6
CONTINUOUS
  5
456
 10
636.150076
 20
646.349471
 30
0.0
 11
636.150076
 21
641.650529
 31
0.0
  0
LINE
  8
LC-002-003-----0
  6
CONTINUOUS
  5
457
 10
636.110038
 20
642.261391
 30
0.0
 11
649.316083
 21
644.0
 31
0.0
  0
LINE
  8
LC-002-003-----0
  6
CONTINUOUS
  5
458
 10
649.316083
 20
644.0
 30
0.0
 11
636.110038
 21
645.738609
 31
0.0
  0
LINE
  8
LC-002-003-----0
  6
CONTINUOUS
  5
459
 10
636.07
 20
642.872254
 30
0.0
 11
644.636083
 21
644.0
 31
0.0
  0
LINE
  8
LC-002-003-----0
  6
CONTINUOUS
  5
45A
 10
644.636083
 20
644.0
 30
0.0
 11
636.07
 21
645.127746
 31
0.0
  0
LINE
  8
LC-002-003-----0
  6
CONTINUOUS
  5
45B
 10
636.029962
 20
643.483116
 30
0.0
 11
639.956083
 21
644.0
 31
0.0
  0
LINE
  8
LC-002-003-----0
  6
CONTINUOUS
  5
45C
 10
639.956083
 20
644.0
 30
0.0
 11
636.029962
 21
644.516884
 31
0.0
  0
TEXT
  8
LC-002-003-----0
  6
CONTINUOUS
 62
     6
  5
45D
 10
526.157471
 20
654.431999
 30
0.0
 40
18.0
  1
226
 51
15.0
  7
LC-TXTSTYLE-150-400-0-0-D0
 72
     1
 11
545.291329
 21
654.431999
 31
0.0
  0
ENDBLK
  8
0
  5
45E
  0
ENDSEC
  0
SECTION
  2
ENTITIES
  0
VIEWPORT
  8
LC-000
  5
677
 67
     1
 68
     1
 10
594.0
 20
420.0
 30
0.0
 40
1188.0
 41
840.0
 69
     1
1001
ACAD
1000
MVIEW
1002
{
1070
    16
1010
0.0
1020
0.0
1030
0.0
1010
0.0
1020
0.0
1030
1.0
1040
0.0
1040
840.0
1040
594.0
1040
420.0
1040
50.0
1040
0.0
1040
0.0
1070
     0
1070
   100
1070
     1
1070
     1
1070
     0
1070
     0
1070
     0
1070
     0
1040
0.0
1040
0.0
1040
0.0
1040
1.0
1040
1.0
1040
0.0
1040
0.0
1070
     0
1002
{
1002
}
1002
}
  0
VIEWPORT
  8
0
  5
678
 67
     1
 68
     1
 10
0.0
 20
0.0
 30
0.0
 40
0.0
 41
0.0
 69
     1
1001
ACAD
1000
MVIEW
1002
{
1070
    16
1010
0.0
1020
0.0
1030
0.0
1010
0.0
1020
0.0
1030
1.0
1040
0.0
1040
840.0
1040
0.0
1040
0.0
1040
50.0
1040
0.0
1040
0.0
1070
     0
1070
   100
1070
     0
1070
     1
1070
     0
1070
     0
1070
     0
1070
     0
1040
0.0
1040
0.0
1040
0.0
1040
0.5
1040
0.5
1040
0.5
1040
0.5
1070
     0
1002
{
1002
}
1002
}
  0
DIMENSION
  8
0
  5
45F
  2
*D0
 10
542.493824
 20
151.2
 30
0.0
 11
542.493824
 21
151.2
 31
0.0
  1
%%c166
 13
459.373135
 23
303.161947
 33
0.0
 14
625.614514
 24
303.161947
 34
0.0
  3
LC-DIM-L-0090-02-02
  0
DIMENSION
  8
0
  5
460
  2
*D1
 10
360.0
 20
597.95693
 30
0.0
 11
360.0
 21
597.95693
 31
0.0
  1
23
 13
426.017574
 23
609.28443
 33
0.0
 14
424.047574
 24
586.62943
 34
0.0
 50
90.0
  3
LC-DIM-L-0090-02-02
  0
INSERT
  8
0
  5
461
  2
*X2
 10
443.993824
 20
469.849896
 30
0.0
  0
INSERT
  8
0
  5
462
  2
*X3
 10
422.077574
 20
466.161947
 30
0.0
  0
INSERT
  8
0
  5
463
  2
*X4
 10
633.606324
 20
466.161947
 30
0.0
  0
INSERT
  8
0
  5
464
  2
*X5
 10
445.493824
 20
577.194179
 30
0.0
  0
INSERT
  8
0
  5
465
  2
*X6
 10
469.749922
 20
529.519753
 30
0.0
  0
INSERT
  8
0
  5
466
  2
*X7
 10
529.493824
 20
527.628479
 30
0.0
  0
INSERT
  8
0
  5
467
  2
*X8
 10
542.493824
 20
527.628479
 30
0.0
  0
INSERT
  8
0
  5
468
  2
*X9
 10
559.493824
 20
529.519753
 30
0.0
  0
INSERT
  8
0
  5
469
  2
*X10
 10
614.623327
 20
577.194179
 30
0.0
  0
DIMENSION
  8
0
  5
46A
  2
*D11
 10
546.56957
 20
680.0
 30
0.0
 11
546.56957
 21
680.0
 31
0.0
  1
240
 13
422.570074
 23
607.31443
 33
0.0
 14
662.417574
 24
607.31443
 34
0.0
  3
LC-DIM-L-0090-02-02
  0
INSERT
  8
0
  5
46B
  2
*X12
 10
636.493824
 20
469.849896
 30
0.0
  0
INSERT
  8
0
  5
46C
  2
*X13
 10
606.793318
 20
583.536161
 30
0.0
  0
INSERT
  8
0
  5
46E
  2
BLK1
 10
0.0
 20
0.0
 30
0.0
  0
INSERT
  8
0
  5
46F
  2
*X15
 10
384.493824
 20
235.161947
 30
0.0
  0
INSERT
  8
0
  5
470
  2
*X16
 10
453.493824
 20
323.39747
 30
0.0
  0
INSERT
  8
0
  5
471
  2
*X17
 10
527.615945
 20
384.235389
 30
0.0
  0
INSERT
  8
0
  5
472
  2
*X18
 10
531.843698
 20
397.337261
 30
0.0
  0
INSERT
  8
0
  5
473
  2
*X19
 10
527.615945
 20
405.339254
 30
0.0
  0
INSERT
  8
0
  5
474
  2
*X20
 10
542.493824
 20
321.537645
 30
0.0
  0
INSERT
  8
0
  5
475
  2
*X21
 10
542.493824
 20
321.24072
 30
0.0
  0
INSERT
  8
0
  5
476
  2
*X22
 10
456.493824
 20
421.309293
 30
0.0
  0
INSERT
  8
0
  5
477
  2
*X23
 10
624.493824
 20
421.309293
 30
0.0
  0
INSERT
  8
0
  5
478
  2
*X24
 10
542.493824
 20
414.334189
 30
0.0
  0
INSERT
  8
0
  5
479
  2
*X25
 10
593.493824
 20
235.161947
 30
0.0
  0
DIMENSION
  8
0
  5
47A
  2
*D26
 10
542.493824
 20
180.0
 30
0.0
 11
542.493824
 21
180.0
 31
0.0
  1
DN100
 13
487.493824
 23
239.661947
 33
0.0
 14
597.493824
 24
239.661947
 34
0.0
  3
LC-DIM-L-0090-02-02
  0
DIMENSION
  8
0
  5
47B
  2
*D27
 10
542.493824
 20
108.0
 30
0.0
 11
542.493824
 21
108.0
 31
0.0
  1
%%c<>
 13
448.493824
 23
433.861947
 33
0.0
 14
636.493824
 24
433.861947
 34
0.0
  3
LC-DIM-L-0090-02-02
  0
DIMENSION
  8
0
  5
47C
  2
*D28
 10
542.493824
 20
72.0
 30
0.0
 11
542.493824
 21
72.0
 31
0.0
  1
%%c<>
 13
439.993824
 23
466.161947
 33
0.0
 14
644.993824
 24
466.161947
 34
0.0
  3
LC-DIM-L-0090-02-02
  0
DIMENSION
  8
0
  5
47D
  2
*D29
 10
537.727006
 20
720.0
 30
0.0
 11
537.727006
 21
720.0
 31
0.0
  1
%%c315
 13
384.493824
 23
490.366035
 33
0.0
 14
700.493824
 24
490.366035
 34
0.0
  3
LC-DIM-L-0090-02-02
  0
DIMENSION
  8
0
  5
47E
  2
*D30
 10
756.0
 20
549.825232
 30
0.0
 11
756.0
 21
549.825232
 31
0.0
  1
42-130
 13
700.493824
 23
490.366035
 33
0.0
 14
660.447574
 24
609.28443
 34
0.0
 50
90.0
  3
LC-DIM-L-0090-02-02
  0
DIMENSION
  8
0
  5
47F
  2
*D31
 10
756.0
 20
393.763991
 30
0.0
 11
756.0
 21
393.763991
 31
0.0
  1
197
 13
700.493824
 23
490.366035
 33
0.0
 14
622.150412
 24
297.161947
 34
0.0
 50
90.0
  3
LC-DIM-L-0090-02-02
  0
DIMENSION
  8
0
  5
480
  2
*D32
 10
756.0
 20
266.161947
 30
0.0
 11
756.0
 21
266.161947
 31
0.0
 13
622.150412
 23
297.161947
 33
0.0
 14
596.288053
 24
235.161947
 34
0.0
 50
90.0
  3
LC-DIM-L-0090-02-02
  0
INSERT
  8
0
  5
482
  2
BLK2
 10
0.0
 20
0.0
 30
0.0
  0
INSERT
  8
0
  5
483
  2
*X34
 10
477.491565
 20
575.28443
 30
0.0
  0
INSERT
  8
0
  5
484
  2
*X35
 10
637.496083
 20
589.28443
 30
0.0
  0
INSERT
  8
0
  5
485
  2
*X36
 10
430.996083
 20
589.28443
 30
0.0
  0
DIMENSION
  8
0
  5
486
  2
*D37
 10
542.496083
 20
644.0
 30
0.0
 11
542.496083
 21
644.0
 31
0.0
  1
226
 13
430.996083
 23
607.28443
 33
0.0
 14
653.996083
 24
607.179758
 34
0.0
  3
LC-DIM-L-0090-02-02
  0
LINE
  8
LC-001-002-----0
  6
CONTINUOUS
  5
488
 10
507.893538
 20
667.539038
 30
0.0
 11
507.893538
 21
652.539038
 31
0.0
  0
LINE
  8
LC-001-002-----0
  6
CONTINUOUS
  5
489
 10
492.893538
 20
667.539038
 30
0.0
 11
507.893538
 21
667.539038
 31
0.0
  0
LINE
  8
LC-001-002-----0
  6
CONTINUOUS
  5
48A
 10
492.893538
 20
707.64258
 30
0.0
 11
507.893538
 21
707.64258
 31
0.0
  0
LINE
  8
LC-001-002-----0
  6
CONTINUOUS
  5
48B
 10
492.893538
 20
707.64258
 30
0.0
 11
492.893538
 21
692.64258
 31
0.0
  0
LINE
  8
LC-001-002-----0
  6
CONTINUOUS
  5
48C
 10
492.893538
 20
692.64258
 30
0.0
 11
507.893538
 21
692.64258
 31
0.0
  0
LINE
  8
LC-001-002-----0
  6
CONTINUOUS
  5
48D
 10
507.893538
 20
707.64258
 30
0.0
 11
507.893538
 21
692.64258
 31
0.0
  0
LINE
  8
LC-001-002-----0
  6
CONTINUOUS
 62
     1
  5
48E
 10
446.993824
 20
568.11893
 30
0.0
 11
451.045565
 21
568.11893
 31
0.0
  0
LINE
  8
LC-001-002-----0
  6
CONTINUOUS
 62
     1
  5
48F
 10
636.493824
 20
474.17752
 30
0.0
 11
636.493824
 21
472.099896
 31
0.0
  0
LINE
  8
LC-001-002-----0
  6
CONTINUOUS
 62
     1
  5
490
 10
445.493824
 20
587.628479
 30
0.0
 11
480.33009
 21
587.628479
 31
0.0
  0
LINE
  8
LC-001-002-----0
  6
CONTINUOUS
 62
     1
  5
491
 10
469.858059
 20
585.496885
 30
0.0
 11
488.655848
 21
585.496885
 31
0.0
  0
LINE
  8
LC-001-002-----0
  6
CONTINUOUS
 62
     1
  5
492
 10
445.493824
 20
587.628479
 30
0.0
 11
469.858059
 21
585.496885
 31
0.0
  0
LINE
  8
LC-001-002-----0
  6
CONTINUOUS
 62
     1
  5
493
 10
427.987574
 20
589.58443
 30
0.0
 11
442.762574
 21
589.58443
 31
0.0
  0
LINE
  8
LC-001-002-----0
  6
CONTINUOUS
 62
     1
  5
494
 10
448.524824
 20
563.67893
 30
0.0
 11
448.524824
 21
559.866905
 31
0.0
  0
ARC
  8
LC-005-002-RND-0
  6
CONTINUOUS
  5
496
 10
447.539824
 20
563.67893
 30
0.0
 40
0.985
 50
0.0
 51
90.0
  0
ARC
  8
LC-005-002-RND-0
  6
CONTINUOUS
  5
497
 10
442.762574
 20
588.59943
 30
0.0
 40
0.985
 50
0.0
 51
90.0
  0
LINE
  8
LC-001-002-----0
  6
CONTINUOUS
 62
     1
  5
498
 10
443.747574
 20
588.59943
 30
0.0
 11
443.747574
 21
568.60393
 31
0.0
  0
LINE
  8
LC-001-002-----0
  6
CONTINUOUS
 62
     1
  5
499
 10
444.732574
 20
548.244958
 30
0.0
 11
444.732574
 21
545.782458
 31
0.0
  0
LINE
  8
LC-001-002-----0
  6
CONTINUOUS
 62
     1
  5
49A
 10
443.501324
 20
564.66393
 30
0.0
 11
447.539824
 21
564.66393
 31
0.0
  0
ARC
  8
LC-005-002-RND-0
  6
CONTINUOUS
  5
49B
 10
443.501324
 20
567.12643
 30
0.0
 40
2.4625
 50
180.0
 51
270.0
  0
ARC
  8
LC-005-002-RND-0
  6
CONTINUOUS
  5
49C
 10
444.732574
 20
568.60393
 30
0.0
 40
0.985
 50
180.0
 51
270.0
  0
LINE
  8
LC-001-002-----0
  6
CONTINUOUS
 62
     1
  5
49D
 10
448.524824
 20
553.86051
 30
0.0
 11
448.524824
 21
550.016905
 31
0.0
  0
LINE
  8
LC-001-002-----0
  6
CONTINUOUS
 62
     1
  5
49E
 10
441.038824
 20
584.16693
 30
0.0
 11
441.038824
 21
567.12643
 31
0.0
  0
ARC
  8
LC-005-002-RND-0
  6
CONTINUOUS
  5
49F
 10
438.576324
 20
584.16693
 30
0.0
 40
2.4625
 50
0.0
 51
90.0
  0
ARC
  8
LC-005-002-RND-0
  6
CONTINUOUS
  5
4A0
 10
424.047574
 20
588.10693
 30
0.0
 40
1.4775
 50
90.0
 51
180.0
  0
ARC
  8
LC-005-002-RND-0
  6
CONTINUOUS
  5
4A1
 10
447.539824
 20
553.86051
 30
0.0
 40
0.985
 50
0.0
 51
75.0
  0
ARC
  8
LC-005-002-RND-0
  6
CONTINUOUS
  5
4A2
 10
447.539824
 20
559.866905
 30
0.0
 40
0.985
 50
285.0
 51
0.0
  0
LINE
  8
LC-001-002-----0
  6
CONTINUOUS
 62
     1
  5
4A3
 10
425.032574
 20
604.85193
 30
0.0
 11
425.032574
 21
589.58443
 31
0.0
  0
LINE
  8
LC-001-002-----0
  6
CONTINUOUS
 62
     1
  5
4A4
 10
424.047574
 20
586.62943
 30
0.0
 11
438.576324
 21
586.62943
 31
0.0
  0
LINE
  8
LC-001-002-----0
  6
CONTINUOUS
 62
     1
  5
4A5
 10
448.524824
 20
540.166905
 30
0.0
 11
448.524824
 21
544.01051
 31
0.0
  0
LINE
  8
LC-001-002-----0
  6
CONTINUOUS
 62
     1
  5
4A6
 10
444.732574
 20
538.394958
 30
0.0
 11
447.794761
 21
539.215468
 31
0.0
  0
LINE
  8
LC-001-002-----0
  6
CONTINUOUS
 62
     1
  5
4A7
 10
444.732574
 20
535.932458
 30
0.0
 11
444.732574
 21
538.394958
 31
0.0
  0
LINE
  8
LC-001-002-----0
  6
CONTINUOUS
 62
     1
  5
4A8
 10
444.732574
 20
535.932458
 30
0.0
 11
447.794761
 21
535.111947
 31
0.0
  0
ARC
  8
LC-005-002-RND-0
  6
CONTINUOUS
  5
4A9
 10
447.539824
 20
534.16051
 30
0.0
 40
0.985
 50
0.0
 51
75.0
  0
ARC
  8
LC-005-002-RND-0
  6
CONTINUOUS
  5
4AA
 10
447.539824
 20
540.166905
 30
0.0
 40
0.985
 50
285.0
 51
0.0
  0
LINE
  8
LC-001-002-----0
  6
CONTINUOUS
 62
     1
  5
4AB
 10
448.524824
 20
530.316905
 30
0.0
 11
448.524824
 21
534.16051
 31
0.0
  0
ARC
  8
LC-005-002-RND-0
  6
CONTINUOUS
  5
4AC
 10
447.539824
 20
530.316905
 30
0.0
 40
0.985
 50
285.0
 51
0.0
  0
LINE
  8
LC-001-002-----0
  6
CONTINUOUS
 62
     1
  5
4AD
 10
444.732574
 20
528.544958
 30
0.0
 11
447.794761
 21
529.365468
 31
0.0
  0
LINE
  8
LC-001-002-----0
  6
CONTINUOUS
 62
     1
  5
4AE
 10
444.732574
 20
526.082458
 30
0.0
 11
444.732574
 21
528.544958
 31
0.0
  0
LINE
  8
LC-001-002-----0
  6
CONTINUOUS
 62
     1
  5
4AF
 10
444.732574
 20
558.094958
 30
0.0
 11
447.794761
 21
558.915468
 31
0.0
  0
LINE
  8
LC-001-002-----0
  6
CONTINUOUS
 62
     1
  5
4B0
 10
444.732574
 20
526.082458
 30
0.0
 11
447.794761
 21
525.261947
 31
0.0
  0
ARC
  8
LC-005-002-RND-0
  6
CONTINUOUS
  5
4B1
 10
447.539824
 20
550.016905
 30
0.0
 40
0.985
 50
285.0
 51
0.0
  0
ARC
  8
LC-005-002-RND-0
  6
CONTINUOUS
  5
4B2
 10
447.539824
 20
544.01051
 30
0.0
 40
0.985
 50
0.0
 51
75.0
  0
LINE
  8
LC-001-002-----0
  6
CONTINUOUS
 62
     1
  5
4B3
 10
444.732574
 20
555.632458
 30
0.0
 11
447.794761
 21
554.811947
 31
0.0
  0
ARC
  8
LC-005-002-RND-0
  6
CONTINUOUS
  5
4B4
 10
447.539824
 20
524.31051
 30
0.0
 40
0.985
 50
0.0
 51
75.0
  0
LINE
  8
LC-001-002-----0
  6
CONTINUOUS
 62
     1
  5
4B5
 10
444.732574
 20
548.244958
 30
0.0
 11
447.794761
 21
549.065468
 31
0.0
  0
LINE
  8
LC-001-002-----0
  6
CONTINUOUS
 62
     1
  5
4B6
 10
444.732574
 20
545.782458
 30
0.0
 11
447.794761
 21
544.961947
 31
0.0
  0
LINE
  8
LC-001-002-----0
  6
CONTINUOUS
 62
     1
  5
4B7
 10
448.524824
 20
520.466905
 30
0.0
 11
448.524824
 21
524.31051
 31
0.0
  0
ARC
  8
LC-005-002-RND-0
  6
CONTINUOUS
  5
4B8
 10
447.539824
 20
520.466905
 30
0.0
 40
0.985
 50
285.0
 51
0.0
  0
LINE
  8
LC-001-002-----0
  6
CONTINUOUS
 62
     1
  5
4B9
 10
444.732574
 20
518.694958
 30
0.0
 11
447.794761
 21
519.515468
 31
0.0
  0
LINE
  8
LC-001-002-----0
  6
CONTINUOUS
 62
     1
  5
4BA
 10
444.732574
 20
516.232458
 30
0.0
 11
444.732574
 21
518.694958
 31
0.0
  0
LINE
  8
LC-001-002-----0
  6
CONTINUOUS
 62
     1
  5
4BB
 10
444.732574
 20
516.232458
 30
0.0
 11
447.794761
 21
515.411947
 31
0.0
  0
LINE
  8
LC-001-002-----0
  6
CONTINUOUS
 62
     1
  5
4BC
 10
451.381324
 20
565.64893
 30
0.0
 11
451.381324
 21
466.161947
 31
0.0
  0
ARC
  8
LC-005-002-RND-0
  6
CONTINUOUS
  5
4BD
 10
447.539824
 20
514.46051
 30
0.0
 40
0.985
 50
0.0
 51
75.0
  0
LINE
  8
LC-001-002-----0
  6
CONTINUOUS
 62
     1
  5
4BE
 10
448.524824
 20
510.616905
 30
0.0
 11
448.524824
 21
514.46051
 31
0.0
  0
ARC
  8
LC-005-002-RND-0
  6
CONTINUOUS
  5
4BF
 10
449.411324
 20
565.64893
 30
0.0
 40
1.97
 50
0.0
 51
90.0
  0
ARC
  8
LC-005-002-RND-0
  6
CONTINUOUS
  5
4C0
 10
447.539824
 20
510.616905
 30
0.0
 40
0.985
 50
285.0
 51
0.0
  0
LINE
  8
LC-001-002-----0
  6
CONTINUOUS
 62
     1
  5
4C1
 10
444.732574
 20
508.844958
 30
0.0
 11
447.794761
 21
509.665468
 31
0.0
  0
LINE
  8
LC-001-002-----0
  6
CONTINUOUS
 62
     1
  5
4C2
 10
444.732574
 20
508.844958
 30
0.0
 11
444.732574
 21
506.382458
 31
0.0
  0
LINE
  8
LC-001-002-----0
  6
CONTINUOUS
 62
     1
  5
4C3
 10
444.732574
 20
506.382458
 30
0.0
 11
447.794761
 21
505.561947
 31
0.0
  0
ARC
  8
LC-005-002-RND-0
  6
CONTINUOUS
  5
4C4
 10
447.539824
 20
504.61051
 30
0.0
 40
0.985
 50
0.0
 51
75.0
  0
LINE
  8
LC-001-002-----0
  6
CONTINUOUS
 62
     1
  5
4C5
 10
448.524824
 20
504.61051
 30
0.0
 11
448.524824
 21
500.766905
 31
0.0
  0
ARC
  8
LC-005-002-RND-0
  6
CONTINUOUS
  5
4C6
 10
447.539824
 20
500.766905
 30
0.0
 40
0.985
 50
285.0
 51
0.0
  0
LINE
  8
LC-001-002-----0
  6
CONTINUOUS
 62
     1
  5
4C7
 10
444.732574
 20
498.994958
 30
0.0
 11
447.794761
 21
499.815468
 31
0.0
  0
LINE
  8
LC-001-002-----0
  6
CONTINUOUS
 62
     1
  5
4C8
 10
444.732574
 20
498.994958
 30
0.0
 11
444.732574
 21
496.532458
 31
0.0
  0
LINE
  8
LC-001-002-----0
  6
CONTINUOUS
 62
     1
  5
4C9
 10
444.732574
 20
496.532458
 30
0.0
 11
447.794761
 21
495.711947
 31
0.0
  0
ARC
  8
LC-005-002-RND-0
  6
CONTINUOUS
  5
4CA
 10
447.539824
 20
494.76051
 30
0.0
 40
0.985
 50
0.0
 51
75.0
  0
LINE
  8
LC-001-002-----0
  6
CONTINUOUS
 62
     1
  5
4CB
 10
448.524824
 20
494.76051
 30
0.0
 11
448.524824
 21
490.916905
 31
0.0
  0
LINE
  8
LC-001-002-----0
  6
CONTINUOUS
 62
     1
  5
4CC
 10
657.000074
 20
589.58443
 30
0.0
 11
642.225074
 21
589.58443
 31
0.0
  0
LINE
  8
LC-001-002-----0
  6
CONTINUOUS
 62
     1
  5
4CD
 10
636.462824
 20
563.67893
 30
0.0
 11
636.462824
 21
559.866905
 31
0.0
  0
ARC
  8
LC-005-002-RND-0
  6
CONTINUOUS
  5
4CE
 10
637.447824
 20
563.67893
 30
0.0
 40
0.985
 50
90.0
 51
180.0
  0
ARC
  8
LC-005-002-RND-0
  6
CONTINUOUS
  5
4CF
 10
642.225074
 20
588.59943
 30
0.0
 40
0.985
 50
90.0
 51
180.0
  0
LINE
  8
LC-001-002-----0
  6
CONTINUOUS
 62
     1
  5
4D0
 10
641.240074
 20
588.59943
 30
0.0
 11
641.240074
 21
568.60393
 31
0.0
  0
LINE
  8
LC-001-002-----0
  6
CONTINUOUS
 62
     1
  5
4D1
 10
640.255074
 20
548.244958
 30
0.0
 11
640.255074
 21
545.782458
 31
0.0
  0
LINE
  8
LC-001-002-----0
  6
CONTINUOUS
 62
     1
  5
4D2
 10
641.486324
 20
564.66393
 30
0.0
 11
637.447824
 21
564.66393
 31
0.0
  0
ARC
  8
LC-005-002-RND-0
  6
CONTINUOUS
  5
4D3
 10
641.486324
 20
567.12643
 30
0.0
 40
2.4625
 50
270.0
 51
0.0
  0
ARC
  8
LC-005-002-RND-0
  6
CONTINUOUS
  5
4D4
 10
640.255074
 20
568.60393
 30
0.0
 40
0.985
 50
270.0
 51
0.0
  0
LINE
  8
LC-001-002-----0
  6
CONTINUOUS
 62
     1
  5
4D5
 10
636.462824
 20
553.86051
 30
0.0
 11
636.462824
 21
550.016905
 31
0.0
  0
LINE
  8
LC-001-002-----0
  6
CONTINUOUS
 62
     1
  5
4D6
 10
643.948824
 20
584.16693
 30
0.0
 11
643.948824
 21
567.12643
 31
0.0
  0
ARC
  8
LC-005-002-RND-0
  6
CONTINUOUS
  5
4D7
 10
646.411324
 20
584.16693
 30
0.0
 40
2.4625
 50
90.0
 51
180.0
  0
LINE
  8
LC-001-002-----0
  6
CONTINUOUS
 62
     1
  5
4D8
 10
444.732574
 20
558.094958
 30
0.0
 11
444.732574
 21
555.632458
 31
0.0
  0
ARC
  8
LC-005-002-RND-0
  6
CONTINUOUS
  5
4D9
 10
660.940074
 20
588.10693
 30
0.0
 40
1.4775
 50
0.0
 51
90.0
  0
ARC
  8
LC-005-002-RND-0
  6
CONTINUOUS
  5
4DA
 10
637.447824
 20
553.86051
 30
0.0
 40
0.985
 50
105.0
 51
180.0
  0
ARC
  8
LC-005-002-RND-0
  6
CONTINUOUS
  5
4DB
 10
637.447824
 20
559.866905
 30
0.0
 40
0.985
 50
180.0
 51
255.0
  0
LINE
  8
LC-001-002-----0
  6
CONTINUOUS
 62
     1
  5
4DC
 10
659.955074
 20
604.85193
 30
0.0
 11
659.955074
 21
589.58443
 31
0.0
  0
LINE
  8
LC-001-002-----0
  6
CONTINUOUS
 62
     1
  5
4DD
 10
660.940074
 20
586.62943
 30
0.0
 11
646.411324
 21
586.62943
 31
0.0
  0
LINE
  8
LC-001-002-----0
  6
CONTINUOUS
 62
     1
  5
4DE
 10
636.462824
 20
540.166905
 30
0.0
 11
636.462824
 21
544.01051
 31
0.0
  0
LINE
  8
LC-001-002-----0
  6
CONTINUOUS
 62
     1
  5
4DF
 10
640.255074
 20
538.394958
 30
0.0
 11
637.192888
 21
539.215468
 31
0.0
  0
LINE
  8
LC-001-002-----0
  6
CONTINUOUS
 62
     1
  5
4E0
 10
640.255074
 20
535.932458
 30
0.0
 11
640.255074
 21
538.394958
 31
0.0
  0
LINE
  8
LC-001-002-----0
  6
CONTINUOUS
 62
     1
  5
4E1
 10
640.255074
 20
535.932458
 30
0.0
 11
637.192888
 21
535.111947
 31
0.0
  0
ARC
  8
LC-005-002-RND-0
  6
CONTINUOUS
  5
4E2
 10
637.447824
 20
534.16051
 30
0.0
 40
0.985
 50
105.0
 51
180.0
  0
ARC
  8
LC-005-002-RND-0
  6
CONTINUOUS
  5
4E3
 10
637.447824
 20
540.166905
 30
0.0
 40
0.985
 50
180.0
 51
255.0
  0
LINE
  8
LC-001-002-----0
  6
CONTINUOUS
 62
     1
  5
4E4
 10
636.462824
 20
530.316905
 30
0.0
 11
636.462824
 21
534.16051
 31
0.0
  0
ARC
  8
LC-005-002-RND-0
  6
CONTINUOUS
  5
4E5
 10
637.447824
 20
530.316905
 30
0.0
 40
0.985
 50
180.0
 51
255.0
  0
LINE
  8
LC-001-002-----0
  6
CONTINUOUS
 62
     1
  5
4E6
 10
640.255074
 20
528.544958
 30
0.0
 11
637.192888
 21
529.365468
 31
0.0
  0
LINE
  8
LC-001-002-----0
  6
CONTINUOUS
 62
     1
  5
4E7
 10
640.255074
 20
526.082458
 30
0.0
 11
640.255074
 21
528.544958
 31
0.0
  0
LINE
  8
LC-001-002-----0
  6
CONTINUOUS
 62
     1
  5
4E8
 10
640.255074
 20
558.094958
 30
0.0
 11
637.192888
 21
558.915468
 31
0.0
  0
LINE
  8
LC-001-002-----0
  6
CONTINUOUS
 62
     1
  5
4E9
 10
640.255074
 20
526.082458
 30
0.0
 11
637.192888
 21
525.261947
 31
0.0
  0
ARC
  8
LC-005-002-RND-0
  6
CONTINUOUS
  5
4EA
 10
637.447824
 20
550.016905
 30
0.0
 40
0.985
 50
180.0
 51
255.0
  0
ARC
  8
LC-005-002-RND-0
  6
CONTINUOUS
  5
4EB
 10
637.447824
 20
544.01051
 30
0.0
 40
0.985
 50
105.0
 51
180.0
  0
LINE
  8
LC-001-002-----0
  6
CONTINUOUS
 62
     1
  5
4EC
 10
640.255074
 20
555.632458
 30
0.0
 11
637.192888
 21
554.811947
 31
0.0
  0
ARC
  8
LC-005-002-RND-0
  6
CONTINUOUS
  5
4ED
 10
637.447824
 20
524.31051
 30
0.0
 40
0.985
 50
105.0
 51
180.0
  0
LINE
  8
LC-001-002-----0
  6
CONTINUOUS
 62
     1
  5
4EE
 10
640.255074
 20
548.244958
 30
0.0
 11
637.192888
 21
549.065468
 31
0.0
  0
LINE
  8
LC-001-002-----0
  6
CONTINUOUS
 62
     1
  5
4EF
 10
640.255074
 20
545.782458
 30
0.0
 11
637.192888
 21
544.961947
 31
0.0
  0
LINE
  8
LC-001-002-----0
  6
CONTINUOUS
 62
     1
  5
4F0
 10
636.462824
 20
520.466905
 30
0.0
 11
636.462824
 21
524.31051
 31
0.0
  0
ARC
  8
LC-005-002-RND-0
  6
CONTINUOUS
  5
4F1
 10
637.447824
 20
520.466905
 30
0.0
 40
0.985
 50
180.0
 51
255.0
  0
LINE
  8
LC-001-002-----0
  6
CONTINUOUS
 62
     1
  5
4F2
 10
640.255074
 20
518.694958
 30
0.0
 11
637.192888
 21
519.515468
 31
0.0
  0
LINE
  8
LC-001-002-----0
  6
CONTINUOUS
 62
     1
  5
4F3
 10
640.255074
 20
516.232458
 30
0.0
 11
640.255074
 21
518.694958
 31
0.0
  0
LINE
  8
LC-001-002-----0
  6
CONTINUOUS
 62
     1
  5
4F4
 10
640.255074
 20
516.232458
 30
0.0
 11
637.192888
 21
515.411947
 31
0.0
  0
LINE
  8
LC-001-002-----0
  6
CONTINUOUS
 62
     1
  5
4F5
 10
633.606324
 20
565.64893
 30
0.0
 11
633.606324
 21
466.161947
 31
0.0
  0
ARC
  8
LC-005-002-RND-0
  6
CONTINUOUS
  5
4F6
 10
637.447824
 20
514.46051
 30
0.0
 40
0.985
 50
105.0
 51
180.0
  0
LINE
  8
LC-001-002-----0
  6
CONTINUOUS
 62
     1
  5
4F7
 10
636.462824
 20
510.616905
 30
0.0
 11
636.462824
 21
514.46051
 31
0.0
  0
ARC
  8
LC-005-002-RND-0
  6
CONTINUOUS
  5
4F8
 10
635.576324
 20
565.64893
 30
0.0
 40
1.97
 50
90.0
 51
180.0
  0
ARC
  8
LC-005-002-RND-0
  6
CONTINUOUS
  5
4F9
 10
637.447824
 20
510.616905
 30
0.0
 40
0.985
 50
180.0
 51
255.0
  0
LINE
  8
LC-001-002-----0
  6
CONTINUOUS
 62
     1
  5
4FA
 10
640.255074
 20
508.844958
 30
0.0
 11
637.192888
 21
509.665468
 31
0.0
  0
LINE
  8
LC-001-002-----0
  6
CONTINUOUS
 62
     1
  5
4FB
 10
640.255074
 20
508.844958
 30
0.0
 11
640.255074
 21
506.382458
 31
0.0
  0
LINE
  8
LC-001-002-----0
  6
CONTINUOUS
 62
     1
  5
4FC
 10
640.255074
 20
506.382458
 30
0.0
 11
637.192888
 21
505.561947
 31
0.0
  0
ARC
  8
LC-005-002-RND-0
  6
CONTINUOUS
  5
4FD
 10
637.447824
 20
504.61051
 30
0.0
 40
0.985
 50
105.0
 51
180.0
  0
LINE
  8
LC-001-002-----0
  6
CONTINUOUS
 62
     1
  5
4FE
 10
636.462824
 20
504.61051
 30
0.0
 11
636.462824
 21
500.766905
 31
0.0
  0
ARC
  8
LC-005-002-RND-0
  6
CONTINUOUS
  5
4FF
 10
637.447824
 20
500.766905
 30
0.0
 40
0.985
 50
180.0
 51
255.0
  0
LINE
  8
LC-001-002-----0
  6
CONTINUOUS
 62
     1
  5
500
 10
427.987574
 20
607.31443
 30
0.0
 11
427.987574
 21
589.58443
 31
0.0
  0
LINE
  8
LC-001-002-----0
  6
CONTINUOUS
 62
     1
  5
501
 10
422.570074
 20
607.31443
 30
0.0
 11
422.570074
 21
606.32943
 31
0.0
  0
ARC
  8
LC-005-002-RND-0
  6
CONTINUOUS
  5
502
 10
424.540074
 20
607.31443
 30
0.0
 40
1.97
 50
90.0
 51
180.0
  0
LINE
  8
LC-001-002-----0
  6
CONTINUOUS
 62
     1
  5
503
 10
640.255074
 20
498.994958
 30
0.0
 11
637.192888
 21
499.815468
 31
0.0
  0
LINE
  8
LC-001-002-----0
  6
CONTINUOUS
 62
     1
  5
504
 10
640.255074
 20
498.994958
 30
0.0
 11
640.255074
 21
496.532458
 31
0.0
  0
LINE
  8
LC-001-002-----0
  6
CONTINUOUS
 62
     1
  5
505
 10
640.255074
 20
496.532458
 30
0.0
 11
637.192888
 21
495.711947
 31
0.0
  0
ARC
  8
LC-005-002-RND-0
  6
CONTINUOUS
  5
506
 10
637.447824
 20
494.76051
 30
0.0
 40
0.985
 50
105.0
 51
180.0
  0
LINE
  8
LC-001-002-----0
  6
CONTINUOUS
 62
     1
  5
507
 10
636.462824
 20
494.76051
 30
0.0
 11
636.462824
 21
490.916905
 31
0.0
  0
LINE
  8
LC-001-002-----0
  6
CONTINUOUS
 62
     1
  5
508
 10
640.255074
 20
558.094958
 30
0.0
 11
640.255074
 21
555.632458
 31
0.0
  0
LINE
  8
LC-001-002-----0
  6
CONTINUOUS
 62
     1
  5
509
 10
657.000074
 20
607.31443
 30
0.0
 11
657.000074
 21
589.58443
 31
0.0
  0
LINE
  8
LC-001-002-----0
  6
CONTINUOUS
 62
     1
  5
50A
 10
662.417574
 20
607.31443
 30
0.0
 11
662.417574
 21
606.32943
 31
0.0
  0
ARC
  8
LC-005-002-RND-0
  6
CONTINUOUS
  5
50B
 10
660.447574
 20
607.31443
 30
0.0
 40
1.97
 50
0.0
 51
90.0
  0
LINE
  8
LC-001-002-----0
  6
CONTINUOUS
 62
     1
  5
50C
 10
640.255074
 20
489.144958
 30
0.0
 11
637.192888
 21
489.965468
 31
0.0
  0
LINE
  8
LC-001-002-----0
  6
CONTINUOUS
 62
     1
  5
50D
 10
640.255074
 20
567.61893
 30
0.0
 11
635.576324
 21
567.61893
 31
0.0
  0
ARC
  8
LC-005-002-RND-0
  6
CONTINUOUS
  5
50E
 10
658.970074
 20
607.31443
 30
0.0
 40
1.97
 50
90.0
 51
180.0
  0
LINE
  8
LC-001-002-----0
  6
CONTINUOUS
 62
     1
  5
50F
 10
444.732574
 20
489.144958
 30
0.0
 11
447.794761
 21
489.965468
 31
0.0
  0
LINE
  8
LC-001-002-----0
  6
CONTINUOUS
 62
     1
  5
510
 10
660.447574
 20
609.28443
 30
0.0
 11
658.970074
 21
609.28443
 31
0.0
  0
ARC
  8
LC-005-002-RND-0
  6
CONTINUOUS
  5
511
 10
661.432574
 20
604.85193
 30
0.0
 40
1.4775
 50
90.0
 51
180.0
  0
LINE
  8
LC-001-002-----0
  6
CONTINUOUS
 62
     1
  5
512
 10
640.255074
 20
486.682458
 30
0.0
 11
640.255074
 21
489.144958
 31
0.0
  0
LINE
  8
LC-001-002-----0
  6
CONTINUOUS
 62
     1
  5
513
 10
444.732574
 20
567.61893
 30
0.0
 11
449.411324
 21
567.61893
 31
0.0
  0
ARC
  8
LC-005-002-RND-0
  6
CONTINUOUS
  5
514
 10
660.940074
 20
588.10693
 30
0.0
 40
1.4775
 50
270.0
 51
0.0
  0
ARC
  8
LC-005-002-RND-0
  6
CONTINUOUS
  5
515
 10
426.017574
 20
607.31443
 30
0.0
 40
1.97
 50
0.0
 51
90.0
  0
LINE
  8
LC-001-002-----0
  6
CONTINUOUS
 62
     1
  5
516
 10
424.540074
 20
609.28443
 30
0.0
 11
426.017574
 21
609.28443
 31
0.0
  0
ARC
  8
LC-005-002-RND-0
  6
CONTINUOUS
  5
517
 10
423.555074
 20
604.85193
 30
0.0
 40
1.4775
 50
0.0
 51
90.0
  0
LINE
  8
LC-001-002-----0
  6
CONTINUOUS
 62
     1
  5
518
 10
444.732574
 20
486.682458
 30
0.0
 11
444.732574
 21
489.144958
 31
0.0
  0
ARC
  8
LC-005-002-RND-0
  6
CONTINUOUS
  5
519
 10
424.047574
 20
588.10693
 30
0.0
 40
1.4775
 50
180.0
 51
270.0
  0
LINE
  8
LC-001-002-----0
  6
CONTINUOUS
 62
     1
  5
51A
 10
444.732574
 20
486.682458
 30
0.0
 11
447.794761
 21
485.861947
 31
0.0
  0
ARC
  8
LC-005-002-RND-0
  6
CONTINUOUS
  5
51B
 10
447.539824
 20
484.91051
 30
0.0
 40
0.985
 50
0.0
 51
75.0
  0
LINE
  8
LC-001-002-----0
  6
CONTINUOUS
 62
     1
  5
51C
 10
424.047574
 20
589.58443
 30
0.0
 11
425.032574
 21
589.58443
 31
0.0
  0
LINE
  8
LC-001-002-----0
  6
CONTINUOUS
 62
     1
  5
51D
 10
422.570074
 20
606.32943
 30
0.0
 11
423.555074
 21
606.32943
 31
0.0
  0
LINE
  8
LC-001-002-----0
  6
CONTINUOUS
 62
     1
  5
51E
 10
448.524824
 20
481.066905
 30
0.0
 11
448.524824
 21
484.91051
 31
0.0
  0
ARC
  8
LC-005-002-RND-0
  6
CONTINUOUS
  5
51F
 10
447.539824
 20
490.916905
 30
0.0
 40
0.985
 50
285.0
 51
0.0
  0
LINE
  8
LC-001-002-----0
  6
CONTINUOUS
 62
     1
  5
520
 10
444.732574
 20
479.294958
 30
0.0
 11
447.794761
 21
480.115468
 31
0.0
  0
LINE
  8
LC-001-002-----0
  6
CONTINUOUS
 62
     1
  5
521
 10
444.732574
 20
476.832458
 30
0.0
 11
444.732574
 21
479.294958
 31
0.0
  0
LINE
  8
LC-001-002-----0
  6
CONTINUOUS
 62
     1
  5
522
 10
448.524824
 20
471.216905
 30
0.0
 11
448.524824
 21
475.06051
 31
0.0
  0
ARC
  8
LC-005-002-RND-0
  6
CONTINUOUS
  5
523
 10
447.539824
 20
475.06051
 30
0.0
 40
0.985
 50
0.0
 51
75.0
  0
ARC
  8
LC-005-002-RND-0
  6
CONTINUOUS
  5
524
 10
447.539824
 20
475.06051
 30
0.0
 40
0.985
 50
0.0
 51
75.0
  0
ARC
  8
LC-005-002-RND-0
  6
CONTINUOUS
  5
525
 10
447.539824
 20
481.066905
 30
0.0
 40
0.985
 50
285.0
 51
0.0
  0
LINE
  8
LC-001-002-----0
  6
CONTINUOUS
 62
     1
  5
526
 10
640.255074
 20
486.682458
 30
0.0
 11
637.192888
 21
485.861947
 31
0.0
  0
LINE
  8
LC-001-002-----0
  6
CONTINUOUS
 62
     1
  5
527
 10
447.794761
 20
476.011947
 30
0.0
 11
444.732574
 21
476.832458
 31
0.0
  0
ARC
  8
LC-005-002-RND-0
  6
CONTINUOUS
  5
528
 10
447.539824
 20
471.216905
 30
0.0
 40
0.985
 50
285.0
 51
0.0
  0
LINE
  8
LC-001-002-----0
  6
CONTINUOUS
 62
     1
  5
529
 10
444.732574
 20
469.444958
 30
0.0
 11
444.732574
 21
466.982458
 31
0.0
  0
LINE
  8
LC-001-002-----0
  6
CONTINUOUS
 62
     1
  5
52A
 10
444.732574
 20
466.982458
 30
0.0
 11
447.794761
 21
466.161947
 31
0.0
  0
LINE
  8
LC-001-002-----0
  6
CONTINUOUS
 62
     1
  5
52B
 10
660.940074
 20
589.58443
 30
0.0
 11
659.955074
 21
589.58443
 31
0.0
  0
ARC
  8
LC-005-002-RND-0
  6
CONTINUOUS
  5
52C
 10
637.447824
 20
484.91051
 30
0.0
 40
0.985
 50
105.0
 51
180.0
  0
LINE
  8
LC-001-002-----0
  6
CONTINUOUS
 62
     1
  5
52D
 10
662.417574
 20
606.32943
 30
0.0
 11
661.432574
 21
606.32943
 31
0.0
  0
LINE
  8
LC-001-002-----0
  6
CONTINUOUS
 62
     1
  5
52E
 10
636.462824
 20
481.066905
 30
0.0
 11
636.462824
 21
484.91051
 31
0.0
  0
LINE
  8
LC-001-002-----0
  6
CONTINUOUS
 62
     1
  5
52F
 10
640.255074
 20
479.294958
 30
0.0
 11
637.192888
 21
480.115468
 31
0.0
  0
ARC
  8
LC-005-002-RND-0
  6
CONTINUOUS
  5
530
 10
637.447824
 20
490.916905
 30
0.0
 40
0.985
 50
180.0
 51
255.0
  0
LINE
  8
LC-001-002-----0
  6
CONTINUOUS
 62
     1
  5
531
 10
640.255074
 20
476.832458
 30
0.0
 11
640.255074
 21
479.294958
 31
0.0
  0
LINE
  8
LC-001-002-----0
  6
CONTINUOUS
 62
     1
  5
532
 10
640.255074
 20
476.832458
 30
0.0
 11
637.192888
 21
476.011947
 31
0.0
  0
LINE
  8
LC-001-002-----0
  6
CONTINUOUS
 62
     1
  5
533
 10
640.255074
 20
469.444958
 30
0.0
 11
637.192888
 21
470.265468
 31
0.0
  0
ARC
  8
LC-005-002-RND-0
  6
CONTINUOUS
  5
534
 10
637.447824
 20
475.06051
 30
0.0
 40
0.985
 50
105.0
 51
180.0
  0
LINE
  8
LC-001-002-----0
  6
CONTINUOUS
 62
     1
  5
535
 10
640.255074
 20
469.444958
 30
0.0
 11
640.255074
 21
466.982458
 31
0.0
  0
ARC
  8
LC-005-002-RND-0
  6
CONTINUOUS
  5
536
 10
637.447824
 20
475.06051
 30
0.0
 40
0.985
 50
105.0
 51
180.0
  0
ARC
  8
LC-005-002-RND-0
  6
CONTINUOUS
  5
537
 10
637.447824
 20
481.066905
 30
0.0
 40
0.985
 50
180.0
 51
255.0
  0
ARC
  8
LC-005-002-RND-0
  6
CONTINUOUS
  5
538
 10
637.447824
 20
471.216905
 30
0.0
 40
0.985
 50
180.0
 51
255.0
  0
LINE
  8
LC-001-002-----0
  6
CONTINUOUS
 62
     1
  5
539
 10
472.48919
 20
542.128479
 30
0.0
 11
472.48919
 21
542.194179
 31
0.0
  0
LINE
  8
LC-001-002-----0
  6
CONTINUOUS
 62
     1
  5
53A
 10
640.255074
 20
466.982458
 30
0.0
 11
637.192888
 21
466.161947
 31
0.0
  0
LINE
  8
LC-001-002-----0
  6
CONTINUOUS
 62
     1
  5
53B
 10
445.493824
 20
587.628479
 30
0.0
 11
445.493824
 21
569.61893
 31
0.0
  0
LINE
  8
LC-001-002-----0
  6
CONTINUOUS
 62
     1
  5
53C
 10
443.993824
 20
474.17752
 30
0.0
 11
443.993824
 21
472.099896
 31
0.0
  0
LINE
  8
LC-001-002-----0
  6
CONTINUOUS
 62
     1
  5
53D
 10
445.493824
 20
585.11893
 30
0.0
 11
467.493824
 21
583.194179
 31
0.0
  0
LINE
  8
LC-001-002-----0
  6
CONTINUOUS
 62
     1
  5
53E
 10
456.493824
 20
584.156554
 30
0.0
 11
452.494454
 21
569.230701
 31
0.0
  0
ARC
  8
LC-005-002-RND-0
  6
CONTINUOUS
  5
53F
 10
447.539824
 20
475.06051
 30
0.0
 40
0.985
 50
0.0
 51
75.0
  0
ARC
  8
LC-005-002-RND-0
  6
CONTINUOUS
  5
540
 10
451.045565
 20
569.61893
 30
0.0
 40
1.5
 50
270.0
 51
345.0
  0
ARC
  8
LC-005-002-RND-0
  6
CONTINUOUS
  5
541
 10
446.993824
 20
569.61893
 30
0.0
 40
1.5
 50
180.0
 51
270.0
  0
LINE
  8
LC-001-002-----0
  6
CONTINUOUS
 62
     1
  5
542
 10
445.493824
 20
587.628479
 30
0.0
 11
445.493824
 21
569.61893
 31
0.0
  0
LINE
  8
LC-001-002-----0
  6
CONTINUOUS
 62
     1
  5
543
 10
467.493824
 20
583.194179
 30
0.0
 11
469.831185
 21
544.861461
 31
0.0
  0
LINE
  8
LC-001-002-----0
  6
CONTINUOUS
 62
     1
  5
544
 10
469.858059
 20
585.496885
 30
0.0
 11
472.254565
 21
546.194179
 31
0.0
  0
LINE
  8
LC-001-002-----0
  6
CONTINUOUS
 62
     1
  5
545
 10
469.749922
 20
546.194179
 30
0.0
 11
472.254565
 21
546.194179
 31
0.0
  0
LINE
  8
LC-001-002-----0
  6
CONTINUOUS
 62
     1
  5
546
 10
472.498467
 20
542.194179
 30
0.0
 11
469.831185
 21
544.861461
 31
0.0
  0
LINE
  8
LC-001-002-----0
  6
CONTINUOUS
 62
     1
  5
547
 10
472.254565
 20
546.194179
 30
0.0
 11
474.921847
 21
543.526897
 31
0.0
  0
LINE
  8
LC-001-002-----0
  6
CONTINUOUS
 62
     1
  5
548
 10
474.921847
 20
543.526897
 30
0.0
 11
475.025672
 21
541.824166
 31
0.0
  0
ARC
  8
LC-005-002-RND-0
  6
CONTINUOUS
  5
549
 10
480.016403
 20
542.128479
 30
0.0
 40
5.0
 50
183.489325
 51
263.635301
  0
ARC
  8
LC-005-002-RND-0
  6
CONTINUOUS
  5
54A
 10
479.98919
 20
542.128479
 30
0.0
 40
7.5
 50
180.0
 51
263.651867
  0
LINE
  8
LC-001-002-----0
  6
CONTINUOUS
 62
     1
  5
54B
 10
479.46212
 20
537.159297
 30
0.0
 11
542.493824
 21
530.128479
 31
0.0
  0
LINE
  8
LC-001-002-----0
  6
CONTINUOUS
 62
     1
  5
54C
 10
479.15992
 20
534.674466
 30
0.0
 11
542.493824
 21
527.628479
 31
0.0
  0
LINE
  8
LC-001-002-----0
  6
CONTINUOUS
 62
     1
  5
54D
 10
525.493824
 20
532.02473
 30
0.0
 11
525.493824
 21
529.519753
 31
0.0
  0
LINE
  8
LC-001-002-----0
  6
CONTINUOUS
 62
     1
  5
54E
 10
529.493824
 20
531.578553
 30
0.0
 11
529.493824
 21
529.074748
 31
0.0
  0
LINE
  8
LC-001-002-----0
  6
CONTINUOUS
 62
     1
  5
54F
 10
474.493824
 20
577.194179
 30
0.0
 11
476.384068
 21
546.194179
 31
0.0
  0
LINE
  8
LC-001-002-----0
  6
CONTINUOUS
 62
     1
  5
550
 10
467.859678
 20
577.194179
 30
0.0
 11
470.364321
 21
577.194179
 31
0.0
  0
LINE
  8
LC-001-002-----0
  6
CONTINUOUS
 62
     1
  5
551
 10
482.493824
 20
577.194179
 30
0.0
 11
482.493824
 21
546.194179
 31
0.0
  0
LINE
  8
LC-001-002-----0
  6
CONTINUOUS
 62
     1
  5
552
 10
481.493824
 20
577.194179
 30
0.0
 11
481.493824
 21
546.194179
 31
0.0
  0
LINE
  8
LC-001-002-----0
  6
CONTINUOUS
 62
     1
  5
553
 10
476.384068
 20
546.194179
 30
0.0
 11
482.493824
 21
546.194179
 31
0.0
  0
LINE
  8
LC-001-002-----0
  6
CONTINUOUS
 62
     1
  5
554
 10
491.493824
 20
546.194179
 30
0.0
 11
501.493824
 21
546.194179
 31
0.0
  0
LINE
  8
LC-001-002-----0
  6
CONTINUOUS
 62
     1
  5
555
 10
491.493824
 20
577.194179
 30
0.0
 11
491.493824
 21
546.194179
 31
0.0
  0
LINE
  8
LC-001-002-----0
  6
CONTINUOUS
 62
     1
  5
556
 10
499.993824
 20
577.194179
 30
0.0
 11
499.993824
 21
546.194179
 31
0.0
  0
LINE
  8
LC-001-002-----0
  6
CONTINUOUS
 62
     1
  5
557
 10
501.493824
 20
577.194179
 30
0.0
 11
501.493824
 21
546.194179
 31
0.0
  0
LINE
  8
LC-001-002-----0
  6
CONTINUOUS
 62
     1
  5
558
 10
491.493824
 20
577.194179
 30
0.0
 11
501.493824
 21
577.194179
 31
0.0
  0
LINE
  8
LC-001-002-----0
  6
CONTINUOUS
 62
     1
  5
559
 10
511.493824
 20
577.194179
 30
0.0
 11
511.493824
 21
546.194179
 31
0.0
  0
LINE
  8
LC-001-002-----0
  6
CONTINUOUS
 62
     1
  5
55A
 10
511.493824
 20
577.194179
 30
0.0
 11
523.493824
 21
577.194179
 31
0.0
  0
LINE
  8
LC-001-002-----0
  6
CONTINUOUS
 62
     1
  5
55B
 10
521.493824
 20
577.194179
 30
0.0
 11
521.493824
 21
546.194179
 31
0.0
  0
LINE
  8
LC-001-002-----0
  6
CONTINUOUS
 62
     1
  5
55C
 10
523.493824
 20
577.194179
 30
0.0
 11
523.493824
 21
546.194179
 31
0.0
  0
LINE
  8
LC-001-002-----0
  6
CONTINUOUS
 62
     1
  5
55D
 10
511.493824
 20
546.194179
 30
0.0
 11
523.493824
 21
546.194179
 31
0.0
  0
LINE
  8
LC-001-002-----0
  6
CONTINUOUS
 62
     1
  5
55E
 10
535.493824
 20
577.194179
 30
0.0
 11
535.493824
 21
546.194179
 31
0.0
  0
LINE
  8
LC-001-002-----0
  6
CONTINUOUS
 62
     1
  5
55F
 10
535.493824
 20
546.194179
 30
0.0
 11
542.493824
 21
546.194179
 31
0.0
  0
LINE
  8
LC-001-002-----0
  6
CONTINUOUS
 62
     1
  5
560
 10
535.493824
 20
577.194179
 30
0.0
 11
542.493824
 21
577.194179
 31
0.0
  0
LINE
  8
LC-001-002-----0
  6
CONTINUOUS
 62
     1
  5
561
 10
474.493824
 20
577.194179
 30
0.0
 11
482.493824
 21
577.194179
 31
0.0
  0
LINE
  8
LC-001-002-----0
  6
CONTINUOUS
 62
     1
  5
562
 10
605.827728
 20
534.674466
 30
0.0
 11
542.493824
 21
527.628479
 31
0.0
  0
LINE
  8
LC-001-002-----0
  6
CONTINUOUS
 62
     1
  5
563
 10
605.525529
 20
537.159297
 30
0.0
 11
542.493824
 21
530.128479
 31
0.0
  0
LINE
  8
LC-001-002-----0
  6
CONTINUOUS
 62
     1
  5
564
 10
555.493824
 20
531.578553
 30
0.0
 11
555.493824
 21
529.074748
 31
0.0
  0
LINE
  8
LC-001-002-----0
  6
CONTINUOUS
 62
     1
  5
565
 10
559.493824
 20
532.02473
 30
0.0
 11
559.493824
 21
529.519753
 31
0.0
  0
ARC
  8
LC-005-002-RND-0
  6
CONTINUOUS
  5
566
 10
604.998459
 20
542.128479
 30
0.0
 40
7.5
 50
276.348133
 51
0.0
  0
ARC
  8
LC-005-002-RND-0
  6
CONTINUOUS
  5
567
 10
604.971245
 20
542.128479
 30
0.0
 40
5.0
 50
276.364699
 51
356.510675
  0
LINE
  8
LC-001-002-----0
  6
CONTINUOUS
 62
     1
  5
568
 10
612.498459
 20
542.203457
 30
0.0
 11
615.156463
 21
544.861461
 31
0.0
  0
LINE
  8
LC-001-002-----0
  6
CONTINUOUS
 62
     1
  5
569
 10
612.733083
 20
546.194179
 30
0.0
 11
610.065801
 21
543.526897
 31
0.0
  0
LINE
  8
LC-001-002-----0
  6
CONTINUOUS
 62
     1
  5
56A
 10
610.065801
 20
543.526897
 30
0.0
 11
609.961976
 21
541.824166
 31
0.0
  0
LINE
  8
LC-001-002-----0
  6
CONTINUOUS
 62
     1
  5
56B
 10
617.493824
 20
583.194179
 30
0.0
 11
615.156463
 21
544.861461
 31
0.0
  0
LINE
  8
LC-001-002-----0
  6
CONTINUOUS
 62
     1
  5
56C
 10
615.12959
 20
585.496885
 30
0.0
 11
612.733083
 21
546.194179
 31
0.0
  0
LINE
  8
LC-001-002-----0
  6
CONTINUOUS
 62
     1
  5
56D
 10
615.237727
 20
546.194179
 30
0.0
 11
612.733083
 21
546.194179
 31
0.0
  0
LINE
  8
LC-001-002-----0
  6
CONTINUOUS
 62
     1
  5
56E
 10
617.127971
 20
577.194179
 30
0.0
 11
614.623327
 21
577.194179
 31
0.0
  0
LINE
  8
LC-001-002-----0
  6
CONTINUOUS
 62
     1
  5
56F
 10
639.493824
 20
587.628479
 30
0.0
 11
616.935564
 21
587.628479
 31
0.0
  0
LINE
  8
LC-001-002-----0
  6
CONTINUOUS
 62
     1
  5
570
 10
639.493824
 20
587.628479
 30
0.0
 11
615.12959
 21
585.496885
 31
0.0
  0
LINE
  8
LC-001-002-----0
  6
CONTINUOUS
 62
     1
  5
571
 10
639.493824
 20
585.11893
 30
0.0
 11
617.493824
 21
583.194179
 31
0.0
  0
LINE
  8
LC-001-002-----0
  6
CONTINUOUS
 62
     1
  5
572
 10
639.493824
 20
587.628479
 30
0.0
 11
639.493824
 21
569.61893
 31
0.0
  0
LINE
  8
LC-001-002-----0
  6
CONTINUOUS
 62
     1
  5
573
 10
628.493824
 20
584.156554
 30
0.0
 11
632.493195
 21
569.230701
 31
0.0
  0
ARC
  8
LC-005-002-RND-0
  6
CONTINUOUS
  5
574
 10
633.942083
 20
569.61893
 30
0.0
 40
1.5
 50
195.0
 51
270.0
  0
LINE
  8
LC-001-002-----0
  6
CONTINUOUS
 62
     1
  5
575
 10
637.993824
 20
568.11893
 30
0.0
 11
633.942083
 21
568.11893
 31
0.0
  0
ARC
  8
LC-005-002-RND-0
  6
CONTINUOUS
  5
576
 10
637.993824
 20
569.61893
 30
0.0
 40
1.5
 50
270.0
 51
0.0
  0
LINE
  8
LC-001-002-----0
  6
CONTINUOUS
 62
     1
  5
577
 10
610.493824
 20
577.194179
 30
0.0
 11
602.493824
 21
577.194179
 31
0.0
  0
LINE
  8
LC-001-002-----0
  6
CONTINUOUS
 62
     1
  5
578
 10
610.493824
 20
577.194179
 30
0.0
 11
608.60358
 21
546.194179
 31
0.0
  0
LINE
  8
LC-001-002-----0
  6
CONTINUOUS
 62
     1
  5
579
 10
603.493824
 20
577.194179
 30
0.0
 11
603.493824
 21
546.194179
 31
0.0
  0
LINE
  8
LC-001-002-----0
  6
CONTINUOUS
 62
     1
  5
57A
 10
602.493824
 20
577.194179
 30
0.0
 11
602.493824
 21
546.194179
 31
0.0
  0
LINE
  8
LC-001-002-----0
  6
CONTINUOUS
 62
     1
  5
57B
 10
608.60358
 20
546.194179
 30
0.0
 11
602.493824
 21
546.194179
 31
0.0
  0
LINE
  8
LC-001-002-----0
  6
CONTINUOUS
 62
     1
  5
57C
 10
593.493824
 20
577.194179
 30
0.0
 11
593.493824
 21
546.194179
 31
0.0
  0
LINE
  8
LC-001-002-----0
  6
CONTINUOUS
 62
     1
  5
57D
 10
593.493824
 20
546.194179
 30
0.0
 11
583.493824
 21
546.194179
 31
0.0
  0
LINE
  8
LC-001-002-----0
  6
CONTINUOUS
 62
     1
  5
57E
 10
584.993824
 20
577.194179
 30
0.0
 11
584.993824
 21
546.194179
 31
0.0
  0
LINE
  8
LC-001-002-----0
  6
CONTINUOUS
 62
     1
  5
57F
 10
583.493824
 20
577.194179
 30
0.0
 11
583.493824
 21
546.194179
 31
0.0
  0
LINE
  8
LC-001-002-----0
  6
CONTINUOUS
 62
     1
  5
580
 10
593.493824
 20
577.194179
 30
0.0
 11
583.493824
 21
577.194179
 31
0.0
  0
LINE
  8
LC-001-002-----0
  6
CONTINUOUS
 62
     1
  5
581
 10
573.493824
 20
577.194179
 30
0.0
 11
573.493824
 21
546.194179
 31
0.0
  0
LINE
  8
LC-001-002-----0
  6
CONTINUOUS
 62
     1
  5
582
 10
573.493824
 20
577.194179
 30
0.0
 11
565.765594
 21
577.194179
 31
0.0
  0
LINE
  8
LC-001-002-----0
  6
CONTINUOUS
 62
     1
  5
583
 10
563.493824
 20
576.854661
 30
0.0
 11
563.493824
 21
546.194179
 31
0.0
  0
LINE
  8
LC-001-002-----0
  6
CONTINUOUS
 62
     1
  5
584
 10
561.493824
 20
576.555759
 30
0.0
 11
561.493824
 21
546.194179
 31
0.0
  0
LINE
  8
LC-001-002-----0
  6
CONTINUOUS
 62
     1
  5
585
 10
573.493824
 20
546.194179
 30
0.0
 11
561.493824
 21
546.194179
 31
0.0
  0
LINE
  8
LC-001-002-----0
  6
CONTINUOUS
 62
     1
  5
586
 10
549.493824
 20
546.194179
 30
0.0
 11
542.493824
 21
546.194179
 31
0.0
  0
LINE
  8
LC-001-002-----0
  6
CONTINUOUS
 62
     1
  5
587
 10
549.493824
 20
577.194179
 30
0.0
 11
549.493824
 21
546.194179
 31
0.0
  0
LINE
  8
LC-001-002-----0
  6
CONTINUOUS
 62
     1
  5
588
 10
549.493824
 20
577.194179
 30
0.0
 11
542.493824
 21
577.194179
 31
0.0
  0
LINE
  8
LC-001-002-----0
  6
CONTINUOUS
 62
     1
  5
589
 10
612.498459
 20
542.128479
 30
0.0
 11
612.498459
 21
542.203457
 31
0.0
  0
LINE
  8
LC-001-002-----0
  6
CONTINUOUS
 62
     1
  5
58A
 10
444.732574
 20
469.444958
 30
0.0
 11
447.794761
 21
470.265468
 31
0.0
  0
LINE
  8
LC-001-002-----0
  6
CONTINUOUS
 62
     1
  5
58B
 10
448.493824
 20
474.17752
 30
0.0
 11
448.493824
 21
472.099896
 31
0.0
  0
ARC
  8
LC-001-002-----0
  6
CONTINUOUS
 62
     1
  5
58C
 10
446.243824
 20
474.17752
 30
0.0
 40
2.25
 50
0.0
 51
180.0
  0
ARC
  8
LC-001-002-----0
  6
CONTINUOUS
 62
     1
  5
58D
 10
446.243824
 20
472.099896
 30
0.0
 40
2.25
 50
180.0
 51
0.0
  0
ARC
  8
LC-001-002-----0
  6
CONTINUOUS
 62
     1
  5
58E
 10
638.743824
 20
474.17752
 30
0.0
 40
2.25
 50
0.0
 51
180.0
  0
ARC
  8
LC-001-002-----0
  6
CONTINUOUS
 62
     1
  5
58F
 10
638.743824
 20
472.099896
 30
0.0
 40
2.25
 50
180.0
 51
0.0
  0
LINE
  8
LC-001-002-----0
  6
CONTINUOUS
 62
     1
  5
590
 10
636.462824
 20
471.216905
 30
0.0
 11
636.462824
 21
475.06051
 31
0.0
  0
LINE
  8
LC-001-002-----0
  6
CONTINUOUS
 62
     1
  5
591
 10
608.818502
 20
587.628479
 30
0.0
 11
604.657559
 21
587.628479
 31
0.0
  0
ARC
  8
LC-001-002-----0
  6
CONTINUOUS
 62
     1
  5
592
 10
555.017795
 20
577.58791
 30
0.0
 40
2.0
 50
245.607736
 51
320.392264
  0
ARC
  8
LC-001-002-----0
  6
CONTINUOUS
 62
     1
  5
593
 10
555.017795
 20
577.58791
 30
0.0
 40
4.0
 50
215.160583
 51
338.862692
  0
ARC
  8
LC-001-002-----0
  6
CONTINUOUS
 62
     1
  5
594
 10
555.017795
 20
577.58791
 30
0.0
 40
4.5
 50
210.789434
 51
342.424023
  0
LINE
  8
LC-001-002-----0
  6
CONTINUOUS
 62
     1
  5
595
 10
555.017795
 20
575.58791
 30
0.0
 11
613.68383
 21
584.355607
 31
0.0
  0
LINE
  8
LC-001-002-----0
  6
CONTINUOUS
 62
     1
  5
596
 10
474.921847
 20
543.526897
 30
0.0
 11
610.065801
 21
543.526897
 31
0.0
  0
LINE
  8
LC-001-002-----0
  6
CONTINUOUS
 62
     1
  5
597
 10
614.210937
 20
587.44549
 30
0.0
 11
616.683477
 21
587.815014
 31
0.0
  0
LINE
  8
LC-001-002-----0
  6
CONTINUOUS
 62
     1
  5
598
 10
614.506556
 20
585.467458
 30
0.0
 11
616.979096
 21
585.836982
 31
0.0
  0
LINE
  8
LC-001-002-----0
  6
CONTINUOUS
 62
     1
  5
599
 10
614.210937
 20
587.44549
 30
0.0
 11
613.099086
 21
588.268217
 31
0.0
  0
LINE
  8
LC-001-002-----0
  6
CONTINUOUS
 62
     1
  5
59A
 10
614.506556
 20
585.467458
 30
0.0
 11
613.68383
 21
584.355607
 31
0.0
  0
LINE
  8
LC-001-002-----0
  6
CONTINUOUS
 62
     1
  5
59B
 10
607.088937
 20
584.358888
 30
0.0
 11
606.793318
 21
586.33692
 31
0.0
  0
LINE
  8
LC-001-002-----0
  6
CONTINUOUS
 62
     1
  5
59C
 10
606.793318
 20
586.33692
 30
0.0
 11
607.616045
 21
587.448771
 31
0.0
  0
LINE
  8
LC-001-002-----0
  6
CONTINUOUS
 62
     1
  5
59D
 10
607.088937
 20
584.358888
 30
0.0
 11
608.200788
 21
583.536161
 31
0.0
  0
LINE
  8
LC-001-002-----0
  6
CONTINUOUS
 62
     1
  5
59E
 10
616.683477
 20
587.815014
 30
0.0
 11
617.820302
 21
586.973807
 31
0.0
  0
LINE
  8
LC-001-002-----0
  6
CONTINUOUS
 62
     1
  5
59F
 10
616.979096
 20
585.836982
 30
0.0
 11
617.820302
 21
586.973807
 31
0.0
  0
LINE
  8
LC-001-002-----0
  6
DASHDOT
  5
5A1
 10
542.493824
 20
609.28443
 30
0.0
 11
542.493824
 21
235.161947
 31
0.0
  0
LINE
  8
LC-001-002-----0
  6
CONTINUOUS
 62
     1
  5
5A2
 10
636.993824
 20
462.161947
 30
0.0
 11
632.493824
 21
462.161947
 31
0.0
  0
ARC
  8
LC-005-002-RND-0
  6
CONTINUOUS
  5
5A3
 10
636.993824
 20
466.161947
 30
0.0
 40
4.0
 50
270.0
 51
0.0
  0
LINE
  8
LC-001-002-----0
  6
CONTINUOUS
 62
     1
  5
5A4
 10
459.373135
 20
303.161947
 30
0.0
 11
462.837236
 21
297.161947
 31
0.0
  0
LINE
  8
LC-001-002-----0
  6
CONTINUOUS
 62
     1
  5
5A5
 10
421.586717
 20
472.654841
 30
0.0
 11
426.086717
 21
468.154841
 31
0.0
  0
LINE
  8
LC-001-002-----0
  6
CONTINUOUS
 62
     1
  5
5A6
 10
463.309034
 20
304.34477
 30
0.0
 11
465.146637
 21
301.161947
 31
0.0
  0
LINE
  8
LC-001-002-----0
  6
CONTINUOUS
 62
     1
  5
5A7
 10
432.293824
 20
483.861947
 30
0.0
 11
432.293824
 21
473.361947
 31
0.0
  0
LINE
  8
LC-001-002-----0
  6
CONTINUOUS
 62
     1
  5
5A8
 10
552.487037
 20
324.681677
 30
0.0
 11
553.041415
 21
321.537645
 31
0.0
  0
LINE
  8
LC-001-002-----0
  6
CONTINUOUS
 62
     1
  5
5A9
 10
443.993824
 20
466.161947
 30
0.0
 11
542.493824
 21
466.161947
 31
0.0
  0
LINE
  8
LC-001-002-----0
  6
CONTINUOUS
 62
     1
  5
5AA
 10
637.192888
 20
466.161947
 30
0.0
 11
542.493824
 21
466.161947
 31
0.0
  0
LINE
  8
LC-001-002-----0
  6
CONTINUOUS
 62
     1
  5
5AB
 10
663.400931
 20
472.654841
 30
0.0
 11
658.900931
 21
468.154841
 31
0.0
  0
LINE
  8
LC-001-002-----0
  6
CONTINUOUS
 62
     1
  5
5AC
 10
652.693824
 20
483.861947
 30
0.0
 11
652.693824
 21
473.361947
 31
0.0
  0
LINE
  8
LC-001-002-----0
  6
CONTINUOUS
 62
     1
  5
5AD
 10
640.993824
 20
466.161947
 30
0.0
 11
632.493824
 21
466.161947
 31
0.0
  0
LINE
  8
LC-001-002-----0
  6
CONTINUOUS
 62
     1
  5
5AE
 10
488.699596
 20
235.161947
 30
0.0
 11
596.288053
 21
235.161947
 31
0.0
  0
LINE
  8
LC-001-002-----0
  6
CONTINUOUS
 62
     1
  5
5AF
 10
487.493824
 20
297.161947
 30
0.0
 11
487.493824
 21
239.661947
 31
0.0
  0
LINE
  8
LC-001-002-----0
  6
CONTINUOUS
 62
     1
  5
5B0
 10
462.837236
 20
297.161947
 30
0.0
 11
487.493824
 21
297.161947
 31
0.0
  0
LINE
  8
LC-001-002-----0
  6
CONTINUOUS
 62
     1
  5
5B1
 10
491.493824
 20
301.161947
 30
0.0
 11
491.493824
 21
235.161947
 31
0.0
  0
LINE
  8
LC-001-002-----0
  6
CONTINUOUS
 62
     1
  5
5B2
 10
487.493824
 20
239.661947
 30
0.0
 11
488.699596
 21
235.161947
 31
0.0
  0
ARC
  8
LC-005-002-RND-0
  6
CONTINUOUS
  5
5B3
 10
664.693824
 20
483.861947
 30
0.0
 40
1.0
 50
90.0
 51
180.0
  0
LINE
  8
LC-001-002-----0
  6
CONTINUOUS
 62
     1
  5
5B4
 10
459.373135
 20
303.161947
 30
0.0
 11
452.493824
 21
417.161947
 31
0.0
  0
LINE
  8
LC-001-002-----0
  6
CONTINUOUS
 62
     1
  5
5B5
 10
463.309034
 20
304.34477
 30
0.0
 11
456.501074
 21
417.162385
 31
0.0
  0
ARC
  8
LC-005-002-RND-0
  6
CONTINUOUS
  5
5B6
 10
420.293824
 20
483.861947
 30
0.0
 40
1.0
 50
0.0
 51
90.0
  0
LINE
  8
LC-001-002-----0
  6
CONTINUOUS
 62
     1
  5
5B7
 10
452.493824
 20
427.161947
 30
0.0
 11
452.493824
 21
417.161947
 31
0.0
  0
LINE
  8
LC-001-002-----0
  6
CONTINUOUS
 62
     1
  5
5B8
 10
456.493824
 20
431.161947
 30
0.0
 11
456.493824
 21
417.161947
 31
0.0
  0
LINE
  8
LC-001-002-----0
  6
CONTINUOUS
 62
     1
  5
5B9
 10
462.993824
 20
429.661947
 30
0.0
 11
462.993824
 21
418.79293
 31
0.0
  0
LINE
  8
LC-001-002-----0
  6
CONTINUOUS
 62
     1
  5
5BA
 10
459.993824
 20
418.661947
 30
0.0
 11
465.494414
 21
355.789915
 31
0.0
  0
LINE
  8
LC-001-002-----0
  6
CONTINUOUS
 62
     1
  5
5BB
 10
462.993824
 20
418.79293
 30
0.0
 11
468.482998
 21
356.051382
 31
0.0
  0
LINE
  8
LC-001-002-----0
  6
CONTINUOUS
 62
     1
  5
5BC
 10
546.021872
 20
412.840213
 30
0.0
 11
546.169885
 21
412.830128
 31
0.0
  0
ARC
  8
LC-001-002-----0
  6
CONTINUOUS
 62
     1
  5
5BD
 10
538.121413
 20
416.572866
 30
0.0
 40
8.333581
 50
295.240372
 51
330.42979
  0
ARC
  8
LC-005-002-RND-0
  6
CONTINUOUS
  5
5BE
 10
490.399282
 20
357.968809
 30
0.0
 40
25.0
 50
185.0
 51
260.0
  0
ARC
  8
LC-005-002-RND-0
  6
CONTINUOUS
  5
5BF
 10
490.399282
 20
357.968809
 30
0.0
 40
22.0
 50
185.0
 51
260.0
  0
LINE
  8
LC-001-002-----0
  6
CONTINUOUS
 62
     1
  5
5C0
 10
486.058077
 20
333.348615
 30
0.0
 11
553.041415
 21
321.537645
 31
0.0
  0
LINE
  8
LC-001-002-----0
  6
CONTINUOUS
 62
     1
  5
5C1
 10
486.579022
 20
336.303038
 30
0.0
 11
552.487037
 21
324.681677
 31
0.0
  0
LINE
  8
LC-001-002-----0
  6
CONTINUOUS
 62
     1
  5
5C2
 10
553.601484
 20
321.24072
 30
0.0
 11
537.973148
 21
409.873418
 31
0.0
  0
ARC
  8
LC-005-002-RND-0
  6
CONTINUOUS
  5
5C3
 10
542.735744
 20
407.337261
 30
0.0
 40
10.0
 50
93.0
 51
170.0
  0
LINE
  8
LC-001-002-----0
  6
CONTINUOUS
 62
     1
  5
5C4
 10
531.843698
 20
403.153105
 30
0.0
 11
532.887667
 21
409.073742
 31
0.0
  0
ARC
  8
LC-005-002-RND-0
  6
CONTINUOUS
  5
5C5
 10
542.735744
 20
407.337261
 30
0.0
 40
7.0
 50
93.0
 51
170.0
  0
LINE
  8
LC-001-002-----0
  6
CONTINUOUS
 62
     1
  5
5C6
 10
535.3169
 20
405.574299
 30
0.0
 11
535.84209
 21
408.552798
 31
0.0
  0
LINE
  8
LC-001-002-----0
  6
CONTINUOUS
 62
     1
  5
5C7
 10
531.855587
 20
403.151009
 30
0.0
 11
539.392832
 21
401.821989
 31
0.0
  0
ARC
  8
LC-001-002-----0
  6
CONTINUOUS
 62
     1
  5
5C8
 10
537.516053
 20
415.239362
 30
0.0
 40
9.900108
 50
297.751064
 51
340.960298
  0
ARC
  8
LC-001-002-----0
  6
CONTINUOUS
 62
     1
  5
5C9
 10
538.121413
 20
416.572866
 30
0.0
 40
8.333581
 50
254.215261
 51
270.960321
  0
ARC
  8
LC-001-002-----0
  6
CONTINUOUS
 62
     1
  5
5CA
 10
537.516053
 20
415.239362
 30
0.0
 40
9.900108
 50
257.247905
 51
277.211487
  0
ARC
  8
LC-001-002-----0
  6
DASHED
  5
5CB
 10
537.516053
 20
415.239362
 30
0.0
 40
9.900108
 50
277.211487
 51
297.751064
  0
CIRCLE
  8
LC-001-002-----0
  6
CONTINUOUS
 62
     1
  5
5CC
 10
539.696562
 20
410.177302
 30
0.0
 40
1.75
  0
LINE
  8
LC-001-002-----0
  6
DASHDOT
  5
5CD
 10
538.006191
 20
409.724369
 30
0.0
 11
541.386932
 21
410.630235
 31
0.0
  0
LINE
  8
LC-001-002-----0
  6
DASHDOT
  5
5CE
 10
539.243628
 20
411.867672
 30
0.0
 11
540.149495
 21
408.486932
 31
0.0
  0
LINE
  8
LC-001-002-----0
  6
CONTINUOUS
 62
     1
  5
5CF
 10
535.3169
 20
405.574299
 30
0.0
 11
538.84076
 21
404.952947
 31
0.0
  0
LINE
  8
LC-001-002-----0
  6
CONTINUOUS
 62
     1
  5
5D0
 10
593.493824
 20
301.161947
 30
0.0
 11
593.493824
 21
235.161947
 31
0.0
  0
LINE
  8
LC-001-002-----0
  6
CONTINUOUS
 62
     1
  5
5D1
 10
597.493824
 20
297.161947
 30
0.0
 11
597.493824
 21
239.661947
 31
0.0
  0
LINE
  8
LC-001-002-----0
  6
CONTINUOUS
 62
     1
  5
5D2
 10
597.493824
 20
239.661947
 30
0.0
 11
596.288053
 21
235.161947
 31
0.0
  0
LINE
  8
LC-001-002-----0
  6
CONTINUOUS
 62
     1
  5
5D3
 10
597.493824
 20
297.161947
 30
0.0
 11
622.150412
 21
297.161947
 31
0.0
  0
LINE
  8
LC-001-002-----0
  6
CONTINUOUS
 62
     1
  5
5D4
 10
465.146637
 20
301.161947
 30
0.0
 11
619.841011
 21
301.161947
 31
0.0
  0
LINE
  8
LC-001-002-----0
  6
CONTINUOUS
 62
     1
  5
5D5
 10
625.614514
 20
303.161947
 30
0.0
 11
632.493824
 21
417.161947
 31
0.0
  0
LINE
  8
LC-001-002-----0
  6
CONTINUOUS
 62
     1
  5
5D6
 10
621.678615
 20
304.34477
 30
0.0
 11
628.501087
 21
417.402888
 31
0.0
  0
ARC
  8
LC-005-002-RND-0
  6
CONTINUOUS
  5
5D7
 10
422.293824
 20
473.361947
 30
0.0
 40
1.0
 50
180.0
 51
225.0
  0
LINE
  8
LC-001-002-----0
  6
CONTINUOUS
 62
     1
  5
5D8
 10
557.048311
 20
321.848488
 30
0.0
 11
541.419975
 21
410.481186
 31
0.0
  0
ARC
  8
LC-005-002-RND-0
  6
CONTINUOUS
  5
5D9
 10
546.104519
 20
412.082982
 30
0.0
 40
0.75
 50
339.820923
 51
85.0
  0
LINE
  8
LC-001-002-----0
  6
CONTINUOUS
 62
     1
  5
5DA
 10
553.601484
 20
321.24072
 30
0.0
 11
557.048311
 21
321.848488
 31
0.0
  0
LINE
  8
LC-001-002-----0
  6
CONTINUOUS
 62
     1
  5
5DB
 10
424.593824
 20
473.890374
 30
0.0
 11
426.793824
 21
471.690374
 31
0.0
  0
LINE
  8
LC-001-002-----0
  6
CONTINUOUS
 62
     1
  5
5DC
 10
420.293824
 20
484.861947
 30
0.0
 11
419.368321
 21
484.861947
 31
0.0
  0
ARC
  8
LC-005-002-RND-0
  6
CONTINUOUS
  5
5DD
 10
426.793824
 20
468.861947
 30
0.0
 40
1.0
 50
225.0
 51
315.0
  0
LINE
  8
LC-001-002-----0
  6
CONTINUOUS
 62
     1
  5
5DE
 10
428.993824
 20
473.890374
 30
0.0
 11
426.793824
 21
471.690374
 31
0.0
  0
LINE
  8
LC-001-002-----0
  6
CONTINUOUS
 62
     1
  5
5DF
 10
417.874029
 20
483.492681
 30
0.0
 11
417.588688
 21
480.231214
 31
0.0
  0
ARC
  8
LC-005-002-RND-0
  6
CONTINUOUS
  5
5E0
 10
433.293824
 20
483.861947
 30
0.0
 40
1.0
 50
90.0
 51
180.0
  0
ARC
  8
LC-005-002-RND-0
  6
CONTINUOUS
  5
5E1
 10
447.993824
 20
466.161947
 30
0.0
 40
4.0
 50
180.0
 51
270.0
  0
ARC
  8
LC-005-002-RND-0
  6
CONTINUOUS
  5
5E2
 10
447.993824
 20
466.161947
 30
0.0
 40
8.0
 50
180.0
 51
273.583322
  0
LINE
  8
LC-001-002-----0
  6
CONTINUOUS
 62
     1
  5
5E3
 10
447.993824
 20
462.161947
 30
0.0
 11
452.493824
 21
462.161947
 31
0.0
  0
LINE
  8
LC-001-002-----0
  6
CONTINUOUS
 62
     1
  5
5E4
 10
448.493824
 20
458.177588
 30
0.0
 11
448.493824
 21
431.161947
 31
0.0
  0
LINE
  8
LC-001-002-----0
  6
CONTINUOUS
 62
     1
  5
5E5
 10
452.493824
 20
466.161947
 30
0.0
 11
452.493824
 21
431.161947
 31
0.0
  0
LINE
  8
LC-001-002-----0
  6
CONTINUOUS
 62
     1
  5
5E6
 10
452.493824
 20
431.161947
 30
0.0
 11
456.493824
 21
431.161947
 31
0.0
  0
ARC
  8
LC-005-002-RND-0
  6
CONTINUOUS
  5
5E7
 10
452.493824
 20
431.161947
 30
0.0
 40
4.0
 50
180.0
 51
270.0
  0
LINE
  8
LC-001-002-----0
  6
CONTINUOUS
 62
     1
  5
5E8
 10
454.993824
 20
434.661947
 30
0.0
 11
611.868147
 21
434.661947
 31
0.0
  0
ARC
  8
LC-005-002-RND-0
  6
CONTINUOUS
  5
5E9
 10
454.993824
 20
433.161947
 30
0.0
 40
1.5
 50
90.0
 51
180.0
  0
ARC
  8
LC-005-002-RND-0
  6
CONTINUOUS
  5
5EA
 10
454.993824
 20
433.161947
 30
0.0
 40
1.5
 50
180.0
 51
270.0
  0
LINE
  8
LC-001-002-----0
  6
CONTINUOUS
 62
     1
  5
5EB
 10
454.993824
 20
431.661947
 30
0.0
 11
457.243824
 21
431.661947
 31
0.0
  0
LINE
  8
LC-001-002-----0
  6
CONTINUOUS
 62
     1
  5
5EC
 10
457.243824
 20
431.661947
 30
0.0
 11
457.243824
 21
427.23501
 31
0.0
  0
LINE
  8
LC-001-002-----0
  6
CONTINUOUS
 62
     1
  5
5ED
 10
460.493824
 20
426.661947
 30
0.0
 11
457.243824
 21
427.23501
 31
0.0
  0
LINE
  8
LC-001-002-----0
  6
CONTINUOUS
 62
     1
  5
5EE
 10
460.493824
 20
426.661947
 30
0.0
 11
460.493824
 21
421.661947
 31
0.0
  0
LINE
  8
LC-001-002-----0
  6
CONTINUOUS
 62
     1
  5
5EF
 10
460.493824
 20
421.661947
 30
0.0
 11
457.243824
 21
421.088885
 31
0.0
  0
LINE
  8
LC-001-002-----0
  6
CONTINUOUS
 62
     1
  5
5F0
 10
457.243824
 20
421.088885
 30
0.0
 11
457.243824
 21
418.661947
 31
0.0
  0
LINE
  8
LC-001-002-----0
  6
CONTINUOUS
 62
     1
  5
5F1
 10
457.243824
 20
418.661947
 30
0.0
 11
459.993824
 21
418.661947
 31
0.0
  0
ARC
  8
LC-001-002-----0
  6
CONTINUOUS
 62
     1
  5
5F2
 10
458.493824
 20
423.309293
 30
0.0
 40
2.0
 50
180.0
 51
0.0
  0
ARC
  8
LC-001-002-----0
  6
CONTINUOUS
 62
     1
  5
5F3
 10
458.493824
 20
425.014601
 30
0.0
 40
2.0
 50
0.0
 51
180.0
  0
LINE
  8
LC-001-002-----0
  6
CONTINUOUS
 62
     1
  5
5F4
 10
462.993824
 20
429.661947
 30
0.0
 11
457.993824
 21
434.661947
 31
0.0
  0
ARC
  8
LC-005-002-RND-0
  6
CONTINUOUS
  5
5F5
 10
419.368321
 20
483.361947
 30
0.0
 40
1.5
 50
90.0
 51
175.0
  0
LINE
  8
LC-001-002-----0
  6
CONTINUOUS
 62
     1
  5
5F6
 10
416.094396
 20
478.861947
 30
0.0
 11
406.893253
 21
478.861947
 31
0.0
  0
LINE
  8
LC-001-002-----0
  6
CONTINUOUS
 62
     1
  5
5F7
 10
462.993824
 20
429.661947
 30
0.0
 11
600.834206
 21
429.661947
 31
0.0
  0
ARC
  8
LC-005-002-RND-0
  6
CONTINUOUS
  5
5F8
 10
403.619328
 20
483.361947
 30
0.0
 40
1.5
 50
5.0
 51
90.0
  0
LINE
  8
LC-001-002-----0
  6
CONTINUOUS
 62
     1
  5
5F9
 10
625.150832
 20
418.666059
 30
0.0
 11
542.369392
 21
414.327667
 31
0.0
  0
LINE
  8
LC-001-002-----0
  6
CONTINUOUS
 62
     1
  5
5FA
 10
621.993824
 20
421.504724
 30
0.0
 11
542.212385
 21
417.323556
 31
0.0
  0
LINE
  8
LC-001-002-----0
  6
CONTINUOUS
 62
     1
  5
5FB
 10
621.993824
 20
429.661947
 30
0.0
 11
621.993824
 21
421.504724
 31
0.0
  0
LINE
  8
LC-001-002-----0
  6
CONTINUOUS
 62
     1
  5
5FC
 10
600.834206
 20
429.661947
 30
0.0
 11
621.993824
 21
429.661947
 31
0.0
  0
LINE
  8
LC-001-002-----0
  6
CONTINUOUS
 62
     1
  5
5FD
 10
611.868147
 20
434.661947
 30
0.0
 11
622.993824
 21
434.661947
 31
0.0
  0
LINE
  8
LC-001-002-----0
  6
CONTINUOUS
 62
     1
  5
5FE
 10
621.993824
 20
429.661947
 30
0.0
 11
626.993824
 21
434.661947
 31
0.0
  0
LINE
  8
LC-001-002-----0
  6
CONTINUOUS
 62
     1
  5
5FF
 10
629.993824
 20
434.661947
 30
0.0
 11
622.993824
 21
434.661947
 31
0.0
  0
ARC
  8
LC-005-002-RND-0
  6
CONTINUOUS
  5
600
 10
629.993824
 20
433.161947
 30
0.0
 40
1.5
 50
0.0
 51
90.0
  0
ARC
  8
LC-005-002-RND-0
  6
CONTINUOUS
  5
601
 10
629.993824
 20
433.161947
 30
0.0
 40
1.5
 50
270.0
 51
0.0
  0
LINE
  8
LC-001-002-----0
  6
CONTINUOUS
 62
     1
  5
602
 10
627.743824
 20
431.661947
 30
0.0
 11
629.993824
 21
431.661947
 31
0.0
  0
LINE
  8
LC-001-002-----0
  6
CONTINUOUS
 62
     1
  5
603
 10
627.743824
 20
431.661947
 30
0.0
 11
627.743824
 21
427.23501
 31
0.0
  0
LINE
  8
LC-001-002-----0
  6
CONTINUOUS
 62
     1
  5
604
 10
624.493824
 20
426.661947
 30
0.0
 11
627.743824
 21
427.23501
 31
0.0
  0
LINE
  8
LC-001-002-----0
  6
CONTINUOUS
 62
     1
  5
605
 10
624.493824
 20
426.661947
 30
0.0
 11
624.493824
 21
421.661947
 31
0.0
  0
LINE
  8
LC-001-002-----0
  6
CONTINUOUS
 62
     1
  5
606
 10
624.493824
 20
421.661947
 30
0.0
 11
627.743824
 21
421.088885
 31
0.0
  0
LINE
  8
LC-001-002-----0
  6
CONTINUOUS
 62
     1
  5
607
 10
627.743824
 20
421.088885
 30
0.0
 11
627.743824
 21
418.661947
 31
0.0
  0
LINE
  8
LC-001-002-----0
  6
CONTINUOUS
 62
     1
  5
608
 10
627.743824
 20
418.661947
 30
0.0
 11
625.072382
 21
418.661947
 31
0.0
  0
ARC
  8
LC-001-002-----0
  6
CONTINUOUS
 62
     1
  5
609
 10
626.493824
 20
425.014601
 30
0.0
 40
2.0
 50
0.0
 51
180.0
  0
ARC
  8
LC-001-002-----0
  6
CONTINUOUS
 62
     1
  5
60A
 10
626.493824
 20
423.309293
 30
0.0
 40
2.0
 50
180.0
 51
0.0
  0
ARC
  8
LC-005-002-RND-0
  6
CONTINUOUS
  5
60B
 10
662.693824
 20
473.361947
 30
0.0
 40
1.0
 50
315.0
 51
0.0
  0
LINE
  8
LC-001-002-----0
  6
CONTINUOUS
 62
     1
  5
60C
 10
660.393824
 20
473.890374
 30
0.0
 11
658.193824
 21
471.690374
 31
0.0
  0
LINE
  8
LC-001-002-----0
  6
CONTINUOUS
 62
     1
  5
60D
 10
664.693824
 20
484.861947
 30
0.0
 11
665.619328
 21
484.861947
 31
0.0
  0
ARC
  8
LC-005-002-RND-0
  6
CONTINUOUS
  5
60E
 10
658.193824
 20
468.861947
 30
0.0
 40
1.0
 50
225.0
 51
315.0
  0
LINE
  8
LC-001-002-----0
  6
CONTINUOUS
 62
     1
  5
60F
 10
655.993824
 20
473.890374
 30
0.0
 11
658.193824
 21
471.690374
 31
0.0
  0
LINE
  8
LC-001-002-----0
  6
CONTINUOUS
 62
     1
  5
610
 10
667.11362
 20
483.492681
 30
0.0
 11
667.398961
 21
480.231214
 31
0.0
  0
ARC
  8
LC-005-002-RND-0
  6
CONTINUOUS
  5
611
 10
651.693824
 20
483.861947
 30
0.0
 40
1.0
 50
0.0
 51
90.0
  0
LINE
  8
LC-001-002-----0
  6
CONTINUOUS
 62
     1
  5
612
 10
632.493824
 20
466.161947
 30
0.0
 11
632.493824
 21
431.161947
 31
0.0
  0
LINE
  8
LC-001-002-----0
  6
CONTINUOUS
 62
     1
  5
613
 10
636.493824
 20
458.177588
 30
0.0
 11
636.493824
 21
431.161947
 31
0.0
  0
ARC
  8
LC-005-002-RND-0
  6
CONTINUOUS
  5
614
 10
636.993824
 20
466.161947
 30
0.0
 40
8.0
 50
266.416678
 51
0.0
  0
ARC
  8
LC-005-002-RND-0
  6
CONTINUOUS
  5
615
 10
632.493824
 20
431.161947
 30
0.0
 40
4.0
 50
270.0
 51
0.0
  0
LINE
  8
LC-001-002-----0
  6
CONTINUOUS
 62
     1
  5
616
 10
632.493824
 20
431.161947
 30
0.0
 11
628.493824
 21
431.161947
 31
0.0
  0
LINE
  8
LC-001-002-----0
  6
CONTINUOUS
 62
     1
  5
617
 10
632.493824
 20
427.161947
 30
0.0
 11
632.493824
 21
417.161947
 31
0.0
  0
LINE
  8
LC-001-002-----0
  6
CONTINUOUS
 62
     1
  5
618
 10
628.493824
 20
431.161947
 30
0.0
 11
628.493824
 21
417.161947
 31
0.0
  0
ARC
  8
LC-005-002-RND-0
  6
CONTINUOUS
  5
619
 10
665.619328
 20
483.361947
 30
0.0
 40
1.5
 50
5.0
 51
90.0
  0
LINE
  8
LC-001-002-----0
  6
CONTINUOUS
 62
     1
  5
61A
 10
668.893253
 20
478.861947
 30
0.0
 11
678.094396
 21
478.861947
 31
0.0
  0
ARC
  8
LC-005-002-RND-0
  6
CONTINUOUS
  5
61B
 10
681.368321
 20
483.361947
 30
0.0
 40
1.5
 50
90.0
 51
175.0
  0
LINE
  8
LC-001-002-----0
  6
CONTINUOUS
 62
     1
  5
61C
 10
384.493824
 20
486.977871
 30
0.0
 11
384.493824
 21
490.366035
 31
0.0
  0
LINE
  8
LC-001-002-----0
  6
CONTINUOUS
 62
     1
  5
61D
 10
700.493824
 20
486.977871
 30
0.0
 11
700.493824
 21
490.366035
 31
0.0
  0
LINE
  8
LC-001-002-----0
  6
CONTINUOUS
 62
     1
  5
61E
 10
669.993824
 20
482.661947
 30
0.0
 11
676.993824
 21
482.661947
 31
0.0
  0
LINE
  8
LC-001-002-----0
  6
CONTINUOUS
 62
     1
  5
61F
 10
676.993824
 20
488.161947
 30
0.0
 11
676.993824
 21
482.661947
 31
0.0
  0
LINE
  8
LC-001-002-----0
  6
CONTINUOUS
 62
     1
  5
620
 10
669.993824
 20
488.161947
 30
0.0
 11
669.993824
 21
482.661947
 31
0.0
  0
LINE
  8
LC-001-002-----0
  6
CONTINUOUS
 62
     1
  5
621
 10
687.993824
 20
488.161947
 30
0.0
 11
655.993824
 21
488.161947
 31
0.0
  0
LINE
  8
LC-001-002-----0
  6
CONTINUOUS
 62
     1
  5
622
 10
688.493824
 20
484.861947
 30
0.0
 11
681.368321
 21
484.861947
 31
0.0
  0
ARC
  8
LC-005-002-RND-0
  6
CONTINUOUS
  5
623
 10
678.094396
 20
480.361947
 30
0.0
 40
1.5
 50
270.0
 51
355.0
  0
LINE
  8
LC-001-002-----0
  6
CONTINUOUS
 62
     1
  5
624
 10
663.693824
 20
483.861947
 30
0.0
 11
663.693824
 21
473.361947
 31
0.0
  0
LINE
  8
LC-001-002-----0
  6
CONTINUOUS
 62
     1
  5
625
 10
679.874029
 20
483.492681
 30
0.0
 11
679.588688
 21
480.231214
 31
0.0
  0
ARC
  8
LC-005-002-RND-0
  6
CONTINUOUS
  5
626
 10
653.693824
 20
473.361947
 30
0.0
 40
1.0
 50
180.0
 51
225.0
  0
ARC
  8
LC-005-002-RND-0
  6
CONTINUOUS
  5
627
 10
668.893253
 20
480.361947
 30
0.0
 40
1.5
 50
185.0
 51
270.0
  0
LINE
  8
LC-001-002-----0
  6
CONTINUOUS
 62
     1
  5
628
 10
625.614514
 20
303.161947
 30
0.0
 11
622.150412
 21
297.161947
 31
0.0
  0
LINE
  8
LC-001-002-----0
  6
CONTINUOUS
 62
     1
  5
629
 10
621.678615
 20
304.34477
 30
0.0
 11
619.841011
 21
301.161947
 31
0.0
  0
LINE
  8
LC-001-002-----0
  6
CONTINUOUS
 62
     1
  5
62A
 10
414.993824
 20
482.661947
 30
0.0
 11
407.993824
 21
482.661947
 31
0.0
  0
LINE
  8
LC-001-002-----0
  6
CONTINUOUS
 62
     1
  5
62B
 10
407.993824
 20
488.161947
 30
0.0
 11
407.993824
 21
482.661947
 31
0.0
  0
LINE
  8
LC-001-002-----0
  6
CONTINUOUS
 62
     1
  5
62C
 10
414.993824
 20
488.161947
 30
0.0
 11
414.993824
 21
482.661947
 31
0.0
  0
LINE
  8
LC-001-002-----0
  6
CONTINUOUS
 62
     1
  5
62D
 10
396.993824
 20
488.161947
 30
0.0
 11
428.993824
 21
488.161947
 31
0.0
  0
LINE
  8
LC-001-002-----0
  6
CONTINUOUS
 62
     1
  5
62E
 10
652.986717
 20
472.654841
 30
0.0
 11
657.486717
 21
468.154841
 31
0.0
  0
LINE
  8
LC-001-002-----0
  6
CONTINUOUS
 62
     1
  5
62F
 10
396.493824
 20
484.861947
 30
0.0
 11
403.619328
 21
484.861947
 31
0.0
  0
ARC
  8
LC-005-002-RND-0
  6
CONTINUOUS
  5
630
 10
406.893253
 20
480.361947
 30
0.0
 40
1.5
 50
185.0
 51
270.0
  0
LINE
  8
LC-001-002-----0
  6
CONTINUOUS
 62
     1
  5
631
 10
421.293824
 20
483.861947
 30
0.0
 11
421.293824
 21
473.361947
 31
0.0
  0
LINE
  8
LC-001-002-----0
  6
CONTINUOUS
 62
     1
  5
632
 10
405.11362
 20
483.492681
 30
0.0
 11
405.398961
 21
480.231214
 31
0.0
  0
ARC
  8
LC-005-002-RND-0
  6
CONTINUOUS
  5
633
 10
431.293824
 20
473.361947
 30
0.0
 40
1.0
 50
315.0
 51
0.0
  0
ARC
  8
LC-005-002-RND-0
  6
CONTINUOUS
  5
634
 10
416.094396
 20
480.361947
 30
0.0
 40
1.5
 50
270.0
 51
355.0
  0
LINE
  8
LC-001-002-----0
  6
CONTINUOUS
 62
     1
  5
635
 10
432.000931
 20
472.654841
 30
0.0
 11
427.500931
 21
468.154841
 31
0.0
  0
LINE
  8
LC-001-002-----0
  6
CONTINUOUS
 62
     1
  5
636
 10
433.293824
 20
484.861947
 30
0.0
 11
438.493824
 21
484.861947
 31
0.0
  0
LINE
  8
LC-001-002-----0
  6
CONTINUOUS
 62
     1
  5
637
 10
651.693824
 20
484.861947
 30
0.0
 11
646.493824
 21
484.861947
 31
0.0
  0
ARC
  8
LC-005-002-RND-0
  6
CONTINUOUS
  5
638
 10
438.493824
 20
483.361947
 30
0.0
 40
1.5
 50
0.0
 51
90.0
  0
LINE
  8
LC-001-002-----0
  6
CONTINUOUS
 62
     1
  5
639
 10
439.993824
 20
483.361947
 30
0.0
 11
439.993824
 21
466.161947
 31
0.0
  0
ARC
  8
LC-005-002-RND-0
  6
CONTINUOUS
  5
63A
 10
646.493824
 20
483.361947
 30
0.0
 40
1.5
 50
90.0
 51
180.0
  0
LINE
  8
LC-001-002-----0
  6
CONTINUOUS
 62
     1
  5
63B
 10
644.993824
 20
483.361947
 30
0.0
 11
644.993824
 21
466.161947
 31
0.0
  0
LINE
  8
LC-001-002-----0
  6
CONTINUOUS
 62
     1
  5
63C
 10
428.993824
 20
488.161947
 30
0.0
 11
443.993824
 21
488.161947
 31
0.0
  0
LINE
  8
LC-001-002-----0
  6
CONTINUOUS
 62
     1
  5
63D
 10
396.493824
 20
484.861947
 30
0.0
 11
384.493824
 21
486.977871
 31
0.0
  0
LINE
  8
LC-001-002-----0
  6
CONTINUOUS
 62
     1
  5
63E
 10
687.493824
 20
484.861947
 30
0.0
 11
636.493824
 21
433.861947
 31
0.0
  0
LINE
  8
LC-001-002-----0
  6
CONTINUOUS
 62
     1
  5
63F
 10
655.993824
 20
488.161947
 30
0.0
 11
640.993824
 21
488.161947
 31
0.0
  0
LINE
  8
LC-001-002-----0
  6
CONTINUOUS
 62
     1
  5
640
 10
688.493824
 20
484.861947
 30
0.0
 11
700.493824
 21
486.977871
 31
0.0
  0
LINE
  8
LC-001-002-----0
  6
CONTINUOUS
 62
     1
  5
641
 10
452.493824
 20
462.161947
 30
0.0
 11
632.493824
 21
462.161947
 31
0.0
  0
LINE
  8
LC-001-002-----0
  6
CONTINUOUS
 62
     1
  5
642
 10
397.493824
 20
484.861947
 30
0.0
 11
448.493824
 21
433.861947
 31
0.0
  0
LINE
  8
LC-001-002-----0
  6
CONTINUOUS
  5
643
 10
492.893538
 20
652.539038
 30
0.0
 11
507.893538
 21
652.539038
 31
0.0
  0
LINE
  8
LC-001-002-----0
  6
CONTINUOUS
  5
644
 10
492.893538
 20
667.539038
 30
0.0
 11
492.893538
 21
652.539038
 31
0.0
  0
LINE
  8
LC-001-002-----0
  6
CONTINUOUS
 62
     1
  5
645
 10
396.993824
 20
488.161947
 30
0.0
 11
384.493824
 21
490.366035
 31
0.0
  0
LINE
  8
LC-001-002-----0
  6
DASHDOT
  5
646
 10
411.493824
 20
488.161947
 30
0.0
 11
411.493824
 21
482.661947
 31
0.0
  0
LINE
  8
LC-001-002-----0
  6
CONTINUOUS
 62
     1
  5
647
 10
424.593824
 20
488.161947
 30
0.0
 11
424.593824
 21
473.890374
 31
0.0
  0
LINE
  8
LC-008-061-----0
  5
649
 10
426.793824
 20
488.161947
 30
0.0
 11
426.793824
 21
471.690374
 31
0.0
  0
LINE
  8
LC-001-002-----0
  6
CONTINUOUS
 62
     1
  5
64A
 10
428.993824
 20
488.161947
 30
0.0
 11
428.993824
 21
473.890374
 31
0.0
  0
LINE
  8
LC-001-002-----0
  6
CONTINUOUS
 62
     1
  5
64B
 10
443.993824
 20
466.161947
 30
0.0
 11
443.993824
 21
488.161947
 31
0.0
  0
LINE
  8
LC-001-002-----0
  6
CONTINUOUS
 62
     1
  5
64C
 10
424.593824
 20
473.890374
 30
0.0
 11
428.993824
 21
473.890374
 31
0.0
  0
LINE
  8
LC-001-002-----0
  6
CONTINUOUS
 62
     1
  5
64D
 10
687.993824
 20
488.161947
 30
0.0
 11
700.493824
 21
490.366035
 31
0.0
  0
LINE
  8
LC-001-002-----0
  6
DASHDOT
  5
64E
 10
673.493824
 20
488.161947
 30
0.0
 11
673.493824
 21
482.661947
 31
0.0
  0
LINE
  8
LC-001-002-----0
  6
CONTINUOUS
 62
     1
  5
64F
 10
660.393824
 20
488.161947
 30
0.0
 11
660.393824
 21
473.890374
 31
0.0
  0
LINE
  8
LC-001-002-----0
  6
DASHDOT
  5
650
 10
658.193824
 20
488.161947
 30
0.0
 11
658.193824
 21
467.861947
 31
0.0
  0
LINE
  8
LC-001-002-----0
  6
CONTINUOUS
 62
     1
  5
651
 10
655.993824
 20
488.161947
 30
0.0
 11
655.993824
 21
473.890374
 31
0.0
  0
LINE
  8
LC-001-002-----0
  6
CONTINUOUS
 62
     1
  5
652
 10
640.993824
 20
466.161947
 30
0.0
 11
640.993824
 21
488.161947
 31
0.0
  0
LINE
  8
LC-001-002-----0
  6
CONTINUOUS
 62
     1
  5
653
 10
655.993824
 20
473.890374
 30
0.0
 11
660.393824
 21
473.890374
 31
0.0
  0
ARC
  8
LC-001-002-----0
  6
CONTINUOUS
 62
     1
  5
654
 10
546.04785
 20
412.043296
 30
0.0
 40
0.79624
 50
91.867095
 51
148.415561
  0
LINE
  8
LC-001-002-----0
  6
CONTINUOUS
 62
     1
  5
655
 10
542.497454
 20
575.28443
 30
0.0
 11
552.104056
 21
575.28443
 31
0.0
  0
LINE
  8
LC-001-002-----0
  6
CONTINUOUS
 62
     1
  5
656
 10
605.496083
 20
609.28443
 30
0.0
 11
479.491565
 21
609.28443
 31
0.0
  0
LINE
  8
LC-001-002-----0
  6
CONTINUOUS
 62
     1
  5
657
 10
532.890852
 20
575.28443
 30
0.0
 11
480.33009
 21
587.419038
 31
0.0
  0
LINE
  8
LC-001-002-----0
  6
CONTINUOUS
 62
     1
  5
658
 10
532.890852
 20
575.28443
 30
0.0
 11
542.497454
 21
575.28443
 31
0.0
  0
LINE
  8
LC-001-002-----0
  6
CONTINUOUS
 62
     1
  5
659
 10
653.157559
 20
591.179758
 30
0.0
 11
653.996083
 21
607.179758
 31
0.0
  0
LINE
  8
LC-001-002-----0
  6
CONTINUOUS
 62
     1
  5
65A
 10
606.654818
 20
591.179758
 30
0.0
 11
607.493342
 21
607.179758
 31
0.0
  0
LINE
  8
LC-001-002-----0
  6
CONTINUOUS
 62
     1
  5
65B
 10
637.498824
 20
607.179758
 30
0.0
 11
638.337349
 21
591.179758
 31
0.0
  0
LINE
  8
LC-001-002-----0
  6
CONTINUOUS
 62
     1
  5
65C
 10
651.998824
 20
609.28443
 30
0.0
 11
605.496083
 21
609.28443
 31
0.0
  0
LINE
  8
LC-001-002-----0
  6
CONTINUOUS
 62
     1
  5
65D
 10
640.334608
 20
589.28443
 30
0.0
 11
651.1603
 21
589.28443
 31
0.0
  0
LINE
  8
LC-001-002-----0
  6
CONTINUOUS
 62
     1
  5
65E
 10
430.998824
 20
607.179758
 30
0.0
 11
431.837349
 21
591.179758
 31
0.0
  0
LINE
  8
LC-001-002-----0
  6
CONTINUOUS
 62
     1
  5
65F
 10
479.491565
 20
609.28443
 30
0.0
 11
432.996083
 21
609.28443
 31
0.0
  0
LINE
  8
LC-001-002-----0
  6
CONTINUOUS
 62
     1
  5
660
 10
477.494306
 20
607.179758
 30
0.0
 11
478.332831
 21
591.179758
 31
0.0
  0
LINE
  8
LC-001-002-----0
  6
CONTINUOUS
 62
     1
  5
661
 10
442.655782
 20
591.179758
 30
0.0
 11
443.494306
 21
607.179758
 31
0.0
  0
LINE
  8
LC-010-100-D00-0
  6
CONTINUOUS
  5
663
 10
433.834608
 20
589.28443
 30
0.0
 11
440.658523
 21
589.28443
 31
0.0
  0
LINE
  8
LC-001-002-----0
  6
CONTINUOUS
 62
     1
  5
664
 10
440.658523
 20
589.28443
 30
0.0
 11
480.33009
 21
589.28443
 31
0.0
  0
LINE
  8
LC-001-002-----0
  6
CONTINUOUS
 62
     1
  5
665
 10
604.657559
 20
589.28443
 30
0.0
 11
640.334608
 21
589.28443
 31
0.0
  0
LINE
  8
LC-001-002-----0
  6
CONTINUOUS
 62
     1
  5
666
 10
604.657559
 20
589.28443
 30
0.0
 11
604.657559
 21
587.417362
 31
0.0
  0
LINE
  8
LC-001-002-----0
  6
CONTINUOUS
 62
     1
  5
667
 10
604.657559
 20
587.417362
 30
0.0
 11
552.104056
 21
575.28443
 31
0.0
  0
LINE
  8
LC-001-002-----0
  6
CONTINUOUS
 62
     1
  5
668
 10
480.33009
 20
589.28443
 30
0.0
 11
480.33009
 21
587.419038
 31
0.0
  0
ARC
  8
LC-001-002-----0
  6
CONTINUOUS
 62
     1
  5
669
 10
651.998824
 20
607.28443
 30
0.0
 40
2.0
 50
357.0
 51
90.0
  0
ARC
  8
LC-001-002-----0
  6
CONTINUOUS
 62
     1
  5
66A
 10
651.1603
 20
591.28443
 30
0.0
 40
2.0
 50
270.0
 51
357.0
  0
ARC
  8
LC-001-002-----0
  6
CONTINUOUS
 62
     1
  5
66B
 10
605.496083
 20
607.28443
 30
0.0
 40
2.0
 50
357.0
 51
90.0
  0
ARC
  8
LC-001-002-----0
  6
CONTINUOUS
 62
     1
  5
66C
 10
604.657559
 20
591.28443
 30
0.0
 40
2.0
 50
270.0
 51
357.0
  0
ARC
  8
LC-001-002-----0
  6
CONTINUOUS
 62
     1
  5
66D
 10
639.496083
 20
607.28443
 30
0.0
 40
2.0
 50
90.0
 51
183.0
  0
ARC
  8
LC-001-002-----0
  6
CONTINUOUS
 62
     1
  5
66E
 10
640.334608
 20
591.28443
 30
0.0
 40
2.0
 50
183.0
 51
270.0
  0
ARC
  8
LC-001-002-----0
  6
CONTINUOUS
 62
     1
  5
66F
 10
432.996083
 20
607.28443
 30
0.0
 40
2.0
 50
90.0
 51
183.0
  0
ARC
  8
LC-001-002-----0
  6
CONTINUOUS
 62
     1
  5
670
 10
433.834608
 20
591.28443
 30
0.0
 40
2.0
 50
183.0
 51
270.0
  0
ARC
  8
LC-001-002-----0
  6
CONTINUOUS
 62
     1
  5
671
 10
479.491565
 20
607.28443
 30
0.0
 40
2.0
 50
90.0
 51
183.0
  0
ARC
  8
LC-001-002-----0
  6
CONTINUOUS
 62
     1
  5
672
 10
480.33009
 20
591.28443
 30
0.0
 40
2.0
 50
183.0
 51
270.0
  0
ARC
  8
LC-001-002-----0
  6
CONTINUOUS
 62
     1
  5
673
 10
441.497047
 20
607.28443
 30
0.0
 40
2.0
 50
357.0
 51
90.0
  0
ARC
  8
LC-001-002-----0
  6
CONTINUOUS
 62
     1
  5
674
 10
440.658523
 20
591.28443
 30
0.0
 40
2.0
 50
270.0
 51
357.0
  0
LINE
  8
LC-001-002-----0
  6
CONTINUOUS
 62
     1
  5
675
 10
599.612681
 20
586.25266
 30
0.0
 11
613.099086
 21
588.268217
 31
0.0
  0
ENDSEC
  0
EOF
