  0
SECTION
  2
HEADER
  9
$ACADVER
  1
AC1009
  9
$INSBASE
 10
-200.203452
 20
73.92
 30
0.0
  9
$EXTMIN
 10
-200.203452
 20
73.92
 30
0.0
  9
$EXTMAX
 10
639.796548
 20
667.92
 30
0.0
  9
$LIMMIN
 10
-200.203452
 20
73.92
  9
$LIMMAX
 10
639.796548
 20
667.92
  9
$ORTHOMODE
 70
     0
  9
$REGENMODE
 70
     1
  9
$FILLMODE
 70
     1
  9
$QTEXTMODE
 70
     0
  9
$MIRRTEXT
 70
     1
  9
$DRAGMODE
 70
     2
  9
$LTSCALE
 40
2.0
  9
$OSMODE
 70
     0
  9
$ATTMODE
 70
     1
  9
$TEXTSIZE
 40
0.2
  9
$TRACEWID
 40
0.05
  9
$TEXTSTYLE
  7
STANDARD
  9
$CLAYER
  8
0
  9
$CELTYPE
  6
BYLAYER
  9
$CECOLOR
 62
     7
  9
$DIMSCALE
 40
2.0
  9
$DIMASZ
 40
3.5
  9
$DIMEXO
 40
0.0625
  9
$DIMDLI
 40
0.38
  9
$DIMRND
 40
0.0
  9
$DIMDLE
 40
0.0
  9
$DIMEXE
 40
0.18
  9
$DIMTP
 40
0.0
  9
$DIMTM
 40
0.0
  9
$DIMTXT
 40
3.5
  9
$DIMCEN
 40
0.09
  9
$DIMTSZ
 40
0.0
  9
$DIMTOL
 70
     0
  9
$DIMLIM
 70
     0
  9
$DIMTIH
 70
     1
  9
$DIMTOH
 70
     1
  9
$DIMSE1
 70
     0
  9
$DIMSE2
 70
     0
  9
$DIMTAD
 70
     1
  9
$DIMZIN
 70
     0
  9
$DIMBLK
  1

  9
$DIMASO
 70
     1
  9
$DIMSHO
 70
     1
  9
$DIMPOST
  1

  9
$DIMAPOST
  1

  9
$DIMALT
 70
     0
  9
$DIMALTD
 70
     2
  9
$DIMALTF
 40
25.4
  9
$DIMLFAC
 40
1.0
  9
$DIMTOFL
 70
     0
  9
$DIMTVP
 40
0.0
  9
$DIMTIX
 70
     0
  9
$DIMSOXD
 70
     0
  9
$DIMSAH
 70
     0
  9
$DIMBLK1
  1

  9
$DIMBLK2
  1

  9
$DIMSTYLE
  2
STANDARD
  9
$DIMCLRD
 70
     0
  9
$DIMCLRE
 70
     0
  9
$DIMCLRT
 70
     0
  9
$DIMTFAC
 40
1.0
  9
$DIMGAP
 40
0.09
  9
$LUNITS
 70
     2
  9
$LUPREC
 70
     2
  9
$AXISMODE
 70
     0
  9
$AXISUNIT
 10
0.0
 20
0.0
  9
$SKETCHINC
 40
0.1
  9
$FILLETRAD
 40
0.0
  9
$AUNITS
 70
     0
  9
$AUPREC
 70
     0
  9
$MENU
  1
acad
  9
$ELEVATION
 40
0.0
  9
$PELEVATION
 40
0.0
  9
$THICKNESS
 40
0.0
  9
$LIMCHECK
 70
     0
  9
$BLIPMODE
 70
     1
  9
$CHAMFERA
 40
0.0
  9
$CHAMFERB
 40
0.0
  9
$SKPOLY
 70
     0
  9
$TDCREATE
 40
0.000000000
  9
$TDUPDATE
 40
0.000000000
  9
$TDINDWG
 40
0.0000000000
  9
$TDUSRTIMER
 40
0.0000000000
  9
$USRTIMER
 70
     1
  9
$ANGBASE
 50
0.0
  9
$ANGDIR
 70
     0
  9
$PDMODE
 70
     0
  9
$PDSIZE
 40
0.0
  9
$PLINEWID
 40
0.0
  9
$COORDS
 70
     0
  9
$SPLFRAME
 70
     0
  9
$SPLINETYPE
 70
     6
  9
$SPLINESEGS
 70
     8
  9
$ATTDIA
 70
     0
  9
$ATTREQ
 70
     1
  9
$HANDLING
 70
     1
  9
$HANDSEED
  5
482
  9
$SURFTAB1
 70
     6
  9
$SURFTAB2
 70
     6
  9
$SURFTYPE
 70
     6
  9
$SURFU
 70
     6
  9
$SURFV
 70
     6
  9
$UCSNAME
  2

  9
$UCSORG
 10
0.0
 20
0.0
 30
0.0
  9
$UCSXDIR
 10
1.0
 20
0.0
 30
0.0
  9
$UCSYDIR
 10
0.0
 20
1.0
 30
0.0
  9
$PUCSNAME
  2

  9
$PUCSORG
 10
0.0
 20
0.0
 30
0.0
  9
$PUCSXDIR
 10
1.0
 20
0.0
 30
0.0
  9
$PUCSYDIR
 10
0.0
 20
1.0
 30
0.0
  9
$USERI1
 70
     0
  9
$USERI2
 70
     0
  9
$USERI3
 70
     0
  9
$USERI4
 70
     0
  9
$USERI5
 70
     0
  9
$USERR1
 40
0.0
  9
$USERR2
 40
0.0
  9
$USERR3
 40
0.0
  9
$USERR4
 40
0.0
  9
$USERR5
 40
0.0
  9
$WORLDVIEW
 70
     1
  9
$SHADEDGE
 70
     3
  9
$SHADEDIF
 70
    70
  9
$TILEMODE
 70
     1
  9
$MAXACTVP
 70
    16
  9
$PINSBASE
 10
0.0
 20
0.0
 30
0.0
  9
$PLIMCHECK
 70
     0
  9
$PEXTMIN
 10
1.000000E+20
 20
1.000000E+20
 30
1.000000E+20
  9
$PEXTMAX
 10
-1.000000E+20
 20
-1.000000E+20
 30
-1.000000E+20
  9
$PLIMMIN
 10
-200.203452
 20
73.92
  9
$PLIMMAX
 10
639.796548
 20
667.92
  9
$UNITMODE
 70
     0
  9
$VISRETAIN
 70
     0
  9
$PLINEGEN
 70
     1
  9
$PSLTSCALE
 70
     0
  9
$TREEDEPTH
 70
  3020
  9
$DWGCODEPAGE
  3
dos850
  0
ENDSEC
  0
SECTION
  2
TABLES
  0
TABLE
  2
VPORT
 70
     1
  0
VPORT
  2
*ACTIVE
 70
     0
 10
0.0
 20
0.0
 11
1.0
 21
1.0
 12
420.0
 22
297.0
 13
0.0
 23
0.0
 14
1.0
 24
1.0
 15
0.0
 25
0.0
 16
0.0
 26
0.0
 36
1.0
 17
-200.203452
 27
73.92
 37
0.0
 40
594.0
 41
1.604229
 42
50.0
 43
0.0
 44
0.0
 50
0.0
 51
0.0
 71
     0
 72
   100
 73
     1
 74
     1
 75
     0
 76
     0
 77
     0
 78
     0
  0
ENDTAB
  0
TABLE
  2
LTYPE
 70
     3
  0
LTYPE
  2
CONTINUOUS
 70
    64
  3
Solid line
 72
    65
 73
     0
 40
0.0
  0
LTYPE
  2
DASHED
 70
    64
  3
__ __ __ __ __
 72
    65
 73
     2
 40
6.25
 49
5.0
 49
-1.25
  0
LTYPE
  2
DASHDOT
 70
    64
  3
__ . __ . __ . __ . __
 72
    65
 73
     4
 40
7.5
 49
5.0
 49
-1.25
 49
0.0
 49
-1.25
  0
ENDTAB
  0
TABLE
  2
LAYER
 70
    11
  0
LAYER
  2
0
 70
     0
 62
     7
  6
CONTINUOUS
  0
LAYER
  2
LC-INFO-1-2-MM-A3-0
 70
     1
 62
    -1
  6
CONTINUOUS
  0
LAYER
  2
LC-003-005-----0
 70
     0
 62
     2
  6
CONTINUOUS
  0
LAYER
  2
LC-005-003-MTH-0
 70
     0
 62
     2
  6
CONTINUOUS
  0
LAYER
  2
LC-006-003-MTG-0
 70
     0
 62
     2
  6
CONTINUOUS
  0
LAYER
  2
LC-004-003-----0
 70
     0
 62
     2
  6
CONTINUOUS
  0
LAYER
  2
LC-007-100-D02-0
 70
     0
 62
     7
  6
CONTINUOUS
  0
LAYER
  2
LC-001-002-----0
 70
     0
 62
     1
  6
CONTINUOUS
  0
LAYER
  2
LC-002-002-RND-0
 70
     0
 62
     1
  6
CONTINUOUS
  0
LAYER
  2
LC-008-100-D00-0
 70
     0
 62
     7
  6
CONTINUOUS
  0
LAYER
  2
LC-000
 70
     0
 62
     7
  6
CONTINUOUS
  0
ENDTAB
  0
TABLE
  2
STYLE
 70
     4
  0
STYLE
  2
STANDARD
 70
     0
 40
0.0
 41
1.0
 50
0.0
 71
     0
 42
0.0
  3
txt
  4

  0
STYLE
  2
LC-STANDARD
 70
    64
 40
0.0
 41
1.0
 50
0.0
 71
     0
 42
3.5
  3
MONOTXT
  4

  0
STYLE
  2
LC-TXTSTYLE-150-400-0-0-D2
 70
    64
 40
0.0
 41
1.0
 50
15.0
 71
     0
 42
3.5
  3
MONOTXT
  4

  0
STYLE
  2
LC-TXTSTYLE-150-400-0-0-D3
 70
    64
 40
0.0
 41
1.0
 50
15.0
 71
     0
 42
3.5
  3
LC-STANDARD
  4

  0
ENDTAB
  0
TABLE
  2
VIEW
 70
     0
  0
ENDTAB
  0
TABLE
  2
UCS
 70
     0
  0
ENDTAB
  0
TABLE
  2
APPID
 70
     1
  0
APPID
  2
ACAD
 70
     0
  0
ENDTAB
  0
TABLE
  2
DIMSTYLE
 70
     3
  0
DIMSTYLE
  2
STANDARD
 70
     0
  3

  4

  5

  6

  7

 40
1.0
 41
0.18
 42
0.0625
 43
0.38
 44
0.18
 45
0.0
 46
0.0
 47
0.0
 48
0.0
 71
     0
 72
     0
 73
     1
 74
     1
 75
     0
 76
     0
 77
     0
 78
     0
140
0.18
141
0.09
142
0.0
143
25.4
144
1.0
145
0.0
146
1.0
147
0.09
170
     0
171
     2
172
     0
173
     0
174
     0
175
     0
176
     0
177
     0
178
     0
  0
DIMSTYLE
  2
LC-STANDARD
 70
     0
  3

  4

  5

  6

  7

 40
1.0
 41
3.5
 42
0.0
 43
7.5
 44
1.8
 45
0.0
 46
0.0
 47
0.0
 48
0.0
 71
     0
 72
     0
 73
     0
 74
     0
 75
     0
 76
     0
 77
     1
 78
     8
140
3.5
141
0.0
142
0.0
143
25.4
144
1.0
145
0.0
146
0.71
147
1.5
170
     0
171
     2
172
     1
173
     0
174
     0
175
     0
176
     0
177
     0
178
     3
  0
DIMSTYLE
  2
LC-DIM-L-0090-02-02
 70
     0
  3

  4

  5

  6

  7

 40
2.0
 41
3.5
 42
0.0
 43
7.5
 44
1.8
 45
0.0
 46
0.0
 47
0.0
 48
0.0
 71
     0
 72
     0
 73
     0
 74
     0
 75
     0
 76
     0
 77
     1
 78
     8
140
9.0
141
0.0
142
0.0
143
25.4
144
1.0
145
0.0
146
0.71
147
1.5
170
     0
171
     2
172
     0
173
     0
174
     0
175
     0
176
     2
177
     2
178
     6
  0
ENDTAB
  0
ENDSEC
  0
SECTION
  2
BLOCKS
  0
BLOCK
  8
0
  5
23
  2
*X0
 70
    65
 10
317.567411
 20
426.13095
 30
0.0
  3
*X0
  0
LINE
  8
LC-003-005-----0
  6
CONTINUOUS
  5
25
 10
320.697991
 20
426.481166
 30
0.0
 11
321.217196
 21
427.00037
 31
0.0
  0
LINE
  8
LC-003-005-----0
  6
CONTINUOUS
  5
26
 10
320.152398
 20
426.218415
 30
0.0
 11
321.479947
 21
427.545964
 31
0.0
  0
LINE
  8
LC-003-005-----0
  6
CONTINUOUS
  5
27
 10
319.795092
 20
426.143952
 30
0.0
 11
321.554409
 21
427.903269
 31
0.0
  0
LINE
  8
LC-003-005-----0
  6
CONTINUOUS
  5
28
 10
319.509465
 20
426.141168
 30
0.0
 11
321.567411
 21
428.199114
 31
0.0
  0
LINE
  8
LC-003-005-----0
  6
CONTINUOUS
  5
29
 10
319.26902
 20
426.183565
 30
0.0
 11
321.567411
 21
428.481957
 31
0.0
  0
LINE
  8
LC-003-005-----0
  6
CONTINUOUS
  5
2A
 10
319.028574
 20
426.225962
 30
0.0
 11
321.567411
 21
428.764799
 31
0.0
  0
LINE
  8
LC-003-005-----0
  6
CONTINUOUS
  5
2B
 10
318.802692
 20
426.282923
 30
0.0
 11
321.567411
 21
429.047642
 31
0.0
  0
LINE
  8
LC-003-005-----0
  6
CONTINUOUS
  5
2C
 10
318.611247
 20
426.37432
 30
0.0
 11
321.567411
 21
429.330485
 31
0.0
  0
LINE
  8
LC-003-005-----0
  6
CONTINUOUS
  5
2D
 10
318.435893
 20
426.481809
 30
0.0
 11
321.567411
 21
429.613328
 31
0.0
  0
LINE
  8
LC-003-005-----0
  6
CONTINUOUS
  5
2E
 10
318.275468
 20
426.604227
 30
0.0
 11
321.56654
 21
429.895299
 31
0.0
  0
LINE
  8
LC-003-005-----0
  6
CONTINUOUS
  5
2F
 10
318.129371
 20
426.740972
 30
0.0
 11
321.542064
 21
430.153666
 31
0.0
  0
LINE
  8
LC-003-005-----0
  6
CONTINUOUS
  5
30
 10
317.997457
 20
426.891901
 30
0.0
 11
321.490636
 21
430.385081
 31
0.0
  0
LINE
  8
LC-003-005-----0
  6
CONTINUOUS
  5
31
 10
317.88002
 20
427.057307
 30
0.0
 11
321.417846
 21
430.595133
 31
0.0
  0
LINE
  8
LC-003-005-----0
  6
CONTINUOUS
  5
32
 10
317.777836
 20
427.237966
 30
0.0
 11
321.326943
 21
430.787073
 31
0.0
  0
LINE
  8
LC-003-005-----0
  6
CONTINUOUS
  5
33
 10
317.692302
 20
427.435274
 30
0.0
 11
321.219904
 21
430.962876
 31
0.0
  0
LINE
  8
LC-003-005-----0
  6
CONTINUOUS
  5
34
 10
317.625721
 20
427.651536
 30
0.0
 11
321.097911
 21
431.123726
 31
0.0
  0
LINE
  8
LC-003-005-----0
  6
CONTINUOUS
  5
35
 10
317.58191
 20
427.890568
 30
0.0
 11
320.961579
 21
431.270237
 31
0.0
  0
LINE
  8
LC-003-005-----0
  6
CONTINUOUS
  5
36
 10
317.567411
 20
428.158912
 30
0.0
 11
320.811066
 21
431.402567
 31
0.0
  0
LINE
  8
LC-003-005-----0
  6
CONTINUOUS
  5
37
 10
317.567411
 20
428.441755
 30
0.0
 11
320.646091
 21
431.520435
 31
0.0
  0
LINE
  8
LC-003-005-----0
  6
CONTINUOUS
  5
38
 10
317.567411
 20
428.724597
 30
0.0
 11
320.465893
 21
431.623079
 31
0.0
  0
LINE
  8
LC-003-005-----0
  6
CONTINUOUS
  5
39
 10
317.567411
 20
429.00744
 30
0.0
 11
320.269098
 21
431.709127
 31
0.0
  0
LINE
  8
LC-003-005-----0
  6
CONTINUOUS
  5
3A
 10
317.567411
 20
429.290283
 30
0.0
 11
320.053434
 21
431.776305
 31
0.0
  0
LINE
  8
LC-003-005-----0
  6
CONTINUOUS
  5
3B
 10
317.567411
 20
429.573126
 30
0.0
 11
319.815142
 21
431.820856
 31
0.0
  0
LINE
  8
LC-003-005-----0
  6
CONTINUOUS
  5
3C
 10
317.567509
 20
429.856066
 30
0.0
 11
319.543482
 21
431.832039
 31
0.0
  0
LINE
  8
LC-003-005-----0
  6
CONTINUOUS
  5
3D
 10
317.594817
 20
430.166217
 30
0.0
 11
319.20009
 21
431.77149
 31
0.0
  0
LINE
  8
LC-003-005-----0
  6
CONTINUOUS
  5
3E
 10
317.701187
 20
430.555429
 30
0.0
 11
318.84824
 21
431.702483
 31
0.0
  0
ENDBLK
  8
0
  5
3F
  0
BLOCK
  8
0
  5
41
  2
*X1
 70
    65
 10
113.567411
 20
239.983604
 30
0.0
  3
*X1
  0
LINE
  8
LC-003-005-----0
  6
CONTINUOUS
  5
42
 10
157.959218
 20
239.983604
 30
0.0
 11
159.567411
 21
241.591798
 31
0.0
  0
LINE
  8
LC-003-005-----0
  6
CONTINUOUS
  5
43
 10
156.426104
 20
241.278918
 30
0.0
 11
159.567411
 21
244.420225
 31
0.0
  0
LINE
  8
LC-003-005-----0
  6
CONTINUOUS
  5
44
 10
155.828387
 20
243.509628
 30
0.0
 11
159.567411
 21
247.248652
 31
0.0
  0
LINE
  8
LC-003-005-----0
  6
CONTINUOUS
  5
45
 10
155.567411
 20
246.077079
 30
0.0
 11
159.567411
 21
250.077079
 31
0.0
  0
LINE
  8
LC-003-005-----0
  6
CONTINUOUS
  5
46
 10
155.567411
 20
248.905507
 30
0.0
 11
159.567411
 21
252.905507
 31
0.0
  0
LINE
  8
LC-003-005-----0
  6
CONTINUOUS
  5
47
 10
155.567411
 20
251.733934
 30
0.0
 11
159.567411
 21
255.733934
 31
0.0
  0
LINE
  8
LC-003-005-----0
  6
CONTINUOUS
  5
48
 10
155.567411
 20
254.562361
 30
0.0
 11
159.567411
 21
258.562361
 31
0.0
  0
LINE
  8
LC-003-005-----0
  6
CONTINUOUS
  5
49
 10
155.567411
 20
257.390788
 30
0.0
 11
159.567411
 21
261.390788
 31
0.0
  0
LINE
  8
LC-003-005-----0
  6
CONTINUOUS
  5
4A
 10
155.567411
 20
260.219215
 30
0.0
 11
159.567411
 21
264.219215
 31
0.0
  0
LINE
  8
LC-003-005-----0
  6
CONTINUOUS
  5
4B
 10
155.567411
 20
263.047642
 30
0.0
 11
159.567411
 21
267.047642
 31
0.0
  0
LINE
  8
LC-003-005-----0
  6
CONTINUOUS
  5
4C
 10
155.567411
 20
265.876069
 30
0.0
 11
159.567411
 21
269.876069
 31
0.0
  0
LINE
  8
LC-003-005-----0
  6
CONTINUOUS
  5
4D
 10
155.567411
 20
268.704496
 30
0.0
 11
159.567411
 21
272.704496
 31
0.0
  0
LINE
  8
LC-003-005-----0
  6
CONTINUOUS
  5
4E
 10
155.567411
 20
271.532924
 30
0.0
 11
159.567411
 21
275.532924
 31
0.0
  0
LINE
  8
LC-003-005-----0
  6
CONTINUOUS
  5
4F
 10
155.567411
 20
274.361351
 30
0.0
 11
159.567411
 21
278.361351
 31
0.0
  0
LINE
  8
LC-003-005-----0
  6
CONTINUOUS
  5
50
 10
155.567411
 20
277.189778
 30
0.0
 11
159.567411
 21
281.189778
 31
0.0
  0
LINE
  8
LC-003-005-----0
  6
CONTINUOUS
  5
51
 10
155.567411
 20
280.018205
 30
0.0
 11
159.567411
 21
284.018205
 31
0.0
  0
LINE
  8
LC-003-005-----0
  6
CONTINUOUS
  5
52
 10
155.567411
 20
282.846632
 30
0.0
 11
159.567411
 21
286.846632
 31
0.0
  0
LINE
  8
LC-003-005-----0
  6
CONTINUOUS
  5
53
 10
155.567411
 20
285.675059
 30
0.0
 11
159.567411
 21
289.675059
 31
0.0
  0
LINE
  8
LC-003-005-----0
  6
CONTINUOUS
  5
54
 10
155.567411
 20
288.503486
 30
0.0
 11
159.567411
 21
292.503486
 31
0.0
  0
LINE
  8
LC-003-005-----0
  6
CONTINUOUS
  5
55
 10
155.567411
 20
291.331913
 30
0.0
 11
159.567411
 21
295.331913
 31
0.0
  0
LINE
  8
LC-003-005-----0
  6
CONTINUOUS
  5
56
 10
155.567411
 20
294.160341
 30
0.0
 11
159.567411
 21
298.160341
 31
0.0
  0
LINE
  8
LC-003-005-----0
  6
CONTINUOUS
  5
57
 10
155.567411
 20
296.988768
 30
0.0
 11
159.567411
 21
300.988768
 31
0.0
  0
LINE
  8
LC-003-005-----0
  6
CONTINUOUS
  5
58
 10
155.567411
 20
299.817195
 30
0.0
 11
159.50629
 21
303.756073
 31
0.0
  0
LINE
  8
LC-003-005-----0
  6
CONTINUOUS
  5
59
 10
155.340899
 20
302.419109
 30
0.0
 11
158.471014
 21
305.549224
 31
0.0
  0
LINE
  8
LC-003-005-----0
  6
CONTINUOUS
  5
5A
 10
154.373138
 20
304.279776
 30
0.0
 11
157.435738
 21
307.342375
 31
0.0
  0
LINE
  8
LC-003-005-----0
  6
CONTINUOUS
  5
5B
 10
153.405378
 20
306.140442
 30
0.0
 11
156.400461
 21
309.135526
 31
0.0
  0
LINE
  8
LC-003-005-----0
  6
CONTINUOUS
  5
5C
 10
152.445207
 20
308.008699
 30
0.0
 11
156.224427
 21
311.787919
 31
0.0
  0
LINE
  8
LC-003-005-----0
  6
CONTINUOUS
  5
5D
 10
152.28424
 20
310.676159
 30
0.0
 11
156.06346
 21
314.455379
 31
0.0
  0
LINE
  8
LC-003-005-----0
  6
CONTINUOUS
  5
5E
 10
152.123273
 20
313.343619
 30
0.0
 11
155.902493
 21
317.122839
 31
0.0
  0
LINE
  8
LC-003-005-----0
  6
CONTINUOUS
  5
5F
 10
151.962305
 20
316.011078
 30
0.0
 11
155.741525
 21
319.790298
 31
0.0
  0
LINE
  8
LC-003-005-----0
  6
CONTINUOUS
  5
60
 10
151.801338
 20
318.678538
 30
0.0
 11
155.580558
 21
322.457758
 31
0.0
  0
LINE
  8
LC-003-005-----0
  6
CONTINUOUS
  5
61
 10
151.64037
 20
321.345998
 30
0.0
 11
155.41959
 21
325.125218
 31
0.0
  0
LINE
  8
LC-003-005-----0
  6
CONTINUOUS
  5
62
 10
151.479403
 20
324.013458
 30
0.0
 11
155.258623
 21
327.792678
 31
0.0
  0
LINE
  8
LC-003-005-----0
  6
CONTINUOUS
  5
63
 10
151.318436
 20
326.680917
 30
0.0
 11
155.097656
 21
330.460137
 31
0.0
  0
LINE
  8
LC-003-005-----0
  6
CONTINUOUS
  5
64
 10
151.157468
 20
329.348377
 30
0.0
 11
154.936688
 21
333.127597
 31
0.0
  0
LINE
  8
LC-003-005-----0
  6
CONTINUOUS
  5
65
 10
150.996501
 20
332.015837
 30
0.0
 11
154.775721
 21
335.795057
 31
0.0
  0
LINE
  8
LC-003-005-----0
  6
CONTINUOUS
  5
66
 10
150.835533
 20
334.683297
 30
0.0
 11
154.614753
 21
338.462517
 31
0.0
  0
LINE
  8
LC-003-005-----0
  6
CONTINUOUS
  5
67
 10
150.674566
 20
337.350756
 30
0.0
 11
154.453786
 21
341.129976
 31
0.0
  0
LINE
  8
LC-003-005-----0
  6
CONTINUOUS
  5
68
 10
150.513599
 20
340.018216
 30
0.0
 11
154.292819
 21
343.797436
 31
0.0
  0
LINE
  8
LC-003-005-----0
  6
CONTINUOUS
  5
69
 10
150.352631
 20
342.685676
 30
0.0
 11
154.131851
 21
346.464896
 31
0.0
  0
LINE
  8
LC-003-005-----0
  6
CONTINUOUS
  5
6A
 10
150.191664
 20
345.353135
 30
0.0
 11
153.970884
 21
349.132355
 31
0.0
  0
LINE
  8
LC-003-005-----0
  6
CONTINUOUS
  5
6B
 10
150.030696
 20
348.020595
 30
0.0
 11
153.809916
 21
351.799815
 31
0.0
  0
LINE
  8
LC-003-005-----0
  6
CONTINUOUS
  5
6C
 10
149.869729
 20
350.688055
 30
0.0
 11
153.648949
 21
354.467275
 31
0.0
  0
LINE
  8
LC-003-005-----0
  6
CONTINUOUS
  5
6D
 10
149.708762
 20
353.355515
 30
0.0
 11
153.487982
 21
357.134735
 31
0.0
  0
LINE
  8
LC-003-005-----0
  6
CONTINUOUS
  5
6E
 10
149.547794
 20
356.022974
 30
0.0
 11
153.327014
 21
359.802194
 31
0.0
  0
LINE
  8
LC-003-005-----0
  6
CONTINUOUS
  5
6F
 10
149.386827
 20
358.690434
 30
0.0
 11
153.166047
 21
362.469654
 31
0.0
  0
LINE
  8
LC-003-005-----0
  6
CONTINUOUS
  5
70
 10
149.225859
 20
361.357894
 30
0.0
 11
153.005079
 21
365.137114
 31
0.0
  0
LINE
  8
LC-003-005-----0
  6
CONTINUOUS
  5
71
 10
149.064892
 20
364.025354
 30
0.0
 11
152.844112
 21
367.804574
 31
0.0
  0
LINE
  8
LC-003-005-----0
  6
CONTINUOUS
  5
72
 10
148.903925
 20
366.692813
 30
0.0
 11
152.683145
 21
370.472033
 31
0.0
  0
LINE
  8
LC-003-005-----0
  6
CONTINUOUS
  5
73
 10
148.742957
 20
369.360273
 30
0.0
 11
152.522177
 21
373.139493
 31
0.0
  0
LINE
  8
LC-003-005-----0
  6
CONTINUOUS
  5
74
 10
148.58199
 20
372.027733
 30
0.0
 11
152.36121
 21
375.806953
 31
0.0
  0
LINE
  8
LC-003-005-----0
  6
CONTINUOUS
  5
75
 10
148.421022
 20
374.695192
 30
0.0
 11
152.200242
 21
378.474412
 31
0.0
  0
LINE
  8
LC-003-005-----0
  6
CONTINUOUS
  5
76
 10
148.260055
 20
377.362652
 30
0.0
 11
152.039275
 21
381.141872
 31
0.0
  0
LINE
  8
LC-003-005-----0
  6
CONTINUOUS
  5
77
 10
148.099088
 20
380.030112
 30
0.0
 11
151.878308
 21
383.809332
 31
0.0
  0
LINE
  8
LC-003-005-----0
  6
CONTINUOUS
  5
78
 10
147.93812
 20
382.697572
 30
0.0
 11
151.71734
 21
386.476792
 31
0.0
  0
LINE
  8
LC-003-005-----0
  6
CONTINUOUS
  5
79
 10
147.777153
 20
385.365031
 30
0.0
 11
151.556373
 21
389.144251
 31
0.0
  0
LINE
  8
LC-003-005-----0
  6
CONTINUOUS
  5
7A
 10
147.616185
 20
388.032491
 30
0.0
 11
151.395405
 21
391.811711
 31
0.0
  0
LINE
  8
LC-003-005-----0
  6
CONTINUOUS
  5
7B
 10
147.455218
 20
390.699951
 30
0.0
 11
151.234438
 21
394.479171
 31
0.0
  0
LINE
  8
LC-003-005-----0
  6
CONTINUOUS
  5
7C
 10
147.294251
 20
393.367411
 30
0.0
 11
151.073471
 21
397.146631
 31
0.0
  0
LINE
  8
LC-003-005-----0
  6
CONTINUOUS
  5
7D
 10
147.133283
 20
396.03487
 30
0.0
 11
150.912503
 21
399.81409
 31
0.0
  0
LINE
  8
LC-003-005-----0
  6
CONTINUOUS
  5
7E
 10
146.972316
 20
398.70233
 30
0.0
 11
150.751536
 21
402.48155
 31
0.0
  0
LINE
  8
LC-003-005-----0
  6
CONTINUOUS
  5
7F
 10
146.811348
 20
401.36979
 30
0.0
 11
150.590568
 21
405.14901
 31
0.0
  0
LINE
  8
LC-003-005-----0
  6
CONTINUOUS
  5
80
 10
146.650381
 20
404.037249
 30
0.0
 11
150.429601
 21
407.816469
 31
0.0
  0
LINE
  8
LC-003-005-----0
  6
CONTINUOUS
  5
81
 10
146.489414
 20
406.704709
 30
0.0
 11
150.268634
 21
410.483929
 31
0.0
  0
LINE
  8
LC-003-005-----0
  6
CONTINUOUS
  5
82
 10
146.328446
 20
409.372169
 30
0.0
 11
150.107666
 21
413.151389
 31
0.0
  0
LINE
  8
LC-003-005-----0
  6
CONTINUOUS
  5
83
 10
146.167479
 20
412.039629
 30
0.0
 11
149.946699
 21
415.818849
 31
0.0
  0
LINE
  8
LC-003-005-----0
  6
CONTINUOUS
  5
84
 10
146.006511
 20
414.707088
 30
0.0
 11
149.785731
 21
418.486308
 31
0.0
  0
LINE
  8
LC-003-005-----0
  6
CONTINUOUS
  5
85
 10
145.845544
 20
417.374548
 30
0.0
 11
149.624764
 21
421.153768
 31
0.0
  0
LINE
  8
LC-003-005-----0
  6
CONTINUOUS
  5
86
 10
145.684577
 20
420.042008
 30
0.0
 11
149.567411
 21
423.924842
 31
0.0
  0
LINE
  8
LC-003-005-----0
  6
CONTINUOUS
  5
87
 10
145.567411
 20
422.75327
 30
0.0
 11
149.567411
 21
426.75327
 31
0.0
  0
LINE
  8
LC-003-005-----0
  6
CONTINUOUS
  5
88
 10
145.567411
 20
425.581697
 30
0.0
 11
149.567411
 21
429.581697
 31
0.0
  0
LINE
  8
LC-003-005-----0
  6
CONTINUOUS
  5
89
 10
145.567411
 20
428.410124
 30
0.0
 11
149.567411
 21
432.410124
 31
0.0
  0
LINE
  8
LC-003-005-----0
  6
CONTINUOUS
  5
8A
 10
145.567411
 20
431.238551
 30
0.0
 11
149.567411
 21
435.238551
 31
0.0
  0
LINE
  8
LC-003-005-----0
  6
CONTINUOUS
  5
8B
 10
143.86459
 20
432.364157
 30
0.0
 11
147.484038
 21
435.983604
 31
0.0
  0
LINE
  8
LC-003-005-----0
  6
CONTINUOUS
  5
8C
 10
142.320068
 20
433.648062
 30
0.0
 11
145.567411
 21
436.895405
 31
0.0
  0
LINE
  8
LC-003-005-----0
  6
CONTINUOUS
  5
8D
 10
141.575347
 20
435.731768
 30
0.0
 11
145.567411
 21
439.723832
 31
0.0
  0
LINE
  8
LC-003-005-----0
  6
CONTINUOUS
  5
8E
 10
141.567411
 20
438.552259
 30
0.0
 11
145.567411
 21
442.552259
 31
0.0
  0
LINE
  8
LC-003-005-----0
  6
CONTINUOUS
  5
8F
 10
141.567411
 20
441.380687
 30
0.0
 11
145.567411
 21
445.380687
 31
0.0
  0
LINE
  8
LC-003-005-----0
  6
CONTINUOUS
  5
90
 10
141.567411
 20
444.209114
 30
0.0
 11
145.567411
 21
448.209114
 31
0.0
  0
LINE
  8
LC-003-005-----0
  6
CONTINUOUS
  5
91
 10
141.567411
 20
447.037541
 30
0.0
 11
145.567411
 21
451.037541
 31
0.0
  0
LINE
  8
LC-003-005-----0
  6
CONTINUOUS
  5
92
 10
141.567411
 20
449.865968
 30
0.0
 11
145.567411
 21
453.865968
 31
0.0
  0
LINE
  8
LC-003-005-----0
  6
CONTINUOUS
  5
93
 10
141.567411
 20
452.694395
 30
0.0
 11
145.567411
 21
456.694395
 31
0.0
  0
LINE
  8
LC-003-005-----0
  6
CONTINUOUS
  5
94
 10
141.567411
 20
455.522822
 30
0.0
 11
145.567411
 21
459.522822
 31
0.0
  0
LINE
  8
LC-003-005-----0
  6
CONTINUOUS
  5
95
 10
141.567411
 20
458.351249
 30
0.0
 11
145.567411
 21
462.351249
 31
0.0
  0
LINE
  8
LC-003-005-----0
  6
CONTINUOUS
  5
96
 10
141.567411
 20
461.179676
 30
0.0
 11
145.567411
 21
465.179676
 31
0.0
  0
LINE
  8
LC-003-005-----0
  6
CONTINUOUS
  5
97
 10
141.542912
 20
463.983604
 30
0.0
 11
145.542912
 21
467.983604
 31
0.0
  0
LINE
  8
LC-003-005-----0
  6
CONTINUOUS
  5
98
 10
138.989149
 20
464.258268
 30
0.0
 11
142.714485
 21
467.983604
 31
0.0
  0
LINE
  8
LC-003-005-----0
  6
CONTINUOUS
  5
99
 10
136.998249
 20
465.095795
 30
0.0
 11
140.024428
 21
468.121974
 31
0.0
  0
LINE
  8
LC-003-005-----0
  6
CONTINUOUS
  5
9A
 10
135.405669
 20
466.331643
 30
0.0
 11
138.234098
 21
469.160072
 31
0.0
  0
LINE
  8
LC-003-005-----0
  6
CONTINUOUS
  5
9B
 10
134.172347
 20
467.926748
 30
0.0
 11
137.201648
 21
470.956048
 31
0.0
  0
LINE
  8
LC-003-005-----0
  6
CONTINUOUS
  5
9C
 10
133.337941
 20
469.920769
 30
0.0
 11
137.067411
 21
473.650239
 31
0.0
  0
LINE
  8
LC-003-005-----0
  6
CONTINUOUS
  5
9D
 10
133.067411
 20
472.478666
 30
0.0
 11
137.067411
 21
476.478666
 31
0.0
  0
LINE
  8
LC-003-005-----0
  6
CONTINUOUS
  5
9E
 10
133.067411
 20
475.307093
 30
0.0
 11
137.067411
 21
479.307093
 31
0.0
  0
LINE
  8
LC-003-005-----0
  6
CONTINUOUS
  5
9F
 10
133.067411
 20
478.135521
 30
0.0
 11
137.067411
 21
482.135521
 31
0.0
  0
LINE
  8
LC-003-005-----0
  6
CONTINUOUS
  5
A0
 10
133.067411
 20
480.963948
 30
0.0
 11
137.067411
 21
484.963948
 31
0.0
  0
LINE
  8
LC-003-005-----0
  6
CONTINUOUS
  5
A1
 10
133.067411
 20
483.792375
 30
0.0
 11
137.067411
 21
487.792375
 31
0.0
  0
LINE
  8
LC-003-005-----0
  6
CONTINUOUS
  5
A2
 10
133.067411
 20
486.620802
 30
0.0
 11
137.067411
 21
490.620802
 31
0.0
  0
LINE
  8
LC-003-005-----0
  6
CONTINUOUS
  5
A3
 10
133.067411
 20
489.449229
 30
0.0
 11
137.067411
 21
493.449229
 31
0.0
  0
LINE
  8
LC-003-005-----0
  6
CONTINUOUS
  5
A4
 10
130.773359
 20
489.983604
 30
0.0
 11
134.773359
 21
493.983604
 31
0.0
  0
LINE
  8
LC-003-005-----0
  6
CONTINUOUS
  5
A5
 10
127.944932
 20
489.983604
 30
0.0
 11
131.944932
 21
493.983604
 31
0.0
  0
LINE
  8
LC-003-005-----0
  6
CONTINUOUS
  5
A6
 10
125.116505
 20
489.983604
 30
0.0
 11
129.116505
 21
493.983604
 31
0.0
  0
LINE
  8
LC-003-005-----0
  6
CONTINUOUS
  5
A7
 10
122.295478
 20
489.991005
 30
0.0
 11
126.288078
 21
493.983604
 31
0.0
  0
LINE
  8
LC-003-005-----0
  6
CONTINUOUS
  5
A8
 10
120.106941
 20
490.630894
 30
0.0
 11
123.459651
 21
493.983604
 31
0.0
  0
LINE
  8
LC-003-005-----0
  6
CONTINUOUS
  5
A9
 10
118.594908
 20
491.947288
 30
0.0
 11
121.567411
 21
494.919792
 31
0.0
  0
LINE
  8
LC-003-005-----0
  6
CONTINUOUS
  5
AA
 10
117.692293
 20
493.8731
 30
0.0
 11
121.567411
 21
497.748219
 31
0.0
  0
LINE
  8
LC-003-005-----0
  6
CONTINUOUS
  5
AB
 10
117.567411
 20
496.576646
 30
0.0
 11
121.567411
 21
500.576646
 31
0.0
  0
LINE
  8
LC-003-005-----0
  6
CONTINUOUS
  5
AC
 10
117.567411
 20
499.405073
 30
0.0
 11
121.567411
 21
503.405073
 31
0.0
  0
LINE
  8
LC-003-005-----0
  6
CONTINUOUS
  5
AD
 10
117.567411
 20
502.2335
 30
0.0
 11
121.567411
 21
506.2335
 31
0.0
  0
LINE
  8
LC-003-005-----0
  6
CONTINUOUS
  5
AE
 10
117.567411
 20
505.061927
 30
0.0
 11
121.567411
 21
509.061927
 31
0.0
  0
LINE
  8
LC-003-005-----0
  6
CONTINUOUS
  5
AF
 10
117.567411
 20
507.890355
 30
0.0
 11
121.567411
 21
511.890355
 31
0.0
  0
LINE
  8
LC-003-005-----0
  6
CONTINUOUS
  5
B0
 10
116.832234
 20
509.983604
 30
0.0
 11
120.832234
 21
513.983604
 31
0.0
  0
LINE
  8
LC-003-005-----0
  6
CONTINUOUS
  5
B1
 10
114.003807
 20
509.983604
 30
0.0
 11
118.003807
 21
513.983604
 31
0.0
  0
LINE
  8
LC-003-005-----0
  6
CONTINUOUS
  5
B2
 10
113.567411
 20
512.375636
 30
0.0
 11
115.17538
 21
513.983604
 31
0.0
  0
ENDBLK
  8
0
  5
B3
  0
BLOCK
  8
0
  5
B5
  2
*X2
 70
    65
 10
149.567411
 20
426.13095
 30
0.0
  3
*X2
  0
LINE
  8
LC-003-005-----0
  6
CONTINUOUS
  5
B6
 10
152.671722
 20
426.463468
 30
0.0
 11
153.234894
 21
427.026639
 31
0.0
  0
LINE
  8
LC-003-005-----0
  6
CONTINUOUS
  5
B7
 10
152.161034
 20
426.235622
 30
0.0
 11
153.483661
 21
427.55825
 31
0.0
  0
LINE
  8
LC-003-005-----0
  6
CONTINUOUS
  5
B8
 10
151.817642
 20
426.175073
 30
0.0
 11
153.555492
 21
427.912923
 31
0.0
  0
LINE
  8
LC-003-005-----0
  6
CONTINUOUS
  5
B9
 10
151.492095
 20
426.132369
 30
0.0
 11
153.567411
 21
428.207685
 31
0.0
  0
LINE
  8
LC-003-005-----0
  6
CONTINUOUS
  5
BA
 10
151.235558
 20
426.158674
 30
0.0
 11
153.567411
 21
428.490528
 31
0.0
  0
LINE
  8
LC-003-005-----0
  6
CONTINUOUS
  5
BB
 10
151.005538
 20
426.211498
 30
0.0
 11
153.567411
 21
428.773371
 31
0.0
  0
LINE
  8
LC-003-005-----0
  6
CONTINUOUS
  5
BC
 10
150.796638
 20
426.28544
 30
0.0
 11
153.567411
 21
429.056213
 31
0.0
  0
LINE
  8
LC-003-005-----0
  6
CONTINUOUS
  5
BD
 10
150.605704
 20
426.377349
 30
0.0
 11
153.567411
 21
429.339056
 31
0.0
  0
LINE
  8
LC-003-005-----0
  6
CONTINUOUS
  5
BE
 10
150.430817
 20
426.485304
 30
0.0
 11
153.567411
 21
429.621899
 31
0.0
  0
LINE
  8
LC-003-005-----0
  6
CONTINUOUS
  5
BF
 10
150.270832
 20
426.608162
 30
0.0
 11
153.566277
 21
429.903607
 31
0.0
  0
LINE
  8
LC-003-005-----0
  6
CONTINUOUS
  5
C0
 10
150.125164
 20
426.745337
 30
0.0
 11
153.540865
 21
430.161038
 31
0.0
  0
LINE
  8
LC-003-005-----0
  6
CONTINUOUS
  5
C1
 10
149.993683
 20
426.896698
 30
0.0
 11
153.488724
 21
430.391739
 31
0.0
  0
LINE
  8
LC-003-005-----0
  6
CONTINUOUS
  5
C2
 10
149.876694
 20
427.062552
 30
0.0
 11
153.415345
 21
430.601203
 31
0.0
  0
LINE
  8
LC-003-005-----0
  6
CONTINUOUS
  5
C3
 10
149.774991
 20
427.243692
 30
0.0
 11
153.323929
 21
430.79263
 31
0.0
  0
LINE
  8
LC-003-005-----0
  6
CONTINUOUS
  5
C4
 10
149.689991
 20
427.441535
 30
0.0
 11
153.216422
 21
430.967966
 31
0.0
  0
LINE
  8
LC-003-005-----0
  6
CONTINUOUS
  5
C5
 10
149.624034
 20
427.65842
 30
0.0
 11
153.093988
 21
431.128374
 31
0.0
  0
LINE
  8
LC-003-005-----0
  6
CONTINUOUS
  5
C6
 10
149.580998
 20
427.898227
 30
0.0
 11
152.957227
 21
431.274456
 31
0.0
  0
LINE
  8
LC-003-005-----0
  6
CONTINUOUS
  5
C7
 10
149.567411
 20
428.167483
 30
0.0
 11
152.806282
 21
431.406354
 31
0.0
  0
LINE
  8
LC-003-005-----0
  6
CONTINUOUS
  5
C8
 10
149.567411
 20
428.450326
 30
0.0
 11
152.640859
 21
431.523774
 31
0.0
  0
LINE
  8
LC-003-005-----0
  6
CONTINUOUS
  5
C9
 10
149.567411
 20
428.733169
 30
0.0
 11
152.460183
 21
431.62594
 31
0.0
  0
LINE
  8
LC-003-005-----0
  6
CONTINUOUS
  5
CA
 10
149.567411
 20
429.016011
 30
0.0
 11
152.262854
 21
431.711454
 31
0.0
  0
LINE
  8
LC-003-005-----0
  6
CONTINUOUS
  5
CB
 10
149.567411
 20
429.298854
 30
0.0
 11
152.024261
 21
431.755703
 31
0.0
  0
LINE
  8
LC-003-005-----0
  6
CONTINUOUS
  5
CC
 10
149.567411
 20
429.581697
 30
0.0
 11
151.783815
 21
431.7981
 31
0.0
  0
LINE
  8
LC-003-005-----0
  6
CONTINUOUS
  5
CD
 10
149.567614
 20
429.864742
 30
0.0
 11
151.538927
 21
431.836055
 31
0.0
  0
LINE
  8
LC-003-005-----0
  6
CONTINUOUS
  5
CE
 10
149.596572
 20
430.176543
 30
0.0
 11
151.227126
 21
431.807097
 31
0.0
  0
LINE
  8
LC-003-005-----0
  6
CONTINUOUS
  5
CF
 10
149.70666
 20
430.569474
 30
0.0
 11
150.834196
 21
431.69701
 31
0.0
  0
ENDBLK
  8
0
  5
D0
  0
BLOCK
  8
0
  5
D2
  2
*X3
 70
    65
 10
146.567411
 20
328.219127
 30
0.0
  3
*X3
  0
LINE
  8
LC-003-005-----0
  6
CONTINUOUS
  5
D3
 10
234.983918
 20
328.322013
 30
0.0
 11
235.567411
 21
328.905507
 31
0.0
  0
LINE
  8
LC-003-005-----0
  6
CONTINUOUS
  5
D4
 10
232.579461
 20
328.745983
 30
0.0
 11
235.169115
 21
331.335637
 31
0.0
  0
LINE
  8
LC-003-005-----0
  6
CONTINUOUS
  5
D5
 10
230.175004
 20
329.169954
 30
0.0
 11
232.764658
 21
331.759608
 31
0.0
  0
LINE
  8
LC-003-005-----0
  6
CONTINUOUS
  5
D6
 10
227.770548
 20
329.593924
 30
0.0
 11
230.360202
 21
332.183578
 31
0.0
  0
LINE
  8
LC-003-005-----0
  6
CONTINUOUS
  5
D7
 10
225.366091
 20
330.017895
 30
0.0
 11
227.955745
 21
332.607549
 31
0.0
  0
LINE
  8
LC-003-005-----0
  6
CONTINUOUS
  5
D8
 10
222.961635
 20
330.441866
 30
0.0
 11
225.551289
 21
333.031519
 31
0.0
  0
LINE
  8
LC-003-005-----0
  6
CONTINUOUS
  5
D9
 10
220.557178
 20
330.865836
 30
0.0
 11
223.146832
 21
333.45549
 31
0.0
  0
LINE
  8
LC-003-005-----0
  6
CONTINUOUS
  5
DA
 10
218.152722
 20
331.289807
 30
0.0
 11
220.742376
 21
333.879461
 31
0.0
  0
LINE
  8
LC-003-005-----0
  6
CONTINUOUS
  5
DB
 10
215.748265
 20
331.713777
 30
0.0
 11
218.337919
 21
334.303431
 31
0.0
  0
LINE
  8
LC-003-005-----0
  6
CONTINUOUS
  5
DC
 10
213.343809
 20
332.137748
 30
0.0
 11
215.933463
 21
334.727402
 31
0.0
  0
LINE
  8
LC-003-005-----0
  6
CONTINUOUS
  5
DD
 10
210.939352
 20
332.561718
 30
0.0
 11
213.529006
 21
335.151372
 31
0.0
  0
LINE
  8
LC-003-005-----0
  6
CONTINUOUS
  5
DE
 10
208.534895
 20
332.985689
 30
0.0
 11
211.124549
 21
335.575343
 31
0.0
  0
LINE
  8
LC-003-005-----0
  6
CONTINUOUS
  5
DF
 10
206.130439
 20
333.409659
 30
0.0
 11
208.720093
 21
335.999313
 31
0.0
  0
LINE
  8
LC-003-005-----0
  6
CONTINUOUS
  5
E0
 10
203.725982
 20
333.83363
 30
0.0
 11
206.315636
 21
336.423284
 31
0.0
  0
LINE
  8
LC-003-005-----0
  6
CONTINUOUS
  5
E1
 10
201.321526
 20
334.257601
 30
0.0
 11
203.91118
 21
336.847255
 31
0.0
  0
LINE
  8
LC-003-005-----0
  6
CONTINUOUS
  5
E2
 10
198.917069
 20
334.681571
 30
0.0
 11
201.506723
 21
337.271225
 31
0.0
  0
LINE
  8
LC-003-005-----0
  6
CONTINUOUS
  5
E3
 10
196.512613
 20
335.105542
 30
0.0
 11
199.102267
 21
337.695196
 31
0.0
  0
LINE
  8
LC-003-005-----0
  6
CONTINUOUS
  5
E4
 10
194.108156
 20
335.529512
 30
0.0
 11
196.69781
 21
338.119166
 31
0.0
  0
LINE
  8
LC-003-005-----0
  6
CONTINUOUS
  5
E5
 10
191.7037
 20
335.953483
 30
0.0
 11
194.293353
 21
338.543137
 31
0.0
  0
LINE
  8
LC-003-005-----0
  6
CONTINUOUS
  5
E6
 10
189.299243
 20
336.377453
 30
0.0
 11
191.888897
 21
338.967107
 31
0.0
  0
LINE
  8
LC-003-005-----0
  6
CONTINUOUS
  5
E7
 10
186.894786
 20
336.801424
 30
0.0
 11
189.48444
 21
339.391078
 31
0.0
  0
LINE
  8
LC-003-005-----0
  6
CONTINUOUS
  5
E8
 10
184.49033
 20
337.225395
 30
0.0
 11
187.079984
 21
339.815049
 31
0.0
  0
LINE
  8
LC-003-005-----0
  6
CONTINUOUS
  5
E9
 10
182.085873
 20
337.649365
 30
0.0
 11
184.675527
 21
340.239019
 31
0.0
  0
LINE
  8
LC-003-005-----0
  6
CONTINUOUS
  5
EA
 10
179.681417
 20
338.073336
 30
0.0
 11
182.271071
 21
340.66299
 31
0.0
  0
LINE
  8
LC-003-005-----0
  6
CONTINUOUS
  5
EB
 10
177.335238
 20
338.555584
 30
0.0
 11
179.866614
 21
341.08696
 31
0.0
  0
LINE
  8
LC-003-005-----0
  6
CONTINUOUS
  5
EC
 10
175.163136
 20
339.211909
 30
0.0
 11
177.553102
 21
341.601875
 31
0.0
  0
LINE
  8
LC-003-005-----0
  6
CONTINUOUS
  5
ED
 10
173.145888
 20
340.023088
 30
0.0
 11
175.434416
 21
342.311616
 31
0.0
  0
LINE
  8
LC-003-005-----0
  6
CONTINUOUS
  5
EE
 10
171.267019
 20
340.972647
 30
0.0
 11
173.483499
 21
343.189127
 31
0.0
  0
LINE
  8
LC-003-005-----0
  6
CONTINUOUS
  5
EF
 10
169.515407
 20
342.049462
 30
0.0
 11
171.682549
 21
344.216604
 31
0.0
  0
LINE
  8
LC-003-005-----0
  6
CONTINUOUS
  5
F0
 10
167.883717
 20
343.246199
 30
0.0
 11
170.020285
 21
345.382767
 31
0.0
  0
LINE
  8
LC-003-005-----0
  6
CONTINUOUS
  5
F1
 10
166.367522
 20
344.558431
 30
0.0
 11
168.490067
 21
346.680976
 31
0.0
  0
LINE
  8
LC-003-005-----0
  6
CONTINUOUS
  5
F2
 10
164.964819
 20
345.984155
 30
0.0
 11
167.088937
 21
348.108273
 31
0.0
  0
LINE
  8
LC-003-005-----0
  6
CONTINUOUS
  5
F3
 10
163.675832
 20
347.523595
 30
0.0
 11
165.817224
 21
349.664987
 31
0.0
  0
LINE
  8
LC-003-005-----0
  6
CONTINUOUS
  5
F4
 10
162.503032
 20
349.179222
 30
0.0
 11
164.678587
 21
351.354777
 31
0.0
  0
LINE
  8
LC-003-005-----0
  6
CONTINUOUS
  5
F5
 10
161.451389
 20
350.956006
 30
0.0
 11
163.68051
 21
353.185127
 31
0.0
  0
LINE
  8
LC-003-005-----0
  6
CONTINUOUS
  5
F6
 10
160.528919
 20
352.861963
 30
0.0
 11
162.835406
 21
355.16845
 31
0.0
  0
LINE
  8
LC-003-005-----0
  6
CONTINUOUS
  5
F7
 10
159.747675
 20
354.909147
 30
0.0
 11
162.162769
 21
357.32424
 31
0.0
  0
LINE
  8
LC-003-005-----0
  6
CONTINUOUS
  5
F8
 10
159.125513
 20
357.115411
 30
0.0
 11
161.693395
 21
359.683294
 31
0.0
  0
LINE
  8
LC-003-005-----0
  6
CONTINUOUS
  5
F9
 10
158.689341
 20
359.507667
 30
0.0
 11
161.43576
 21
362.254086
 31
0.0
  0
LINE
  8
LC-003-005-----0
  6
CONTINUOUS
  5
FA
 10
158.439025
 20
362.085778
 30
0.0
 11
161.208212
 21
364.854965
 31
0.0
  0
LINE
  8
LC-003-005-----0
  6
CONTINUOUS
  5
FB
 10
158.211478
 20
364.686658
 30
0.0
 11
160.980665
 21
367.455845
 31
0.0
  0
LINE
  8
LC-003-005-----0
  6
CONTINUOUS
  5
FC
 10
157.98393
 20
367.287537
 30
0.0
 11
160.753117
 21
370.056724
 31
0.0
  0
LINE
  8
LC-003-005-----0
  6
CONTINUOUS
  5
FD
 10
157.756383
 20
369.888417
 30
0.0
 11
160.52557
 21
372.657604
 31
0.0
  0
LINE
  8
LC-003-005-----0
  6
CONTINUOUS
  5
FE
 10
157.528835
 20
372.489297
 30
0.0
 11
160.298022
 21
375.258484
 31
0.0
  0
LINE
  8
LC-003-005-----0
  6
CONTINUOUS
  5
FF
 10
157.301288
 20
375.090176
 30
0.0
 11
160.070475
 21
377.859363
 31
0.0
  0
LINE
  8
LC-003-005-----0
  6
CONTINUOUS
  5
100
 10
157.07374
 20
377.691056
 30
0.0
 11
159.842927
 21
380.460243
 31
0.0
  0
LINE
  8
LC-003-005-----0
  6
CONTINUOUS
  5
101
 10
156.846193
 20
380.291936
 30
0.0
 11
159.61538
 21
383.061123
 31
0.0
  0
LINE
  8
LC-003-005-----0
  6
CONTINUOUS
  5
102
 10
156.618645
 20
382.892815
 30
0.0
 11
159.387832
 21
385.662002
 31
0.0
  0
LINE
  8
LC-003-005-----0
  6
CONTINUOUS
  5
103
 10
156.391098
 20
385.493695
 30
0.0
 11
159.160285
 21
388.262882
 31
0.0
  0
LINE
  8
LC-003-005-----0
  6
CONTINUOUS
  5
104
 10
156.16355
 20
388.094575
 30
0.0
 11
158.932737
 21
390.863762
 31
0.0
  0
LINE
  8
LC-003-005-----0
  6
CONTINUOUS
  5
105
 10
155.936003
 20
390.695454
 30
0.0
 11
158.70519
 21
393.464641
 31
0.0
  0
LINE
  8
LC-003-005-----0
  6
CONTINUOUS
  5
106
 10
155.708455
 20
393.296334
 30
0.0
 11
158.477642
 21
396.065521
 31
0.0
  0
LINE
  8
LC-003-005-----0
  6
CONTINUOUS
  5
107
 10
155.480908
 20
395.897213
 30
0.0
 11
158.250095
 21
398.666401
 31
0.0
  0
LINE
  8
LC-003-005-----0
  6
CONTINUOUS
  5
108
 10
155.25336
 20
398.498093
 30
0.0
 11
158.022547
 21
401.26728
 31
0.0
  0
LINE
  8
LC-003-005-----0
  6
CONTINUOUS
  5
109
 10
155.025813
 20
401.098973
 30
0.0
 11
157.795
 21
403.86816
 31
0.0
  0
LINE
  8
LC-003-005-----0
  6
CONTINUOUS
  5
10A
 10
154.798265
 20
403.699852
 30
0.0
 11
157.567452
 21
406.469039
 31
0.0
  0
LINE
  8
LC-003-005-----0
  6
CONTINUOUS
  5
10B
 10
154.570718
 20
406.300732
 30
0.0
 11
157.339905
 21
409.069919
 31
0.0
  0
LINE
  8
LC-003-005-----0
  6
CONTINUOUS
  5
10C
 10
154.34317
 20
408.901612
 30
0.0
 11
157.112357
 21
411.670799
 31
0.0
  0
LINE
  8
LC-003-005-----0
  6
CONTINUOUS
  5
10D
 10
154.115623
 20
411.502491
 30
0.0
 11
156.88481
 21
414.271678
 31
0.0
  0
LINE
  8
LC-003-005-----0
  6
CONTINUOUS
  5
10E
 10
153.888075
 20
414.103371
 30
0.0
 11
156.657263
 21
416.872558
 31
0.0
  0
LINE
  8
LC-003-005-----0
  6
CONTINUOUS
  5
10F
 10
153.660528
 20
416.704251
 30
0.0
 11
156.429715
 21
419.473438
 31
0.0
  0
LINE
  8
LC-003-005-----0
  6
CONTINUOUS
  5
110
 10
153.432981
 20
419.30513
 30
0.0
 11
156.202168
 21
422.074317
 31
0.0
  0
LINE
  8
LC-003-005-----0
  6
CONTINUOUS
  5
111
 10
153.205433
 20
421.90601
 30
0.0
 11
156.067411
 21
424.767988
 31
0.0
  0
LINE
  8
LC-003-005-----0
  6
CONTINUOUS
  5
112
 10
151.9546
 20
423.483604
 30
0.0
 11
156.067411
 21
427.596415
 31
0.0
  0
LINE
  8
LC-003-005-----0
  6
CONTINUOUS
  5
113
 10
150.317411
 20
424.674842
 30
0.0
 11
151.785439
 21
426.14287
 31
0.0
  0
LINE
  8
LC-003-005-----0
  6
CONTINUOUS
  5
114
 10
153.567411
 20
427.924842
 30
0.0
 11
156.067411
 21
430.424842
 31
0.0
  0
LINE
  8
LC-003-005-----0
  6
CONTINUOUS
  5
115
 10
153.567411
 20
430.75327
 30
0.0
 11
156.067411
 21
433.25327
 31
0.0
  0
LINE
  8
LC-003-005-----0
  6
CONTINUOUS
  5
116
 10
151.807509
 20
431.821794
 30
0.0
 11
155.268365
 21
435.282651
 31
0.0
  0
LINE
  8
LC-003-005-----0
  6
CONTINUOUS
  5
117
 10
150.317411
 20
433.160124
 30
0.0
 11
153.854152
 21
436.696864
 31
0.0
  0
LINE
  8
LC-003-005-----0
  6
CONTINUOUS
  5
118
 10
150.317411
 20
435.988551
 30
0.0
 11
152.439938
 21
438.111078
 31
0.0
  0
LINE
  8
LC-003-005-----0
  6
CONTINUOUS
  5
119
 10
147.986236
 20
436.485802
 30
0.0
 11
150.984038
 21
439.483604
 31
0.0
  0
LINE
  8
LC-003-005-----0
  6
CONTINUOUS
  5
11A
 10
146.569864
 20
437.897858
 30
0.0
 11
148.15561
 21
439.483604
 31
0.0
  0
ENDBLK
  8
0
  5
11B
  0
BLOCK
  8
0
  5
11D
  2
*X4
 70
    65
 10
235.567411
 20
326.359302
 30
0.0
  3
*X4
  0
LINE
  8
LC-003-005-----0
  6
CONTINUOUS
  5
11E
 10
244.601744
 20
326.62613
 30
0.0
 11
245.848174
 21
327.87256
 31
0.0
  0
LINE
  8
LC-003-005-----0
  6
CONTINUOUS
  5
11F
 10
242.197287
 20
327.050101
 30
0.0
 11
244.786941
 21
329.639755
 31
0.0
  0
LINE
  8
LC-003-005-----0
  6
CONTINUOUS
  5
120
 10
239.792831
 20
327.474072
 30
0.0
 11
242.382485
 21
330.063726
 31
0.0
  0
LINE
  8
LC-003-005-----0
  6
CONTINUOUS
  5
121
 10
237.388374
 20
327.898042
 30
0.0
 11
239.978028
 21
330.487696
 31
0.0
  0
LINE
  8
LC-003-005-----0
  6
CONTINUOUS
  5
122
 10
235.567411
 20
328.905507
 30
0.0
 11
237.573572
 21
330.911667
 31
0.0
  0
ENDBLK
  8
0
  5
123
  0
BLOCK
  8
0
  5
125
  2
*X5
 70
    65
 10
235.567411
 20
326.062377
 30
0.0
  3
*X5
  0
LINE
  8
LC-003-005-----0
  6
CONTINUOUS
  5
126
 10
246.90738
 20
326.103339
 30
0.0
 11
249.725016
 21
328.920976
 31
0.0
  0
LINE
  8
LC-003-005-----0
  6
CONTINUOUS
  5
127
 10
246.279783
 20
328.304169
 30
0.0
 11
249.301046
 21
331.325432
 31
0.0
  0
LINE
  8
LC-003-005-----0
  6
CONTINUOUS
  5
128
 10
245.855812
 20
330.708626
 30
0.0
 11
248.877075
 21
333.729889
 31
0.0
  0
LINE
  8
LC-003-005-----0
  6
CONTINUOUS
  5
129
 10
245.431842
 20
333.113082
 30
0.0
 11
248.453105
 21
336.134345
 31
0.0
  0
LINE
  8
LC-003-005-----0
  6
CONTINUOUS
  5
12A
 10
245.007871
 20
335.517539
 30
0.0
 11
248.029134
 21
338.538802
 31
0.0
  0
LINE
  8
LC-003-005-----0
  6
CONTINUOUS
  5
12B
 10
244.5839
 20
337.921996
 30
0.0
 11
247.605163
 21
340.943259
 31
0.0
  0
LINE
  8
LC-003-005-----0
  6
CONTINUOUS
  5
12C
 10
244.15993
 20
340.326452
 30
0.0
 11
247.181193
 21
343.347715
 31
0.0
  0
LINE
  8
LC-003-005-----0
  6
CONTINUOUS
  5
12D
 10
243.735959
 20
342.730909
 30
0.0
 11
246.757222
 21
345.752172
 31
0.0
  0
LINE
  8
LC-003-005-----0
  6
CONTINUOUS
  5
12E
 10
243.311989
 20
345.135365
 30
0.0
 11
246.333252
 21
348.156628
 31
0.0
  0
LINE
  8
LC-003-005-----0
  6
CONTINUOUS
  5
12F
 10
242.888018
 20
347.539822
 30
0.0
 11
245.909281
 21
350.561085
 31
0.0
  0
LINE
  8
LC-003-005-----0
  6
CONTINUOUS
  5
130
 10
242.464048
 20
349.944278
 30
0.0
 11
245.485311
 21
352.965541
 31
0.0
  0
LINE
  8
LC-003-005-----0
  6
CONTINUOUS
  5
131
 10
242.040077
 20
352.348735
 30
0.0
 11
245.06134
 21
355.369998
 31
0.0
  0
LINE
  8
LC-003-005-----0
  6
CONTINUOUS
  5
132
 10
241.616107
 20
354.753192
 30
0.0
 11
244.637369
 21
357.774454
 31
0.0
  0
LINE
  8
LC-003-005-----0
  6
CONTINUOUS
  5
133
 10
241.192136
 20
357.157648
 30
0.0
 11
244.213399
 21
360.178911
 31
0.0
  0
LINE
  8
LC-003-005-----0
  6
CONTINUOUS
  5
134
 10
240.768165
 20
359.562105
 30
0.0
 11
243.789428
 21
362.583368
 31
0.0
  0
LINE
  8
LC-003-005-----0
  6
CONTINUOUS
  5
135
 10
240.344195
 20
361.966561
 30
0.0
 11
243.365458
 21
364.987824
 31
0.0
  0
LINE
  8
LC-003-005-----0
  6
CONTINUOUS
  5
136
 10
239.920224
 20
364.371018
 30
0.0
 11
242.941487
 21
367.392281
 31
0.0
  0
LINE
  8
LC-003-005-----0
  6
CONTINUOUS
  5
137
 10
239.496254
 20
366.775474
 30
0.0
 11
242.517517
 21
369.796737
 31
0.0
  0
LINE
  8
LC-003-005-----0
  6
CONTINUOUS
  5
138
 10
239.072283
 20
369.179931
 30
0.0
 11
242.093546
 21
372.201194
 31
0.0
  0
LINE
  8
LC-003-005-----0
  6
CONTINUOUS
  5
139
 10
238.648313
 20
371.584387
 30
0.0
 11
241.669576
 21
374.60565
 31
0.0
  0
LINE
  8
LC-003-005-----0
  6
CONTINUOUS
  5
13A
 10
238.224342
 20
373.988844
 30
0.0
 11
241.245605
 21
377.010107
 31
0.0
  0
LINE
  8
LC-003-005-----0
  6
CONTINUOUS
  5
13B
 10
237.800371
 20
376.393301
 30
0.0
 11
240.821634
 21
379.414564
 31
0.0
  0
LINE
  8
LC-003-005-----0
  6
CONTINUOUS
  5
13C
 10
237.376401
 20
378.797757
 30
0.0
 11
240.397664
 21
381.81902
 31
0.0
  0
LINE
  8
LC-003-005-----0
  6
CONTINUOUS
  5
13D
 10
236.95243
 20
381.202214
 30
0.0
 11
239.973693
 21
384.223477
 31
0.0
  0
LINE
  8
LC-003-005-----0
  6
CONTINUOUS
  5
13E
 10
236.52846
 20
383.60667
 30
0.0
 11
239.549723
 21
386.627933
 31
0.0
  0
LINE
  8
LC-003-005-----0
  6
CONTINUOUS
  5
13F
 10
236.104489
 20
386.011127
 30
0.0
 11
239.125752
 21
389.03239
 31
0.0
  0
LINE
  8
LC-003-005-----0
  6
CONTINUOUS
  5
140
 10
235.680519
 20
388.415583
 30
0.0
 11
238.701782
 21
391.436846
 31
0.0
  0
LINE
  8
LC-003-005-----0
  6
CONTINUOUS
  5
141
 10
235.567411
 20
391.130903
 30
0.0
 11
238.277811
 21
393.841303
 31
0.0
  0
LINE
  8
LC-003-005-----0
  6
CONTINUOUS
  5
142
 10
235.567411
 20
393.95933
 30
0.0
 11
237.85384
 21
396.245759
 31
0.0
  0
LINE
  8
LC-003-005-----0
  6
CONTINUOUS
  5
143
 10
235.567411
 20
396.787758
 30
0.0
 11
237.42987
 21
398.650216
 31
0.0
  0
LINE
  8
LC-003-005-----0
  6
CONTINUOUS
  5
144
 10
235.567411
 20
399.616185
 30
0.0
 11
237.005899
 21
401.054673
 31
0.0
  0
LINE
  8
LC-003-005-----0
  6
CONTINUOUS
  5
145
 10
235.567411
 20
402.444612
 30
0.0
 11
236.581929
 21
403.459129
 31
0.0
  0
LINE
  8
LC-003-005-----0
  6
CONTINUOUS
  5
146
 10
235.567411
 20
405.273039
 30
0.0
 11
236.157958
 21
405.863586
 31
0.0
  0
LINE
  8
LC-003-005-----0
  6
CONTINUOUS
  5
147
 10
235.567411
 20
408.101466
 30
0.0
 11
235.733988
 21
408.268042
 31
0.0
  0
ENDBLK
  8
0
  5
148
  0
BLOCK
  8
0
  5
14A
  2
*X6
 70
    65
 10
220.689532
 20
389.057046
 30
0.0
  3
*X6
  0
LINE
  8
LC-003-005-----0
  6
CONTINUOUS
  5
14B
 10
235.256548
 20
390.82004
 30
0.0
 11
235.567411
 21
391.130903
 31
0.0
  0
LINE
  8
LC-003-005-----0
  6
CONTINUOUS
  5
14C
 10
234.832577
 20
393.224496
 30
0.0
 11
235.567411
 21
393.95933
 31
0.0
  0
LINE
  8
LC-003-005-----0
  6
CONTINUOUS
  5
14D
 10
234.408607
 20
395.628953
 30
0.0
 11
235.567411
 21
396.787758
 31
0.0
  0
LINE
  8
LC-003-005-----0
  6
CONTINUOUS
  5
14E
 10
233.984636
 20
398.03341
 30
0.0
 11
235.567411
 21
399.616185
 31
0.0
  0
LINE
  8
LC-003-005-----0
  6
CONTINUOUS
  5
14F
 10
233.560666
 20
400.437866
 30
0.0
 11
235.567411
 21
402.444612
 31
0.0
  0
LINE
  8
LC-003-005-----0
  6
CONTINUOUS
  5
150
 10
233.136695
 20
402.842323
 30
0.0
 11
235.567411
 21
405.273039
 31
0.0
  0
LINE
  8
LC-003-005-----0
  6
CONTINUOUS
  5
151
 10
232.712725
 20
405.246779
 30
0.0
 11
235.567411
 21
408.101466
 31
0.0
  0
LINE
  8
LC-003-005-----0
  6
CONTINUOUS
  5
152
 10
232.288754
 20
407.651236
 30
0.0
 11
235.310017
 21
410.672499
 31
0.0
  0
LINE
  8
LC-003-005-----0
  6
CONTINUOUS
  5
153
 10
231.864784
 20
410.055692
 30
0.0
 11
232.083332
 21
410.274241
 31
0.0
  0
ENDBLK
  8
0
  5
154
  0
BLOCK
  8
0
  5
156
  2
*X7
 70
    65
 10
224.917286
 20
402.158918
 30
0.0
  3
*X7
  0
LINE
  8
LC-003-005-----0
  6
CONTINUOUS
  5
157
 10
231.45883
 20
406.821311
 30
0.0
 11
232.288754
 21
407.651236
 31
0.0
  0
LINE
  8
LC-003-005-----0
  6
CONTINUOUS
  5
158
 10
229.054373
 20
407.245282
 30
0.0
 11
231.633259
 21
409.824167
 31
0.0
  0
LINE
  8
LC-003-005-----0
  6
CONTINUOUS
  5
159
 10
226.649916
 20
407.669252
 30
0.0
 11
229.228802
 21
410.248138
 31
0.0
  0
LINE
  8
LC-003-005-----0
  6
CONTINUOUS
  5
15A
 10
225.086465
 20
408.934228
 30
0.0
 11
228.784875
 21
412.632638
 31
0.0
  0
LINE
  8
LC-003-005-----0
  6
CONTINUOUS
  5
15B
 10
235.292013
 20
419.139776
 30
0.0
 11
235.567411
 21
419.415175
 31
0.0
  0
LINE
  8
LC-003-005-----0
  6
CONTINUOUS
  5
15C
 10
225.691958
 20
412.368148
 30
0.0
 11
235.479147
 21
422.155337
 31
0.0
  0
LINE
  8
LC-003-005-----0
  6
CONTINUOUS
  5
15D
 10
226.636379
 20
416.140997
 30
0.0
 11
231.827252
 21
421.331869
 31
0.0
  0
ENDBLK
  8
0
  5
15E
  0
BLOCK
  8
0
  5
160
  2
*X8
 70
    65
 10
235.567411
 20
419.155845
 30
0.0
  3
*X8
  0
LINE
  8
LC-003-005-----0
  6
CONTINUOUS
  5
161
 10
318.834944
 20
423.486748
 30
0.0
 11
320.817411
 21
425.469215
 31
0.0
  0
LINE
  8
LC-003-005-----0
  6
CONTINUOUS
  5
162
 10
315.884875
 20
423.365105
 30
0.0
 11
318.788128
 21
426.268359
 31
0.0
  0
LINE
  8
LC-003-005-----0
  6
CONTINUOUS
  5
163
 10
312.900018
 20
423.208676
 30
0.0
 11
317.567411
 21
427.876069
 31
0.0
  0
LINE
  8
LC-003-005-----0
  6
CONTINUOUS
  5
164
 10
309.915161
 20
423.052246
 30
0.0
 11
313.085424
 21
426.222509
 31
0.0
  0
LINE
  8
LC-003-005-----0
  6
CONTINUOUS
  5
165
 10
315.067411
 20
428.204496
 30
0.0
 11
317.567411
 21
430.704496
 31
0.0
  0
LINE
  8
LC-003-005-----0
  6
CONTINUOUS
  5
166
 10
318.513306
 20
431.650391
 30
0.0
 11
320.817411
 21
433.954496
 31
0.0
  0
LINE
  8
LC-003-005-----0
  6
CONTINUOUS
  5
167
 10
323.379303
 20
436.516388
 30
0.0
 11
324.534628
 21
437.671713
 31
0.0
  0
LINE
  8
LC-003-005-----0
  6
CONTINUOUS
  5
168
 10
306.930304
 20
422.895816
 30
0.0
 11
310.100568
 21
426.06608
 31
0.0
  0
LINE
  8
LC-003-005-----0
  6
CONTINUOUS
  5
169
 10
315.067411
 20
431.032924
 30
0.0
 11
323.464561
 21
439.430073
 31
0.0
  0
LINE
  8
LC-003-005-----0
  6
CONTINUOUS
  5
16A
 10
303.945447
 20
422.739387
 30
0.0
 11
307.115711
 21
425.90965
 31
0.0
  0
LINE
  8
LC-003-005-----0
  6
CONTINUOUS
  5
16B
 10
315.067411
 20
433.861351
 30
0.0
 11
320.689665
 21
439.483604
 31
0.0
  0
LINE
  8
LC-003-005-----0
  6
CONTINUOUS
  5
16C
 10
300.96059
 20
422.582957
 30
0.0
 11
304.130854
 21
425.75322
 31
0.0
  0
LINE
  8
LC-003-005-----0
  6
CONTINUOUS
  5
16D
 10
297.975734
 20
422.426527
 30
0.0
 11
301.145997
 21
425.596791
 31
0.0
  0
LINE
  8
LC-003-005-----0
  6
CONTINUOUS
  5
16E
 10
294.990877
 20
422.270097
 30
0.0
 11
298.16114
 21
425.440361
 31
0.0
  0
LINE
  8
LC-003-005-----0
  6
CONTINUOUS
  5
16F
 10
292.00602
 20
422.113668
 30
0.0
 11
295.176283
 21
425.283931
 31
0.0
  0
LINE
  8
LC-003-005-----0
  6
CONTINUOUS
  5
170
 10
289.021163
 20
421.957238
 30
0.0
 11
292.191427
 21
425.127501
 31
0.0
  0
LINE
  8
LC-003-005-----0
  6
CONTINUOUS
  5
171
 10
286.036306
 20
421.800808
 30
0.0
 11
289.20657
 21
424.971072
 31
0.0
  0
LINE
  8
LC-003-005-----0
  6
CONTINUOUS
  5
172
 10
283.051449
 20
421.644378
 30
0.0
 11
286.221713
 21
424.814642
 31
0.0
  0
LINE
  8
LC-003-005-----0
  6
CONTINUOUS
  5
173
 10
280.066593
 20
421.487949
 30
0.0
 11
283.236856
 21
424.658212
 31
0.0
  0
LINE
  8
LC-003-005-----0
  6
CONTINUOUS
  5
174
 10
277.081736
 20
421.331519
 30
0.0
 11
280.251999
 21
424.501783
 31
0.0
  0
LINE
  8
LC-003-005-----0
  6
CONTINUOUS
  5
175
 10
274.096879
 20
421.175089
 30
0.0
 11
277.267142
 21
424.345353
 31
0.0
  0
LINE
  8
LC-003-005-----0
  6
CONTINUOUS
  5
176
 10
271.112022
 20
421.01866
 30
0.0
 11
274.282286
 21
424.188923
 31
0.0
  0
LINE
  8
LC-003-005-----0
  6
CONTINUOUS
  5
177
 10
268.127165
 20
420.86223
 30
0.0
 11
271.297429
 21
424.032493
 31
0.0
  0
LINE
  8
LC-003-005-----0
  6
CONTINUOUS
  5
178
 10
265.142308
 20
420.7058
 30
0.0
 11
268.312572
 21
423.876064
 31
0.0
  0
LINE
  8
LC-003-005-----0
  6
CONTINUOUS
  5
179
 10
262.157451
 20
420.54937
 30
0.0
 11
265.327715
 21
423.719634
 31
0.0
  0
LINE
  8
LC-003-005-----0
  6
CONTINUOUS
  5
17A
 10
259.172595
 20
420.392941
 30
0.0
 11
262.342858
 21
423.563204
 31
0.0
  0
LINE
  8
LC-003-005-----0
  6
CONTINUOUS
  5
17B
 10
256.187738
 20
420.236511
 30
0.0
 11
259.358001
 21
423.406775
 31
0.0
  0
LINE
  8
LC-003-005-----0
  6
CONTINUOUS
  5
17C
 10
253.202881
 20
420.080081
 30
0.0
 11
256.373144
 21
423.250345
 31
0.0
  0
LINE
  8
LC-003-005-----0
  6
CONTINUOUS
  5
17D
 10
250.218024
 20
419.923652
 30
0.0
 11
253.388288
 21
423.093915
 31
0.0
  0
LINE
  8
LC-003-005-----0
  6
CONTINUOUS
  5
17E
 10
247.233167
 20
419.767222
 30
0.0
 11
250.403431
 21
422.937485
 31
0.0
  0
LINE
  8
LC-003-005-----0
  6
CONTINUOUS
  5
17F
 10
244.24831
 20
419.610792
 30
0.0
 11
247.418574
 21
422.781056
 31
0.0
  0
LINE
  8
LC-003-005-----0
  6
CONTINUOUS
  5
180
 10
241.263454
 20
419.454362
 30
0.0
 11
244.433717
 21
422.624626
 31
0.0
  0
LINE
  8
LC-003-005-----0
  6
CONTINUOUS
  5
181
 10
238.278597
 20
419.297933
 30
0.0
 11
241.44886
 21
422.468196
 31
0.0
  0
LINE
  8
LC-003-005-----0
  6
CONTINUOUS
  5
182
 10
235.567411
 20
419.415175
 30
0.0
 11
238.464003
 21
422.311766
 31
0.0
  0
ENDBLK
  8
0
  5
183
  0
BLOCK
  8
0
  5
185
  2
*X9
 70
    65
 10
220.689532
 20
410.160911
 30
0.0
  3
*X9
  0
LINE
  8
LC-003-005-----0
  6
CONTINUOUS
  5
186
 10
232.083332
 20
410.274241
 30
0.0
 11
234.886046
 21
413.076955
 31
0.0
  0
LINE
  8
LC-003-005-----0
  6
CONTINUOUS
  5
187
 10
231.440813
 20
412.460149
 30
0.0
 11
232.089783
 21
413.109119
 31
0.0
  0
ENDBLK
  8
0
  5
188
  0
BLOCK
  8
0
  5
18A
  2
*X10
 70
    65
 10
138.567411
 20
477.558854
 30
0.0
  3
*X10
  0
LINE
  8
LC-003-005-----0
  6
CONTINUOUS
  5
18B
 10
160.92417
 20
477.708008
 30
0.0
 11
163.284868
 21
480.068706
 31
0.0
  0
LINE
  8
LC-003-005-----0
  6
CONTINUOUS
  5
18C
 10
160.761617
 20
480.373882
 30
0.0
 11
163.122315
 21
482.73458
 31
0.0
  0
LINE
  8
LC-003-005-----0
  6
CONTINUOUS
  5
18D
 10
160.599064
 20
483.039756
 30
0.0
 11
162.959762
 21
485.400454
 31
0.0
  0
LINE
  8
LC-003-005-----0
  6
CONTINUOUS
  5
18E
 10
158.472974
 20
483.742093
 30
0.0
 11
160.78063
 21
486.049749
 31
0.0
  0
LINE
  8
LC-003-005-----0
  6
CONTINUOUS
  5
18F
 10
155.872094
 20
483.969641
 30
0.0
 11
158.17975
 21
486.277297
 31
0.0
  0
LINE
  8
LC-003-005-----0
  6
CONTINUOUS
  5
190
 10
153.271215
 20
484.197188
 30
0.0
 11
155.578871
 21
486.504844
 31
0.0
  0
LINE
  8
LC-003-005-----0
  6
CONTINUOUS
  5
191
 10
150.670335
 20
484.424736
 30
0.0
 11
152.977991
 21
486.732392
 31
0.0
  0
LINE
  8
LC-003-005-----0
  6
CONTINUOUS
  5
192
 10
148.069455
 20
484.652283
 30
0.0
 11
150.377111
 21
486.959939
 31
0.0
  0
LINE
  8
LC-003-005-----0
  6
CONTINUOUS
  5
193
 10
145.468576
 20
484.879831
 30
0.0
 11
147.776232
 21
487.187487
 31
0.0
  0
LINE
  8
LC-003-005-----0
  6
CONTINUOUS
  5
194
 10
142.867696
 20
485.107378
 30
0.0
 11
145.175352
 21
487.415034
 31
0.0
  0
LINE
  8
LC-003-005-----0
  6
CONTINUOUS
  5
195
 10
140.266816
 20
485.334926
 30
0.0
 11
142.574472
 21
487.642582
 31
0.0
  0
LINE
  8
LC-003-005-----0
  6
CONTINUOUS
  5
196
 10
138.567411
 20
486.463948
 30
0.0
 11
139.973593
 21
487.870129
 31
0.0
  0
ENDBLK
  8
0
  5
197
  0
BLOCK
  8
0
  5
199
  2
*X11
 70
    65
 10
162.823509
 20
429.884428
 30
0.0
  3
*X11
  0
LINE
  8
LC-003-005-----0
  6
CONTINUOUS
  5
19A
 10
217.833988
 20
429.966022
 30
0.0
 11
218.567411
 21
430.699446
 31
0.0
  0
LINE
  8
LC-003-005-----0
  6
CONTINUOUS
  5
19B
 10
215.288725
 20
430.249187
 30
0.0
 11
217.543189
 21
432.503651
 31
0.0
  0
LINE
  8
LC-003-005-----0
  6
CONTINUOUS
  5
19C
 10
212.743462
 20
430.532351
 30
0.0
 11
214.998596
 21
432.787485
 31
0.0
  0
LINE
  8
LC-003-005-----0
  6
CONTINUOUS
  5
19D
 10
210.198199
 20
430.815515
 30
0.0
 11
212.454004
 21
433.071319
 31
0.0
  0
LINE
  8
LC-003-005-----0
  6
CONTINUOUS
  5
19E
 10
207.652936
 20
431.098679
 30
0.0
 11
209.909411
 21
433.355154
 31
0.0
  0
LINE
  8
LC-003-005-----0
  6
CONTINUOUS
  5
19F
 10
205.107673
 20
431.381843
 30
0.0
 11
207.364818
 21
433.638988
 31
0.0
  0
LINE
  8
LC-003-005-----0
  6
CONTINUOUS
  5
1A0
 10
202.56241
 20
431.665007
 30
0.0
 11
204.820226
 21
433.922823
 31
0.0
  0
LINE
  8
LC-003-005-----0
  6
CONTINUOUS
  5
1A1
 10
200.017147
 20
431.948171
 30
0.0
 11
202.275633
 21
434.206657
 31
0.0
  0
LINE
  8
LC-003-005-----0
  6
CONTINUOUS
  5
1A2
 10
197.471884
 20
432.231335
 30
0.0
 11
199.73104
 21
434.490492
 31
0.0
  0
LINE
  8
LC-003-005-----0
  6
CONTINUOUS
  5
1A3
 10
194.926621
 20
432.5145
 30
0.0
 11
197.186447
 21
434.774326
 31
0.0
  0
LINE
  8
LC-003-005-----0
  6
CONTINUOUS
  5
1A4
 10
192.381358
 20
432.797664
 30
0.0
 11
194.641855
 21
435.05816
 31
0.0
  0
LINE
  8
LC-003-005-----0
  6
CONTINUOUS
  5
1A5
 10
189.836095
 20
433.080828
 30
0.0
 11
192.097262
 21
435.341995
 31
0.0
  0
LINE
  8
LC-003-005-----0
  6
CONTINUOUS
  5
1A6
 10
187.290832
 20
433.363992
 30
0.0
 11
189.552669
 21
435.625829
 31
0.0
  0
LINE
  8
LC-003-005-----0
  6
CONTINUOUS
  5
1A7
 10
184.745569
 20
433.647156
 30
0.0
 11
187.008077
 21
435.909664
 31
0.0
  0
LINE
  8
LC-003-005-----0
  6
CONTINUOUS
  5
1A8
 10
182.200306
 20
433.93032
 30
0.0
 11
184.463484
 21
436.193498
 31
0.0
  0
LINE
  8
LC-003-005-----0
  6
CONTINUOUS
  5
1A9
 10
179.655043
 20
434.213484
 30
0.0
 11
181.918891
 21
436.477333
 31
0.0
  0
LINE
  8
LC-003-005-----0
  6
CONTINUOUS
  5
1AA
 10
177.10978
 20
434.496648
 30
0.0
 11
179.374299
 21
436.761167
 31
0.0
  0
LINE
  8
LC-003-005-----0
  6
CONTINUOUS
  5
1AB
 10
174.564517
 20
434.779813
 30
0.0
 11
176.829706
 21
437.045001
 31
0.0
  0
LINE
  8
LC-003-005-----0
  6
CONTINUOUS
  5
1AC
 10
172.021997
 20
435.06572
 30
0.0
 11
174.285113
 21
437.328836
 31
0.0
  0
LINE
  8
LC-003-005-----0
  6
CONTINUOUS
  5
1AD
 10
169.845917
 20
435.718066
 30
0.0
 11
171.792331
 21
437.664481
 31
0.0
  0
LINE
  8
LC-003-005-----0
  6
CONTINUOUS
  5
1AE
 10
168.136945
 20
436.837522
 30
0.0
 11
169.923245
 21
438.623822
 31
0.0
  0
LINE
  8
LC-003-005-----0
  6
CONTINUOUS
  5
1AF
 10
166.815008
 20
438.344012
 30
0.0
 11
168.655097
 21
440.184101
 31
0.0
  0
LINE
  8
LC-003-005-----0
  6
CONTINUOUS
  5
1B0
 10
165.902865
 20
440.260296
 30
0.0
 11
168.083866
 21
442.441297
 31
0.0
  0
LINE
  8
LC-003-005-----0
  6
CONTINUOUS
  5
1B1
 10
165.472525
 20
442.658383
 30
0.0
 11
167.350574
 21
444.536432
 31
0.0
  0
LINE
  8
LC-003-005-----0
  6
CONTINUOUS
  5
1B2
 10
164.058311
 20
444.072597
 30
0.0
 11
165.93636
 21
445.950646
 31
0.0
  0
LINE
  8
LC-003-005-----0
  6
CONTINUOUS
  5
1B3
 10
162.87481
 20
445.717522
 30
0.0
 11
163.716141
 21
446.558854
 31
0.0
  0
ENDBLK
  8
0
  5
1B4
  0
BLOCK
  8
0
  5
1B6
  2
*X12
 70
    65
 10
222.567411
 20
427.993154
 30
0.0
  3
*X12
  0
LINE
  8
LC-003-005-----0
  6
CONTINUOUS
  5
1B7
 10
233.105566
 20
428.267038
 30
0.0
 11
235.355338
 21
430.516809
 31
0.0
  0
LINE
  8
LC-003-005-----0
  6
CONTINUOUS
  5
1B8
 10
230.560303
 20
428.550202
 30
0.0
 11
232.810745
 21
430.800644
 31
0.0
  0
LINE
  8
LC-003-005-----0
  6
CONTINUOUS
  5
1B9
 10
228.01504
 20
428.833366
 30
0.0
 11
230.266152
 21
431.084478
 31
0.0
  0
LINE
  8
LC-003-005-----0
  6
CONTINUOUS
  5
1BA
 10
225.469777
 20
429.11653
 30
0.0
 11
227.72156
 21
431.368313
 31
0.0
  0
LINE
  8
LC-003-005-----0
  6
CONTINUOUS
  5
1BB
 10
222.924514
 20
429.399694
 30
0.0
 11
225.176967
 21
431.652147
 31
0.0
  0
LINE
  8
LC-003-005-----0
  6
CONTINUOUS
  5
1BC
 10
222.567411
 20
431.871019
 30
0.0
 11
222.632374
 21
431.935982
 31
0.0
  0
ENDBLK
  8
0
  5
1BD
  0
BLOCK
  8
0
  5
1BF
  2
*X13
 70
    65
 10
307.696915
 20
477.558854
 30
0.0
  3
*X13
  0
LINE
  8
LC-003-005-----0
  6
CONTINUOUS
  5
1C0
 10
329.666298
 20
485.22979
 30
0.0
 11
332.416455
 21
487.979947
 31
0.0
  0
LINE
  8
LC-003-005-----0
  6
CONTINUOUS
  5
1C1
 10
326.56669
 20
484.958609
 30
0.0
 11
329.316847
 21
487.708766
 31
0.0
  0
LINE
  8
LC-003-005-----0
  6
CONTINUOUS
  5
1C2
 10
323.467083
 20
484.687429
 30
0.0
 11
326.21724
 21
487.437586
 31
0.0
  0
LINE
  8
LC-003-005-----0
  6
CONTINUOUS
  5
1C3
 10
320.367475
 20
484.416248
 30
0.0
 11
323.117632
 21
487.166405
 31
0.0
  0
LINE
  8
LC-003-005-----0
  6
CONTINUOUS
  5
1C4
 10
317.267867
 20
484.145068
 30
0.0
 11
320.018024
 21
486.895225
 31
0.0
  0
LINE
  8
LC-003-005-----0
  6
CONTINUOUS
  5
1C5
 10
307.853226
 20
477.558854
 30
0.0
 11
310.354047
 21
480.059674
 31
0.0
  0
LINE
  8
LC-003-005-----0
  6
CONTINUOUS
  5
1C6
 10
314.16826
 20
483.873887
 30
0.0
 11
316.918417
 21
486.624044
 31
0.0
  0
LINE
  8
LC-003-005-----0
  6
CONTINUOUS
  5
1C7
 10
307.870429
 20
480.404483
 30
0.0
 11
310.537711
 21
483.071766
 31
0.0
  0
LINE
  8
LC-003-005-----0
  6
CONTINUOUS
  5
1C8
 10
311.068652
 20
483.602707
 30
0.0
 11
313.818809
 21
486.352864
 31
0.0
  0
LINE
  8
LC-003-005-----0
  6
CONTINUOUS
  5
1C9
 10
308.054093
 20
483.416574
 30
0.0
 11
310.719202
 21
486.081683
 31
0.0
  0
ENDBLK
  8
0
  5
1CA
  0
BLOCK
  8
0
  5
1CC
  2
*X14
 70
    65
 10
252.567411
 20
429.884428
 30
0.0
  3
*X14
  0
LINE
  8
LC-003-005-----0
  6
CONTINUOUS
  5
1CD
 10
299.335909
 20
435.100411
 30
0.0
 11
305.464789
 21
441.229291
 31
0.0
  0
LINE
  8
LC-003-005-----0
  6
CONTINUOUS
  5
1CE
 10
296.138888
 20
434.731817
 30
0.0
 11
298.99046
 21
437.583389
 31
0.0
  0
LINE
  8
LC-003-005-----0
  6
CONTINUOUS
  5
1CF
 10
302.954597
 20
441.547526
 30
0.0
 11
307.965925
 21
446.558854
 31
0.0
  0
LINE
  8
LC-003-005-----0
  6
CONTINUOUS
  5
1D0
 10
292.956405
 20
434.377761
 30
0.0
 11
295.789184
 21
437.21054
 31
0.0
  0
LINE
  8
LC-003-005-----0
  6
CONTINUOUS
  5
1D1
 10
289.773922
 20
434.023705
 30
0.0
 11
292.605653
 21
436.855436
 31
0.0
  0
LINE
  8
LC-003-005-----0
  6
CONTINUOUS
  5
1D2
 10
286.591439
 20
433.66965
 30
0.0
 11
289.422121
 21
436.500332
 31
0.0
  0
LINE
  8
LC-003-005-----0
  6
CONTINUOUS
  5
1D3
 10
283.408956
 20
433.315594
 30
0.0
 11
286.23859
 21
436.145228
 31
0.0
  0
LINE
  8
LC-003-005-----0
  6
CONTINUOUS
  5
1D4
 10
280.226473
 20
432.961538
 30
0.0
 11
283.055058
 21
435.790123
 31
0.0
  0
LINE
  8
LC-003-005-----0
  6
CONTINUOUS
  5
1D5
 10
277.04399
 20
432.607482
 30
0.0
 11
279.871527
 21
435.435019
 31
0.0
  0
LINE
  8
LC-003-005-----0
  6
CONTINUOUS
  5
1D6
 10
273.861508
 20
432.253427
 30
0.0
 11
276.687996
 21
435.079915
 31
0.0
  0
LINE
  8
LC-003-005-----0
  6
CONTINUOUS
  5
1D7
 10
270.679025
 20
431.899371
 30
0.0
 11
273.504464
 21
434.72481
 31
0.0
  0
LINE
  8
LC-003-005-----0
  6
CONTINUOUS
  5
1D8
 10
267.496542
 20
431.545315
 30
0.0
 11
270.320933
 21
434.369706
 31
0.0
  0
LINE
  8
LC-003-005-----0
  6
CONTINUOUS
  5
1D9
 10
264.314059
 20
431.191259
 30
0.0
 11
267.137401
 21
434.014602
 31
0.0
  0
LINE
  8
LC-003-005-----0
  6
CONTINUOUS
  5
1DA
 10
261.131576
 20
430.837204
 30
0.0
 11
263.95387
 21
433.659497
 31
0.0
  0
LINE
  8
LC-003-005-----0
  6
CONTINUOUS
  5
1DB
 10
257.949093
 20
430.483148
 30
0.0
 11
260.770338
 21
433.304393
 31
0.0
  0
LINE
  8
LC-003-005-----0
  6
CONTINUOUS
  5
1DC
 10
254.76661
 20
430.129092
 30
0.0
 11
257.586807
 21
432.949289
 31
0.0
  0
LINE
  8
LC-003-005-----0
  6
CONTINUOUS
  5
1DD
 10
252.567411
 20
430.75832
 30
0.0
 11
254.403276
 21
432.594184
 31
0.0
  0
ENDBLK
  8
0
  5
1DE
  0
BLOCK
  8
0
  5
1E0
  2
*X15
 70
    65
 10
235.567411
 20
427.993154
 30
0.0
  3
*X15
  0
LINE
  8
LC-003-005-----0
  6
CONTINUOUS
  5
1E1
 10
248.401645
 20
429.420981
 30
0.0
 11
248.567411
 21
429.586747
 31
0.0
  0
LINE
  8
LC-003-005-----0
  6
CONTINUOUS
  5
1E2
 10
245.219162
 20
429.066925
 30
0.0
 11
248.036213
 21
431.883976
 31
0.0
  0
LINE
  8
LC-003-005-----0
  6
CONTINUOUS
  5
1E3
 10
242.036679
 20
428.712869
 30
0.0
 11
244.852681
 21
431.528871
 31
0.0
  0
LINE
  8
LC-003-005-----0
  6
CONTINUOUS
  5
1E4
 10
238.854196
 20
428.358813
 30
0.0
 11
241.66915
 21
431.173767
 31
0.0
  0
LINE
  8
LC-003-005-----0
  6
CONTINUOUS
  5
1E5
 10
235.671713
 20
428.004758
 30
0.0
 11
238.485618
 21
430.818663
 31
0.0
  0
ENDBLK
  8
0
  5
1E6
  0
BLOCK
  8
0
  5
1E8
  2
*X16
 70
    65
 10
311.567411
 20
239.983604
 30
0.0
  3
*X16
  0
LINE
  8
LC-003-005-----0
  6
CONTINUOUS
  5
1E9
 10
313.52271
 20
239.983604
 30
0.0
 11
314.66871
 21
241.129605
 31
0.0
  0
LINE
  8
LC-003-005-----0
  6
CONTINUOUS
  5
1EA
 10
311.567411
 20
240.856733
 30
0.0
 11
315.567411
 21
244.856733
 31
0.0
  0
LINE
  8
LC-003-005-----0
  6
CONTINUOUS
  5
1EB
 10
311.567411
 20
243.68516
 30
0.0
 11
315.567411
 21
247.68516
 31
0.0
  0
LINE
  8
LC-003-005-----0
  6
CONTINUOUS
  5
1EC
 10
311.567411
 20
246.513588
 30
0.0
 11
315.567411
 21
250.513588
 31
0.0
  0
LINE
  8
LC-003-005-----0
  6
CONTINUOUS
  5
1ED
 10
311.567411
 20
249.342015
 30
0.0
 11
315.567411
 21
253.342015
 31
0.0
  0
LINE
  8
LC-003-005-----0
  6
CONTINUOUS
  5
1EE
 10
311.567411
 20
252.170442
 30
0.0
 11
315.567411
 21
256.170442
 31
0.0
  0
LINE
  8
LC-003-005-----0
  6
CONTINUOUS
  5
1EF
 10
311.567411
 20
254.998869
 30
0.0
 11
315.567411
 21
258.998869
 31
0.0
  0
LINE
  8
LC-003-005-----0
  6
CONTINUOUS
  5
1F0
 10
311.567411
 20
257.827296
 30
0.0
 11
315.567411
 21
261.827296
 31
0.0
  0
LINE
  8
LC-003-005-----0
  6
CONTINUOUS
  5
1F1
 10
311.567411
 20
260.655723
 30
0.0
 11
315.567411
 21
264.655723
 31
0.0
  0
LINE
  8
LC-003-005-----0
  6
CONTINUOUS
  5
1F2
 10
311.567411
 20
263.48415
 30
0.0
 11
315.567411
 21
267.48415
 31
0.0
  0
LINE
  8
LC-003-005-----0
  6
CONTINUOUS
  5
1F3
 10
311.567411
 20
266.312577
 30
0.0
 11
315.567411
 21
270.312577
 31
0.0
  0
LINE
  8
LC-003-005-----0
  6
CONTINUOUS
  5
1F4
 10
311.567411
 20
269.141005
 30
0.0
 11
315.567411
 21
273.141005
 31
0.0
  0
LINE
  8
LC-003-005-----0
  6
CONTINUOUS
  5
1F5
 10
311.567411
 20
271.969432
 30
0.0
 11
315.567411
 21
275.969432
 31
0.0
  0
LINE
  8
LC-003-005-----0
  6
CONTINUOUS
  5
1F6
 10
311.567411
 20
274.797859
 30
0.0
 11
315.567411
 21
278.797859
 31
0.0
  0
LINE
  8
LC-003-005-----0
  6
CONTINUOUS
  5
1F7
 10
311.567411
 20
277.626286
 30
0.0
 11
315.567411
 21
281.626286
 31
0.0
  0
LINE
  8
LC-003-005-----0
  6
CONTINUOUS
  5
1F8
 10
311.567411
 20
280.454713
 30
0.0
 11
315.567411
 21
284.454713
 31
0.0
  0
LINE
  8
LC-003-005-----0
  6
CONTINUOUS
  5
1F9
 10
311.567411
 20
283.28314
 30
0.0
 11
315.567411
 21
287.28314
 31
0.0
  0
LINE
  8
LC-003-005-----0
  6
CONTINUOUS
  5
1FA
 10
311.567411
 20
286.111567
 30
0.0
 11
315.567411
 21
290.111567
 31
0.0
  0
LINE
  8
LC-003-005-----0
  6
CONTINUOUS
  5
1FB
 10
311.567411
 20
288.939994
 30
0.0
 11
315.567411
 21
292.939994
 31
0.0
  0
LINE
  8
LC-003-005-----0
  6
CONTINUOUS
  5
1FC
 10
311.567411
 20
291.768422
 30
0.0
 11
315.567411
 21
295.768422
 31
0.0
  0
LINE
  8
LC-003-005-----0
  6
CONTINUOUS
  5
1FD
 10
311.567411
 20
294.596849
 30
0.0
 11
315.567411
 21
298.596849
 31
0.0
  0
LINE
  8
LC-003-005-----0
  6
CONTINUOUS
  5
1FE
 10
311.567411
 20
297.425276
 30
0.0
 11
315.567411
 21
301.425276
 31
0.0
  0
LINE
  8
LC-003-005-----0
  6
CONTINUOUS
  5
1FF
 10
311.567411
 20
300.253703
 30
0.0
 11
318.027818
 21
306.714109
 31
0.0
  0
LINE
  8
LC-003-005-----0
  6
CONTINUOUS
  5
200
 10
311.567411
 20
303.08213
 30
0.0
 11
318.830619
 21
310.345338
 31
0.0
  0
LINE
  8
LC-003-005-----0
  6
CONTINUOUS
  5
201
 10
314.655106
 20
308.998251
 30
0.0
 11
319.012262
 21
313.355407
 31
0.0
  0
LINE
  8
LC-003-005-----0
  6
CONTINUOUS
  5
202
 10
314.929279
 20
312.100852
 30
0.0
 11
319.193904
 21
316.365477
 31
0.0
  0
LINE
  8
LC-003-005-----0
  6
CONTINUOUS
  5
203
 10
315.110921
 20
315.110921
 30
0.0
 11
319.375546
 21
319.375546
 31
0.0
  0
LINE
  8
LC-003-005-----0
  6
CONTINUOUS
  5
204
 10
315.292563
 20
318.120991
 30
0.0
 11
319.557188
 21
322.385615
 31
0.0
  0
LINE
  8
LC-003-005-----0
  6
CONTINUOUS
  5
205
 10
315.474206
 20
321.13106
 30
0.0
 11
319.73883
 21
325.395684
 31
0.0
  0
LINE
  8
LC-003-005-----0
  6
CONTINUOUS
  5
206
 10
315.655848
 20
324.141129
 30
0.0
 11
319.920472
 21
328.405753
 31
0.0
  0
LINE
  8
LC-003-005-----0
  6
CONTINUOUS
  5
207
 10
315.83749
 20
327.151198
 30
0.0
 11
320.102114
 21
331.415823
 31
0.0
  0
LINE
  8
LC-003-005-----0
  6
CONTINUOUS
  5
208
 10
316.019132
 20
330.161268
 30
0.0
 11
320.283756
 21
334.425892
 31
0.0
  0
LINE
  8
LC-003-005-----0
  6
CONTINUOUS
  5
209
 10
316.200774
 20
333.171337
 30
0.0
 11
320.465398
 21
337.435961
 31
0.0
  0
LINE
  8
LC-003-005-----0
  6
CONTINUOUS
  5
20A
 10
316.382416
 20
336.181406
 30
0.0
 11
320.647041
 21
340.44603
 31
0.0
  0
LINE
  8
LC-003-005-----0
  6
CONTINUOUS
  5
20B
 10
316.564058
 20
339.191475
 30
0.0
 11
320.828683
 21
343.4561
 31
0.0
  0
LINE
  8
LC-003-005-----0
  6
CONTINUOUS
  5
20C
 10
316.7457
 20
342.201544
 30
0.0
 11
321.010325
 21
346.466169
 31
0.0
  0
LINE
  8
LC-003-005-----0
  6
CONTINUOUS
  5
20D
 10
316.927342
 20
345.211614
 30
0.0
 11
321.191967
 21
349.476238
 31
0.0
  0
LINE
  8
LC-003-005-----0
  6
CONTINUOUS
  5
20E
 10
317.108985
 20
348.221683
 30
0.0
 11
321.373609
 21
352.486307
 31
0.0
  0
LINE
  8
LC-003-005-----0
  6
CONTINUOUS
  5
20F
 10
317.290627
 20
351.231752
 30
0.0
 11
321.555251
 21
355.496377
 31
0.0
  0
LINE
  8
LC-003-005-----0
  6
CONTINUOUS
  5
210
 10
317.472269
 20
354.241821
 30
0.0
 11
321.736893
 21
358.506446
 31
0.0
  0
LINE
  8
LC-003-005-----0
  6
CONTINUOUS
  5
211
 10
317.653911
 20
357.251891
 30
0.0
 11
321.918535
 21
361.516515
 31
0.0
  0
LINE
  8
LC-003-005-----0
  6
CONTINUOUS
  5
212
 10
317.835553
 20
360.26196
 30
0.0
 11
322.100177
 21
364.526584
 31
0.0
  0
LINE
  8
LC-003-005-----0
  6
CONTINUOUS
  5
213
 10
318.017195
 20
363.272029
 30
0.0
 11
322.28182
 21
367.536654
 31
0.0
  0
LINE
  8
LC-003-005-----0
  6
CONTINUOUS
  5
214
 10
318.198837
 20
366.282098
 30
0.0
 11
322.463462
 21
370.546723
 31
0.0
  0
LINE
  8
LC-003-005-----0
  6
CONTINUOUS
  5
215
 10
318.380479
 20
369.292168
 30
0.0
 11
322.645104
 21
373.556792
 31
0.0
  0
LINE
  8
LC-003-005-----0
  6
CONTINUOUS
  5
216
 10
318.562121
 20
372.302237
 30
0.0
 11
322.826746
 21
376.566861
 31
0.0
  0
LINE
  8
LC-003-005-----0
  6
CONTINUOUS
  5
217
 10
318.743764
 20
375.312306
 30
0.0
 11
323.008388
 21
379.57693
 31
0.0
  0
LINE
  8
LC-003-005-----0
  6
CONTINUOUS
  5
218
 10
318.925406
 20
378.322375
 30
0.0
 11
323.19003
 21
382.587
 31
0.0
  0
LINE
  8
LC-003-005-----0
  6
CONTINUOUS
  5
219
 10
319.107048
 20
381.332445
 30
0.0
 11
323.371672
 21
385.597069
 31
0.0
  0
LINE
  8
LC-003-005-----0
  6
CONTINUOUS
  5
21A
 10
319.28869
 20
384.342514
 30
0.0
 11
323.553314
 21
388.607138
 31
0.0
  0
LINE
  8
LC-003-005-----0
  6
CONTINUOUS
  5
21B
 10
319.470332
 20
387.352583
 30
0.0
 11
323.734956
 21
391.617207
 31
0.0
  0
LINE
  8
LC-003-005-----0
  6
CONTINUOUS
  5
21C
 10
319.651974
 20
390.362652
 30
0.0
 11
323.916599
 21
394.627277
 31
0.0
  0
LINE
  8
LC-003-005-----0
  6
CONTINUOUS
  5
21D
 10
319.833616
 20
393.372721
 30
0.0
 11
324.098241
 21
397.637346
 31
0.0
  0
LINE
  8
LC-003-005-----0
  6
CONTINUOUS
  5
21E
 10
320.015258
 20
396.382791
 30
0.0
 11
324.279883
 21
400.647415
 31
0.0
  0
LINE
  8
LC-003-005-----0
  6
CONTINUOUS
  5
21F
 10
320.1969
 20
399.39286
 30
0.0
 11
324.461525
 21
403.657484
 31
0.0
  0
LINE
  8
LC-003-005-----0
  6
CONTINUOUS
  5
220
 10
320.378543
 20
402.402929
 30
0.0
 11
324.643167
 21
406.667554
 31
0.0
  0
LINE
  8
LC-003-005-----0
  6
CONTINUOUS
  5
221
 10
320.560185
 20
405.412998
 30
0.0
 11
324.824809
 21
409.677623
 31
0.0
  0
LINE
  8
LC-003-005-----0
  6
CONTINUOUS
  5
222
 10
320.741827
 20
408.423068
 30
0.0
 11
325.006451
 21
412.687692
 31
0.0
  0
LINE
  8
LC-003-005-----0
  6
CONTINUOUS
  5
223
 10
320.923469
 20
411.433137
 30
0.0
 11
325.188093
 21
415.697761
 31
0.0
  0
LINE
  8
LC-003-005-----0
  6
CONTINUOUS
  5
224
 10
321.105111
 20
414.443206
 30
0.0
 11
325.369735
 21
418.707831
 31
0.0
  0
LINE
  8
LC-003-005-----0
  6
CONTINUOUS
  5
225
 10
321.286753
 20
417.453275
 30
0.0
 11
325.551377
 21
421.7179
 31
0.0
  0
LINE
  8
LC-003-005-----0
  6
CONTINUOUS
  5
226
 10
321.468395
 20
420.463345
 30
0.0
 11
325.567411
 21
424.562361
 31
0.0
  0
LINE
  8
LC-003-005-----0
  6
CONTINUOUS
  5
227
 10
321.567411
 20
423.390788
 30
0.0
 11
325.567411
 21
427.390788
 31
0.0
  0
LINE
  8
LC-003-005-----0
  6
CONTINUOUS
  5
228
 10
321.567411
 20
426.219215
 30
0.0
 11
325.567411
 21
430.219215
 31
0.0
  0
LINE
  8
LC-003-005-----0
  6
CONTINUOUS
  5
229
 10
321.567411
 20
429.047642
 30
0.0
 11
329.567411
 21
437.047642
 31
0.0
  0
LINE
  8
LC-003-005-----0
  6
CONTINUOUS
  5
22A
 10
321.567411
 20
431.876069
 30
0.0
 11
329.567411
 21
439.876069
 31
0.0
  0
LINE
  8
LC-003-005-----0
  6
CONTINUOUS
  5
22B
 10
321.567411
 20
434.704496
 30
0.0
 11
322.846519
 21
435.983604
 31
0.0
  0
LINE
  8
LC-003-005-----0
  6
CONTINUOUS
  5
22C
 10
325.567411
 20
438.704496
 30
0.0
 11
329.567411
 21
442.704496
 31
0.0
  0
LINE
  8
LC-003-005-----0
  6
CONTINUOUS
  5
22D
 10
325.567411
 20
441.532924
 30
0.0
 11
329.567411
 21
445.532924
 31
0.0
  0
LINE
  8
LC-003-005-----0
  6
CONTINUOUS
  5
22E
 10
325.567411
 20
444.361351
 30
0.0
 11
329.567411
 21
448.361351
 31
0.0
  0
LINE
  8
LC-003-005-----0
  6
CONTINUOUS
  5
22F
 10
325.567411
 20
447.189778
 30
0.0
 11
329.567411
 21
451.189778
 31
0.0
  0
LINE
  8
LC-003-005-----0
  6
CONTINUOUS
  5
230
 10
325.567411
 20
450.018205
 30
0.0
 11
329.567411
 21
454.018205
 31
0.0
  0
LINE
  8
LC-003-005-----0
  6
CONTINUOUS
  5
231
 10
325.567411
 20
452.846632
 30
0.0
 11
329.567411
 21
456.846632
 31
0.0
  0
LINE
  8
LC-003-005-----0
  6
CONTINUOUS
  5
232
 10
325.567411
 20
455.675059
 30
0.0
 11
329.567411
 21
459.675059
 31
0.0
  0
LINE
  8
LC-003-005-----0
  6
CONTINUOUS
  5
233
 10
325.567411
 20
458.503486
 30
0.0
 11
329.567411
 21
462.503486
 31
0.0
  0
LINE
  8
LC-003-005-----0
  6
CONTINUOUS
  5
234
 10
331.116632
 20
464.052707
 30
0.0
 11
337.998309
 21
470.934384
 31
0.0
  0
LINE
  8
LC-003-005-----0
  6
CONTINUOUS
  5
235
 10
325.567411
 20
461.331913
 30
0.0
 11
338.067411
 21
473.831913
 31
0.0
  0
LINE
  8
LC-003-005-----0
  6
CONTINUOUS
  5
236
 10
325.567411
 20
464.160341
 30
0.0
 11
329.390675
 21
467.983604
 31
0.0
  0
LINE
  8
LC-003-005-----0
  6
CONTINUOUS
  5
237
 10
334.067411
 20
472.660341
 30
0.0
 11
338.067411
 21
476.660341
 31
0.0
  0
LINE
  8
LC-003-005-----0
  6
CONTINUOUS
  5
238
 10
325.567411
 20
466.988768
 30
0.0
 11
326.562248
 21
467.983604
 31
0.0
  0
LINE
  8
LC-003-005-----0
  6
CONTINUOUS
  5
239
 10
334.067411
 20
475.488768
 30
0.0
 11
338.067411
 21
479.488768
 31
0.0
  0
LINE
  8
LC-003-005-----0
  6
CONTINUOUS
  5
23A
 10
348.562248
 20
489.983604
 30
0.0
 11
353.567411
 21
494.988768
 31
0.0
  0
LINE
  8
LC-003-005-----0
  6
CONTINUOUS
  5
23B
 10
334.067411
 20
478.317195
 30
0.0
 11
338.067411
 21
482.317195
 31
0.0
  0
LINE
  8
LC-003-005-----0
  6
CONTINUOUS
  5
23C
 10
345.733821
 20
489.983604
 30
0.0
 11
353.567411
 21
497.817195
 31
0.0
  0
LINE
  8
LC-003-005-----0
  6
CONTINUOUS
  5
23D
 10
334.067411
 20
481.145622
 30
0.0
 11
338.067411
 21
485.145622
 31
0.0
  0
LINE
  8
LC-003-005-----0
  6
CONTINUOUS
  5
23E
 10
342.905394
 20
489.983604
 30
0.0
 11
346.905394
 21
493.983604
 31
0.0
  0
LINE
  8
LC-003-005-----0
  6
CONTINUOUS
  5
23F
 10
349.567411
 20
496.645622
 30
0.0
 11
353.567411
 21
500.645622
 31
0.0
  0
LINE
  8
LC-003-005-----0
  6
CONTINUOUS
  5
240
 10
334.067411
 20
483.974049
 30
0.0
 11
338.067411
 21
487.974049
 31
0.0
  0
LINE
  8
LC-003-005-----0
  6
CONTINUOUS
  5
241
 10
340.076967
 20
489.983604
 30
0.0
 11
344.076967
 21
493.983604
 31
0.0
  0
LINE
  8
LC-003-005-----0
  6
CONTINUOUS
  5
242
 10
349.567411
 20
499.474049
 30
0.0
 11
353.567411
 21
503.474049
 31
0.0
  0
LINE
  8
LC-003-005-----0
  6
CONTINUOUS
  5
243
 10
334.067411
 20
486.802476
 30
0.0
 11
341.24854
 21
493.983604
 31
0.0
  0
LINE
  8
LC-003-005-----0
  6
CONTINUOUS
  5
244
 10
349.567411
 20
502.302476
 30
0.0
 11
353.567411
 21
506.302476
 31
0.0
  0
LINE
  8
LC-003-005-----0
  6
CONTINUOUS
  5
245
 10
357.24854
 20
509.983604
 30
0.0
 11
357.567411
 21
510.302476
 31
0.0
  0
LINE
  8
LC-003-005-----0
  6
CONTINUOUS
  5
246
 10
334.067411
 20
489.630903
 30
0.0
 11
338.420112
 21
493.983604
 31
0.0
  0
LINE
  8
LC-003-005-----0
  6
CONTINUOUS
  5
247
 10
349.567411
 20
505.130903
 30
0.0
 11
353.567411
 21
509.130903
 31
0.0
  0
LINE
  8
LC-003-005-----0
  6
CONTINUOUS
  5
248
 10
354.420112
 20
509.983604
 30
0.0
 11
357.567411
 21
513.130903
 31
0.0
  0
LINE
  8
LC-003-005-----0
  6
CONTINUOUS
  5
249
 10
334.067411
 20
492.45933
 30
0.0
 11
335.591685
 21
493.983604
 31
0.0
  0
LINE
  8
LC-003-005-----0
  6
CONTINUOUS
  5
24A
 10
349.567411
 20
507.95933
 30
0.0
 11
355.591685
 21
513.983604
 31
0.0
  0
LINE
  8
LC-003-005-----0
  6
CONTINUOUS
  5
24B
 10
349.567411
 20
510.787758
 30
0.0
 11
352.763258
 21
513.983604
 31
0.0
  0
LINE
  8
LC-003-005-----0
  6
CONTINUOUS
  5
24C
 10
349.567411
 20
513.616185
 30
0.0
 11
349.934831
 21
513.983604
 31
0.0
  0
ENDBLK
  8
0
  5
24D
  0
BLOCK
  8
0
  5
24F
  2
*D17
 70
    65
 10
0.0
 20
0.0
 30
0.0
  3
*D17
  0
LINE
  8
LC-005-003-MTH-0
  6
CONTINUOUS
  5
251
 10
155.567411
 20
244.483604
 30
0.0
 11
155.567411
 21
169.2
 31
0.0
  0
LINE
  8
LC-005-003-MTH-0
  6
CONTINUOUS
  5
252
 10
315.567411
 20
244.483604
 30
0.0
 11
315.567411
 21
169.2
 31
0.0
  0
LINE
  8
LC-006-003-MTG-0
  6
CONTINUOUS
  5
254
 10
155.567411
 20
180.0
 30
0.0
 11
315.567411
 21
180.0
 31
0.0
  0
LINE
  8
LC-004-003-----0
  6
CONTINUOUS
  5
256
 10
173.413419
 20
182.349471
 30
0.0
 11
155.567411
 21
180.0
 31
0.0
  0
LINE
  8
LC-004-003-----0
  6
CONTINUOUS
  5
257
 10
155.567411
 20
180.0
 30
0.0
 11
173.413419
 21
177.650529
 31
0.0
  0
LINE
  8
LC-004-003-----0
  6
CONTINUOUS
  5
258
 10
173.413419
 20
177.650529
 30
0.0
 11
173.413419
 21
182.349471
 31
0.0
  0
LINE
  8
LC-004-003-----0
  6
CONTINUOUS
  5
259
 10
173.453457
 20
181.738609
 30
0.0
 11
160.247411
 21
180.0
 31
0.0
  0
LINE
  8
LC-004-003-----0
  6
CONTINUOUS
  5
25A
 10
160.247411
 20
180.0
 30
0.0
 11
173.453457
 21
178.261391
 31
0.0
  0
LINE
  8
LC-004-003-----0
  6
CONTINUOUS
  5
25B
 10
173.493495
 20
181.127746
 30
0.0
 11
164.927411
 21
180.0
 31
0.0
  0
LINE
  8
LC-004-003-----0
  6
CONTINUOUS
  5
25C
 10
164.927411
 20
180.0
 30
0.0
 11
173.493495
 21
178.872254
 31
0.0
  0
LINE
  8
LC-004-003-----0
  6
CONTINUOUS
  5
25D
 10
173.533533
 20
180.516884
 30
0.0
 11
169.607411
 21
180.0
 31
0.0
  0
LINE
  8
LC-004-003-----0
  6
CONTINUOUS
  5
25E
 10
169.607411
 20
180.0
 30
0.0
 11
173.533533
 21
179.483116
 31
0.0
  0
LINE
  8
LC-004-003-----0
  6
CONTINUOUS
  5
25F
 10
297.721404
 20
177.650529
 30
0.0
 11
315.567411
 21
180.0
 31
0.0
  0
LINE
  8
LC-004-003-----0
  6
CONTINUOUS
  5
260
 10
315.567411
 20
180.0
 30
0.0
 11
297.721404
 21
182.349471
 31
0.0
  0
LINE
  8
LC-004-003-----0
  6
CONTINUOUS
  5
261
 10
297.721404
 20
182.349471
 30
0.0
 11
297.721404
 21
177.650529
 31
0.0
  0
LINE
  8
LC-004-003-----0
  6
CONTINUOUS
  5
262
 10
297.681366
 20
178.261391
 30
0.0
 11
310.887411
 21
180.0
 31
0.0
  0
LINE
  8
LC-004-003-----0
  6
CONTINUOUS
  5
263
 10
310.887411
 20
180.0
 30
0.0
 11
297.681366
 21
181.738609
 31
0.0
  0
LINE
  8
LC-004-003-----0
  6
CONTINUOUS
  5
264
 10
297.641328
 20
178.872254
 30
0.0
 11
306.207411
 21
180.0
 31
0.0
  0
LINE
  8
LC-004-003-----0
  6
CONTINUOUS
  5
265
 10
306.207411
 20
180.0
 30
0.0
 11
297.641328
 21
181.127746
 31
0.0
  0
LINE
  8
LC-004-003-----0
  6
CONTINUOUS
  5
266
 10
297.60129
 20
179.483116
 30
0.0
 11
301.527411
 21
180.0
 31
0.0
  0
LINE
  8
LC-004-003-----0
  6
CONTINUOUS
  5
267
 10
301.527411
 20
180.0
 30
0.0
 11
297.60129
 21
180.516884
 31
0.0
  0
TEXT
  8
LC-004-003-----0
  6
CONTINUOUS
 62
     6
  5
269
 10
204.687067
 20
190.431999
 30
0.0
 40
18.0
  1
DN150
 41
0.9
 51
15.0
  7
LC-TXTSTYLE-150-400-0-0-D0
 72
     1
 11
238.362657
 21
190.431999
 31
0.0
  0
ENDBLK
  8
0
  5
26A
  0
BLOCK
  8
0
  5
26C
  2
*D18
 70
    65
 10
0.0
 20
0.0
 30
0.0
  3
*D18
  0
LINE
  8
LC-005-003-MTH-0
  6
CONTINUOUS
  5
26D
 10
152.446722
 20
307.983604
 30
0.0
 11
152.446722
 21
140.4
 31
0.0
  0
LINE
  8
LC-005-003-MTH-0
  6
CONTINUOUS
  5
26E
 10
318.688101
 20
307.983604
 30
0.0
 11
318.688101
 21
140.4
 31
0.0
  0
LINE
  8
LC-006-003-MTG-0
  6
CONTINUOUS
  5
26F
 10
152.446722
 20
151.2
 30
0.0
 11
318.688101
 21
151.2
 31
0.0
  0
LINE
  8
LC-004-003-----0
  6
CONTINUOUS
  5
270
 10
170.292729
 20
153.549471
 30
0.0
 11
152.446722
 21
151.2
 31
0.0
  0
LINE
  8
LC-004-003-----0
  6
CONTINUOUS
  5
271
 10
152.446722
 20
151.2
 30
0.0
 11
170.292729
 21
148.850529
 31
0.0
  0
LINE
  8
LC-004-003-----0
  6
CONTINUOUS
  5
272
 10
170.292729
 20
148.850529
 30
0.0
 11
170.292729
 21
153.549471
 31
0.0
  0
LINE
  8
LC-004-003-----0
  6
CONTINUOUS
  5
273
 10
170.332767
 20
152.938609
 30
0.0
 11
157.126722
 21
151.2
 31
0.0
  0
LINE
  8
LC-004-003-----0
  6
CONTINUOUS
  5
274
 10
157.126722
 20
151.2
 30
0.0
 11
170.332767
 21
149.461391
 31
0.0
  0
LINE
  8
LC-004-003-----0
  6
CONTINUOUS
  5
275
 10
170.372805
 20
152.327746
 30
0.0
 11
161.806722
 21
151.2
 31
0.0
  0
LINE
  8
LC-004-003-----0
  6
CONTINUOUS
  5
276
 10
161.806722
 20
151.2
 30
0.0
 11
170.372805
 21
150.072254
 31
0.0
  0
LINE
  8
LC-004-003-----0
  6
CONTINUOUS
  5
277
 10
170.412843
 20
151.716884
 30
0.0
 11
166.486722
 21
151.2
 31
0.0
  0
LINE
  8
LC-004-003-----0
  6
CONTINUOUS
  5
278
 10
166.486722
 20
151.2
 30
0.0
 11
170.412843
 21
150.683116
 31
0.0
  0
LINE
  8
LC-004-003-----0
  6
CONTINUOUS
  5
279
 10
300.842094
 20
148.850529
 30
0.0
 11
318.688101
 21
151.2
 31
0.0
  0
LINE
  8
LC-004-003-----0
  6
CONTINUOUS
  5
27A
 10
318.688101
 20
151.2
 30
0.0
 11
300.842094
 21
153.549471
 31
0.0
  0
LINE
  8
LC-004-003-----0
  6
CONTINUOUS
  5
27B
 10
300.842094
 20
153.549471
 30
0.0
 11
300.842094
 21
148.850529
 31
0.0
  0
LINE
  8
LC-004-003-----0
  6
CONTINUOUS
  5
27C
 10
300.802055
 20
149.461391
 30
0.0
 11
314.008101
 21
151.2
 31
0.0
  0
LINE
  8
LC-004-003-----0
  6
CONTINUOUS
  5
27D
 10
314.008101
 20
151.2
 30
0.0
 11
300.802055
 21
152.938609
 31
0.0
  0
LINE
  8
LC-004-003-----0
  6
CONTINUOUS
  5
27E
 10
300.762017
 20
150.072254
 30
0.0
 11
309.328101
 21
151.2
 31
0.0
  0
LINE
  8
LC-004-003-----0
  6
CONTINUOUS
  5
27F
 10
309.328101
 20
151.2
 30
0.0
 11
300.762017
 21
152.327746
 31
0.0
  0
LINE
  8
LC-004-003-----0
  6
CONTINUOUS
  5
280
 10
300.721979
 20
150.683116
 30
0.0
 11
304.648101
 21
151.2
 31
0.0
  0
LINE
  8
LC-004-003-----0
  6
CONTINUOUS
  5
281
 10
304.648101
 20
151.2
 30
0.0
 11
300.721979
 21
151.716884
 31
0.0
  0
TEXT
  8
LC-004-003-----0
  6
CONTINUOUS
 62
     6
  5
282
 10
213.871318
 20
156.231999
 30
0.0
 40
18.0
  1
Ø166
 51
15.0
  7
LC-TXTSTYLE-150-400-0-0-D0
 72
     1
 11
238.362657
 21
156.231999
 31
0.0
  0
ENDBLK
  8
0
  5
283
  0
BLOCK
  8
0
  5
285
  2
*D19
 70
    65
 10
0.0
 20
0.0
 30
0.0
  3
*D19
  0
LINE
  8
LC-005-003-MTH-0
  6
CONTINUOUS
  5
286
 10
348.567411
 20
489.983604
 30
0.0
 11
410.8
 21
489.983604
 31
0.0
  0
LINE
  8
LC-005-003-MTH-0
  6
CONTINUOUS
  5
287
 10
357.567411
 20
513.983604
 30
0.0
 11
410.8
 21
513.983604
 31
0.0
  0
LINE
  8
LC-004-003-----0
  6
CONTINUOUS
  5
288
 10
402.349471
 20
472.137597
 30
0.0
 11
400.0
 21
489.983604
 31
0.0
  0
LINE
  8
LC-004-003-----0
  6
CONTINUOUS
  5
289
 10
400.0
 20
489.983604
 30
0.0
 11
397.650529
 21
472.137597
 31
0.0
  0
LINE
  8
LC-004-003-----0
  6
CONTINUOUS
  5
28A
 10
397.650529
 20
472.137597
 30
0.0
 11
402.349471
 21
472.137597
 31
0.0
  0
LINE
  8
LC-004-003-----0
  6
CONTINUOUS
  5
28B
 10
401.738609
 20
472.097559
 30
0.0
 11
400.0
 21
485.303604
 31
0.0
  0
LINE
  8
LC-004-003-----0
  6
CONTINUOUS
  5
28C
 10
400.0
 20
485.303604
 30
0.0
 11
398.261391
 21
472.097559
 31
0.0
  0
LINE
  8
LC-004-003-----0
  6
CONTINUOUS
  5
28D
 10
401.127746
 20
472.057521
 30
0.0
 11
400.0
 21
480.623604
 31
0.0
  0
LINE
  8
LC-004-003-----0
  6
CONTINUOUS
  5
28E
 10
400.0
 20
480.623604
 30
0.0
 11
398.872254
 21
472.057521
 31
0.0
  0
LINE
  8
LC-004-003-----0
  6
CONTINUOUS
  5
28F
 10
400.516884
 20
472.017483
 30
0.0
 11
400.0
 21
475.943604
 31
0.0
  0
LINE
  8
LC-004-003-----0
  6
CONTINUOUS
  5
290
 10
400.0
 20
475.943604
 30
0.0
 11
399.483116
 21
472.017483
 31
0.0
  0
LINE
  8
LC-004-003-----0
  6
CONTINUOUS
  5
291
 10
397.650529
 20
531.829612
 30
0.0
 11
400.0
 21
513.983604
 31
0.0
  0
LINE
  8
LC-004-003-----0
  6
CONTINUOUS
  5
292
 10
400.0
 20
513.983604
 30
0.0
 11
402.349471
 21
531.829612
 31
0.0
  0
LINE
  8
LC-004-003-----0
  6
CONTINUOUS
  5
293
 10
402.349471
 20
531.829612
 30
0.0
 11
397.650529
 21
531.829612
 31
0.0
  0
LINE
  8
LC-004-003-----0
  6
CONTINUOUS
  5
294
 10
398.261391
 20
531.86965
 30
0.0
 11
400.0
 21
518.663604
 31
0.0
  0
LINE
  8
LC-004-003-----0
  6
CONTINUOUS
  5
295
 10
400.0
 20
518.663604
 30
0.0
 11
401.738609
 21
531.86965
 31
0.0
  0
LINE
  8
LC-004-003-----0
  6
CONTINUOUS
  5
296
 10
398.872254
 20
531.909688
 30
0.0
 11
400.0
 21
523.343604
 31
0.0
  0
LINE
  8
LC-004-003-----0
  6
CONTINUOUS
  5
297
 10
400.0
 20
523.343604
 30
0.0
 11
401.127746
 21
531.909688
 31
0.0
  0
LINE
  8
LC-004-003-----0
  6
CONTINUOUS
  5
298
 10
399.483116
 20
531.949726
 30
0.0
 11
400.0
 21
528.023604
 31
0.0
  0
LINE
  8
LC-004-003-----0
  6
CONTINUOUS
  5
299
 10
400.0
 20
528.023604
 30
0.0
 11
400.516884
 21
531.949726
 31
0.0
  0
LINE
  8
LC-006-003-MTG-0
  6
CONTINUOUS
  5
29A
 10
400.0
 20
464.783604
 30
0.0
 11
400.0
 21
571.986124
 31
0.0
  0
TEXT
  8
LC-004-003-----0
  6
CONTINUOUS
 62
     6
  5
29B
 10
389.568001
 20
541.25885
 30
0.0
 40
18.0
  1
24
 50
90.0
 51
15.0
  7
LC-TXTSTYLE-150-400-0-0-D0
  0
ENDBLK
  8
0
  5
29C
  0
BLOCK
  8
0
  5
29E
  2
*D20
 70
    65
 10
0.0
 20
0.0
 30
0.0
  3
*D20
  0
LINE
  8
LC-005-003-MTH-0
  6
CONTINUOUS
  5
29F
 10
316.25801
 20
301.983604
 30
0.0
 11
442.8
 21
301.983604
 31
0.0
  0
LINE
  8
LC-005-003-MTH-0
  6
CONTINUOUS
  5
2A0
 10
357.567411
 20
513.983604
 30
0.0
 11
442.8
 21
513.983604
 31
0.0
  0
LINE
  8
LC-006-003-MTG-0
  6
CONTINUOUS
  5
2A1
 10
432.0
 20
301.983604
 30
0.0
 11
432.0
 21
513.983604
 31
0.0
  0
LINE
  8
LC-004-003-----0
  6
CONTINUOUS
  5
2A2
 10
429.650529
 20
319.829612
 30
0.0
 11
432.0
 21
301.983604
 31
0.0
  0
LINE
  8
LC-004-003-----0
  6
CONTINUOUS
  5
2A3
 10
432.0
 20
301.983604
 30
0.0
 11
434.349471
 21
319.829612
 31
0.0
  0
LINE
  8
LC-004-003-----0
  6
CONTINUOUS
  5
2A4
 10
434.349471
 20
319.829612
 30
0.0
 11
429.650529
 21
319.829612
 31
0.0
  0
LINE
  8
LC-004-003-----0
  6
CONTINUOUS
  5
2A5
 10
430.261391
 20
319.86965
 30
0.0
 11
432.0
 21
306.663604
 31
0.0
  0
LINE
  8
LC-004-003-----0
  6
CONTINUOUS
  5
2A6
 10
432.0
 20
306.663604
 30
0.0
 11
433.738609
 21
319.86965
 31
0.0
  0
LINE
  8
LC-004-003-----0
  6
CONTINUOUS
  5
2A7
 10
430.872254
 20
319.909688
 30
0.0
 11
432.0
 21
311.343604
 31
0.0
  0
LINE
  8
LC-004-003-----0
  6
CONTINUOUS
  5
2A8
 10
432.0
 20
311.343604
 30
0.0
 11
433.127746
 21
319.909688
 31
0.0
  0
LINE
  8
LC-004-003-----0
  6
CONTINUOUS
  5
2A9
 10
431.483116
 20
319.949726
 30
0.0
 11
432.0
 21
316.023604
 31
0.0
  0
LINE
  8
LC-004-003-----0
  6
CONTINUOUS
  5
2AA
 10
432.0
 20
316.023604
 30
0.0
 11
432.516884
 21
319.949726
 31
0.0
  0
LINE
  8
LC-004-003-----0
  6
CONTINUOUS
  5
2AB
 10
434.349471
 20
496.137597
 30
0.0
 11
432.0
 21
513.983604
 31
0.0
  0
LINE
  8
LC-004-003-----0
  6
CONTINUOUS
  5
2AC
 10
432.0
 20
513.983604
 30
0.0
 11
429.650529
 21
496.137597
 31
0.0
  0
LINE
  8
LC-004-003-----0
  6
CONTINUOUS
  5
2AD
 10
429.650529
 20
496.137597
 30
0.0
 11
434.349471
 21
496.137597
 31
0.0
  0
LINE
  8
LC-004-003-----0
  6
CONTINUOUS
  5
2AE
 10
433.738609
 20
496.097559
 30
0.0
 11
432.0
 21
509.303604
 31
0.0
  0
LINE
  8
LC-004-003-----0
  6
CONTINUOUS
  5
2AF
 10
432.0
 20
509.303604
 30
0.0
 11
430.261391
 21
496.097559
 31
0.0
  0
LINE
  8
LC-004-003-----0
  6
CONTINUOUS
  5
2B0
 10
433.127746
 20
496.057521
 30
0.0
 11
432.0
 21
504.623604
 31
0.0
  0
LINE
  8
LC-004-003-----0
  6
CONTINUOUS
  5
2B1
 10
432.0
 20
504.623604
 30
0.0
 11
430.872254
 21
496.057521
 31
0.0
  0
LINE
  8
LC-004-003-----0
  6
CONTINUOUS
  5
2B2
 10
432.516884
 20
496.017483
 30
0.0
 11
432.0
 21
499.943604
 31
0.0
  0
LINE
  8
LC-004-003-----0
  6
CONTINUOUS
  5
2B3
 10
432.0
 20
499.943604
 30
0.0
 11
431.483116
 21
496.017483
 31
0.0
  0
TEXT
  8
LC-004-003-----0
  6
CONTINUOUS
 62
     6
  5
2B4
 10
421.568001
 20
391.644992
 30
0.0
 40
18.0
  1
213
 50
90.0
 51
15.0
  7
LC-TXTSTYLE-150-400-0-0-D0
 72
     1
 11
421.568001
 21
410.77885
 31
0.0
  0
ENDBLK
  8
0
  5
2B5
  0
BLOCK
  8
0
  5
2B7
  2
*D21
 70
    65
 10
0.0
 20
0.0
 30
0.0
  3
*D21
  0
LINE
  8
LC-005-003-MTH-0
  6
CONTINUOUS
  5
2B8
 10
113.567411
 20
513.983604
 30
0.0
 11
113.567411
 21
586.8
 31
0.0
  0
LINE
  8
LC-005-003-MTH-0
  6
CONTINUOUS
  5
2B9
 10
357.567411
 20
513.983604
 30
0.0
 11
357.567411
 21
586.8
 31
0.0
  0
LINE
  8
LC-006-003-MTG-0
  6
CONTINUOUS
  5
2BA
 10
113.567411
 20
576.0
 30
0.0
 11
357.567411
 21
576.0
 31
0.0
  0
LINE
  8
LC-004-003-----0
  6
CONTINUOUS
  5
2BB
 10
131.413419
 20
578.349471
 30
0.0
 11
113.567411
 21
576.0
 31
0.0
  0
LINE
  8
LC-004-003-----0
  6
CONTINUOUS
  5
2BC
 10
113.567411
 20
576.0
 30
0.0
 11
131.413419
 21
573.650529
 31
0.0
  0
LINE
  8
LC-004-003-----0
  6
CONTINUOUS
  5
2BD
 10
131.413419
 20
573.650529
 30
0.0
 11
131.413419
 21
578.349471
 31
0.0
  0
LINE
  8
LC-004-003-----0
  6
CONTINUOUS
  5
2BE
 10
131.453457
 20
577.738609
 30
0.0
 11
118.247411
 21
576.0
 31
0.0
  0
LINE
  8
LC-004-003-----0
  6
CONTINUOUS
  5
2BF
 10
118.247411
 20
576.0
 30
0.0
 11
131.453457
 21
574.261391
 31
0.0
  0
LINE
  8
LC-004-003-----0
  6
CONTINUOUS
  5
2C0
 10
131.493495
 20
577.127746
 30
0.0
 11
122.927411
 21
576.0
 31
0.0
  0
LINE
  8
LC-004-003-----0
  6
CONTINUOUS
  5
2C1
 10
122.927411
 20
576.0
 30
0.0
 11
131.493495
 21
574.872254
 31
0.0
  0
LINE
  8
LC-004-003-----0
  6
CONTINUOUS
  5
2C2
 10
131.533533
 20
576.516884
 30
0.0
 11
127.607411
 21
576.0
 31
0.0
  0
LINE
  8
LC-004-003-----0
  6
CONTINUOUS
  5
2C3
 10
127.607411
 20
576.0
 30
0.0
 11
131.533533
 21
575.483116
 31
0.0
  0
LINE
  8
LC-004-003-----0
  6
CONTINUOUS
  5
2C4
 10
339.721404
 20
573.650529
 30
0.0
 11
357.567411
 21
576.0
 31
0.0
  0
LINE
  8
LC-004-003-----0
  6
CONTINUOUS
  5
2C5
 10
357.567411
 20
576.0
 30
0.0
 11
339.721404
 21
578.349471
 31
0.0
  0
LINE
  8
LC-004-003-----0
  6
CONTINUOUS
  5
2C6
 10
339.721404
 20
578.349471
 30
0.0
 11
339.721404
 21
573.650529
 31
0.0
  0
LINE
  8
LC-004-003-----0
  6
CONTINUOUS
  5
2C7
 10
339.681366
 20
574.261391
 30
0.0
 11
352.887411
 21
576.0
 31
0.0
  0
LINE
  8
LC-004-003-----0
  6
CONTINUOUS
  5
2C8
 10
352.887411
 20
576.0
 30
0.0
 11
339.681366
 21
577.738609
 31
0.0
  0
LINE
  8
LC-004-003-----0
  6
CONTINUOUS
  5
2C9
 10
339.641328
 20
574.872254
 30
0.0
 11
348.207411
 21
576.0
 31
0.0
  0
LINE
  8
LC-004-003-----0
  6
CONTINUOUS
  5
2CA
 10
348.207411
 20
576.0
 30
0.0
 11
339.641328
 21
577.127746
 31
0.0
  0
LINE
  8
LC-004-003-----0
  6
CONTINUOUS
  5
2CB
 10
339.60129
 20
575.483116
 30
0.0
 11
343.527411
 21
576.0
 31
0.0
  0
LINE
  8
LC-004-003-----0
  6
CONTINUOUS
  5
2CC
 10
343.527411
 20
576.0
 30
0.0
 11
339.60129
 21
576.516884
 31
0.0
  0
TEXT
  8
LC-004-003-----0
  6
CONTINUOUS
 62
     6
  5
2CD
 10
219.228799
 20
586.431999
 30
0.0
 40
18.0
  1
244
 51
15.0
  7
LC-TXTSTYLE-150-400-0-0-D0
 72
     1
 11
238.362657
 21
586.431999
 31
0.0
  0
ENDBLK
  8
0
  5
2CE
  0
BLOCK
  8
0
  5
2D0
  2
*D22
 70
    65
 10
0.0
 20
0.0
 30
0.0
  3
*D22
  0
LINE
  8
LC-005-003-MTH-0
  6
CONTINUOUS
  5
2D1
 10
145.567411
 20
421.983604
 30
0.0
 11
145.567411
 21
97.2
 31
0.0
  0
LINE
  8
LC-005-003-MTH-0
  6
CONTINUOUS
  5
2D2
 10
325.567411
 20
421.983604
 30
0.0
 11
325.567411
 21
97.2
 31
0.0
  0
LINE
  8
LC-006-003-MTG-0
  6
CONTINUOUS
  5
2D3
 10
145.567411
 20
108.0
 30
0.0
 11
325.567411
 21
108.0
 31
0.0
  0
LINE
  8
LC-004-003-----0
  6
CONTINUOUS
  5
2D4
 10
163.413419
 20
110.349471
 30
0.0
 11
145.567411
 21
108.0
 31
0.0
  0
LINE
  8
LC-004-003-----0
  6
CONTINUOUS
  5
2D5
 10
145.567411
 20
108.0
 30
0.0
 11
163.413419
 21
105.650529
 31
0.0
  0
LINE
  8
LC-004-003-----0
  6
CONTINUOUS
  5
2D6
 10
163.413419
 20
105.650529
 30
0.0
 11
163.413419
 21
110.349471
 31
0.0
  0
LINE
  8
LC-004-003-----0
  6
CONTINUOUS
  5
2D7
 10
163.453457
 20
109.738609
 30
0.0
 11
150.247411
 21
108.0
 31
0.0
  0
LINE
  8
LC-004-003-----0
  6
CONTINUOUS
  5
2D8
 10
150.247411
 20
108.0
 30
0.0
 11
163.453457
 21
106.261391
 31
0.0
  0
LINE
  8
LC-004-003-----0
  6
CONTINUOUS
  5
2D9
 10
163.493495
 20
109.127746
 30
0.0
 11
154.927411
 21
108.0
 31
0.0
  0
LINE
  8
LC-004-003-----0
  6
CONTINUOUS
  5
2DA
 10
154.927411
 20
108.0
 30
0.0
 11
163.493495
 21
106.872254
 31
0.0
  0
LINE
  8
LC-004-003-----0
  6
CONTINUOUS
  5
2DB
 10
163.533533
 20
108.516884
 30
0.0
 11
159.607411
 21
108.0
 31
0.0
  0
LINE
  8
LC-004-003-----0
  6
CONTINUOUS
  5
2DC
 10
159.607411
 20
108.0
 30
0.0
 11
163.533533
 21
107.483116
 31
0.0
  0
LINE
  8
LC-004-003-----0
  6
CONTINUOUS
  5
2DD
 10
307.721404
 20
105.650529
 30
0.0
 11
325.567411
 21
108.0
 31
0.0
  0
LINE
  8
LC-004-003-----0
  6
CONTINUOUS
  5
2DE
 10
325.567411
 20
108.0
 30
0.0
 11
307.721404
 21
110.349471
 31
0.0
  0
LINE
  8
LC-004-003-----0
  6
CONTINUOUS
  5
2DF
 10
307.721404
 20
110.349471
 30
0.0
 11
307.721404
 21
105.650529
 31
0.0
  0
LINE
  8
LC-004-003-----0
  6
CONTINUOUS
  5
2E0
 10
307.681366
 20
106.261391
 30
0.0
 11
320.887411
 21
108.0
 31
0.0
  0
LINE
  8
LC-004-003-----0
  6
CONTINUOUS
  5
2E1
 10
320.887411
 20
108.0
 30
0.0
 11
307.681366
 21
109.738609
 31
0.0
  0
LINE
  8
LC-004-003-----0
  6
CONTINUOUS
  5
2E2
 10
307.641328
 20
106.872254
 30
0.0
 11
316.207411
 21
108.0
 31
0.0
  0
LINE
  8
LC-004-003-----0
  6
CONTINUOUS
  5
2E3
 10
316.207411
 20
108.0
 30
0.0
 11
307.641328
 21
109.127746
 31
0.0
  0
LINE
  8
LC-004-003-----0
  6
CONTINUOUS
  5
2E4
 10
307.60129
 20
107.483116
 30
0.0
 11
311.527411
 21
108.0
 31
0.0
  0
LINE
  8
LC-004-003-----0
  6
CONTINUOUS
  5
2E5
 10
311.527411
 20
108.0
 30
0.0
 11
307.60129
 21
108.516884
 31
0.0
  0
TEXT
  8
LC-004-003-----0
  6
CONTINUOUS
 62
     6
  5
2E6
 10
213.871318
 20
118.431999
 30
0.0
 40
18.0
  1
Ø180
 51
15.0
  7
LC-TXTSTYLE-150-400-0-0-D0
 72
     1
 11
238.362657
 21
118.431999
 31
0.0
  0
ENDBLK
  8
0
  5
2E7
  0
BLOCK
  8
0
  5
2E9
  2
*D23
 70
    65
 10
0.0
 20
0.0
 30
0.0
  3
*D23
  0
LINE
  8
LC-005-003-MTH-0
  6
CONTINUOUS
  5
2EA
 10
124.067411
 20
513.983604
 30
0.0
 11
124.067411
 21
550.8
 31
0.0
  0
LINE
  8
LC-005-003-MTH-0
  6
CONTINUOUS
  5
2EB
 10
347.067411
 20
513.983604
 30
0.0
 11
347.067411
 21
550.8
 31
0.0
  0
LINE
  8
LC-006-003-MTG-0
  6
CONTINUOUS
  5
2EC
 10
124.067411
 20
540.0
 30
0.0
 11
347.067411
 21
540.0
 31
0.0
  0
LINE
  8
LC-004-003-----0
  6
CONTINUOUS
  5
2ED
 10
141.913419
 20
542.349471
 30
0.0
 11
124.067411
 21
540.0
 31
0.0
  0
LINE
  8
LC-004-003-----0
  6
CONTINUOUS
  5
2EE
 10
124.067411
 20
540.0
 30
0.0
 11
141.913419
 21
537.650529
 31
0.0
  0
LINE
  8
LC-004-003-----0
  6
CONTINUOUS
  5
2EF
 10
141.913419
 20
537.650529
 30
0.0
 11
141.913419
 21
542.349471
 31
0.0
  0
LINE
  8
LC-004-003-----0
  6
CONTINUOUS
  5
2F0
 10
141.953457
 20
541.738609
 30
0.0
 11
128.747411
 21
540.0
 31
0.0
  0
LINE
  8
LC-004-003-----0
  6
CONTINUOUS
  5
2F1
 10
128.747411
 20
540.0
 30
0.0
 11
141.953457
 21
538.261391
 31
0.0
  0
LINE
  8
LC-004-003-----0
  6
CONTINUOUS
  5
2F2
 10
141.993495
 20
541.127746
 30
0.0
 11
133.427411
 21
540.0
 31
0.0
  0
LINE
  8
LC-004-003-----0
  6
CONTINUOUS
  5
2F3
 10
133.427411
 20
540.0
 30
0.0
 11
141.993495
 21
538.872254
 31
0.0
  0
LINE
  8
LC-004-003-----0
  6
CONTINUOUS
  5
2F4
 10
142.033533
 20
540.516884
 30
0.0
 11
138.107411
 21
540.0
 31
0.0
  0
LINE
  8
LC-004-003-----0
  6
CONTINUOUS
  5
2F5
 10
138.107411
 20
540.0
 30
0.0
 11
142.033533
 21
539.483116
 31
0.0
  0
LINE
  8
LC-004-003-----0
  6
CONTINUOUS
  5
2F6
 10
329.221404
 20
537.650529
 30
0.0
 11
347.067411
 21
540.0
 31
0.0
  0
LINE
  8
LC-004-003-----0
  6
CONTINUOUS
  5
2F7
 10
347.067411
 20
540.0
 30
0.0
 11
329.221404
 21
542.349471
 31
0.0
  0
LINE
  8
LC-004-003-----0
  6
CONTINUOUS
  5
2F8
 10
329.221404
 20
542.349471
 30
0.0
 11
329.221404
 21
537.650529
 31
0.0
  0
LINE
  8
LC-004-003-----0
  6
CONTINUOUS
  5
2F9
 10
329.181366
 20
538.261391
 30
0.0
 11
342.387411
 21
540.0
 31
0.0
  0
LINE
  8
LC-004-003-----0
  6
CONTINUOUS
  5
2FA
 10
342.387411
 20
540.0
 30
0.0
 11
329.181366
 21
541.738609
 31
0.0
  0
LINE
  8
LC-004-003-----0
  6
CONTINUOUS
  5
2FB
 10
329.141328
 20
538.872254
 30
0.0
 11
337.707411
 21
540.0
 31
0.0
  0
LINE
  8
LC-004-003-----0
  6
CONTINUOUS
  5
2FC
 10
337.707411
 20
540.0
 30
0.0
 11
329.141328
 21
541.127746
 31
0.0
  0
LINE
  8
LC-004-003-----0
  6
CONTINUOUS
  5
2FD
 10
329.10129
 20
539.483116
 30
0.0
 11
333.027411
 21
540.0
 31
0.0
  0
LINE
  8
LC-004-003-----0
  6
CONTINUOUS
  5
2FE
 10
333.027411
 20
540.0
 30
0.0
 11
329.10129
 21
540.516884
 31
0.0
  0
TEXT
  8
LC-004-003-----0
  6
CONTINUOUS
 62
     6
  5
2FF
 10
219.228799
 20
550.431999
 30
0.0
 40
18.0
  1
226
 51
15.0
  7
LC-TXTSTYLE-150-400-0-0-D0
 72
     1
 11
238.362657
 21
550.431999
 31
0.0
  0
ENDBLK
  8
0
  5
300
  0
BLOCK
  8
0
  5
302
  2
*D24
 70
    65
 10
0.0
 20
0.0
 30
0.0
  3
*D24
  0
LINE
  8
LC-005-003-MTH-0
  6
CONTINUOUS
  5
303
 10
311.567411
 20
239.983604
 30
0.0
 11
444.8
 21
239.983604
 31
0.0
  0
LINE
  8
LC-005-003-MTH-0
  6
CONTINUOUS
  5
304
 10
316.25801
 20
301.983604
 30
0.0
 11
444.8
 21
301.983604
 31
0.0
  0
LINE
  8
LC-006-003-MTG-0
  6
CONTINUOUS
  5
305
 10
434.0
 20
239.983604
 30
0.0
 11
434.0
 21
301.983604
 31
0.0
  0
LINE
  8
LC-004-003-----0
  6
CONTINUOUS
  5
306
 10
431.650529
 20
257.829612
 30
0.0
 11
434.0
 21
239.983604
 31
0.0
  0
LINE
  8
LC-004-003-----0
  6
CONTINUOUS
  5
307
 10
434.0
 20
239.983604
 30
0.0
 11
436.349471
 21
257.829612
 31
0.0
  0
LINE
  8
LC-004-003-----0
  6
CONTINUOUS
  5
308
 10
436.349471
 20
257.829612
 30
0.0
 11
431.650529
 21
257.829612
 31
0.0
  0
LINE
  8
LC-004-003-----0
  6
CONTINUOUS
  5
309
 10
432.261391
 20
257.86965
 30
0.0
 11
434.0
 21
244.663604
 31
0.0
  0
LINE
  8
LC-004-003-----0
  6
CONTINUOUS
  5
30A
 10
434.0
 20
244.663604
 30
0.0
 11
435.738609
 21
257.86965
 31
0.0
  0
LINE
  8
LC-004-003-----0
  6
CONTINUOUS
  5
30B
 10
432.872254
 20
257.909688
 30
0.0
 11
434.0
 21
249.343604
 31
0.0
  0
LINE
  8
LC-004-003-----0
  6
CONTINUOUS
  5
30C
 10
434.0
 20
249.343604
 30
0.0
 11
435.127746
 21
257.909688
 31
0.0
  0
LINE
  8
LC-004-003-----0
  6
CONTINUOUS
  5
30D
 10
433.483116
 20
257.949726
 30
0.0
 11
434.0
 21
254.023604
 31
0.0
  0
LINE
  8
LC-004-003-----0
  6
CONTINUOUS
  5
30E
 10
434.0
 20
254.023604
 30
0.0
 11
434.516884
 21
257.949726
 31
0.0
  0
LINE
  8
LC-004-003-----0
  6
CONTINUOUS
  5
30F
 10
436.349471
 20
284.137597
 30
0.0
 11
434.0
 21
301.983604
 31
0.0
  0
LINE
  8
LC-004-003-----0
  6
CONTINUOUS
  5
310
 10
434.0
 20
301.983604
 30
0.0
 11
431.650529
 21
284.137597
 31
0.0
  0
LINE
  8
LC-004-003-----0
  6
CONTINUOUS
  5
311
 10
431.650529
 20
284.137597
 30
0.0
 11
436.349471
 21
284.137597
 31
0.0
  0
LINE
  8
LC-004-003-----0
  6
CONTINUOUS
  5
312
 10
435.738609
 20
284.097559
 30
0.0
 11
434.0
 21
297.303604
 31
0.0
  0
LINE
  8
LC-004-003-----0
  6
CONTINUOUS
  5
313
 10
434.0
 20
297.303604
 30
0.0
 11
432.261391
 21
284.097559
 31
0.0
  0
LINE
  8
LC-004-003-----0
  6
CONTINUOUS
  5
314
 10
435.127746
 20
284.057521
 30
0.0
 11
434.0
 21
292.623604
 31
0.0
  0
LINE
  8
LC-004-003-----0
  6
CONTINUOUS
  5
315
 10
434.0
 20
292.623604
 30
0.0
 11
432.872254
 21
284.057521
 31
0.0
  0
LINE
  8
LC-004-003-----0
  6
CONTINUOUS
  5
316
 10
434.516884
 20
284.017483
 30
0.0
 11
434.0
 21
287.943604
 31
0.0
  0
LINE
  8
LC-004-003-----0
  6
CONTINUOUS
  5
317
 10
434.0
 20
287.943604
 30
0.0
 11
433.483116
 21
284.017483
 31
0.0
  0
TEXT
  8
LC-004-003-----0
  6
CONTINUOUS
 62
     6
  5
318
 10
423.568001
 20
261.915858
 30
0.0
 40
18.0
  1
62
 50
90.0
 51
15.0
  7
LC-TXTSTYLE-150-400-0-0-D0
 72
     1
 11
423.568001
 21
273.77885
 31
0.0
  0
ENDBLK
  8
0
  5
319
  0
BLOCK
  8
0
  5
31B
  2
BLK1
 70
    64
 10
0.0
 20
0.0
 30
0.0
  3
BLK1
  0
ENDBLK
  8
0
  5
31C
  0
BLOCK
  8
0
  5
31E
  2
*X26
 70
    65
 10
330.56967
 20
493.983604
 30
0.0
  3
*X26
  0
LINE
  8
LC-003-005-----0
  6
CONTINUOUS
  5
31F
 10
346.709841
 20
513.132005
 30
0.0
 11
346.220812
 21
513.621034
 31
0.0
  0
LINE
  8
LC-003-005-----0
  6
CONTINUOUS
  5
320
 10
346.832452
 20
507.352539
 30
0.0
 11
340.201387
 21
513.983604
 31
0.0
  0
LINE
  8
LC-003-005-----0
  6
CONTINUOUS
  5
321
 10
346.691602
 20
504.664962
 30
0.0
 11
337.37296
 21
513.983604
 31
0.0
  0
LINE
  8
LC-003-005-----0
  6
CONTINUOUS
  5
322
 10
346.409902
 20
499.289808
 30
0.0
 11
331.850054
 21
513.849657
 31
0.0
  0
LINE
  8
LC-003-005-----0
  6
CONTINUOUS
  5
323
 10
346.269052
 20
496.602231
 30
0.0
 11
330.591694
 21
512.27959
 31
0.0
  0
LINE
  8
LC-003-005-----0
  6
CONTINUOUS
  5
324
 10
343.230825
 20
493.983604
 30
0.0
 11
330.862046
 21
506.352383
 31
0.0
  0
LINE
  8
LC-003-005-----0
  6
CONTINUOUS
  5
325
 10
340.402397
 20
493.983604
 30
0.0
 11
331.018475
 21
503.367527
 31
0.0
  0
LINE
  8
LC-003-005-----0
  6
CONTINUOUS
  5
326
 10
334.745543
 20
493.983604
 30
0.0
 11
331.331335
 21
497.397813
 31
0.0
  0
ENDBLK
  8
0
  5
327
  0
BLOCK
  8
0
  5
329
  2
*X27
 70
    65
 10
170.565152
 20
479.983604
 30
0.0
  3
*X27
  0
LINE
  8
LC-003-005-----0
  6
CONTINUOUS
  5
32A
 10
300.391855
 20
508.538303
 30
0.0
 11
294.946553
 21
513.983604
 31
0.0
  0
LINE
  8
LC-003-005-----0
  6
CONTINUOUS
  5
32B
 10
300.251005
 20
505.850726
 30
0.0
 11
292.118126
 21
513.983604
 31
0.0
  0
LINE
  8
LC-003-005-----0
  6
CONTINUOUS
  5
32C
 10
299.969305
 20
500.475572
 30
0.0
 11
286.461272
 21
513.983604
 31
0.0
  0
LINE
  8
LC-003-005-----0
  6
CONTINUOUS
  5
32D
 10
299.828455
 20
497.787994
 30
0.0
 11
283.632845
 21
513.983604
 31
0.0
  0
LINE
  8
LC-003-005-----0
  6
CONTINUOUS
  5
32E
 10
297.962558
 20
493.997037
 30
0.0
 11
277.975991
 21
513.983604
 31
0.0
  0
LINE
  8
LC-003-005-----0
  6
CONTINUOUS
  5
32F
 10
297.149025
 20
491.982143
 30
0.0
 11
275.147563
 21
513.983604
 31
0.0
  0
LINE
  8
LC-003-005-----0
  6
CONTINUOUS
  5
330
 10
292.5532
 20
490.921114
 30
0.0
 11
269.490709
 21
513.983604
 31
0.0
  0
LINE
  8
LC-003-005-----0
  6
CONTINUOUS
  5
331
 10
290.255288
 20
490.390599
 30
0.0
 11
266.662282
 21
513.983604
 31
0.0
  0
LINE
  8
LC-003-005-----0
  6
CONTINUOUS
  5
332
 10
285.659463
 20
489.329569
 30
0.0
 11
261.005428
 21
513.983604
 31
0.0
  0
LINE
  8
LC-003-005-----0
  6
CONTINUOUS
  5
333
 10
283.361551
 20
488.799054
 30
0.0
 11
258.177001
 21
513.983604
 31
0.0
  0
LINE
  8
LC-003-005-----0
  6
CONTINUOUS
  5
334
 10
278.765726
 20
487.738024
 30
0.0
 11
252.520146
 21
513.983604
 31
0.0
  0
LINE
  8
LC-003-005-----0
  6
CONTINUOUS
  5
335
 10
276.467814
 20
487.20751
 30
0.0
 11
249.691719
 21
513.983604
 31
0.0
  0
LINE
  8
LC-003-005-----0
  6
CONTINUOUS
  5
336
 10
271.87199
 20
486.14648
 30
0.0
 11
244.034865
 21
513.983604
 31
0.0
  0
LINE
  8
LC-003-005-----0
  6
CONTINUOUS
  5
337
 10
269.574077
 20
485.615965
 30
0.0
 11
241.206438
 21
513.983604
 31
0.0
  0
LINE
  8
LC-003-005-----0
  6
CONTINUOUS
  5
338
 10
264.978253
 20
484.554935
 30
0.0
 11
235.549584
 21
513.983604
 31
0.0
  0
LINE
  8
LC-003-005-----0
  6
CONTINUOUS
  5
339
 10
262.68034
 20
484.024421
 30
0.0
 11
232.721157
 21
513.983604
 31
0.0
  0
LINE
  8
LC-003-005-----0
  6
CONTINUOUS
  5
33A
 10
258.084516
 20
482.963391
 30
0.0
 11
227.064302
 21
513.983604
 31
0.0
  0
LINE
  8
LC-003-005-----0
  6
CONTINUOUS
  5
33B
 10
255.786604
 20
482.432876
 30
0.0
 11
224.235875
 21
513.983604
 31
0.0
  0
LINE
  8
LC-003-005-----0
  6
CONTINUOUS
  5
33C
 10
251.190779
 20
481.371846
 30
0.0
 11
218.579021
 21
513.983604
 31
0.0
  0
LINE
  8
LC-003-005-----0
  6
CONTINUOUS
  5
33D
 10
248.892867
 20
480.841331
 30
0.0
 11
215.750594
 21
513.983604
 31
0.0
  0
LINE
  8
LC-003-005-----0
  6
CONTINUOUS
  5
33E
 10
244.09374
 20
479.983604
 30
0.0
 11
210.09374
 21
513.983604
 31
0.0
  0
LINE
  8
LC-003-005-----0
  6
CONTINUOUS
  5
33F
 10
241.265312
 20
479.983604
 30
0.0
 11
207.265312
 21
513.983604
 31
0.0
  0
LINE
  8
LC-003-005-----0
  6
CONTINUOUS
  5
340
 10
235.608458
 20
479.983604
 30
0.0
 11
201.608458
 21
513.983604
 31
0.0
  0
LINE
  8
LC-003-005-----0
  6
CONTINUOUS
  5
341
 10
232.780031
 20
479.983604
 30
0.0
 11
198.780031
 21
513.983604
 31
0.0
  0
LINE
  8
LC-003-005-----0
  6
CONTINUOUS
  5
342
 10
227.123177
 20
479.983604
 30
0.0
 11
193.123177
 21
513.983604
 31
0.0
  0
LINE
  8
LC-003-005-----0
  6
CONTINUOUS
  5
343
 10
223.793564
 20
480.48479
 30
0.0
 11
190.29475
 21
513.983604
 31
0.0
  0
LINE
  8
LC-003-005-----0
  6
CONTINUOUS
  5
344
 10
216.438707
 20
482.182793
 30
0.0
 11
184.637895
 21
513.983604
 31
0.0
  0
LINE
  8
LC-003-005-----0
  6
CONTINUOUS
  5
345
 10
212.761279
 20
483.031794
 30
0.0
 11
181.809468
 21
513.983604
 31
0.0
  0
LINE
  8
LC-003-005-----0
  6
CONTINUOUS
  5
346
 10
205.406422
 20
484.729797
 30
0.0
 11
176.152614
 21
513.983604
 31
0.0
  0
LINE
  8
LC-003-005-----0
  6
CONTINUOUS
  5
347
 10
201.728993
 20
485.578798
 30
0.0
 11
173.324187
 21
513.983604
 31
0.0
  0
LINE
  8
LC-003-005-----0
  6
CONTINUOUS
  5
348
 10
194.374137
 20
487.2768
 30
0.0
 11
170.611911
 21
511.039026
 31
0.0
  0
LINE
  8
LC-003-005-----0
  6
CONTINUOUS
  5
349
 10
190.696708
 20
488.125802
 30
0.0
 11
170.768341
 21
508.054169
 31
0.0
  0
LINE
  8
LC-003-005-----0
  6
CONTINUOUS
  5
34A
 10
183.341852
 20
489.823804
 30
0.0
 11
171.0812
 21
502.084456
 31
0.0
  0
LINE
  8
LC-003-005-----0
  6
CONTINUOUS
  5
34B
 10
179.664423
 20
490.672805
 30
0.0
 11
171.23763
 21
499.099599
 31
0.0
  0
ENDBLK
  8
0
  5
34C
  0
BLOCK
  8
0
  5
34E
  2
*X28
 70
    65
 10
124.06967
 20
493.983604
 30
0.0
  3
*X28
  0
LINE
  8
LC-003-005-----0
  6
CONTINUOUS
  5
34F
 10
136.390341
 20
508.491043
 30
0.0
 11
130.89778
 21
513.983604
 31
0.0
  0
LINE
  8
LC-003-005-----0
  6
CONTINUOUS
  5
350
 10
136.249492
 20
505.803466
 30
0.0
 11
128.069353
 21
513.983604
 31
0.0
  0
LINE
  8
LC-003-005-----0
  6
CONTINUOUS
  5
351
 10
135.967792
 20
500.428311
 30
0.0
 11
124.095028
 21
512.301075
 31
0.0
  0
LINE
  8
LC-003-005-----0
  6
CONTINUOUS
  5
352
 10
135.826942
 20
497.740734
 30
0.0
 11
124.204243
 21
509.363433
 31
0.0
  0
LINE
  8
LC-003-005-----0
  6
CONTINUOUS
  5
353
 10
133.918512
 20
493.99231
 30
0.0
 11
124.517103
 21
503.393719
 31
0.0
  0
LINE
  8
LC-003-005-----0
  6
CONTINUOUS
  5
354
 10
131.09879
 20
493.983604
 30
0.0
 11
124.673532
 21
500.408862
 31
0.0
  0
ENDBLK
  8
0
  5
355
  0
ENDSEC
  0
SECTION
  2
ENTITIES
  0
VIEWPORT
  8
LC-000
  5
47D
 67
     1
 68
     1
 10
420.0
 20
297.0
 30
0.0
 40
840.0
 41
594.0
 69
     1
1001
ACAD
1000
MVIEW
1002
{
1070
    16
1010
0.0
1020
0.0
1030
0.0
1010
0.0
1020
0.0
1030
1.0
1040
0.0
1040
594.0
1040
420.0
1040
297.0
1040
50.0
1040
0.0
1040
0.0
1070
     0
1070
   100
1070
     1
1070
     1
1070
     0
1070
     0
1070
     0
1070
     0
1040
0.0
1040
0.0
1040
0.0
1040
1.0
1040
1.0
1040
0.0
1040
0.0
1070
     0
1002
{
1002
}
1002
}
  0
VIEWPORT
  8
0
  5
47E
 67
     1
 68
     1
 10
0.0
 20
0.0
 30
0.0
 40
0.0
 41
0.0
 69
     1
1001
ACAD
1000
MVIEW
1002
{
1070
    16
1010
0.0
1020
0.0
1030
0.0
1010
0.0
1020
0.0
1030
1.0
1040
0.0
1040
594.0
1040
0.0
1040
0.0
1040
50.0
1040
0.0
1040
0.0
1070
     0
1070
   100
1070
     0
1070
     1
1070
     0
1070
     0
1070
     0
1070
     0
1040
0.0
1040
0.0
1040
0.0
1040
0.5
1040
0.5
1040
0.5
1040
0.5
1070
     0
1002
{
1002
}
1002
}
  0
INSERT
  8
0
  5
356
  2
*X0
 10
317.567411
 20
426.13095
 30
0.0
  0
INSERT
  8
0
  5
357
  2
*X1
 10
113.567411
 20
239.983604
 30
0.0
  0
INSERT
  8
0
  5
358
  2
*X2
 10
149.567411
 20
426.13095
 30
0.0
  0
INSERT
  8
0
  5
359
  2
*X3
 10
146.567411
 20
328.219127
 30
0.0
  0
INSERT
  8
0
  5
35A
  2
*X4
 10
235.567411
 20
326.359302
 30
0.0
  0
INSERT
  8
0
  5
35B
  2
*X5
 10
235.567411
 20
326.062377
 30
0.0
  0
INSERT
  8
0
  5
35C
  2
*X6
 10
220.689532
 20
389.057046
 30
0.0
  0
INSERT
  8
0
  5
35D
  2
*X7
 10
224.917286
 20
402.158918
 30
0.0
  0
INSERT
  8
0
  5
35E
  2
*X8
 10
235.567411
 20
419.155845
 30
0.0
  0
INSERT
  8
0
  5
35F
  2
*X9
 10
220.689532
 20
410.160911
 30
0.0
  0
INSERT
  8
0
  5
360
  2
*X10
 10
138.567411
 20
477.558854
 30
0.0
  0
INSERT
  8
0
  5
361
  2
*X11
 10
162.823509
 20
429.884428
 30
0.0
  0
INSERT
  8
0
  5
362
  2
*X12
 10
222.567411
 20
427.993154
 30
0.0
  0
INSERT
  8
0
  5
363
  2
*X13
 10
307.696915
 20
477.558854
 30
0.0
  0
INSERT
  8
0
  5
364
  2
*X14
 10
252.567411
 20
429.884428
 30
0.0
  0
INSERT
  8
0
  5
365
  2
*X15
 10
235.567411
 20
427.993154
 30
0.0
  0
INSERT
  8
0
  5
366
  2
*X16
 10
311.567411
 20
239.983604
 30
0.0
  0
DIMENSION
  8
0
  5
367
  2
*D17
 10
235.567411
 20
180.0
 30
0.0
 11
235.567411
 21
180.0
 31
0.0
  1
DN150
 13
155.567411
 23
244.483604
 33
0.0
 14
315.567411
 24
244.483604
 34
0.0
  3
LC-DIM-L-0090-02-02
  0
DIMENSION
  8
0
  5
368
  2
*D18
 10
235.567411
 20
151.2
 30
0.0
 11
235.567411
 21
151.2
 31
0.0
  1
%%c166
 13
152.446722
 23
307.983604
 33
0.0
 14
318.688101
 24
307.983604
 34
0.0
  3
LC-DIM-L-0090-02-02
  0
DIMENSION
  8
0
  5
369
  2
*D19
 10
400.0
 20
539.290605
 30
0.0
 11
400.0
 21
539.290605
 31
0.0
 13
357.567411
 23
513.983604
 33
0.0
 14
348.567411
 24
489.983604
 34
0.0
 50
90.0
  3
LC-DIM-L-0090-02-02
  0
DIMENSION
  8
0
  5
36A
  2
*D20
 10
432.0
 20
407.983604
 30
0.0
 11
432.0
 21
407.983604
 31
0.0
  1
213
 13
357.567411
 23
513.983604
 33
0.0
 14
316.25801
 24
301.983604
 34
0.0
 50
90.0
  3
LC-DIM-L-0090-02-02
  0
DIMENSION
  8
0
  5
36B
  2
*D21
 10
235.567411
 20
576.0
 30
0.0
 11
235.567411
 21
576.0
 31
0.0
 13
113.567411
 23
513.983604
 33
0.0
 14
357.567411
 24
513.983604
 34
0.0
  3
LC-DIM-L-0090-02-02
  0
DIMENSION
  8
0
  5
36C
  2
*D22
 10
235.567411
 20
108.0
 30
0.0
 11
235.567411
 21
108.0
 31
0.0
  1
%%c<>
 13
145.567411
 23
421.983604
 33
0.0
 14
325.567411
 24
421.983604
 34
0.0
  3
LC-DIM-L-0090-02-02
  0
DIMENSION
  8
0
  5
36D
  2
*D23
 10
235.567411
 20
540.0
 30
0.0
 11
235.567411
 21
540.0
 31
0.0
  1
226
 13
124.067411
 23
513.983604
 33
0.0
 14
347.067411
 24
513.983604
 34
0.0
  3
LC-DIM-L-0090-02-02
  0
DIMENSION
  8
0
  5
36E
  2
*D24
 10
434.0
 20
270.983604
 30
0.0
 11
434.0
 21
270.983604
 31
0.0
 13
316.25801
 23
301.983604
 33
0.0
 14
311.567411
 24
239.983604
 34
0.0
 50
90.0
  3
LC-DIM-L-0090-02-02
  0
INSERT
  8
0
  5
370
  2
BLK1
 10
0.0
 20
0.0
 30
0.0
  0
INSERT
  8
0
  5
371
  2
*X26
 10
330.56967
 20
493.983604
 30
0.0
  0
INSERT
  8
0
  5
372
  2
*X27
 10
170.565152
 20
479.983604
 30
0.0
  0
INSERT
  8
0
  5
373
  2
*X28
 10
124.06967
 20
493.983604
 30
0.0
  0
LINE
  8
LC-001-002-----0
  6
CONTINUOUS
  5
375
 10
156.067411
 20
434.483604
 30
0.0
 11
151.067411
 21
439.483604
 31
0.0
  0
ARC
  8
LC-002-002-RND-0
  6
CONTINUOUS
  5
377
 10
148.067411
 20
437.983604
 30
0.0
 40
1.5
 50
90.0
 51
180.0
  0
ARC
  8
LC-002-002-RND-0
  6
CONTINUOUS
  5
378
 10
148.067411
 20
437.983604
 30
0.0
 40
1.5
 50
180.0
 51
270.0
  0
LINE
  8
LC-001-002-----0
  6
CONTINUOUS
  5
379
 10
156.067411
 20
434.483604
 30
0.0
 11
156.067411
 21
423.614587
 31
0.0
  0
LINE
  8
LC-001-002-----0
  6
CONTINUOUS
  5
37A
 10
153.067411
 20
423.483604
 30
0.0
 11
158.568001
 21
360.611572
 31
0.0
  0
LINE
  8
LC-001-002-----0
  6
CONTINUOUS
  5
37B
 10
156.067411
 20
423.614587
 30
0.0
 11
161.556586
 21
360.873039
 31
0.0
  0
ARC
  8
LC-001-002-----0
  6
CONTINUOUS
  5
37C
 10
151.567411
 20
429.836258
 30
0.0
 40
2.0
 50
0.0
 51
180.0
  0
ARC
  8
LC-001-002-----0
  6
CONTINUOUS
  5
37D
 10
151.567411
 20
428.13095
 30
0.0
 40
2.0
 50
180.0
 51
0.0
  0
LINE
  8
LC-001-002-----0
  6
CONTINUOUS
  5
37E
 10
150.317411
 20
425.910542
 30
0.0
 11
150.317411
 21
423.483604
 31
0.0
  0
LINE
  8
LC-001-002-----0
  6
CONTINUOUS
  5
37F
 10
153.567411
 20
426.483604
 30
0.0
 11
150.317411
 21
425.910542
 31
0.0
  0
LINE
  8
LC-001-002-----0
  6
CONTINUOUS
  5
380
 10
153.567411
 20
428.13095
 30
0.0
 11
153.567411
 21
426.483604
 31
0.0
  0
LINE
  8
LC-001-002-----0
  6
CONTINUOUS
  5
381
 10
153.567411
 20
431.483604
 30
0.0
 11
153.567411
 21
429.836258
 31
0.0
  0
LINE
  8
LC-001-002-----0
  6
CONTINUOUS
  5
382
 10
153.567411
 20
431.483604
 30
0.0
 11
150.317411
 21
432.056667
 31
0.0
  0
ARC
  8
LC-002-002-RND-0
  6
CONTINUOUS
  5
383
 10
183.472869
 20
362.790466
 30
0.0
 40
25.0
 50
185.0
 51
260.0
  0
ARC
  8
LC-002-002-RND-0
  6
CONTINUOUS
  5
384
 10
183.472869
 20
362.790466
 30
0.0
 40
22.0
 50
185.0
 51
260.0
  0
LINE
  8
LC-001-002-----0
  6
CONTINUOUS
  5
385
 10
179.131664
 20
338.170272
 30
0.0
 11
246.115002
 21
326.359302
 31
0.0
  0
LINE
  8
LC-001-002-----0
  6
CONTINUOUS
  5
386
 10
179.652609
 20
341.124695
 30
0.0
 11
245.560624
 21
329.503334
 31
0.0
  0
LINE
  8
LC-001-002-----0
  6
CONTINUOUS
  5
387
 10
250.121898
 20
326.670145
 30
0.0
 11
234.493562
 21
415.302843
 31
0.0
  0
LINE
  8
LC-001-002-----0
  6
CONTINUOUS
  5
388
 10
246.675071
 20
326.062377
 30
0.0
 11
231.046735
 21
414.695075
 31
0.0
  0
LINE
  8
LC-001-002-----0
  6
CONTINUOUS
  5
389
 10
246.675071
 20
326.062377
 30
0.0
 11
250.121898
 21
326.670145
 31
0.0
  0
LINE
  8
LC-001-002-----0
  6
CONTINUOUS
  5
38A
 10
323.067411
 20
439.483604
 30
0.0
 11
316.067411
 21
439.483604
 31
0.0
  0
ARC
  8
LC-002-002-RND-0
  6
CONTINUOUS
  5
38B
 10
323.067411
 20
437.983604
 30
0.0
 40
1.5
 50
0.0
 51
90.0
  0
ARC
  8
LC-002-002-RND-0
  6
CONTINUOUS
  5
38C
 10
323.067411
 20
437.983604
 30
0.0
 40
1.5
 50
270.0
 51
0.0
  0
LINE
  8
LC-001-002-----0
  6
CONTINUOUS
  5
38D
 10
317.567411
 20
431.483604
 30
0.0
 11
320.817411
 21
432.056667
 31
0.0
  0
LINE
  8
LC-001-002-----0
  6
CONTINUOUS
  5
38E
 10
317.567411
 20
431.483604
 30
0.0
 11
317.567411
 21
426.483604
 31
0.0
  0
ARC
  8
LC-001-002-----0
  6
CONTINUOUS
  5
38F
 10
319.567411
 20
429.836258
 30
0.0
 40
2.0
 50
0.0
 51
180.0
  0
ARC
  8
LC-001-002-----0
  6
CONTINUOUS
  5
390
 10
319.567411
 20
428.13095
 30
0.0
 40
2.0
 50
180.0
 51
0.0
  0
LINE
  8
LC-001-002-----0
  6
CONTINUOUS
  5
391
 10
320.817411
 20
425.910542
 30
0.0
 11
320.817411
 21
423.483604
 31
0.0
  0
LINE
  8
LC-001-002-----0
  6
CONTINUOUS
  5
392
 10
315.067411
 20
434.483604
 30
0.0
 11
315.067411
 21
426.326381
 31
0.0
  0
LINE
  8
LC-001-002-----0
  6
CONTINUOUS
  5
393
 10
315.067411
 20
434.483604
 30
0.0
 11
320.067411
 21
439.483604
 31
0.0
  0
LINE
  8
LC-001-002-----0
  6
CONTINUOUS
  5
394
 10
224.929174
 20
407.972666
 30
0.0
 11
232.466419
 21
406.643646
 31
0.0
  0
LINE
  8
LC-001-002-----0
  6
CONTINUOUS
  5
395
 10
246.675071
 20
326.062377
 30
0.0
 11
231.046735
 21
414.695075
 31
0.0
  0
LINE
  8
LC-001-002-----0
  6
CONTINUOUS
  5
396
 10
250.121898
 20
326.670145
 30
0.0
 11
234.493562
 21
415.302843
 31
0.0
  0
ARC
  8
LC-001-002-----0
  6
CONTINUOUS
  5
397
 10
231.195
 20
421.394523
 30
0.0
 40
8.333581
 50
254.215261
 51
270.960321
  0
ARC
  8
LC-001-002-----0
  6
CONTINUOUS
  5
398
 10
230.58964
 20
420.061019
 30
0.0
 40
9.900108
 50
257.247905
 51
277.211487
  0
ARC
  8
LC-001-002-----0
  6
DASHED
 62
     2
  5
39A
 10
230.58964
 20
420.061019
 30
0.0
 40
9.900108
 50
277.211487
 51
297.751064
  0
ARC
  8
LC-001-002-----0
  6
DASHED
 62
     2
  5
39B
 10
231.195
 20
421.394523
 30
0.0
 40
8.333581
 50
270.960321
 51
295.240372
  0
CIRCLE
  8
LC-001-002-----0
  6
CONTINUOUS
  5
39C
 10
232.770149
 20
414.998959
 30
0.0
 40
1.75
  0
LINE
  8
LC-001-002-----0
  6
DASHDOT
 62
     2
  5
39E
 10
231.079779
 20
414.546026
 30
0.0
 11
234.460519
 21
415.451892
 31
0.0
  0
LINE
  8
LC-001-002-----0
  6
DASHDOT
 62
     2
  5
39F
 10
232.317215
 20
416.689329
 30
0.0
 11
233.223082
 21
413.308589
 31
0.0
  0
ARC
  8
LC-001-002-----0
  6
CONTINUOUS
  5
3A0
 10
231.195
 20
421.394523
 30
0.0
 40
8.333581
 50
295.240372
 51
330.42979
  0
ARC
  8
LC-001-002-----0
  6
CONTINUOUS
  5
3A1
 10
230.58964
 20
420.061019
 30
0.0
 40
9.900108
 50
297.751064
 51
340.960298
  0
ARC
  8
LC-002-002-RND-0
  6
CONTINUOUS
  5
3A2
 10
239.178106
 20
416.904639
 30
0.0
 40
0.75
 50
339.820923
 51
85.0
  0
ARC
  8
LC-002-002-RND-0
  6
CONTINUOUS
  5
3A3
 10
239.095459
 20
416.91187
 30
0.0
 40
0.75
 50
85.0
 51
150.42979
  0
LINE
  8
LC-001-002-----0
  6
CONTINUOUS
  5
3A4
 10
317.567411
 20
426.483604
 30
0.0
 11
320.817411
 21
425.910542
 31
0.0
  0
LINE
  8
LC-001-002-----0
  6
CONTINUOUS
  5
3A5
 10
239.095459
 20
417.66187
 30
0.0
 11
239.243473
 21
417.651785
 31
0.0
  0
LINE
  8
LC-001-002-----0
  6
CONTINUOUS
  5
3A6
 10
228.390487
 20
410.395956
 30
0.0
 11
231.914347
 21
409.774604
 31
0.0
  0
LINE
  8
LC-001-002-----0
  6
CONTINUOUS
  5
3A7
 10
321.567411
 20
429.836258
 30
0.0
 11
321.567411
 21
428.13095
 31
0.0
  0
LINE
  8
LC-001-002-----0
  6
CONTINUOUS
  5
3A8
 10
155.567411
 20
301.983604
 30
0.0
 11
155.567411
 21
244.483604
 31
0.0
  0
LINE
  8
LC-001-002-----0
  6
CONTINUOUS
  5
3A9
 10
311.567411
 20
303.650208
 30
0.0
 11
235.567411
 21
303.650208
 31
0.0
  0
LINE
  8
LC-001-002-----0
  6
CONTINUOUS
  5
3AA
 10
159.567411
 20
303.650208
 30
0.0
 11
159.567411
 21
239.983604
 31
0.0
  0
LINE
  8
LC-001-002-----0
  6
CONTINUOUS
  5
3AB
 10
145.567411
 20
431.983604
 30
0.0
 11
145.567411
 21
421.983604
 31
0.0
  0
LINE
  8
LC-001-002-----0
  6
CONTINUOUS
  5
3AC
 10
149.567411
 20
435.983604
 30
0.0
 11
149.567411
 21
421.983604
 31
0.0
  0
LINE
  8
LC-001-002-----0
  6
CONTINUOUS
  5
3AD
 10
325.567411
 20
431.983604
 30
0.0
 11
325.567411
 21
421.983604
 31
0.0
  0
LINE
  8
LC-001-002-----0
  6
CONTINUOUS
  5
3AE
 10
321.567411
 20
435.983604
 30
0.0
 11
321.567411
 21
421.983604
 31
0.0
  0
LINE
  8
LC-001-002-----0
  6
CONTINUOUS
  5
3AF
 10
145.567411
 20
431.983604
 30
0.0
 11
145.567411
 21
431.983604
 31
0.0
  0
ARC
  8
LC-002-002-RND-0
  6
CONTINUOUS
  5
3B0
 10
145.567411
 20
435.983604
 30
0.0
 40
4.0
 50
180.0
 51
270.0
  0
LINE
  8
LC-001-002-----0
  6
CONTINUOUS
  5
3B1
 10
325.567411
 20
431.983604
 30
0.0
 11
325.567411
 21
431.983604
 31
0.0
  0
ARC
  8
LC-002-002-RND-0
  6
CONTINUOUS
  5
3B2
 10
325.567411
 20
435.983604
 30
0.0
 40
4.0
 50
270.0
 51
0.0
  0
LINE
  8
LC-001-002-----0
  6
CONTINUOUS
  5
3B3
 10
133.067411
 20
489.983604
 30
0.0
 11
133.067411
 21
471.983604
 31
0.0
  0
ARC
  8
LC-002-002-RND-0
  6
CONTINUOUS
  5
3B4
 10
141.067411
 20
471.983604
 30
0.0
 40
8.0
 50
180.0
 51
270.0
  0
LINE
  8
LC-001-002-----0
  6
CONTINUOUS
  5
3B5
 10
141.067411
 20
463.983604
 30
0.0
 11
141.567411
 21
463.983604
 31
0.0
  0
LINE
  8
LC-001-002-----0
  6
CONTINUOUS
  5
3B6
 10
338.067411
 20
489.983604
 30
0.0
 11
338.067411
 21
471.983604
 31
0.0
  0
ARC
  8
LC-002-002-RND-0
  6
CONTINUOUS
  5
3B7
 10
330.067411
 20
471.983604
 30
0.0
 40
8.0
 50
270.0
 51
0.0
  0
LINE
  8
LC-001-002-----0
  6
CONTINUOUS
  5
3B8
 10
330.067411
 20
463.983604
 30
0.0
 11
329.567411
 21
463.983604
 31
0.0
  0
ARC
  8
LC-002-002-RND-0
  6
CONTINUOUS
  5
3B9
 10
141.067411
 20
471.983604
 30
0.0
 40
4.0
 50
180.0
 51
270.0
  0
LINE
  8
LC-001-002-----0
  6
CONTINUOUS
  5
3BA
 10
334.067411
 20
493.983604
 30
0.0
 11
334.067411
 21
471.983604
 31
0.0
  0
ARC
  8
LC-002-002-RND-0
  6
CONTINUOUS
  5
3BB
 10
330.067411
 20
471.983604
 30
0.0
 40
4.0
 50
270.0
 51
0.0
  0
LINE
  8
LC-001-002-----0
  6
CONTINUOUS
  5
3BC
 10
141.567411
 20
463.983604
 30
0.0
 11
141.567411
 21
435.983604
 31
0.0
  0
LINE
  8
LC-001-002-----0
  6
CONTINUOUS
  5
3BD
 10
329.567411
 20
463.983604
 30
0.0
 11
329.567411
 21
435.983604
 31
0.0
  0
LINE
  8
LC-001-002-----0
  6
DASHDOT
 62
     2
  5
3BE
 10
235.567411
 20
513.983604
 30
0.0
 11
235.567411
 21
239.983604
 31
0.0
  0
LINE
  8
LC-001-002-----0
  6
CONTINUOUS
  5
3BF
 10
113.567411
 20
513.983604
 30
0.0
 11
113.567411
 21
509.983604
 31
0.0
  0
LINE
  8
LC-001-002-----0
  6
CONTINUOUS
  5
3C0
 10
113.567411
 20
509.983604
 30
0.0
 11
117.567411
 21
509.983604
 31
0.0
  0
LINE
  8
LC-001-002-----0
  6
CONTINUOUS
  5
3C1
 10
121.567411
 20
513.983604
 30
0.0
 11
121.567411
 21
493.983604
 31
0.0
  0
LINE
  8
LC-001-002-----0
  6
CONTINUOUS
  5
3C2
 10
117.567411
 20
509.983604
 30
0.0
 11
117.567411
 21
494.983604
 31
0.0
  0
ARC
  8
LC-002-002-RND-0
  6
CONTINUOUS
  5
3C3
 10
122.567411
 20
494.983604
 30
0.0
 40
5.0
 50
180.0
 51
270.0
  0
LINE
  8
LC-001-002-----0
  6
CONTINUOUS
  5
3C4
 10
122.567411
 20
489.983604
 30
0.0
 11
133.067411
 21
489.983604
 31
0.0
  0
LINE
  8
LC-001-002-----0
  6
CONTINUOUS
  5
3C5
 10
357.567411
 20
513.983604
 30
0.0
 11
357.567411
 21
509.983604
 31
0.0
  0
LINE
  8
LC-001-002-----0
  6
CONTINUOUS
  5
3C6
 10
357.567411
 20
509.983604
 30
0.0
 11
353.567411
 21
509.983604
 31
0.0
  0
LINE
  8
LC-001-002-----0
  6
CONTINUOUS
  5
3C7
 10
353.567411
 20
509.983604
 30
0.0
 11
353.567411
 21
494.983604
 31
0.0
  0
LINE
  8
LC-001-002-----0
  6
CONTINUOUS
  5
3C8
 10
349.567411
 20
513.983604
 30
0.0
 11
349.567411
 21
493.983604
 31
0.0
  0
ARC
  8
LC-002-002-RND-0
  6
CONTINUOUS
  5
3C9
 10
348.567411
 20
494.983604
 30
0.0
 40
5.0
 50
270.0
 51
0.0
  0
LINE
  8
LC-001-002-----0
  6
CONTINUOUS
  5
3CA
 10
348.567411
 20
489.983604
 30
0.0
 11
338.067411
 21
489.983604
 31
0.0
  0
LINE
  8
LC-001-002-----0
  6
CONTINUOUS
  5
3CB
 10
121.567411
 20
493.983604
 30
0.0
 11
137.067411
 21
493.983604
 31
0.0
  0
LINE
  8
LC-001-002-----0
  6
CONTINUOUS
  5
3CC
 10
117.567411
 20
494.983604
 30
0.0
 11
117.567411
 21
489.983604
 31
0.0
  0
LINE
  8
LC-001-002-----0
  6
CONTINUOUS
  5
3CD
 10
117.567411
 20
489.983604
 30
0.0
 11
141.567411
 21
438.515438
 31
0.0
  0
LINE
  8
LC-001-002-----0
  6
CONTINUOUS
  5
3CE
 10
353.567411
 20
489.983604
 30
0.0
 11
329.567411
 21
438.515438
 31
0.0
  0
LINE
  8
LC-001-002-----0
  6
CONTINUOUS
  5
3CF
 10
353.567411
 20
494.983604
 30
0.0
 11
353.567411
 21
489.983604
 31
0.0
  0
LINE
  8
LC-001-002-----0
  6
CONTINUOUS
  5
3D0
 10
137.067411
 20
493.983604
 30
0.0
 11
137.067411
 21
471.983604
 31
0.0
  0
LINE
  8
LC-001-002-----0
  6
CONTINUOUS
  5
3D1
 10
149.567411
 20
429.836258
 30
0.0
 11
149.567411
 21
428.13095
 31
0.0
  0
LINE
  8
LC-001-002-----0
  6
CONTINUOUS
  5
3D2
 10
153.567411
 20
429.836258
 30
0.0
 11
153.567411
 21
428.13095
 31
0.0
  0
LINE
  8
LC-001-002-----0
  6
CONTINUOUS
  5
3D3
 10
315.067411
 20
426.326381
 30
0.0
 11
235.285972
 21
422.145213
 31
0.0
  0
ARC
  8
LC-002-002-RND-0
  6
CONTINUOUS
  5
3D4
 10
235.809331
 20
412.158918
 30
0.0
 40
10.0
 50
93.0
 51
170.0
  0
LINE
  8
LC-001-002-----0
  6
CONTINUOUS
  5
3D5
 10
224.917286
 20
407.974762
 30
0.0
 11
225.961254
 21
413.895399
 31
0.0
  0
LINE
  8
LC-001-002-----0
  6
CONTINUOUS
  5
3D6
 10
318.224419
 20
423.487716
 30
0.0
 11
235.442979
 21
419.149324
 31
0.0
  0
ARC
  8
LC-002-002-RND-0
  6
CONTINUOUS
  5
3D7
 10
235.809331
 20
412.158918
 30
0.0
 40
7.0
 50
93.0
 51
170.0
  0
LINE
  8
LC-001-002-----0
  6
CONTINUOUS
  5
3D8
 10
228.390487
 20
410.395956
 30
0.0
 11
228.915677
 21
413.374455
 31
0.0
  0
LINE
  8
LC-001-002-----0
  6
CONTINUOUS
  5
3D9
 10
246.115002
 20
326.359302
 30
0.0
 11
245.560624
 21
329.503334
 31
0.0
  0
LINE
  8
LC-001-002-----0
  6
CONTINUOUS
  5
3DA
 10
150.317411
 20
436.483604
 30
0.0
 11
150.317411
 21
432.056667
 31
0.0
  0
LINE
  8
LC-001-002-----0
  6
CONTINUOUS
  5
3DB
 10
148.067411
 20
436.483604
 30
0.0
 11
150.317411
 21
436.483604
 31
0.0
  0
LINE
  8
LC-001-002-----0
  6
CONTINUOUS
  5
3DC
 10
150.317411
 20
423.483604
 30
0.0
 11
153.067411
 21
423.483604
 31
0.0
  0
LINE
  8
LC-001-002-----0
  6
CONTINUOUS
  5
3DD
 10
320.817411
 20
436.483604
 30
0.0
 11
320.817411
 21
432.056667
 31
0.0
  0
LINE
  8
LC-001-002-----0
  6
CONTINUOUS
  5
3DE
 10
320.817411
 20
423.483604
 30
0.0
 11
318.145969
 21
423.483604
 31
0.0
  0
LINE
  8
LC-001-002-----0
  6
CONTINUOUS
  5
3DF
 10
320.817411
 20
436.483604
 30
0.0
 11
323.067411
 21
436.483604
 31
0.0
  0
LINE
  8
LC-001-002-----0
  6
CONTINUOUS
  5
3E0
 10
145.567411
 20
435.983604
 30
0.0
 11
149.567411
 21
435.983604
 31
0.0
  0
LINE
  8
LC-001-002-----0
  6
CONTINUOUS
  5
3E1
 10
321.567411
 20
435.983604
 30
0.0
 11
325.567411
 21
435.983604
 31
0.0
  0
LINE
  8
LC-001-002-----0
  6
CONTINUOUS
  5
3E2
 10
138.567411
 20
485.483604
 30
0.0
 11
160.567411
 21
483.558854
 31
0.0
  0
LINE
  8
LC-001-002-----0
  6
CONTINUOUS
  5
3E3
 10
138.567411
 20
487.993154
 30
0.0
 11
162.931646
 21
485.86156
 31
0.0
  0
LINE
  8
LC-001-002-----0
  6
CONTINUOUS
  5
3E4
 10
162.931646
 20
485.86156
 30
0.0
 11
200.504218
 21
485.86156
 31
0.0
  0
LINE
  8
LC-001-002-----0
  6
CONTINUOUS
  5
3E5
 10
160.933265
 20
477.558854
 30
0.0
 11
163.437908
 21
477.558854
 31
0.0
  0
LINE
  8
LC-001-002-----0
  6
CONTINUOUS
  5
3E6
 10
162.823509
 20
446.558854
 30
0.0
 11
165.328152
 21
446.558854
 31
0.0
  0
LINE
  8
LC-001-002-----0
  6
CONTINUOUS
  5
3E7
 10
160.567411
 20
483.558854
 30
0.0
 11
162.904772
 21
445.226136
 31
0.0
  0
LINE
  8
LC-001-002-----0
  6
CONTINUOUS
  5
3E8
 10
165.572055
 20
442.558854
 30
0.0
 11
162.904772
 21
445.226136
 31
0.0
  0
LINE
  8
LC-001-002-----0
  6
CONTINUOUS
  5
3E9
 10
155.567411
 20
244.483604
 30
0.0
 11
156.773183
 21
239.983604
 31
0.0
  0
LINE
  8
LC-001-002-----0
  6
CONTINUOUS
  5
3EA
 10
311.567411
 20
303.650208
 30
0.0
 11
311.567411
 21
239.983604
 31
0.0
  0
LINE
  8
LC-001-002-----0
  6
CONTINUOUS
  5
3EB
 10
156.773183
 20
239.983604
 30
0.0
 11
314.36164
 21
239.983604
 31
0.0
  0
LINE
  8
LC-001-002-----0
  6
CONTINUOUS
  5
3EC
 10
165.328152
 20
446.558854
 30
0.0
 11
167.995435
 21
443.891571
 31
0.0
  0
LINE
  8
LC-001-002-----0
  6
CONTINUOUS
  5
3ED
 10
162.931646
 20
485.86156
 30
0.0
 11
165.328152
 21
446.558854
 31
0.0
  0
LINE
  8
LC-001-002-----0
  6
CONTINUOUS
  5
3EE
 10
165.562777
 20
446.558854
 30
0.0
 11
165.562777
 21
446.493154
 31
0.0
  0
LINE
  8
LC-001-002-----0
  6
CONTINUOUS
  5
3EF
 10
167.995435
 20
443.891571
 30
0.0
 11
168.09926
 21
442.188841
 31
0.0
  0
LINE
  8
LC-001-002-----0
  6
CONTINUOUS
  5
3F0
 10
172.233507
 20
435.039141
 30
0.0
 11
235.567411
 21
427.993154
 31
0.0
  0
LINE
  8
LC-001-002-----0
  6
CONTINUOUS
  5
3F1
 10
172.535707
 20
437.523972
 30
0.0
 11
235.567411
 21
430.493154
 31
0.0
  0
ARC
  8
LC-002-002-RND-0
  6
CONTINUOUS
  5
3F2
 10
173.062777
 20
442.493154
 30
0.0
 40
7.5
 50
180.0
 51
263.651867
  0
ARC
  8
LC-002-002-RND-0
  6
CONTINUOUS
  5
3F3
 10
173.08999
 20
442.493154
 30
0.0
 40
5.0
 50
183.489325
 51
263.635301
  0
LINE
  8
LC-001-002-----0
  6
CONTINUOUS
  5
3F4
 10
218.567411
 20
432.389404
 30
0.0
 11
218.567411
 21
429.884428
 31
0.0
  0
LINE
  8
LC-001-002-----0
  6
CONTINUOUS
  5
3F5
 10
222.567411
 20
431.943228
 30
0.0
 11
222.567411
 21
429.439422
 31
0.0
  0
LINE
  8
LC-001-002-----0
  6
CONTINUOUS
  5
3F6
 10
167.995435
 20
443.891571
 30
0.0
 11
235.567411
 21
443.891571
 31
0.0
  0
LINE
  8
LC-001-002-----0
  6
CONTINUOUS
  5
3F7
 10
228.567411
 20
477.558854
 30
0.0
 11
228.567411
 21
446.558854
 31
0.0
  0
LINE
  8
LC-001-002-----0
  6
CONTINUOUS
  5
3F8
 10
216.567411
 20
477.558854
 30
0.0
 11
216.567411
 21
446.558854
 31
0.0
  0
LINE
  8
LC-001-002-----0
  6
CONTINUOUS
  5
3F9
 10
204.567411
 20
477.558854
 30
0.0
 11
204.567411
 21
446.558854
 31
0.0
  0
LINE
  8
LC-001-002-----0
  6
CONTINUOUS
  5
3FA
 10
194.567411
 20
477.558854
 30
0.0
 11
194.567411
 21
446.558854
 31
0.0
  0
LINE
  8
LC-001-002-----0
  6
CONTINUOUS
  5
3FB
 10
184.567411
 20
477.558854
 30
0.0
 11
184.567411
 21
446.558854
 31
0.0
  0
LINE
  8
LC-001-002-----0
  6
CONTINUOUS
  5
3FC
 10
175.567411
 20
477.558854
 30
0.0
 11
175.567411
 21
446.558854
 31
0.0
  0
LINE
  8
LC-001-002-----0
  6
CONTINUOUS
  5
3FD
 10
174.567411
 20
477.558854
 30
0.0
 11
174.567411
 21
446.558854
 31
0.0
  0
LINE
  8
LC-001-002-----0
  6
CONTINUOUS
  5
3FE
 10
214.567411
 20
477.558854
 30
0.0
 11
214.567411
 21
446.558854
 31
0.0
  0
LINE
  8
LC-001-002-----0
  6
CONTINUOUS
  5
3FF
 10
193.067411
 20
477.558854
 30
0.0
 11
193.067411
 21
446.558854
 31
0.0
  0
LINE
  8
LC-001-002-----0
  6
CONTINUOUS
  5
400
 10
167.567411
 20
477.558854
 30
0.0
 11
175.567411
 21
477.558854
 31
0.0
  0
LINE
  8
LC-001-002-----0
  6
CONTINUOUS
  5
401
 10
184.567411
 20
477.558854
 30
0.0
 11
194.567411
 21
477.558854
 31
0.0
  0
LINE
  8
LC-001-002-----0
  6
CONTINUOUS
  5
402
 10
228.567411
 20
477.558854
 30
0.0
 11
235.567411
 21
477.558854
 31
0.0
  0
LINE
  8
LC-001-002-----0
  6
CONTINUOUS
  5
403
 10
204.567411
 20
477.558854
 30
0.0
 11
216.567411
 21
477.558854
 31
0.0
  0
LINE
  8
LC-001-002-----0
  6
CONTINUOUS
  5
404
 10
228.567411
 20
446.558854
 30
0.0
 11
235.567411
 21
446.558854
 31
0.0
  0
LINE
  8
LC-001-002-----0
  6
CONTINUOUS
  5
405
 10
204.567411
 20
446.558854
 30
0.0
 11
216.567411
 21
446.558854
 31
0.0
  0
LINE
  8
LC-001-002-----0
  6
CONTINUOUS
  5
406
 10
184.567411
 20
446.558854
 30
0.0
 11
194.567411
 21
446.558854
 31
0.0
  0
LINE
  8
LC-001-002-----0
  6
CONTINUOUS
  5
407
 10
167.567411
 20
477.558854
 30
0.0
 11
169.457655
 21
446.558854
 31
0.0
  0
LINE
  8
LC-001-002-----0
  6
CONTINUOUS
  5
408
 10
169.457655
 20
446.558854
 30
0.0
 11
175.567411
 21
446.558854
 31
0.0
  0
LINE
  8
LC-001-002-----0
  6
CONTINUOUS
  5
409
 10
138.567411
 20
487.993154
 30
0.0
 11
191.271268
 21
487.993154
 31
0.0
  0
LINE
  8
LC-001-002-----0
  6
CONTINUOUS
  5
40A
 10
332.567411
 20
487.993154
 30
0.0
 11
279.870813
 21
487.993154
 31
0.0
  0
LINE
  8
LC-001-002-----0
  6
CONTINUOUS
  5
40B
 10
332.567411
 20
487.993154
 30
0.0
 11
332.567411
 21
485.483604
 31
0.0
  0
LINE
  8
LC-001-002-----0
  6
CONTINUOUS
  5
40C
 10
308.203177
 20
485.86156
 30
0.0
 11
305.806671
 21
446.558854
 31
0.0
  0
LINE
  8
LC-001-002-----0
  6
CONTINUOUS
  5
40D
 10
308.203177
 20
485.86156
 30
0.0
 11
270.637864
 21
485.86156
 31
0.0
  0
LINE
  8
LC-001-002-----0
  6
CONTINUOUS
  5
40E
 10
308.311314
 20
446.558854
 30
0.0
 11
305.806671
 21
446.558854
 31
0.0
  0
LINE
  8
LC-001-002-----0
  6
CONTINUOUS
  5
40F
 10
332.567411
 20
487.993154
 30
0.0
 11
308.203177
 21
485.86156
 31
0.0
  0
LINE
  8
LC-001-002-----0
  6
CONTINUOUS
  5
410
 10
332.567411
 20
485.483604
 30
0.0
 11
310.567411
 21
483.558854
 31
0.0
  0
LINE
  8
LC-001-002-----0
  6
CONTINUOUS
  5
411
 10
310.201558
 20
477.558854
 30
0.0
 11
307.696915
 21
477.558854
 31
0.0
  0
LINE
  8
LC-001-002-----0
  6
CONTINUOUS
  5
412
 10
305.562768
 20
442.558854
 30
0.0
 11
308.230051
 21
445.226136
 31
0.0
  0
LINE
  8
LC-001-002-----0
  6
CONTINUOUS
  5
413
 10
303.139388
 20
443.891571
 30
0.0
 11
235.567411
 21
443.891571
 31
0.0
  0
LINE
  8
LC-001-002-----0
  6
CONTINUOUS
  5
414
 10
310.567411
 20
483.558854
 30
0.0
 11
308.230051
 21
445.226136
 31
0.0
  0
LINE
  8
LC-001-002-----0
  6
CONTINUOUS
  5
415
 10
303.139388
 20
443.891571
 30
0.0
 11
303.035563
 21
442.188841
 31
0.0
  0
LINE
  8
LC-001-002-----0
  6
CONTINUOUS
  5
416
 10
305.806671
 20
446.558854
 30
0.0
 11
303.139388
 21
443.891571
 31
0.0
  0
LINE
  8
LC-001-002-----0
  6
CONTINUOUS
  5
417
 10
248.567411
 20
431.943228
 30
0.0
 11
248.567411
 21
429.439422
 31
0.0
  0
ARC
  8
LC-002-002-RND-0
  6
CONTINUOUS
  5
418
 10
298.072046
 20
442.493154
 30
0.0
 40
7.5
 50
276.348133
 51
0.0
  0
LINE
  8
LC-001-002-----0
  6
CONTINUOUS
  5
419
 10
305.572046
 20
446.558854
 30
0.0
 11
305.572046
 21
446.493154
 31
0.0
  0
ARC
  8
LC-002-002-RND-0
  6
CONTINUOUS
  5
41A
 10
298.044832
 20
442.493154
 30
0.0
 40
5.0
 50
276.364699
 51
356.510675
  0
LINE
  8
LC-001-002-----0
  6
CONTINUOUS
  5
41B
 10
252.567411
 20
432.389404
 30
0.0
 11
252.567411
 21
429.884428
 31
0.0
  0
LINE
  8
LC-001-002-----0
  6
CONTINUOUS
  5
41C
 10
298.901316
 20
435.039141
 30
0.0
 11
235.567411
 21
427.993154
 31
0.0
  0
LINE
  8
LC-001-002-----0
  6
CONTINUOUS
  5
41D
 10
301.677167
 20
446.558854
 30
0.0
 11
295.567411
 21
446.558854
 31
0.0
  0
LINE
  8
LC-001-002-----0
  6
CONTINUOUS
  5
41E
 10
298.599116
 20
437.523972
 30
0.0
 11
235.567411
 21
430.493154
 31
0.0
  0
LINE
  8
LC-001-002-----0
  6
CONTINUOUS
  5
41F
 10
303.567411
 20
477.558854
 30
0.0
 11
295.567411
 21
477.558854
 31
0.0
  0
LINE
  8
LC-001-002-----0
  6
CONTINUOUS
  5
420
 10
242.567411
 20
477.558854
 30
0.0
 11
242.567411
 21
446.558854
 31
0.0
  0
LINE
  8
LC-001-002-----0
  6
CONTINUOUS
  5
421
 10
254.567411
 20
477.558854
 30
0.0
 11
254.567411
 21
446.558854
 31
0.0
  0
LINE
  8
LC-001-002-----0
  6
CONTINUOUS
  5
422
 10
266.567411
 20
477.558854
 30
0.0
 11
266.567411
 21
446.558854
 31
0.0
  0
LINE
  8
LC-001-002-----0
  6
CONTINUOUS
  5
423
 10
276.567411
 20
477.558854
 30
0.0
 11
276.567411
 21
446.558854
 31
0.0
  0
LINE
  8
LC-001-002-----0
  6
CONTINUOUS
  5
424
 10
286.567411
 20
477.558854
 30
0.0
 11
286.567411
 21
446.558854
 31
0.0
  0
LINE
  8
LC-001-002-----0
  6
CONTINUOUS
  5
425
 10
295.567411
 20
477.558854
 30
0.0
 11
295.567411
 21
446.558854
 31
0.0
  0
LINE
  8
LC-001-002-----0
  6
CONTINUOUS
  5
426
 10
296.567411
 20
477.558854
 30
0.0
 11
296.567411
 21
446.558854
 31
0.0
  0
LINE
  8
LC-001-002-----0
  6
CONTINUOUS
  5
427
 10
278.067411
 20
477.558854
 30
0.0
 11
278.067411
 21
446.558854
 31
0.0
  0
LINE
  8
LC-001-002-----0
  6
CONTINUOUS
  5
428
 10
256.567411
 20
477.558854
 30
0.0
 11
256.567411
 21
446.558854
 31
0.0
  0
LINE
  8
LC-001-002-----0
  6
CONTINUOUS
  5
429
 10
286.567411
 20
477.558854
 30
0.0
 11
276.567411
 21
477.558854
 31
0.0
  0
LINE
  8
LC-001-002-----0
  6
CONTINUOUS
  5
42A
 10
266.567411
 20
477.558854
 30
0.0
 11
254.567411
 21
477.558854
 31
0.0
  0
LINE
  8
LC-001-002-----0
  6
CONTINUOUS
  5
42B
 10
242.567411
 20
477.558854
 30
0.0
 11
235.567411
 21
477.558854
 31
0.0
  0
LINE
  8
LC-001-002-----0
  6
CONTINUOUS
  5
42C
 10
242.567411
 20
446.558854
 30
0.0
 11
235.567411
 21
446.558854
 31
0.0
  0
LINE
  8
LC-001-002-----0
  6
CONTINUOUS
  5
42D
 10
266.567411
 20
446.558854
 30
0.0
 11
254.567411
 21
446.558854
 31
0.0
  0
LINE
  8
LC-001-002-----0
  6
CONTINUOUS
  5
42E
 10
286.567411
 20
446.558854
 30
0.0
 11
276.567411
 21
446.558854
 31
0.0
  0
LINE
  8
LC-001-002-----0
  6
CONTINUOUS
  5
42F
 10
303.567411
 20
477.558854
 30
0.0
 11
301.677167
 21
446.558854
 31
0.0
  0
LINE
  8
LC-001-002-----0
  6
CONTINUOUS
  5
430
 10
138.567411
 20
487.993154
 30
0.0
 11
138.567411
 21
469.983604
 31
0.0
  0
ARC
  8
LC-002-002-RND-0
  6
CONTINUOUS
  5
431
 10
140.067411
 20
469.983604
 30
0.0
 40
1.5
 50
180.0
 51
270.0
  0
ARC
  8
LC-002-002-RND-0
  6
CONTINUOUS
  5
432
 10
144.119152
 20
469.983604
 30
0.0
 40
1.5
 50
270.0
 51
345.0
  0
LINE
  8
LC-001-002-----0
  6
CONTINUOUS
  5
433
 10
149.567411
 20
484.521229
 30
0.0
 11
145.568041
 21
469.595376
 31
0.0
  0
ARC
  8
LC-002-002-RND-0
  6
CONTINUOUS
  5
434
 10
331.067411
 20
469.983604
 30
0.0
 40
1.5
 50
270.0
 51
0.0
  0
ARC
  8
LC-002-002-RND-0
  6
CONTINUOUS
  5
435
 10
327.01567
 20
469.983604
 30
0.0
 40
1.5
 50
195.0
 51
270.0
  0
LINE
  8
LC-001-002-----0
  6
CONTINUOUS
  5
436
 10
321.567411
 20
484.521229
 30
0.0
 11
325.566782
 21
469.595376
 31
0.0
  0
LINE
  8
LC-001-002-----0
  6
CONTINUOUS
  5
437
 10
332.567411
 20
485.483604
 30
0.0
 11
332.567411
 21
469.983604
 31
0.0
  0
LINE
  8
LC-001-002-----0
  6
CONTINUOUS
  5
438
 10
325.567411
 20
467.983604
 30
0.0
 11
330.067411
 21
467.983604
 31
0.0
  0
LINE
  8
LC-001-002-----0
  6
CONTINUOUS
  5
439
 10
141.067411
 20
467.983604
 30
0.0
 11
145.567411
 21
467.983604
 31
0.0
  0
LINE
  8
LC-001-002-----0
  6
CONTINUOUS
  5
43A
 10
145.567411
 20
467.983604
 30
0.0
 11
145.567411
 21
435.983604
 31
0.0
  0
LINE
  8
LC-001-002-----0
  6
CONTINUOUS
  5
43B
 10
325.567411
 20
467.983604
 30
0.0
 11
325.567411
 21
435.983604
 31
0.0
  0
LINE
  8
LC-001-002-----0
  6
CONTINUOUS
  5
43C
 10
331.067411
 20
468.483604
 30
0.0
 11
327.01567
 21
468.483604
 31
0.0
  0
LINE
  8
LC-001-002-----0
  6
CONTINUOUS
  5
43D
 10
148.067411
 20
439.483604
 30
0.0
 11
166.193089
 21
439.483604
 31
0.0
  0
LINE
  8
LC-001-002-----0
  6
CONTINUOUS
  5
43E
 10
156.067411
 20
434.483604
 30
0.0
 11
177.227029
 21
434.483604
 31
0.0
  0
LINE
  8
LC-001-002-----0
  6
CONTINUOUS
  5
43F
 10
293.907793
 20
434.483604
 30
0.0
 11
315.067411
 21
434.483604
 31
0.0
  0
LINE
  8
LC-001-002-----0
  6
CONTINUOUS
  5
440
 10
304.941734
 20
439.483604
 30
0.0
 11
316.067411
 21
439.483604
 31
0.0
  0
LINE
  8
LC-001-002-----0
  6
CONTINUOUS
  5
441
 10
159.567411
 20
303.650208
 30
0.0
 11
235.567411
 21
303.650208
 31
0.0
  0
LINE
  8
LC-001-002-----0
  6
CONTINUOUS
  5
442
 10
152.446722
 20
307.983604
 30
0.0
 11
155.567411
 21
301.983604
 31
0.0
  0
LINE
  8
LC-001-002-----0
  6
CONTINUOUS
  5
443
 10
315.567411
 20
301.983604
 30
0.0
 11
315.567411
 21
244.483604
 31
0.0
  0
LINE
  8
LC-001-002-----0
  6
CONTINUOUS
  5
444
 10
315.567411
 20
244.483604
 30
0.0
 11
314.36164
 21
239.983604
 31
0.0
  0
LINE
  8
LC-001-002-----0
  6
CONTINUOUS
  5
445
 10
318.688101
 20
307.983604
 30
0.0
 11
315.567411
 21
301.983604
 31
0.0
  0
LINE
  8
LC-001-002-----0
  6
CONTINUOUS
  5
446
 10
314.752202
 20
309.166427
 30
0.0
 11
311.567411
 21
303.650208
 31
0.0
  0
LINE
  8
LC-001-002-----0
  6
CONTINUOUS
  5
447
 10
156.382621
 20
309.166427
 30
0.0
 11
314.752202
 21
309.166427
 31
0.0
  0
LINE
  8
LC-001-002-----0
  6
CONTINUOUS
 62
     2
  5
448
 10
204.985718
 20
564.875675
 30
0.0
 11
204.985718
 21
549.875675
 31
0.0
  0
LINE
  8
LC-001-002-----0
  6
CONTINUOUS
 62
     2
  5
449
 10
204.985718
 20
549.875675
 30
0.0
 11
189.985718
 21
549.875675
 31
0.0
  0
LINE
  8
LC-001-002-----0
  6
CONTINUOUS
 62
     2
  5
44A
 10
204.985718
 20
601.543145
 30
0.0
 11
189.985718
 21
601.543145
 31
0.0
  0
LINE
  8
LC-001-002-----0
  6
CONTINUOUS
 62
     2
  5
44B
 10
189.985718
 20
601.543145
 30
0.0
 11
189.985718
 21
586.543145
 31
0.0
  0
LINE
  8
LC-001-002-----0
  6
CONTINUOUS
 62
     2
  5
44C
 10
204.985718
 20
586.543145
 30
0.0
 11
189.985718
 21
586.543145
 31
0.0
  0
LINE
  8
LC-001-002-----0
  6
CONTINUOUS
 62
     2
  5
44D
 10
204.985718
 20
601.543145
 30
0.0
 11
204.985718
 21
586.543145
 31
0.0
  0
LINE
  8
LC-001-002-----0
  6
CONTINUOUS
  5
44E
 10
140.067411
 20
468.483604
 30
0.0
 11
144.119152
 21
468.483604
 31
0.0
  0
LINE
  8
LC-001-002-----0
  6
CONTINUOUS
 62
     2
  5
44F
 10
204.985718
 20
564.875675
 30
0.0
 11
189.985718
 21
564.875675
 31
0.0
  0
LINE
  8
LC-001-002-----0
  6
CONTINUOUS
 62
     2
  5
450
 10
189.985718
 20
564.875675
 30
0.0
 11
189.985718
 21
549.875675
 31
0.0
  0
LINE
  8
LC-001-002-----0
  6
CONTINUOUS
  5
451
 10
349.567411
 20
513.983604
 30
0.0
 11
357.567411
 21
513.983604
 31
0.0
  0
LINE
  8
LC-001-002-----0
  6
CONTINUOUS
  5
452
 10
113.567411
 20
513.983604
 30
0.0
 11
121.567411
 21
513.983604
 31
0.0
  0
LINE
  8
LC-001-002-----0
  6
CONTINUOUS
  5
453
 10
152.446722
 20
307.983604
 30
0.0
 11
145.567411
 21
421.983604
 31
0.0
  0
LINE
  8
LC-001-002-----0
  6
CONTINUOUS
  5
454
 10
156.382621
 20
309.166427
 30
0.0
 11
149.574661
 21
421.984042
 31
0.0
  0
LINE
  8
LC-001-002-----0
  6
CONTINUOUS
  5
455
 10
156.382621
 20
309.166427
 30
0.0
 11
159.567411
 21
303.650208
 31
0.0
  0
LINE
  8
LC-001-002-----0
  6
CONTINUOUS
  5
456
 10
318.688101
 20
307.983604
 30
0.0
 11
325.567411
 21
421.983604
 31
0.0
  0
LINE
  8
LC-001-002-----0
  6
CONTINUOUS
  5
457
 10
314.752202
 20
309.166427
 30
0.0
 11
321.574675
 21
422.224545
 31
0.0
  0
LINE
  8
LC-001-002-----0
  6
DASHDOT
 62
     2
  5
458
 10
317.94102
 20
385.861608
 30
0.0
 11
233.368684
 21
416.643421
 31
0.0
  0
LINE
  8
LC-001-002-----0
  6
DASHDOT
 62
     2
  5
459
 10
316.743949
 20
382.572684
 30
0.0
 11
232.171614
 21
413.354497
 31
0.0
  0
LINE
  8
LC-001-002-----0
  6
DASHDOT
 62
     2
  5
45A
 10
316.743949
 20
382.572684
 30
0.0
 11
317.94102
 21
385.861608
 31
0.0
  0
LINE
  8
LC-001-002-----0
  6
CONTINUOUS
  5
45B
 10
334.067411
 20
493.983604
 30
0.0
 11
349.567411
 21
493.983604
 31
0.0
  0
LINE
  8
LC-001-002-----0
  6
CONTINUOUS
  5
45C
 10
235.571041
 20
479.983604
 30
0.0
 11
245.177643
 21
479.983604
 31
0.0
  0
LINE
  8
LC-001-002-----0
  6
CONTINUOUS
  5
45D
 10
298.56967
 20
513.983604
 30
0.0
 11
172.565152
 21
513.983604
 31
0.0
  0
LINE
  8
LC-001-002-----0
  6
CONTINUOUS
  5
45E
 10
225.964439
 20
479.983604
 30
0.0
 11
173.403677
 21
492.118212
 31
0.0
  0
LINE
  8
LC-001-002-----0
  6
CONTINUOUS
  5
45F
 10
225.964439
 20
479.983604
 30
0.0
 11
235.571041
 21
479.983604
 31
0.0
  0
LINE
  8
LC-001-002-----0
  6
CONTINUOUS
  5
460
 10
346.231146
 20
495.878932
 30
0.0
 11
347.06967
 21
511.878932
 31
0.0
  0
LINE
  8
LC-001-002-----0
  6
CONTINUOUS
  5
461
 10
299.728405
 20
495.878932
 30
0.0
 11
300.56693
 21
511.878932
 31
0.0
  0
LINE
  8
LC-001-002-----0
  6
CONTINUOUS
  5
462
 10
330.572411
 20
511.878932
 30
0.0
 11
331.410936
 21
495.878932
 31
0.0
  0
LINE
  8
LC-001-002-----0
  6
CONTINUOUS
  5
463
 10
345.072411
 20
513.983604
 30
0.0
 11
298.56967
 21
513.983604
 31
0.0
  0
LINE
  8
LC-001-002-----0
  6
CONTINUOUS
  5
464
 10
333.408195
 20
493.983604
 30
0.0
 11
344.233887
 21
493.983604
 31
0.0
  0
LINE
  8
LC-001-002-----0
  6
CONTINUOUS
  5
465
 10
124.072411
 20
511.878932
 30
0.0
 11
124.910936
 21
495.878932
 31
0.0
  0
LINE
  8
LC-001-002-----0
  6
CONTINUOUS
  5
466
 10
172.565152
 20
513.983604
 30
0.0
 11
126.06967
 21
513.983604
 31
0.0
  0
LINE
  8
LC-001-002-----0
  6
CONTINUOUS
  5
467
 10
170.567893
 20
511.878932
 30
0.0
 11
171.406418
 21
495.878932
 31
0.0
  0
LINE
  8
LC-001-002-----0
  6
CONTINUOUS
  5
468
 10
135.729369
 20
495.878932
 30
0.0
 11
136.567893
 21
511.878932
 31
0.0
  0
LINE
  8
LC-008-100-D00-0
  6
CONTINUOUS
  5
46A
 10
126.908195
 20
493.983604
 30
0.0
 11
133.73211
 21
493.983604
 31
0.0
  0
LINE
  8
LC-001-002-----0
  6
CONTINUOUS
  5
46B
 10
133.73211
 20
493.983604
 30
0.0
 11
173.403677
 21
493.983604
 31
0.0
  0
LINE
  8
LC-001-002-----0
  6
CONTINUOUS
  5
46C
 10
297.731146
 20
493.983604
 30
0.0
 11
333.408195
 21
493.983604
 31
0.0
  0
LINE
  8
LC-001-002-----0
  6
CONTINUOUS
  5
46D
 10
297.731146
 20
493.983604
 30
0.0
 11
297.731146
 21
492.116537
 31
0.0
  0
LINE
  8
LC-001-002-----0
  6
CONTINUOUS
  5
46E
 10
297.731146
 20
492.116537
 30
0.0
 11
245.177643
 21
479.983604
 31
0.0
  0
LINE
  8
LC-001-002-----0
  6
CONTINUOUS
  5
46F
 10
173.403677
 20
493.983604
 30
0.0
 11
173.403677
 21
492.118212
 31
0.0
  0
ARC
  8
LC-001-002-----0
  6
CONTINUOUS
  5
470
 10
345.072411
 20
511.983604
 30
0.0
 40
2.0
 50
357.0
 51
90.0
  0
ARC
  8
LC-001-002-----0
  6
CONTINUOUS
  5
471
 10
344.233887
 20
495.983604
 30
0.0
 40
2.0
 50
270.0
 51
357.0
  0
ARC
  8
LC-001-002-----0
  6
CONTINUOUS
  5
472
 10
298.56967
 20
511.983604
 30
0.0
 40
2.0
 50
357.0
 51
90.0
  0
ARC
  8
LC-001-002-----0
  6
CONTINUOUS
  5
473
 10
297.731146
 20
495.983604
 30
0.0
 40
2.0
 50
270.0
 51
357.0
  0
ARC
  8
LC-001-002-----0
  6
CONTINUOUS
  5
474
 10
332.56967
 20
511.983604
 30
0.0
 40
2.0
 50
90.0
 51
183.0
  0
ARC
  8
LC-001-002-----0
  6
CONTINUOUS
  5
475
 10
333.408195
 20
495.983604
 30
0.0
 40
2.0
 50
183.0
 51
270.0
  0
ARC
  8
LC-001-002-----0
  6
CONTINUOUS
  5
476
 10
126.06967
 20
511.983604
 30
0.0
 40
2.0
 50
90.0
 51
183.0
  0
ARC
  8
LC-001-002-----0
  6
CONTINUOUS
  5
477
 10
126.908195
 20
495.983604
 30
0.0
 40
2.0
 50
183.0
 51
270.0
  0
ARC
  8
LC-001-002-----0
  6
CONTINUOUS
  5
478
 10
172.565152
 20
511.983604
 30
0.0
 40
2.0
 50
90.0
 51
183.0
  0
ARC
  8
LC-001-002-----0
  6
CONTINUOUS
  5
479
 10
173.403677
 20
495.983604
 30
0.0
 40
2.0
 50
183.0
 51
270.0
  0
ARC
  8
LC-001-002-----0
  6
CONTINUOUS
  5
47A
 10
134.570634
 20
511.983604
 30
0.0
 40
2.0
 50
357.0
 51
90.0
  0
ARC
  8
LC-001-002-----0
  6
CONTINUOUS
  5
47B
 10
133.73211
 20
495.983604
 30
0.0
 40
2.0
 50
270.0
 51
357.0
  0
ENDSEC
  0
EOF
