  0
SECTION
  2
HEADER
  9
$ACADVER
  1
AC1009
  9
$INSBASE
 10
283.015781
 20
-209.088
 30
0.0
  9
$EXTMIN
 10
283.015781
 20
-209.088
 30
0.0
  9
$EXTMAX
 10
1123.015781
 20
384.912
 30
0.0
  9
$LIMMIN
 10
283.015781
 20
-209.088
  9
$LIMMAX
 10
1123.015781
 20
384.912
  9
$ORTHOMODE
 70
     0
  9
$REGENMODE
 70
     1
  9
$FILLMODE
 70
     1
  9
$QTEXTMODE
 70
     0
  9
$MIRRTEXT
 70
     1
  9
$DRAGMODE
 70
     2
  9
$LTSCALE
 40
2.0
  9
$OSMODE
 70
     0
  9
$ATTMODE
 70
     1
  9
$TEXTSIZE
 40
0.2
  9
$TRACEWID
 40
0.05
  9
$TEXTSTYLE
  7
STANDARD
  9
$CLAYER
  8
0
  9
$CELTYPE
  6
BYLAYER
  9
$CECOLOR
 62
     7
  9
$DIMSCALE
 40
2.0
  9
$DIMASZ
 40
3.5
  9
$DIMEXO
 40
0.0625
  9
$DIMDLI
 40
0.38
  9
$DIMRND
 40
0.0
  9
$DIMDLE
 40
0.0
  9
$DIMEXE
 40
0.18
  9
$DIMTP
 40
0.0
  9
$DIMTM
 40
0.0
  9
$DIMTXT
 40
3.5
  9
$DIMCEN
 40
0.09
  9
$DIMTSZ
 40
0.0
  9
$DIMTOL
 70
     0
  9
$DIMLIM
 70
     0
  9
$DIMTIH
 70
     1
  9
$DIMTOH
 70
     1
  9
$DIMSE1
 70
     0
  9
$DIMSE2
 70
     0
  9
$DIMTAD
 70
     1
  9
$DIMZIN
 70
     0
  9
$DIMBLK
  1

  9
$DIMASO
 70
     1
  9
$DIMSHO
 70
     1
  9
$DIMPOST
  1

  9
$DIMAPOST
  1

  9
$DIMALT
 70
     0
  9
$DIMALTD
 70
     2
  9
$DIMALTF
 40
25.4
  9
$DIMLFAC
 40
1.0
  9
$DIMTOFL
 70
     0
  9
$DIMTVP
 40
0.0
  9
$DIMTIX
 70
     0
  9
$DIMSOXD
 70
     0
  9
$DIMSAH
 70
     0
  9
$DIMBLK1
  1

  9
$DIMBLK2
  1

  9
$DIMSTYLE
  2
STANDARD
  9
$DIMCLRD
 70
     0
  9
$DIMCLRE
 70
     0
  9
$DIMCLRT
 70
     0
  9
$DIMTFAC
 40
1.0
  9
$DIMGAP
 40
0.09
  9
$LUNITS
 70
     2
  9
$LUPREC
 70
     2
  9
$AXISMODE
 70
     0
  9
$AXISUNIT
 10
0.0
 20
0.0
  9
$SKETCHINC
 40
0.1
  9
$FILLETRAD
 40
0.0
  9
$AUNITS
 70
     0
  9
$AUPREC
 70
     0
  9
$MENU
  1
acad
  9
$ELEVATION
 40
0.0
  9
$PELEVATION
 40
0.0
  9
$THICKNESS
 40
0.0
  9
$LIMCHECK
 70
     0
  9
$BLIPMODE
 70
     1
  9
$CHAMFERA
 40
0.0
  9
$CHAMFERB
 40
0.0
  9
$SKPOLY
 70
     0
  9
$TDCREATE
 40
0.000000000
  9
$TDUPDATE
 40
0.000000000
  9
$TDINDWG
 40
0.0000000000
  9
$TDUSRTIMER
 40
0.0000000000
  9
$USRTIMER
 70
     1
  9
$ANGBASE
 50
0.0
  9
$ANGDIR
 70
     0
  9
$PDMODE
 70
     0
  9
$PDSIZE
 40
0.0
  9
$PLINEWID
 40
0.0
  9
$COORDS
 70
     0
  9
$SPLFRAME
 70
     0
  9
$SPLINETYPE
 70
     6
  9
$SPLINESEGS
 70
     8
  9
$ATTDIA
 70
     0
  9
$ATTREQ
 70
     1
  9
$HANDLING
 70
     1
  9
$HANDSEED
  5
3B2
  9
$SURFTAB1
 70
     6
  9
$SURFTAB2
 70
     6
  9
$SURFTYPE
 70
     6
  9
$SURFU
 70
     6
  9
$SURFV
 70
     6
  9
$UCSNAME
  2

  9
$UCSORG
 10
0.0
 20
0.0
 30
0.0
  9
$UCSXDIR
 10
1.0
 20
0.0
 30
0.0
  9
$UCSYDIR
 10
0.0
 20
1.0
 30
0.0
  9
$PUCSNAME
  2

  9
$PUCSORG
 10
0.0
 20
0.0
 30
0.0
  9
$PUCSXDIR
 10
1.0
 20
0.0
 30
0.0
  9
$PUCSYDIR
 10
0.0
 20
1.0
 30
0.0
  9
$USERI1
 70
     0
  9
$USERI2
 70
     0
  9
$USERI3
 70
     0
  9
$USERI4
 70
     0
  9
$USERI5
 70
     0
  9
$USERR1
 40
0.0
  9
$USERR2
 40
0.0
  9
$USERR3
 40
0.0
  9
$USERR4
 40
0.0
  9
$USERR5
 40
0.0
  9
$WORLDVIEW
 70
     1
  9
$SHADEDGE
 70
     3
  9
$SHADEDIF
 70
    70
  9
$TILEMODE
 70
     1
  9
$MAXACTVP
 70
    16
  9
$PINSBASE
 10
0.0
 20
0.0
 30
0.0
  9
$PLIMCHECK
 70
     0
  9
$PEXTMIN
 10
1.000000E+20
 20
1.000000E+20
 30
1.000000E+20
  9
$PEXTMAX
 10
-1.000000E+20
 20
-1.000000E+20
 30
-1.000000E+20
  9
$PLIMMIN
 10
283.015781
 20
-209.088
  9
$PLIMMAX
 10
1123.015781
 20
384.912
  9
$UNITMODE
 70
     0
  9
$VISRETAIN
 70
     0
  9
$PLINEGEN
 70
     1
  9
$PSLTSCALE
 70
     0
  9
$TREEDEPTH
 70
  3020
  9
$DWGCODEPAGE
  3
dos850
  0
ENDSEC
  0
SECTION
  2
TABLES
  0
TABLE
  2
VPORT
 70
     1
  0
VPORT
  2
*ACTIVE
 70
     0
 10
0.0
 20
0.0
 11
1.0
 21
1.0
 12
420.0
 22
297.0
 13
0.0
 23
0.0
 14
1.0
 24
1.0
 15
0.0
 25
0.0
 16
0.0
 26
0.0
 36
1.0
 17
283.015781
 27
-209.088
 37
0.0
 40
594.0
 41
1.604229
 42
50.0
 43
0.0
 44
0.0
 50
0.0
 51
0.0
 71
     0
 72
   100
 73
     1
 74
     1
 75
     0
 76
     0
 77
     0
 78
     0
  0
ENDTAB
  0
TABLE
  2
LTYPE
 70
     3
  0
LTYPE
  2
CONTINUOUS
 70
    64
  3
Solid line
 72
    65
 73
     0
 40
0.0
  0
LTYPE
  2
DASHED
 70
    64
  3
__ __ __ __ __
 72
    65
 73
     2
 40
6.25
 49
5.0
 49
-1.25
  0
LTYPE
  2
DASHDOT
 70
    64
  3
__ . __ . __ . __ . __
 72
    65
 73
     4
 40
7.5
 49
5.0
 49
-1.25
 49
0.0
 49
-1.25
  0
ENDTAB
  0
TABLE
  2
LAYER
 70
    10
  0
LAYER
  2
0
 70
     0
 62
     7
  6
CONTINUOUS
  0
LAYER
  2
LC-INFO-1-2-MM-A3-0
 70
     1
 62
    -1
  6
CONTINUOUS
  0
LAYER
  2
LC-004-003-MTH-0
 70
     0
 62
     2
  6
CONTINUOUS
  0
LAYER
  2
LC-005-003-MTG-0
 70
     0
 62
     2
  6
CONTINUOUS
  0
LAYER
  2
LC-003-003-----0
 70
     0
 62
     2
  6
CONTINUOUS
  0
LAYER
  2
LC-007-005-----0
 70
     0
 62
     2
  6
CONTINUOUS
  0
LAYER
  2
LC-001-002-----0
 70
     0
 62
     1
  6
CONTINUOUS
  0
LAYER
  2
LC-006-000-----0
 70
     0
 62
     7
  6
CONTINUOUS
  0
LAYER
  2
LC-002-002-RND-0
 70
     0
 62
     1
  6
CONTINUOUS
  0
LAYER
  2
LC-000
 70
     0
 62
     7
  6
CONTINUOUS
  0
ENDTAB
  0
TABLE
  2
STYLE
 70
     4
  0
STYLE
  2
STANDARD
 70
     0
 40
0.0
 41
1.0
 50
0.0
 71
     0
 42
0.0
  3
txt
  4

  0
STYLE
  2
LC-STANDARD
 70
    64
 40
0.0
 41
1.0
 50
0.0
 71
     0
 42
3.5
  3
MONOTXT
  4

  0
STYLE
  2
LC-TXTSTYLE-150-400-0-0-D2
 70
    64
 40
0.0
 41
1.0
 50
15.0
 71
     0
 42
3.5
  3
MONOTXT
  4

  0
STYLE
  2
LC-TXTSTYLE-150-400-0-0-D3
 70
    64
 40
0.0
 41
1.0
 50
15.0
 71
     0
 42
3.5
  3
LC-STANDARD
  4

  0
ENDTAB
  0
TABLE
  2
VIEW
 70
     0
  0
ENDTAB
  0
TABLE
  2
UCS
 70
     0
  0
ENDTAB
  0
TABLE
  2
APPID
 70
     1
  0
APPID
  2
ACAD
 70
     0
  0
ENDTAB
  0
TABLE
  2
DIMSTYLE
 70
     3
  0
DIMSTYLE
  2
STANDARD
 70
     0
  3

  4

  5

  6

  7

 40
1.0
 41
0.18
 42
0.0625
 43
0.38
 44
0.18
 45
0.0
 46
0.0
 47
0.0
 48
0.0
 71
     0
 72
     0
 73
     1
 74
     1
 75
     0
 76
     0
 77
     0
 78
     0
140
0.18
141
0.09
142
0.0
143
25.4
144
1.0
145
0.0
146
1.0
147
0.09
170
     0
171
     2
172
     0
173
     0
174
     0
175
     0
176
     0
177
     0
178
     0
  0
DIMSTYLE
  2
LC-STANDARD
 70
     0
  3

  4

  5

  6

  7

 40
1.0
 41
3.5
 42
0.0
 43
7.5
 44
1.8
 45
0.0
 46
0.0
 47
0.0
 48
0.0
 71
     0
 72
     0
 73
     0
 74
     0
 75
     0
 76
     0
 77
     1
 78
     8
140
3.5
141
0.0
142
0.0
143
25.4
144
1.0
145
0.0
146
0.71
147
1.5
170
     0
171
     2
172
     1
173
     0
174
     0
175
     0
176
     0
177
     0
178
     3
  0
DIMSTYLE
  2
LC-DIM-L-0090-02-02
 70
     0
  3

  4

  5

  6

  7

 40
2.0
 41
3.5
 42
0.0
 43
7.5
 44
1.8
 45
0.0
 46
0.0
 47
0.0
 48
0.0
 71
     0
 72
     0
 73
     0
 74
     0
 75
     0
 76
     0
 77
     1
 78
     8
140
9.0
141
0.0
142
0.0
143
25.4
144
1.0
145
0.0
146
0.71
147
1.5
170
     0
171
     2
172
     0
173
     0
174
     0
175
     0
176
     2
177
     2
178
     6
  0
ENDTAB
  0
ENDSEC
  0
SECTION
  2
BLOCKS
  0
BLOCK
  8
0
  5
23
  2
*D0
 70
    65
 10
0.0
 20
0.0
 30
0.0
  3
*D0
  0
LINE
  8
LC-004-003-MTH-0
  6
CONTINUOUS
  5
25
 10
674.197165
 20
123.083982
 30
0.0
 11
810.8
 21
123.083982
 31
0.0
  0
LINE
  8
LC-004-003-MTH-0
  6
CONTINUOUS
  5
26
 10
730.697165
 20
312.983982
 30
0.0
 11
810.8
 21
312.983982
 31
0.0
  0
LINE
  8
LC-005-003-MTG-0
  6
CONTINUOUS
  5
28
 10
800.0
 20
123.083982
 30
0.0
 11
800.0
 21
312.983982
 31
0.0
  0
LINE
  8
LC-003-003-----0
  6
CONTINUOUS
  5
2A
 10
797.650529
 20
140.92999
 30
0.0
 11
800.0
 21
123.083982
 31
0.0
  0
LINE
  8
LC-003-003-----0
  6
CONTINUOUS
  5
2B
 10
800.0
 20
123.083982
 30
0.0
 11
802.349471
 21
140.92999
 31
0.0
  0
LINE
  8
LC-003-003-----0
  6
CONTINUOUS
  5
2C
 10
802.349471
 20
140.92999
 30
0.0
 11
797.650529
 21
140.92999
 31
0.0
  0
LINE
  8
LC-003-003-----0
  6
CONTINUOUS
  5
2D
 10
798.261391
 20
140.970028
 30
0.0
 11
800.0
 21
127.763982
 31
0.0
  0
LINE
  8
LC-003-003-----0
  6
CONTINUOUS
  5
2E
 10
800.0
 20
127.763982
 30
0.0
 11
801.738609
 21
140.970028
 31
0.0
  0
LINE
  8
LC-003-003-----0
  6
CONTINUOUS
  5
2F
 10
798.872254
 20
141.010066
 30
0.0
 11
800.0
 21
132.443982
 31
0.0
  0
LINE
  8
LC-003-003-----0
  6
CONTINUOUS
  5
30
 10
800.0
 20
132.443982
 30
0.0
 11
801.127746
 21
141.010066
 31
0.0
  0
LINE
  8
LC-003-003-----0
  6
CONTINUOUS
  5
31
 10
799.483116
 20
141.050104
 30
0.0
 11
800.0
 21
137.123982
 31
0.0
  0
LINE
  8
LC-003-003-----0
  6
CONTINUOUS
  5
32
 10
800.0
 20
137.123982
 30
0.0
 11
800.516884
 21
141.050104
 31
0.0
  0
LINE
  8
LC-003-003-----0
  6
CONTINUOUS
  5
33
 10
802.349471
 20
295.137975
 30
0.0
 11
800.0
 21
312.983982
 31
0.0
  0
LINE
  8
LC-003-003-----0
  6
CONTINUOUS
  5
34
 10
800.0
 20
312.983982
 30
0.0
 11
797.650529
 21
295.137975
 31
0.0
  0
LINE
  8
LC-003-003-----0
  6
CONTINUOUS
  5
35
 10
797.650529
 20
295.137975
 30
0.0
 11
802.349471
 21
295.137975
 31
0.0
  0
LINE
  8
LC-003-003-----0
  6
CONTINUOUS
  5
36
 10
801.738609
 20
295.097936
 30
0.0
 11
800.0
 21
308.303982
 31
0.0
  0
LINE
  8
LC-003-003-----0
  6
CONTINUOUS
  5
37
 10
800.0
 20
308.303982
 30
0.0
 11
798.261391
 21
295.097936
 31
0.0
  0
LINE
  8
LC-003-003-----0
  6
CONTINUOUS
  5
38
 10
801.127746
 20
295.057898
 30
0.0
 11
800.0
 21
303.623982
 31
0.0
  0
LINE
  8
LC-003-003-----0
  6
CONTINUOUS
  5
39
 10
800.0
 20
303.623982
 30
0.0
 11
798.872254
 21
295.057898
 31
0.0
  0
LINE
  8
LC-003-003-----0
  6
CONTINUOUS
  5
3A
 10
800.516884
 20
295.01786
 30
0.0
 11
800.0
 21
298.943982
 31
0.0
  0
LINE
  8
LC-003-003-----0
  6
CONTINUOUS
  5
3B
 10
800.0
 20
298.943982
 30
0.0
 11
799.483116
 21
295.01786
 31
0.0
  0
TEXT
  8
LC-003-003-----0
  6
CONTINUOUS
 62
     6
  5
3D
 10
789.568001
 20
199.877387
 30
0.0
 40
18.0
  1
190
 50
90.0
 41
0.9
 51
15.0
  7
LC-TXTSTYLE-150-400-0-0-D0
 72
     1
 11
789.568001
 21
219.011246
 31
0.0
  0
ENDBLK
  8
0
  5
3E
  0
BLOCK
  8
0
  5
40
  2
*D1
 70
    65
 10
0.0
 20
0.0
 30
0.0
  3
*D1
  0
LINE
  8
LC-004-003-MTH-0
  6
CONTINUOUS
  5
41
 10
502.697165
 20
310.983982
 30
0.0
 11
502.697165
 21
330.8
 31
0.0
  0
LINE
  8
LC-004-003-MTH-0
  6
CONTINUOUS
  5
42
 10
732.697165
 20
310.983982
 30
0.0
 11
732.697165
 21
330.8
 31
0.0
  0
LINE
  8
LC-005-003-MTG-0
  6
CONTINUOUS
  5
43
 10
502.697165
 20
320.0
 30
0.0
 11
732.697165
 21
320.0
 31
0.0
  0
LINE
  8
LC-003-003-----0
  6
CONTINUOUS
  5
44
 10
520.543173
 20
322.349471
 30
0.0
 11
502.697165
 21
320.0
 31
0.0
  0
LINE
  8
LC-003-003-----0
  6
CONTINUOUS
  5
45
 10
502.697165
 20
320.0
 30
0.0
 11
520.543173
 21
317.650529
 31
0.0
  0
LINE
  8
LC-003-003-----0
  6
CONTINUOUS
  5
46
 10
520.543173
 20
317.650529
 30
0.0
 11
520.543173
 21
322.349471
 31
0.0
  0
LINE
  8
LC-003-003-----0
  6
CONTINUOUS
  5
47
 10
520.583211
 20
321.738609
 30
0.0
 11
507.377165
 21
320.0
 31
0.0
  0
LINE
  8
LC-003-003-----0
  6
CONTINUOUS
  5
48
 10
507.377165
 20
320.0
 30
0.0
 11
520.583211
 21
318.261391
 31
0.0
  0
LINE
  8
LC-003-003-----0
  6
CONTINUOUS
  5
49
 10
520.623249
 20
321.127746
 30
0.0
 11
512.057165
 21
320.0
 31
0.0
  0
LINE
  8
LC-003-003-----0
  6
CONTINUOUS
  5
4A
 10
512.057165
 20
320.0
 30
0.0
 11
520.623249
 21
318.872254
 31
0.0
  0
LINE
  8
LC-003-003-----0
  6
CONTINUOUS
  5
4B
 10
520.663287
 20
320.516884
 30
0.0
 11
516.737165
 21
320.0
 31
0.0
  0
LINE
  8
LC-003-003-----0
  6
CONTINUOUS
  5
4C
 10
516.737165
 20
320.0
 30
0.0
 11
520.663287
 21
319.483116
 31
0.0
  0
LINE
  8
LC-003-003-----0
  6
CONTINUOUS
  5
4D
 10
714.851158
 20
317.650529
 30
0.0
 11
732.697165
 21
320.0
 31
0.0
  0
LINE
  8
LC-003-003-----0
  6
CONTINUOUS
  5
4E
 10
732.697165
 20
320.0
 30
0.0
 11
714.851158
 21
322.349471
 31
0.0
  0
LINE
  8
LC-003-003-----0
  6
CONTINUOUS
  5
4F
 10
714.851158
 20
322.349471
 30
0.0
 11
714.851158
 21
317.650529
 31
0.0
  0
LINE
  8
LC-003-003-----0
  6
CONTINUOUS
  5
50
 10
714.81112
 20
318.261391
 30
0.0
 11
728.017165
 21
320.0
 31
0.0
  0
LINE
  8
LC-003-003-----0
  6
CONTINUOUS
  5
51
 10
728.017165
 20
320.0
 30
0.0
 11
714.81112
 21
321.738609
 31
0.0
  0
LINE
  8
LC-003-003-----0
  6
CONTINUOUS
  5
52
 10
714.771082
 20
318.872254
 30
0.0
 11
723.337165
 21
320.0
 31
0.0
  0
LINE
  8
LC-003-003-----0
  6
CONTINUOUS
  5
53
 10
723.337165
 20
320.0
 30
0.0
 11
714.771082
 21
321.127746
 31
0.0
  0
LINE
  8
LC-003-003-----0
  6
CONTINUOUS
  5
54
 10
714.731044
 20
319.483116
 30
0.0
 11
718.657165
 21
320.0
 31
0.0
  0
LINE
  8
LC-003-003-----0
  6
CONTINUOUS
  5
55
 10
718.657165
 20
320.0
 30
0.0
 11
714.731044
 21
320.516884
 31
0.0
  0
TEXT
  8
LC-003-003-----0
  6
CONTINUOUS
 62
     6
  5
56
 10
634.678266
 20
330.431999
 30
0.0
 40
18.0
  1
230
 51
15.0
  7
LC-TXTSTYLE-150-400-0-0-D0
 72
     1
 11
653.812124
 21
330.431999
 31
0.0
  0
ENDBLK
  8
0
  5
57
  0
BLOCK
  8
0
  5
59
  2
BLK1
 70
    64
 10
0.0
 20
0.0
 30
0.0
  3
BLK1
  0
ENDBLK
  8
0
  5
5A
  0
BLOCK
  8
0
  5
5C
  2
*X3
 70
    65
 10
682.597165
 20
277.483982
 30
0.0
  3
*X3
  0
LINE
  8
LC-007-005-----0
  6
DASHED
  5
5F
 10
696.997165
 20
281.63862
 30
0.0
 11
693.651803
 21
284.983982
 31
0.0
  0
LINE
  8
LC-007-005-----0
  6
DASHED
  5
60
 10
696.997165
 20
278.810193
 30
0.0
 11
690.823376
 21
284.983982
 31
0.0
  0
LINE
  8
LC-007-005-----0
  6
CONTINUOUS
  5
61
 10
692.666522
 20
277.483982
 30
0.0
 11
685.166522
 21
284.983982
 31
0.0
  0
LINE
  8
LC-007-005-----0
  6
DASHED
  5
62
 10
684.18124
 20
277.483982
 30
0.0
 11
682.997165
 21
278.668057
 31
0.0
  0
ENDBLK
  8
0
  5
63
  0
BLOCK
  8
0
  5
65
  2
*X4
 70
    65
 10
588.797165
 20
277.483982
 30
0.0
  3
*X4
  0
LINE
  8
LC-007-005-----0
  6
CONTINUOUS
  5
66
 10
603.197165
 20
284.928952
 30
0.0
 11
603.142135
 21
284.983982
 31
0.0
  0
LINE
  8
LC-007-005-----0
  6
DASHED
  5
67
 10
603.197165
 20
279.272098
 30
0.0
 11
597.485281
 21
284.983982
 31
0.0
  0
LINE
  8
LC-007-005-----0
  6
DASHED
  5
68
 10
602.156854
 20
277.483982
 30
0.0
 11
594.656854
 21
284.983982
 31
0.0
  0
LINE
  8
LC-007-005-----0
  6
CONTINUOUS
  5
69
 10
589.259051
 20
284.72493
 30
0.0
 11
589.0
 21
284.983982
 31
0.0
  0
LINE
  8
LC-007-005-----0
  6
CONTINUOUS
  5
6A
 10
593.671572
 20
277.483982
 30
0.0
 11
589.197165
 21
281.958389
 31
0.0
  0
ENDBLK
  8
0
  5
6B
  0
BLOCK
  8
0
  5
6D
  2
*X5
 70
    65
 10
679.597165
 20
274.983982
 30
0.0
  3
*X5
  0
LINE
  8
LC-007-005-----0
  6
CONTINUOUS
  5
6E
 10
731.561759
 20
295.983982
 30
0.0
 11
732.697165
 21
297.119388
 31
0.0
  0
LINE
  8
LC-007-005-----0
  6
CONTINUOUS
  5
6F
 10
728.733332
 20
295.983982
 30
0.0
 11
732.697165
 21
299.947815
 31
0.0
  0
LINE
  8
LC-007-005-----0
  6
CONTINUOUS
  5
70
 10
728.497165
 20
298.576242
 30
0.0
 11
732.697165
 21
302.776242
 31
0.0
  0
LINE
  8
LC-007-005-----0
  6
CONTINUOUS
  5
71
 10
723.076478
 20
295.983982
 30
0.0
 11
723.497165
 21
296.40467
 31
0.0
  0
LINE
  8
LC-007-005-----0
  6
CONTINUOUS
  5
72
 10
728.497165
 20
301.40467
 30
0.0
 11
732.697165
 21
305.60467
 31
0.0
  0
LINE
  8
LC-007-005-----0
  6
CONTINUOUS
  5
73
 10
720.248051
 20
295.983982
 30
0.0
 11
723.497165
 21
299.233097
 31
0.0
  0
LINE
  8
LC-007-005-----0
  6
CONTINUOUS
  5
74
 10
728.497165
 20
304.233097
 30
0.0
 11
732.697165
 21
308.433097
 31
0.0
  0
LINE
  8
LC-007-005-----0
  6
CONTINUOUS
  5
75
 10
719.297165
 20
297.861524
 30
0.0
 11
723.497165
 21
302.061524
 31
0.0
  0
LINE
  8
LC-007-005-----0
  6
CONTINUOUS
  5
76
 10
727.519624
 20
306.083982
 30
0.0
 11
732.680127
 21
311.244486
 31
0.0
  0
LINE
  8
LC-007-005-----0
  6
CONTINUOUS
  5
77
 10
696.997165
 20
278.389951
 30
0.0
 11
699.197165
 21
280.589951
 31
0.0
  0
LINE
  8
LC-007-005-----0
  6
CONTINUOUS
  5
78
 10
719.297165
 20
300.689951
 30
0.0
 11
723.497165
 21
304.889951
 31
0.0
  0
LINE
  8
LC-007-005-----0
  6
CONTINUOUS
  5
79
 10
724.691196
 20
306.083982
 30
0.0
 11
731.445798
 21
312.838584
 31
0.0
  0
LINE
  8
LC-007-005-----0
  6
CONTINUOUS
  5
7A
 10
696.997165
 20
281.218378
 30
0.0
 11
699.197165
 21
283.418378
 31
0.0
  0
LINE
  8
LC-007-005-----0
  6
CONTINUOUS
  5
7B
 10
719.297165
 20
303.518378
 30
0.0
 11
728.762769
 21
312.983982
 31
0.0
  0
LINE
  8
LC-007-005-----0
  6
CONTINUOUS
  5
7C
 10
696.997165
 20
284.046805
 30
0.0
 11
699.197165
 21
286.246805
 31
0.0
  0
LINE
  8
LC-007-005-----0
  6
CONTINUOUS
  5
7D
 10
719.297165
 20
306.346805
 30
0.0
 11
725.934342
 21
312.983982
 31
0.0
  0
LINE
  8
LC-007-005-----0
  6
CONTINUOUS
  5
7E
 10
695.105915
 20
284.983982
 30
0.0
 11
699.197165
 21
289.075232
 31
0.0
  0
LINE
  8
LC-007-005-----0
  6
CONTINUOUS
  5
7F
 10
708.305915
 20
298.183982
 30
0.0
 11
710.773415
 21
300.651482
 31
0.0
  0
LINE
  8
LC-007-005-----0
  6
CONTINUOUS
  5
80
 10
718.105915
 20
307.983982
 30
0.0
 11
723.105915
 21
312.983982
 31
0.0
  0
LINE
  8
LC-007-005-----0
  6
CONTINUOUS
  5
81
 10
692.277488
 20
284.983982
 30
0.0
 11
699.197165
 21
291.903659
 31
0.0
  0
LINE
  8
LC-007-005-----0
  6
CONTINUOUS
  5
82
 10
708.015854
 20
300.722348
 30
0.0
 11
710.990987
 21
303.697481
 31
0.0
  0
LINE
  8
LC-007-005-----0
  6
CONTINUOUS
  5
83
 10
715.277488
 20
307.983982
 30
0.0
 11
720.277488
 21
312.983982
 31
0.0
  0
LINE
  8
LC-007-005-----0
  6
CONTINUOUS
  5
84
 10
679.597165
 20
275.132086
 30
0.0
 11
682.597165
 21
278.132086
 31
0.0
  0
LINE
  8
LC-007-005-----0
  6
CONTINUOUS
  5
85
 10
689.449061
 20
284.983982
 30
0.0
 11
699.197165
 21
294.732086
 31
0.0
  0
LINE
  8
LC-007-005-----0
  6
CONTINUOUS
  5
86
 10
707.827292
 20
303.362213
 30
0.0
 11
711.208558
 21
306.743479
 31
0.0
  0
LINE
  8
LC-007-005-----0
  6
CONTINUOUS
  5
87
 10
712.449061
 20
307.983982
 30
0.0
 11
717.449061
 21
312.983982
 31
0.0
  0
LINE
  8
LC-007-005-----0
  6
CONTINUOUS
  5
88
 10
679.597165
 20
277.960514
 30
0.0
 11
682.597165
 21
280.960514
 31
0.0
  0
LINE
  8
LC-007-005-----0
  6
CONTINUOUS
  5
89
 10
686.620634
 20
284.983982
 30
0.0
 11
690.66261
 21
289.025958
 31
0.0
  0
LINE
  8
LC-007-005-----0
  6
CONTINUOUS
  5
8A
 10
696.855189
 20
295.218537
 30
0.0
 11
699.197165
 21
297.560514
 31
0.0
  0
LINE
  8
LC-007-005-----0
  6
CONTINUOUS
  5
8B
 10
707.63873
 20
306.002078
 30
0.0
 11
714.620634
 21
312.983982
 31
0.0
  0
LINE
  8
LC-007-005-----0
  6
CONTINUOUS
  5
8C
 10
679.597165
 20
280.788941
 30
0.0
 11
682.597165
 21
283.788941
 31
0.0
  0
LINE
  8
LC-007-005-----0
  6
CONTINUOUS
  5
8D
 10
683.792207
 20
284.983982
 30
0.0
 11
687.792207
 21
288.983982
 31
0.0
  0
LINE
  8
LC-007-005-----0
  6
CONTINUOUS
  5
8E
 10
696.897165
 20
298.088941
 30
0.0
 11
699.197165
 21
300.388941
 31
0.0
  0
LINE
  8
LC-007-005-----0
  6
CONTINUOUS
  5
8F
 10
706.792207
 20
307.983982
 30
0.0
 11
711.792207
 21
312.983982
 31
0.0
  0
LINE
  8
LC-007-005-----0
  6
CONTINUOUS
  5
90
 10
679.597165
 20
283.617368
 30
0.0
 11
684.963779
 21
288.983982
 31
0.0
  0
LINE
  8
LC-007-005-----0
  6
CONTINUOUS
  5
91
 10
696.897165
 20
300.917368
 30
0.0
 11
699.197165
 21
303.217368
 31
0.0
  0
LINE
  8
LC-007-005-----0
  6
CONTINUOUS
  5
92
 10
703.963779
 20
307.983982
 30
0.0
 11
708.963779
 21
312.983982
 31
0.0
  0
LINE
  8
LC-007-005-----0
  6
CONTINUOUS
  5
93
 10
696.897165
 20
303.745795
 30
0.0
 11
699.197165
 21
306.045795
 31
0.0
  0
LINE
  8
LC-007-005-----0
  6
CONTINUOUS
  5
94
 10
701.135352
 20
307.983982
 30
0.0
 11
706.135352
 21
312.983982
 31
0.0
  0
LINE
  8
LC-007-005-----0
  6
CONTINUOUS
  5
95
 10
696.897165
 20
306.574222
 30
0.0
 11
703.306925
 21
312.983982
 31
0.0
  0
LINE
  8
LC-007-005-----0
  6
CONTINUOUS
  5
96
 10
697.019146
 20
309.52463
 30
0.0
 11
700.356517
 21
312.862001
 31
0.0
  0
ENDBLK
  8
0
  5
97
  0
BLOCK
  8
0
  5
99
  2
*X6
 70
    65
 10
502.697165
 20
270.783982
 30
0.0
  3
*X6
  0
LINE
  8
LC-007-005-----0
  6
CONTINUOUS
  5
9A
 10
608.281988
 20
271.69916
 30
0.0
 11
609.197165
 21
272.614337
 31
0.0
  0
LINE
  8
LC-007-005-----0
  6
CONTINUOUS
  5
9B
 10
606.867774
 20
273.113373
 30
0.0
 11
609.197165
 21
275.442765
 31
0.0
  0
LINE
  8
LC-007-005-----0
  6
CONTINUOUS
  5
9C
 10
606.397165
 20
275.471192
 30
0.0
 11
609.197165
 21
278.271192
 31
0.0
  0
LINE
  8
LC-007-005-----0
  6
CONTINUOUS
  5
9D
 10
605.181528
 20
277.083982
 30
0.0
 11
609.197165
 21
281.099619
 31
0.0
  0
LINE
  8
LC-007-005-----0
  6
CONTINUOUS
  5
9E
 10
603.397165
 20
278.128046
 30
0.0
 11
609.197165
 21
283.928046
 31
0.0
  0
LINE
  8
LC-007-005-----0
  6
CONTINUOUS
  5
9F
 10
603.397165
 20
280.956473
 30
0.0
 11
608.666445
 21
286.225753
 31
0.0
  0
LINE
  8
LC-007-005-----0
  6
CONTINUOUS
  5
A0
 10
603.397165
 20
283.7849
 30
0.0
 11
607.41945
 21
287.807185
 31
0.0
  0
LINE
  8
LC-007-005-----0
  6
CONTINUOUS
  5
A1
 10
601.76782
 20
284.983982
 30
0.0
 11
605.574401
 21
288.790563
 31
0.0
  0
LINE
  8
LC-007-005-----0
  6
CONTINUOUS
  5
A2
 10
598.939393
 20
284.983982
 30
0.0
 11
602.939393
 21
288.983982
 31
0.0
  0
LINE
  8
LC-007-005-----0
  6
CONTINUOUS
  5
A3
 10
589.110966
 20
277.983982
 30
0.0
 11
589.197165
 21
278.070182
 31
0.0
  0
LINE
  8
LC-007-005-----0
  6
CONTINUOUS
  5
A4
 10
596.110966
 20
284.983982
 30
0.0
 11
600.110966
 21
288.983982
 31
0.0
  0
LINE
  8
LC-007-005-----0
  6
CONTINUOUS
  5
A5
 10
586.997165
 20
278.698609
 30
0.0
 11
589.197165
 21
280.898609
 31
0.0
  0
LINE
  8
LC-007-005-----0
  6
CONTINUOUS
  5
A6
 10
593.282539
 20
284.983982
 30
0.0
 11
597.282539
 21
288.983982
 31
0.0
  0
LINE
  8
LC-007-005-----0
  6
CONTINUOUS
  5
A7
 10
586.997165
 20
281.527036
 30
0.0
 11
589.197165
 21
283.727036
 31
0.0
  0
LINE
  8
LC-007-005-----0
  6
CONTINUOUS
  5
A8
 10
590.454111
 20
284.983982
 30
0.0
 11
594.734801
 21
289.264672
 31
0.0
  0
LINE
  8
LC-007-005-----0
  6
CONTINUOUS
  5
A9
 10
586.997165
 20
284.355463
 30
0.0
 11
592.806509
 21
290.164807
 31
0.0
  0
LINE
  8
LC-007-005-----0
  6
CONTINUOUS
  5
AA
 10
586.997165
 20
287.18389
 30
0.0
 11
591.317958
 21
291.504682
 31
0.0
  0
LINE
  8
LC-007-005-----0
  6
CONTINUOUS
  5
AB
 10
586.997165
 20
290.012317
 30
0.0
 11
590.247708
 21
293.26286
 31
0.0
  0
LINE
  8
LC-007-005-----0
  6
CONTINUOUS
  5
AC
 10
586.997165
 20
292.840744
 30
0.0
 11
589.710386
 21
295.553965
 31
0.0
  0
LINE
  8
LC-007-005-----0
  6
CONTINUOUS
  5
AD
 10
586.997165
 20
295.669171
 30
0.0
 11
589.697165
 21
298.369171
 31
0.0
  0
LINE
  8
LC-007-005-----0
  6
CONTINUOUS
  5
AE
 10
586.997165
 20
298.497599
 30
0.0
 11
589.697165
 21
301.197599
 31
0.0
  0
LINE
  8
LC-007-005-----0
  6
CONTINUOUS
  5
AF
 10
586.997165
 20
301.326026
 30
0.0
 11
589.697165
 21
304.026026
 31
0.0
  0
LINE
  8
LC-007-005-----0
  6
CONTINUOUS
  5
B0
 10
586.997165
 20
304.154453
 30
0.0
 11
589.697165
 21
306.854453
 31
0.0
  0
LINE
  8
LC-007-005-----0
  6
CONTINUOUS
  5
B1
 10
586.997165
 20
306.98288
 30
0.0
 11
589.568136
 21
309.55385
 31
0.0
  0
LINE
  8
LC-007-005-----0
  6
CONTINUOUS
  5
B2
 10
585.16984
 20
307.983982
 30
0.0
 11
588.606694
 21
311.420836
 31
0.0
  0
LINE
  8
LC-007-005-----0
  6
CONTINUOUS
  5
B3
 10
582.341413
 20
307.983982
 30
0.0
 11
586.975234
 21
312.617803
 31
0.0
  0
LINE
  8
LC-007-005-----0
  6
CONTINUOUS
  5
B4
 10
579.512986
 20
307.983982
 30
0.0
 11
584.512986
 21
312.983982
 31
0.0
  0
LINE
  8
LC-007-005-----0
  6
CONTINUOUS
  5
B5
 10
576.684559
 20
307.983982
 30
0.0
 11
581.684559
 21
312.983982
 31
0.0
  0
LINE
  8
LC-007-005-----0
  6
CONTINUOUS
  5
B6
 10
573.856132
 20
307.983982
 30
0.0
 11
578.856132
 21
312.983982
 31
0.0
  0
LINE
  8
LC-007-005-----0
  6
CONTINUOUS
  5
B7
 10
571.027705
 20
307.983982
 30
0.0
 11
576.027705
 21
312.983982
 31
0.0
  0
LINE
  8
LC-007-005-----0
  6
CONTINUOUS
  5
B8
 10
568.199277
 20
307.983982
 30
0.0
 11
573.199277
 21
312.983982
 31
0.0
  0
LINE
  8
LC-007-005-----0
  6
CONTINUOUS
  5
B9
 10
565.37085
 20
307.983982
 30
0.0
 11
570.37085
 21
312.983982
 31
0.0
  0
LINE
  8
LC-007-005-----0
  6
CONTINUOUS
  5
BA
 10
562.542423
 20
307.983982
 30
0.0
 11
567.542423
 21
312.983982
 31
0.0
  0
LINE
  8
LC-007-005-----0
  6
CONTINUOUS
  5
BB
 10
559.713996
 20
307.983982
 30
0.0
 11
564.713996
 21
312.983982
 31
0.0
  0
LINE
  8
LC-007-005-----0
  6
CONTINUOUS
  5
BC
 10
556.885569
 20
307.983982
 30
0.0
 11
561.885569
 21
312.983982
 31
0.0
  0
LINE
  8
LC-007-005-----0
  6
CONTINUOUS
  5
BD
 10
554.057142
 20
307.983982
 30
0.0
 11
559.057142
 21
312.983982
 31
0.0
  0
LINE
  8
LC-007-005-----0
  6
CONTINUOUS
  5
BE
 10
541.428715
 20
298.183982
 30
0.0
 11
543.010123
 21
299.76539
 31
0.0
  0
LINE
  8
LC-007-005-----0
  6
CONTINUOUS
  5
BF
 10
551.228715
 20
307.983982
 30
0.0
 11
556.228715
 21
312.983982
 31
0.0
  0
LINE
  8
LC-007-005-----0
  6
CONTINUOUS
  5
C0
 10
540.370707
 20
299.954401
 30
0.0
 11
543.227694
 21
302.811389
 31
0.0
  0
LINE
  8
LC-007-005-----0
  6
CONTINUOUS
  5
C1
 10
548.400288
 20
307.983982
 30
0.0
 11
553.400288
 21
312.983982
 31
0.0
  0
LINE
  8
LC-007-005-----0
  6
CONTINUOUS
  5
C2
 10
540.182145
 20
302.594267
 30
0.0
 11
543.445266
 21
305.857387
 31
0.0
  0
LINE
  8
LC-007-005-----0
  6
CONTINUOUS
  5
C3
 10
545.57186
 20
307.983982
 30
0.0
 11
550.57186
 21
312.983982
 31
0.0
  0
LINE
  8
LC-007-005-----0
  6
CONTINUOUS
  5
C4
 10
539.993583
 20
305.234132
 30
0.0
 11
547.743433
 21
312.983982
 31
0.0
  0
LINE
  8
LC-007-005-----0
  6
CONTINUOUS
  5
C5
 10
539.805021
 20
307.873997
 30
0.0
 11
544.915006
 21
312.983982
 31
0.0
  0
LINE
  8
LC-007-005-----0
  6
CONTINUOUS
  5
C6
 10
537.086579
 20
307.983982
 30
0.0
 11
542.086579
 21
312.983982
 31
0.0
  0
LINE
  8
LC-007-005-----0
  6
CONTINUOUS
  5
C7
 10
534.258152
 20
307.983982
 30
0.0
 11
539.258152
 21
312.983982
 31
0.0
  0
LINE
  8
LC-007-005-----0
  6
CONTINUOUS
  5
C8
 10
531.429725
 20
307.983982
 30
0.0
 11
536.429725
 21
312.983982
 31
0.0
  0
LINE
  8
LC-007-005-----0
  6
CONTINUOUS
  5
C9
 10
528.601298
 20
307.983982
 30
0.0
 11
533.601298
 21
312.983982
 31
0.0
  0
LINE
  8
LC-007-005-----0
  6
CONTINUOUS
  5
CA
 10
513.772871
 20
295.983982
 30
0.0
 11
516.097165
 21
298.308277
 31
0.0
  0
LINE
  8
LC-007-005-----0
  6
CONTINUOUS
  5
CB
 10
525.772871
 20
307.983982
 30
0.0
 11
530.772871
 21
312.983982
 31
0.0
  0
LINE
  8
LC-007-005-----0
  6
CONTINUOUS
  5
CC
 10
511.897165
 20
296.936704
 30
0.0
 11
516.097165
 21
301.136704
 31
0.0
  0
LINE
  8
LC-007-005-----0
  6
CONTINUOUS
  5
CD
 10
522.944443
 20
307.983982
 30
0.0
 11
527.944443
 21
312.983982
 31
0.0
  0
LINE
  8
LC-007-005-----0
  6
CONTINUOUS
  5
CE
 10
511.897165
 20
299.765131
 30
0.0
 11
516.097165
 21
303.965131
 31
0.0
  0
LINE
  8
LC-007-005-----0
  6
CONTINUOUS
  5
CF
 10
520.116016
 20
307.983982
 30
0.0
 11
525.116016
 21
312.983982
 31
0.0
  0
LINE
  8
LC-007-005-----0
  6
CONTINUOUS
  5
D0
 10
505.287589
 20
295.983982
 30
0.0
 11
506.897165
 21
297.593558
 31
0.0
  0
LINE
  8
LC-007-005-----0
  6
CONTINUOUS
  5
D1
 10
511.897165
 20
302.593558
 30
0.0
 11
516.097165
 21
306.793558
 31
0.0
  0
LINE
  8
LC-007-005-----0
  6
CONTINUOUS
  5
D2
 10
517.287589
 20
307.983982
 30
0.0
 11
522.287589
 21
312.983982
 31
0.0
  0
LINE
  8
LC-007-005-----0
  6
CONTINUOUS
  5
D3
 10
502.697165
 20
296.221985
 30
0.0
 11
506.897165
 21
300.421985
 31
0.0
  0
LINE
  8
LC-007-005-----0
  6
CONTINUOUS
  5
D4
 10
511.897165
 20
305.421985
 30
0.0
 11
519.459162
 21
312.983982
 31
0.0
  0
LINE
  8
LC-007-005-----0
  6
CONTINUOUS
  5
D5
 10
502.697165
 20
299.050412
 30
0.0
 11
506.897165
 21
303.250412
 31
0.0
  0
LINE
  8
LC-007-005-----0
  6
CONTINUOUS
  5
D6
 10
509.730735
 20
306.083982
 30
0.0
 11
516.630735
 21
312.983982
 31
0.0
  0
LINE
  8
LC-007-005-----0
  6
CONTINUOUS
  5
D7
 10
502.697165
 20
301.878839
 30
0.0
 11
506.897165
 21
306.078839
 31
0.0
  0
LINE
  8
LC-007-005-----0
  6
CONTINUOUS
  5
D8
 10
506.902308
 20
306.083982
 30
0.0
 11
513.802308
 21
312.983982
 31
0.0
  0
LINE
  8
LC-007-005-----0
  6
CONTINUOUS
  5
D9
 10
502.697165
 20
304.707267
 30
0.0
 11
510.973881
 21
312.983982
 31
0.0
  0
LINE
  8
LC-007-005-----0
  6
CONTINUOUS
  5
DA
 10
502.697165
 20
307.535694
 30
0.0
 11
508.145454
 21
312.983982
 31
0.0
  0
LINE
  8
LC-007-005-----0
  6
CONTINUOUS
  5
DB
 10
502.697165
 20
310.364121
 30
0.0
 11
505.317026
 21
312.983982
 31
0.0
  0
ENDBLK
  8
0
  5
DC
  0
BLOCK
  8
0
  5
DE
  2
*D7
 70
    65
 10
0.0
 20
0.0
 30
0.0
  3
*D7
  0
LINE
  8
LC-004-003-MTH-0
  6
CONTINUOUS
  5
DF
 10
614.697165
 20
50.083982
 30
0.0
 11
614.697165
 21
-10.8
 31
0.0
  0
LINE
  8
LC-004-003-MTH-0
  6
CONTINUOUS
  5
E0
 10
722.697165
 20
50.083982
 30
0.0
 11
722.697165
 21
-10.8
 31
0.0
  0
LINE
  8
LC-005-003-MTG-0
  6
CONTINUOUS
  5
E1
 10
614.697165
 20
0.0
 30
0.0
 11
722.697165
 21
0.0
 31
0.0
  0
LINE
  8
LC-003-003-----0
  6
CONTINUOUS
  5
E2
 10
632.543173
 20
2.349471
 30
0.0
 11
614.697165
 21
0.0
 31
0.0
  0
LINE
  8
LC-003-003-----0
  6
CONTINUOUS
  5
E3
 10
614.697165
 20
0.0
 30
0.0
 11
632.543173
 21
-2.349471
 31
0.0
  0
LINE
  8
LC-003-003-----0
  6
CONTINUOUS
  5
E4
 10
632.543173
 20
-2.349471
 30
0.0
 11
632.543173
 21
2.349471
 31
0.0
  0
LINE
  8
LC-003-003-----0
  6
CONTINUOUS
  5
E5
 10
632.583211
 20
1.738609
 30
0.0
 11
619.377165
 21
0.0
 31
0.0
  0
LINE
  8
LC-003-003-----0
  6
CONTINUOUS
  5
E6
 10
619.377165
 20
0.0
 30
0.0
 11
632.583211
 21
-1.738609
 31
0.0
  0
LINE
  8
LC-003-003-----0
  6
CONTINUOUS
  5
E7
 10
632.623249
 20
1.127746
 30
0.0
 11
624.057165
 21
0.0
 31
0.0
  0
LINE
  8
LC-003-003-----0
  6
CONTINUOUS
  5
E8
 10
624.057165
 20
0.0
 30
0.0
 11
632.623249
 21
-1.127746
 31
0.0
  0
LINE
  8
LC-003-003-----0
  6
CONTINUOUS
  5
E9
 10
632.663287
 20
0.516884
 30
0.0
 11
628.737165
 21
0.0
 31
0.0
  0
LINE
  8
LC-003-003-----0
  6
CONTINUOUS
  5
EA
 10
628.737165
 20
0.0
 30
0.0
 11
632.663287
 21
-0.516884
 31
0.0
  0
LINE
  8
LC-003-003-----0
  6
CONTINUOUS
  5
EB
 10
704.851158
 20
-2.349471
 30
0.0
 11
722.697165
 21
0.0
 31
0.0
  0
LINE
  8
LC-003-003-----0
  6
CONTINUOUS
  5
EC
 10
722.697165
 20
0.0
 30
0.0
 11
704.851158
 21
2.349471
 31
0.0
  0
LINE
  8
LC-003-003-----0
  6
CONTINUOUS
  5
ED
 10
704.851158
 20
2.349471
 30
0.0
 11
704.851158
 21
-2.349471
 31
0.0
  0
LINE
  8
LC-003-003-----0
  6
CONTINUOUS
  5
EE
 10
704.81112
 20
-1.738609
 30
0.0
 11
718.017165
 21
0.0
 31
0.0
  0
LINE
  8
LC-003-003-----0
  6
CONTINUOUS
  5
EF
 10
718.017165
 20
0.0
 30
0.0
 11
704.81112
 21
1.738609
 31
0.0
  0
LINE
  8
LC-003-003-----0
  6
CONTINUOUS
  5
F0
 10
704.771082
 20
-1.127746
 30
0.0
 11
713.337165
 21
0.0
 31
0.0
  0
LINE
  8
LC-003-003-----0
  6
CONTINUOUS
  5
F1
 10
713.337165
 20
0.0
 30
0.0
 11
704.771082
 21
1.127746
 31
0.0
  0
LINE
  8
LC-003-003-----0
  6
CONTINUOUS
  5
F2
 10
704.731044
 20
-0.516884
 30
0.0
 11
708.657165
 21
0.0
 31
0.0
  0
LINE
  8
LC-003-003-----0
  6
CONTINUOUS
  5
F3
 10
708.657165
 20
0.0
 30
0.0
 11
704.731044
 21
0.516884
 31
0.0
  0
TEXT
  8
LC-003-003-----0
  6
CONTINUOUS
 62
     6
  5
F4
 10
629.687353
 20
10.431999
 30
0.0
 40
18.0
  1
DN100
 51
15.0
  7
LC-TXTSTYLE-150-400-0-0-D0
 72
     1
 11
663.362943
 21
10.431999
 31
0.0
  0
ENDBLK
  8
0
  5
F5
  0
BLOCK
  8
0
  5
F7
  2
*X8
 70
    65
 10
620.697165
 20
50.083982
 30
0.0
  3
*X8
  0
LINE
  8
LC-007-005-----0
  6
CONTINUOUS
  5
F8
 10
727.697165
 20
299.021881
 30
0.0
 11
725.291115
 21
301.427931
 31
0.0
  0
LINE
  8
LC-007-005-----0
  6
CONTINUOUS
  5
F9
 10
727.697165
 20
296.193454
 30
0.0
 11
724.197165
 21
299.693454
 31
0.0
  0
LINE
  8
LC-007-005-----0
  6
CONTINUOUS
  5
FA
 10
727.697165
 20
293.365027
 30
0.0
 11
724.197165
 21
296.865027
 31
0.0
  0
LINE
  8
LC-007-005-----0
  6
CONTINUOUS
  5
FB
 10
727.697165
 20
290.5366
 30
0.0
 11
724.197165
 21
294.0366
 31
0.0
  0
LINE
  8
LC-007-005-----0
  6
CONTINUOUS
  5
FC
 10
727.697165
 20
287.708172
 30
0.0
 11
724.197165
 21
291.208172
 31
0.0
  0
LINE
  8
LC-007-005-----0
  6
CONTINUOUS
  5
FD
 10
727.697165
 20
284.879745
 30
0.0
 11
724.197165
 21
288.379745
 31
0.0
  0
LINE
  8
LC-007-005-----0
  6
CONTINUOUS
  5
FE
 10
727.697165
 20
282.051318
 30
0.0
 11
724.197165
 21
285.551318
 31
0.0
  0
LINE
  8
LC-007-005-----0
  6
CONTINUOUS
  5
FF
 10
727.697165
 20
279.222891
 30
0.0
 11
724.197165
 21
282.722891
 31
0.0
  0
LINE
  8
LC-007-005-----0
  6
CONTINUOUS
  5
100
 10
727.697165
 20
276.394464
 30
0.0
 11
724.197165
 21
279.894464
 31
0.0
  0
LINE
  8
LC-007-005-----0
  6
CONTINUOUS
  5
101
 10
727.697165
 20
273.566037
 30
0.0
 11
724.197165
 21
277.066037
 31
0.0
  0
LINE
  8
LC-007-005-----0
  6
CONTINUOUS
  5
102
 10
727.697165
 20
270.73761
 30
0.0
 11
724.197165
 21
274.23761
 31
0.0
  0
LINE
  8
LC-007-005-----0
  6
CONTINUOUS
  5
103
 10
727.697165
 20
267.909183
 30
0.0
 11
724.197165
 21
271.409183
 31
0.0
  0
LINE
  8
LC-007-005-----0
  6
CONTINUOUS
  5
104
 10
727.697165
 20
265.080755
 30
0.0
 11
724.197165
 21
268.580755
 31
0.0
  0
LINE
  8
LC-007-005-----0
  6
CONTINUOUS
  5
105
 10
727.697165
 20
262.252328
 30
0.0
 11
724.197165
 21
265.752328
 31
0.0
  0
LINE
  8
LC-007-005-----0
  6
CONTINUOUS
  5
106
 10
727.697165
 20
259.423901
 30
0.0
 11
724.197165
 21
262.923901
 31
0.0
  0
LINE
  8
LC-007-005-----0
  6
CONTINUOUS
  5
107
 10
727.697165
 20
256.595474
 30
0.0
 11
724.197165
 21
260.095474
 31
0.0
  0
LINE
  8
LC-007-005-----0
  6
CONTINUOUS
  5
108
 10
727.697165
 20
253.767047
 30
0.0
 11
724.197165
 21
257.267047
 31
0.0
  0
LINE
  8
LC-007-005-----0
  6
CONTINUOUS
  5
109
 10
727.697165
 20
250.93862
 30
0.0
 11
724.197165
 21
254.43862
 31
0.0
  0
LINE
  8
LC-007-005-----0
  6
CONTINUOUS
  5
10A
 10
727.697165
 20
248.110193
 30
0.0
 11
724.197165
 21
251.610193
 31
0.0
  0
LINE
  8
LC-007-005-----0
  6
CONTINUOUS
  5
10B
 10
727.697165
 20
245.281766
 30
0.0
 11
724.197165
 21
248.781766
 31
0.0
  0
LINE
  8
LC-007-005-----0
  6
CONTINUOUS
  5
10C
 10
727.697165
 20
242.453338
 30
0.0
 11
724.197165
 21
245.953338
 31
0.0
  0
LINE
  8
LC-007-005-----0
  6
CONTINUOUS
  5
10D
 10
727.697165
 20
239.624911
 30
0.0
 11
724.197165
 21
243.124911
 31
0.0
  0
LINE
  8
LC-007-005-----0
  6
CONTINUOUS
  5
10E
 10
727.697165
 20
236.796484
 30
0.0
 11
724.197165
 21
240.296484
 31
0.0
  0
LINE
  8
LC-007-005-----0
  6
CONTINUOUS
  5
10F
 10
727.697165
 20
233.968057
 30
0.0
 11
724.197165
 21
237.468057
 31
0.0
  0
LINE
  8
LC-007-005-----0
  6
CONTINUOUS
  5
110
 10
727.697165
 20
231.13963
 30
0.0
 11
724.197165
 21
234.63963
 31
0.0
  0
LINE
  8
LC-007-005-----0
  6
CONTINUOUS
  5
111
 10
727.697165
 20
228.311203
 30
0.0
 11
724.197165
 21
231.811203
 31
0.0
  0
LINE
  8
LC-007-005-----0
  6
CONTINUOUS
  5
112
 10
727.697165
 20
225.482776
 30
0.0
 11
724.197165
 21
228.982776
 31
0.0
  0
LINE
  8
LC-007-005-----0
  6
CONTINUOUS
  5
113
 10
727.697165
 20
222.654349
 30
0.0
 11
724.197165
 21
226.154349
 31
0.0
  0
LINE
  8
LC-007-005-----0
  6
CONTINUOUS
  5
114
 10
727.697165
 20
219.825921
 30
0.0
 11
724.197165
 21
223.325921
 31
0.0
  0
LINE
  8
LC-007-005-----0
  6
CONTINUOUS
  5
115
 10
727.697165
 20
216.997494
 30
0.0
 11
724.197165
 21
220.497494
 31
0.0
  0
LINE
  8
LC-007-005-----0
  6
CONTINUOUS
  5
116
 10
727.697165
 20
214.169067
 30
0.0
 11
724.197165
 21
217.669067
 31
0.0
  0
LINE
  8
LC-007-005-----0
  6
CONTINUOUS
  5
117
 10
727.697165
 20
211.34064
 30
0.0
 11
724.197165
 21
214.84064
 31
0.0
  0
LINE
  8
LC-007-005-----0
  6
CONTINUOUS
  5
118
 10
727.697165
 20
208.512213
 30
0.0
 11
724.197165
 21
212.012213
 31
0.0
  0
LINE
  8
LC-007-005-----0
  6
CONTINUOUS
  5
119
 10
727.697165
 20
205.683786
 30
0.0
 11
724.197165
 21
209.183786
 31
0.0
  0
LINE
  8
LC-007-005-----0
  6
CONTINUOUS
  5
11A
 10
727.697165
 20
202.855359
 30
0.0
 11
724.197165
 21
206.355359
 31
0.0
  0
LINE
  8
LC-007-005-----0
  6
CONTINUOUS
  5
11B
 10
727.697165
 20
200.026932
 30
0.0
 11
724.197165
 21
203.526932
 31
0.0
  0
LINE
  8
LC-007-005-----0
  6
CONTINUOUS
  5
11C
 10
727.697165
 20
197.198504
 30
0.0
 11
724.197165
 21
200.698504
 31
0.0
  0
LINE
  8
LC-007-005-----0
  6
CONTINUOUS
  5
11D
 10
727.697165
 20
194.370077
 30
0.0
 11
724.197165
 21
197.870077
 31
0.0
  0
LINE
  8
LC-007-005-----0
  6
CONTINUOUS
  5
11E
 10
727.697165
 20
191.54165
 30
0.0
 11
724.197165
 21
195.04165
 31
0.0
  0
LINE
  8
LC-007-005-----0
  6
CONTINUOUS
  5
11F
 10
727.697165
 20
188.713223
 30
0.0
 11
724.197165
 21
192.213223
 31
0.0
  0
LINE
  8
LC-007-005-----0
  6
CONTINUOUS
  5
120
 10
727.697165
 20
185.884796
 30
0.0
 11
724.197165
 21
189.384796
 31
0.0
  0
LINE
  8
LC-007-005-----0
  6
CONTINUOUS
  5
121
 10
727.697165
 20
183.056369
 30
0.0
 11
724.197165
 21
186.556369
 31
0.0
  0
LINE
  8
LC-007-005-----0
  6
CONTINUOUS
  5
122
 10
727.697165
 20
180.227942
 30
0.0
 11
724.197165
 21
183.727942
 31
0.0
  0
LINE
  8
LC-007-005-----0
  6
CONTINUOUS
  5
123
 10
727.697165
 20
177.399515
 30
0.0
 11
724.197165
 21
180.899515
 31
0.0
  0
LINE
  8
LC-007-005-----0
  6
CONTINUOUS
  5
124
 10
727.660648
 20
174.607605
 30
0.0
 11
724.197165
 21
178.071087
 31
0.0
  0
LINE
  8
LC-007-005-----0
  6
CONTINUOUS
  5
125
 10
727.495596
 20
171.94423
 30
0.0
 11
724.179638
 21
175.260188
 31
0.0
  0
LINE
  8
LC-007-005-----0
  6
CONTINUOUS
  5
126
 10
727.212491
 20
169.398908
 30
0.0
 11
724.036203
 21
172.575196
 31
0.0
  0
LINE
  8
LC-007-005-----0
  6
CONTINUOUS
  5
127
 10
726.824204
 20
166.958767
 30
0.0
 11
723.764263
 21
170.018708
 31
0.0
  0
LINE
  8
LC-007-005-----0
  6
CONTINUOUS
  5
128
 10
726.340837
 20
164.613707
 30
0.0
 11
723.378959
 21
167.575586
 31
0.0
  0
LINE
  8
LC-007-005-----0
  6
CONTINUOUS
  5
129
 10
725.77046
 20
162.355657
 30
0.0
 11
722.891947
 21
165.23417
 31
0.0
  0
LINE
  8
LC-007-005-----0
  6
CONTINUOUS
  5
12A
 10
725.119618
 20
160.178073
 30
0.0
 11
722.312398
 21
162.985292
 31
0.0
  0
LINE
  8
LC-007-005-----0
  6
CONTINUOUS
  5
12B
 10
724.393673
 20
158.07559
 30
0.0
 11
721.647644
 21
160.821619
 31
0.0
  0
LINE
  8
LC-007-005-----0
  6
CONTINUOUS
  5
12C
 10
723.597062
 20
156.043773
 30
0.0
 11
720.90362
 21
158.737216
 31
0.0
  0
LINE
  8
LC-007-005-----0
  6
CONTINUOUS
  5
12D
 10
722.733471
 20
154.078938
 30
0.0
 11
720.085176
 21
156.727233
 31
0.0
  0
LINE
  8
LC-007-005-----0
  6
CONTINUOUS
  5
12E
 10
722.697165
 20
151.286816
 30
0.0
 11
719.197165
 21
154.786816
 31
0.0
  0
LINE
  8
LC-007-005-----0
  6
CONTINUOUS
  5
12F
 10
722.697165
 20
148.458389
 30
0.0
 11
719.197165
 21
151.958389
 31
0.0
  0
LINE
  8
LC-007-005-----0
  6
CONTINUOUS
  5
130
 10
722.697165
 20
145.629962
 30
0.0
 11
719.197165
 21
149.129962
 31
0.0
  0
LINE
  8
LC-007-005-----0
  6
CONTINUOUS
  5
131
 10
722.697165
 20
142.801535
 30
0.0
 11
719.197165
 21
146.301535
 31
0.0
  0
LINE
  8
LC-007-005-----0
  6
CONTINUOUS
  5
132
 10
722.697165
 20
139.973108
 30
0.0
 11
719.197165
 21
143.473108
 31
0.0
  0
LINE
  8
LC-007-005-----0
  6
CONTINUOUS
  5
133
 10
722.697165
 20
137.144681
 30
0.0
 11
719.197165
 21
140.644681
 31
0.0
  0
LINE
  8
LC-007-005-----0
  6
CONTINUOUS
  5
134
 10
722.697165
 20
134.316253
 30
0.0
 11
719.197165
 21
137.816253
 31
0.0
  0
LINE
  8
LC-007-005-----0
  6
CONTINUOUS
  5
135
 10
722.697165
 20
131.487826
 30
0.0
 11
719.197165
 21
134.987826
 31
0.0
  0
LINE
  8
LC-007-005-----0
  6
CONTINUOUS
  5
136
 10
722.697165
 20
128.659399
 30
0.0
 11
719.197165
 21
132.159399
 31
0.0
  0
LINE
  8
LC-007-005-----0
  6
CONTINUOUS
  5
137
 10
722.697165
 20
125.830972
 30
0.0
 11
719.197165
 21
129.330972
 31
0.0
  0
LINE
  8
LC-007-005-----0
  6
CONTINUOUS
  5
138
 10
722.697165
 20
123.002545
 30
0.0
 11
719.197165
 21
126.502545
 31
0.0
  0
LINE
  8
LC-007-005-----0
  6
CONTINUOUS
  5
139
 10
722.697165
 20
120.174118
 30
0.0
 11
719.197165
 21
123.674118
 31
0.0
  0
LINE
  8
LC-007-005-----0
  6
CONTINUOUS
  5
13A
 10
722.697165
 20
117.345691
 30
0.0
 11
719.197165
 21
120.845691
 31
0.0
  0
LINE
  8
LC-007-005-----0
  6
CONTINUOUS
  5
13B
 10
722.697165
 20
114.517264
 30
0.0
 11
719.197165
 21
118.017264
 31
0.0
  0
LINE
  8
LC-007-005-----0
  6
CONTINUOUS
  5
13C
 10
722.697165
 20
111.688836
 30
0.0
 11
719.197165
 21
115.188836
 31
0.0
  0
LINE
  8
LC-007-005-----0
  6
CONTINUOUS
  5
13D
 10
722.697165
 20
108.860409
 30
0.0
 11
719.197165
 21
112.360409
 31
0.0
  0
LINE
  8
LC-007-005-----0
  6
CONTINUOUS
  5
13E
 10
722.697165
 20
106.031982
 30
0.0
 11
719.197165
 21
109.531982
 31
0.0
  0
LINE
  8
LC-007-005-----0
  6
CONTINUOUS
  5
13F
 10
722.697165
 20
103.203555
 30
0.0
 11
719.197165
 21
106.703555
 31
0.0
  0
LINE
  8
LC-007-005-----0
  6
CONTINUOUS
  5
140
 10
722.697165
 20
100.375128
 30
0.0
 11
719.197165
 21
103.875128
 31
0.0
  0
LINE
  8
LC-007-005-----0
  6
CONTINUOUS
  5
141
 10
722.697165
 20
97.546701
 30
0.0
 11
719.197165
 21
101.046701
 31
0.0
  0
LINE
  8
LC-007-005-----0
  6
CONTINUOUS
  5
142
 10
722.697165
 20
94.718274
 30
0.0
 11
719.197165
 21
98.218274
 31
0.0
  0
LINE
  8
LC-007-005-----0
  6
CONTINUOUS
  5
143
 10
722.697165
 20
91.889847
 30
0.0
 11
719.197165
 21
95.389847
 31
0.0
  0
LINE
  8
LC-007-005-----0
  6
CONTINUOUS
  5
144
 10
722.697165
 20
89.061419
 30
0.0
 11
719.197165
 21
92.561419
 31
0.0
  0
LINE
  8
LC-007-005-----0
  6
CONTINUOUS
  5
145
 10
722.697165
 20
86.232992
 30
0.0
 11
719.197165
 21
89.732992
 31
0.0
  0
LINE
  8
LC-007-005-----0
  6
CONTINUOUS
  5
146
 10
722.697165
 20
83.404565
 30
0.0
 11
719.197165
 21
86.904565
 31
0.0
  0
LINE
  8
LC-007-005-----0
  6
CONTINUOUS
  5
147
 10
722.697165
 20
80.576138
 30
0.0
 11
719.197165
 21
84.076138
 31
0.0
  0
LINE
  8
LC-007-005-----0
  6
CONTINUOUS
  5
148
 10
722.697165
 20
77.747711
 30
0.0
 11
719.197165
 21
81.247711
 31
0.0
  0
LINE
  8
LC-007-005-----0
  6
CONTINUOUS
  5
149
 10
722.697165
 20
74.919284
 30
0.0
 11
719.197165
 21
78.419284
 31
0.0
  0
LINE
  8
LC-007-005-----0
  6
CONTINUOUS
  5
14A
 10
722.697165
 20
72.090857
 30
0.0
 11
719.197165
 21
75.590857
 31
0.0
  0
LINE
  8
LC-007-005-----0
  6
CONTINUOUS
  5
14B
 10
722.697165
 20
69.26243
 30
0.0
 11
719.197165
 21
72.76243
 31
0.0
  0
LINE
  8
LC-007-005-----0
  6
CONTINUOUS
  5
14C
 10
722.697165
 20
66.434002
 30
0.0
 11
719.197165
 21
69.934002
 31
0.0
  0
LINE
  8
LC-007-005-----0
  6
CONTINUOUS
  5
14D
 10
722.697165
 20
63.605575
 30
0.0
 11
719.197165
 21
67.105575
 31
0.0
  0
LINE
  8
LC-007-005-----0
  6
CONTINUOUS
  5
14E
 10
722.697165
 20
60.777148
 30
0.0
 11
719.197165
 21
64.277148
 31
0.0
  0
LINE
  8
LC-007-005-----0
  6
CONTINUOUS
  5
14F
 10
722.697165
 20
57.948721
 30
0.0
 11
719.197165
 21
61.448721
 31
0.0
  0
LINE
  8
LC-007-005-----0
  6
CONTINUOUS
  5
150
 10
722.697165
 20
55.120294
 30
0.0
 11
719.197165
 21
58.620294
 31
0.0
  0
LINE
  8
LC-007-005-----0
  6
CONTINUOUS
  5
151
 10
722.697165
 20
52.291867
 30
0.0
 11
719.197165
 21
55.791867
 31
0.0
  0
LINE
  8
LC-007-005-----0
  6
CONTINUOUS
  5
152
 10
722.076623
 20
50.083982
 30
0.0
 11
719.197165
 21
52.96344
 31
0.0
  0
LINE
  8
LC-007-005-----0
  6
CONTINUOUS
  5
153
 10
719.248196
 20
50.083982
 30
0.0
 11
719.197165
 21
50.135013
 31
0.0
  0
ENDBLK
  8
0
  5
154
  0
BLOCK
  8
0
  5
156
  2
*X9
 70
    65
 10
507.697165
 20
50.083982
 30
0.0
  3
*X9
  0
LINE
  8
LC-007-005-----0
  6
CONTINUOUS
  5
157
 10
511.197165
 20
300.561419
 30
0.0
 11
510.674603
 21
301.083982
 31
0.0
  0
LINE
  8
LC-007-005-----0
  6
CONTINUOUS
  5
158
 10
511.197165
 20
297.732992
 30
0.0
 11
507.846176
 21
301.083982
 31
0.0
  0
LINE
  8
LC-007-005-----0
  6
CONTINUOUS
  5
159
 10
511.197165
 20
294.904565
 30
0.0
 11
507.697165
 21
298.404565
 31
0.0
  0
LINE
  8
LC-007-005-----0
  6
CONTINUOUS
  5
15A
 10
511.197165
 20
292.076138
 30
0.0
 11
507.697165
 21
295.576138
 31
0.0
  0
LINE
  8
LC-007-005-----0
  6
CONTINUOUS
  5
15B
 10
511.197165
 20
289.247711
 30
0.0
 11
507.697165
 21
292.747711
 31
0.0
  0
LINE
  8
LC-007-005-----0
  6
CONTINUOUS
  5
15C
 10
511.197165
 20
286.419284
 30
0.0
 11
507.697165
 21
289.919284
 31
0.0
  0
LINE
  8
LC-007-005-----0
  6
CONTINUOUS
  5
15D
 10
511.197165
 20
283.590857
 30
0.0
 11
507.697165
 21
287.090857
 31
0.0
  0
LINE
  8
LC-007-005-----0
  6
CONTINUOUS
  5
15E
 10
511.197165
 20
280.76243
 30
0.0
 11
507.697165
 21
284.26243
 31
0.0
  0
LINE
  8
LC-007-005-----0
  6
CONTINUOUS
  5
15F
 10
511.197165
 20
277.934002
 30
0.0
 11
507.697165
 21
281.434002
 31
0.0
  0
LINE
  8
LC-007-005-----0
  6
CONTINUOUS
  5
160
 10
511.197165
 20
275.105575
 30
0.0
 11
507.697165
 21
278.605575
 31
0.0
  0
LINE
  8
LC-007-005-----0
  6
CONTINUOUS
  5
161
 10
511.197165
 20
272.277148
 30
0.0
 11
507.697165
 21
275.777148
 31
0.0
  0
LINE
  8
LC-007-005-----0
  6
CONTINUOUS
  5
162
 10
511.197165
 20
269.448721
 30
0.0
 11
507.697165
 21
272.948721
 31
0.0
  0
LINE
  8
LC-007-005-----0
  6
CONTINUOUS
  5
163
 10
511.197165
 20
266.620294
 30
0.0
 11
507.697165
 21
270.120294
 31
0.0
  0
LINE
  8
LC-007-005-----0
  6
CONTINUOUS
  5
164
 10
511.197165
 20
263.791867
 30
0.0
 11
507.697165
 21
267.291867
 31
0.0
  0
LINE
  8
LC-007-005-----0
  6
CONTINUOUS
  5
165
 10
511.197165
 20
260.96344
 30
0.0
 11
507.697165
 21
264.46344
 31
0.0
  0
LINE
  8
LC-007-005-----0
  6
CONTINUOUS
  5
166
 10
511.197165
 20
258.135013
 30
0.0
 11
507.697165
 21
261.635013
 31
0.0
  0
LINE
  8
LC-007-005-----0
  6
CONTINUOUS
  5
167
 10
511.197165
 20
255.306585
 30
0.0
 11
507.697165
 21
258.806585
 31
0.0
  0
LINE
  8
LC-007-005-----0
  6
CONTINUOUS
  5
168
 10
511.197165
 20
252.478158
 30
0.0
 11
507.697165
 21
255.978158
 31
0.0
  0
LINE
  8
LC-007-005-----0
  6
CONTINUOUS
  5
169
 10
511.197165
 20
249.649731
 30
0.0
 11
507.697165
 21
253.149731
 31
0.0
  0
LINE
  8
LC-007-005-----0
  6
CONTINUOUS
  5
16A
 10
511.197165
 20
246.821304
 30
0.0
 11
507.697165
 21
250.321304
 31
0.0
  0
LINE
  8
LC-007-005-----0
  6
CONTINUOUS
  5
16B
 10
511.197165
 20
243.992877
 30
0.0
 11
507.697165
 21
247.492877
 31
0.0
  0
LINE
  8
LC-007-005-----0
  6
CONTINUOUS
  5
16C
 10
511.197165
 20
241.16445
 30
0.0
 11
507.697165
 21
244.66445
 31
0.0
  0
LINE
  8
LC-007-005-----0
  6
CONTINUOUS
  5
16D
 10
511.197165
 20
238.336023
 30
0.0
 11
507.697165
 21
241.836023
 31
0.0
  0
LINE
  8
LC-007-005-----0
  6
CONTINUOUS
  5
16E
 10
511.197165
 20
235.507596
 30
0.0
 11
507.697165
 21
239.007596
 31
0.0
  0
LINE
  8
LC-007-005-----0
  6
CONTINUOUS
  5
16F
 10
511.197165
 20
232.679168
 30
0.0
 11
507.697165
 21
236.179168
 31
0.0
  0
LINE
  8
LC-007-005-----0
  6
CONTINUOUS
  5
170
 10
511.197165
 20
229.850741
 30
0.0
 11
507.697165
 21
233.350741
 31
0.0
  0
LINE
  8
LC-007-005-----0
  6
CONTINUOUS
  5
171
 10
617.11924
 20
121.100239
 30
0.0
 11
612.713423
 21
125.506057
 31
0.0
  0
LINE
  8
LC-007-005-----0
  6
CONTINUOUS
  5
172
 10
511.197165
 20
227.022314
 30
0.0
 11
507.697165
 21
230.522314
 31
0.0
  0
LINE
  8
LC-007-005-----0
  6
CONTINUOUS
  5
173
 10
618.177316
 20
117.213736
 30
0.0
 11
608.82692
 21
126.564133
 31
0.0
  0
LINE
  8
LC-007-005-----0
  6
CONTINUOUS
  5
174
 10
511.197165
 20
224.193887
 30
0.0
 11
507.697165
 21
227.693887
 31
0.0
  0
LINE
  8
LC-007-005-----0
  6
CONTINUOUS
  5
175
 10
618.197165
 20
114.36546
 30
0.0
 11
614.53477
 21
118.027856
 31
0.0
  0
LINE
  8
LC-007-005-----0
  6
CONTINUOUS
  5
176
 10
609.641039
 20
122.921586
 30
0.0
 11
605.978643
 21
126.583982
 31
0.0
  0
LINE
  8
LC-007-005-----0
  6
CONTINUOUS
  5
177
 10
511.197165
 20
221.36546
 30
0.0
 11
507.697165
 21
224.86546
 31
0.0
  0
LINE
  8
LC-007-005-----0
  6
CONTINUOUS
  5
178
 10
618.197165
 20
111.537033
 30
0.0
 11
614.697165
 21
115.037033
 31
0.0
  0
LINE
  8
LC-007-005-----0
  6
CONTINUOUS
  5
179
 10
606.650216
 20
123.083982
 30
0.0
 11
603.150216
 21
126.583982
 31
0.0
  0
LINE
  8
LC-007-005-----0
  6
CONTINUOUS
  5
17A
 10
511.197165
 20
218.537033
 30
0.0
 11
507.697165
 21
222.037033
 31
0.0
  0
LINE
  8
LC-007-005-----0
  6
CONTINUOUS
  5
17B
 10
618.197165
 20
108.708606
 30
0.0
 11
614.697165
 21
112.208606
 31
0.0
  0
LINE
  8
LC-007-005-----0
  6
CONTINUOUS
  5
17C
 10
603.821789
 20
123.083982
 30
0.0
 11
600.321789
 21
126.583982
 31
0.0
  0
LINE
  8
LC-007-005-----0
  6
CONTINUOUS
  5
17D
 10
511.197165
 20
215.708606
 30
0.0
 11
507.697165
 21
219.208606
 31
0.0
  0
LINE
  8
LC-007-005-----0
  6
CONTINUOUS
  5
17E
 10
618.197165
 20
105.880179
 30
0.0
 11
614.697165
 21
109.380179
 31
0.0
  0
LINE
  8
LC-007-005-----0
  6
CONTINUOUS
  5
17F
 10
600.993362
 20
123.083982
 30
0.0
 11
597.493362
 21
126.583982
 31
0.0
  0
LINE
  8
LC-007-005-----0
  6
CONTINUOUS
  5
180
 10
511.197165
 20
212.880179
 30
0.0
 11
507.697165
 21
216.380179
 31
0.0
  0
LINE
  8
LC-007-005-----0
  6
CONTINUOUS
  5
181
 10
618.197165
 20
103.051751
 30
0.0
 11
614.697165
 21
106.551751
 31
0.0
  0
LINE
  8
LC-007-005-----0
  6
CONTINUOUS
  5
182
 10
598.164935
 20
123.083982
 30
0.0
 11
594.664935
 21
126.583982
 31
0.0
  0
LINE
  8
LC-007-005-----0
  6
CONTINUOUS
  5
183
 10
511.197165
 20
210.051751
 30
0.0
 11
507.697165
 21
213.551751
 31
0.0
  0
LINE
  8
LC-007-005-----0
  6
CONTINUOUS
  5
184
 10
618.197165
 20
100.223324
 30
0.0
 11
614.697165
 21
103.723324
 31
0.0
  0
LINE
  8
LC-007-005-----0
  6
CONTINUOUS
  5
185
 10
595.336508
 20
123.083982
 30
0.0
 11
591.836508
 21
126.583982
 31
0.0
  0
LINE
  8
LC-007-005-----0
  6
CONTINUOUS
  5
186
 10
511.197165
 20
207.223324
 30
0.0
 11
507.697165
 21
210.723324
 31
0.0
  0
LINE
  8
LC-007-005-----0
  6
CONTINUOUS
  5
187
 10
618.197165
 20
97.394897
 30
0.0
 11
614.697165
 21
100.894897
 31
0.0
  0
LINE
  8
LC-007-005-----0
  6
CONTINUOUS
  5
188
 10
592.508081
 20
123.083982
 30
0.0
 11
589.008081
 21
126.583982
 31
0.0
  0
LINE
  8
LC-007-005-----0
  6
CONTINUOUS
  5
189
 10
511.197165
 20
204.394897
 30
0.0
 11
507.697165
 21
207.894897
 31
0.0
  0
LINE
  8
LC-007-005-----0
  6
CONTINUOUS
  5
18A
 10
618.197165
 20
94.56647
 30
0.0
 11
614.697165
 21
98.06647
 31
0.0
  0
LINE
  8
LC-007-005-----0
  6
CONTINUOUS
  5
18B
 10
589.679653
 20
123.083982
 30
0.0
 11
586.179653
 21
126.583982
 31
0.0
  0
LINE
  8
LC-007-005-----0
  6
CONTINUOUS
  5
18C
 10
511.197165
 20
201.56647
 30
0.0
 11
507.697165
 21
205.06647
 31
0.0
  0
LINE
  8
LC-007-005-----0
  6
CONTINUOUS
  5
18D
 10
618.197165
 20
91.738043
 30
0.0
 11
614.697165
 21
95.238043
 31
0.0
  0
LINE
  8
LC-007-005-----0
  6
CONTINUOUS
  5
18E
 10
586.851226
 20
123.083982
 30
0.0
 11
583.351226
 21
126.583982
 31
0.0
  0
LINE
  8
LC-007-005-----0
  6
CONTINUOUS
  5
18F
 10
511.197165
 20
198.738043
 30
0.0
 11
507.697165
 21
202.238043
 31
0.0
  0
LINE
  8
LC-007-005-----0
  6
CONTINUOUS
  5
190
 10
618.197165
 20
88.909616
 30
0.0
 11
614.697165
 21
92.409616
 31
0.0
  0
LINE
  8
LC-007-005-----0
  6
CONTINUOUS
  5
191
 10
584.022799
 20
123.083982
 30
0.0
 11
580.522799
 21
126.583982
 31
0.0
  0
LINE
  8
LC-007-005-----0
  6
CONTINUOUS
  5
192
 10
511.197165
 20
195.909616
 30
0.0
 11
507.697165
 21
199.409616
 31
0.0
  0
LINE
  8
LC-007-005-----0
  6
CONTINUOUS
  5
193
 10
618.197165
 20
86.081189
 30
0.0
 11
614.697165
 21
89.581189
 31
0.0
  0
LINE
  8
LC-007-005-----0
  6
CONTINUOUS
  5
194
 10
581.194372
 20
123.083982
 30
0.0
 11
577.694372
 21
126.583982
 31
0.0
  0
LINE
  8
LC-007-005-----0
  6
CONTINUOUS
  5
195
 10
511.197165
 20
193.081189
 30
0.0
 11
507.697165
 21
196.581189
 31
0.0
  0
LINE
  8
LC-007-005-----0
  6
CONTINUOUS
  5
196
 10
618.197165
 20
83.252762
 30
0.0
 11
614.697165
 21
86.752762
 31
0.0
  0
LINE
  8
LC-007-005-----0
  6
CONTINUOUS
  5
197
 10
578.365945
 20
123.083982
 30
0.0
 11
574.865945
 21
126.583982
 31
0.0
  0
LINE
  8
LC-007-005-----0
  6
CONTINUOUS
  5
198
 10
511.197165
 20
190.252762
 30
0.0
 11
507.697165
 21
193.752762
 31
0.0
  0
LINE
  8
LC-007-005-----0
  6
CONTINUOUS
  5
199
 10
618.197165
 20
80.424334
 30
0.0
 11
614.697165
 21
83.924334
 31
0.0
  0
LINE
  8
LC-007-005-----0
  6
CONTINUOUS
  5
19A
 10
575.537518
 20
123.083982
 30
0.0
 11
572.037518
 21
126.583982
 31
0.0
  0
LINE
  8
LC-007-005-----0
  6
CONTINUOUS
  5
19B
 10
511.197165
 20
187.424334
 30
0.0
 11
507.697165
 21
190.924334
 31
0.0
  0
LINE
  8
LC-007-005-----0
  6
CONTINUOUS
  5
19C
 10
618.197165
 20
77.595907
 30
0.0
 11
614.697165
 21
81.095907
 31
0.0
  0
LINE
  8
LC-007-005-----0
  6
CONTINUOUS
  5
19D
 10
572.709091
 20
123.083982
 30
0.0
 11
569.209091
 21
126.583982
 31
0.0
  0
LINE
  8
LC-007-005-----0
  6
CONTINUOUS
  5
19E
 10
511.197165
 20
184.595907
 30
0.0
 11
507.697165
 21
188.095907
 31
0.0
  0
LINE
  8
LC-007-005-----0
  6
CONTINUOUS
  5
19F
 10
618.197165
 20
74.76748
 30
0.0
 11
614.697165
 21
78.26748
 31
0.0
  0
LINE
  8
LC-007-005-----0
  6
CONTINUOUS
  5
1A0
 10
569.880664
 20
123.083982
 30
0.0
 11
566.380664
 21
126.583982
 31
0.0
  0
LINE
  8
LC-007-005-----0
  6
CONTINUOUS
  5
1A1
 10
511.197165
 20
181.76748
 30
0.0
 11
507.697165
 21
185.26748
 31
0.0
  0
LINE
  8
LC-007-005-----0
  6
CONTINUOUS
  5
1A2
 10
618.197165
 20
71.939053
 30
0.0
 11
614.697165
 21
75.439053
 31
0.0
  0
LINE
  8
LC-007-005-----0
  6
CONTINUOUS
  5
1A3
 10
567.052236
 20
123.083982
 30
0.0
 11
563.552236
 21
126.583982
 31
0.0
  0
LINE
  8
LC-007-005-----0
  6
CONTINUOUS
  5
1A4
 10
511.197165
 20
178.939053
 30
0.0
 11
507.697165
 21
182.439053
 31
0.0
  0
LINE
  8
LC-007-005-----0
  6
CONTINUOUS
  5
1A5
 10
618.197165
 20
69.110626
 30
0.0
 11
614.697165
 21
72.610626
 31
0.0
  0
LINE
  8
LC-007-005-----0
  6
CONTINUOUS
  5
1A6
 10
564.223809
 20
123.083982
 30
0.0
 11
560.721547
 21
126.586244
 31
0.0
  0
LINE
  8
LC-007-005-----0
  6
CONTINUOUS
  5
1A7
 10
511.199428
 20
176.108364
 30
0.0
 11
507.697165
 21
179.610626
 31
0.0
  0
LINE
  8
LC-007-005-----0
  6
CONTINUOUS
  5
1A8
 10
618.197165
 20
66.282199
 30
0.0
 11
614.697165
 21
69.782199
 31
0.0
  0
LINE
  8
LC-007-005-----0
  6
CONTINUOUS
  5
1A9
 10
561.395382
 20
123.083982
 30
0.0
 11
557.778363
 21
126.701001
 31
0.0
  0
LINE
  8
LC-007-005-----0
  6
CONTINUOUS
  5
1AA
 10
511.314184
 20
173.16518
 30
0.0
 11
507.697165
 21
176.782199
 31
0.0
  0
LINE
  8
LC-007-005-----0
  6
CONTINUOUS
  5
1AB
 10
618.197165
 20
63.453772
 30
0.0
 11
614.697165
 21
66.953772
 31
0.0
  0
LINE
  8
LC-007-005-----0
  6
CONTINUOUS
  5
1AC
 10
558.498867
 20
123.15207
 30
0.0
 11
554.634383
 21
127.016554
 31
0.0
  0
LINE
  8
LC-007-005-----0
  6
CONTINUOUS
  5
1AD
 10
511.629738
 20
170.021199
 30
0.0
 11
507.765254
 21
173.885683
 31
0.0
  0
LINE
  8
LC-007-005-----0
  6
CONTINUOUS
  5
1AE
 10
618.197165
 20
60.625345
 30
0.0
 11
614.697165
 21
64.125345
 31
0.0
  0
LINE
  8
LC-007-005-----0
  6
CONTINUOUS
  5
1AF
 10
555.426385
 20
123.396125
 30
0.0
 11
551.236294
 21
127.586216
 31
0.0
  0
LINE
  8
LC-007-005-----0
  6
CONTINUOUS
  5
1B0
 10
512.1994
 20
166.62311
 30
0.0
 11
508.009309
 21
170.813201
 31
0.0
  0
LINE
  8
LC-007-005-----0
  6
CONTINUOUS
  5
1B1
 10
618.197165
 20
57.796917
 30
0.0
 11
614.697165
 21
61.296917
 31
0.0
  0
LINE
  8
LC-007-005-----0
  6
CONTINUOUS
  5
1B2
 10
552.137429
 20
123.856653
 30
0.0
 11
547.496354
 21
128.497728
 31
0.0
  0
LINE
  8
LC-007-005-----0
  6
CONTINUOUS
  5
1B3
 10
513.110912
 20
162.883171
 30
0.0
 11
508.469837
 21
167.524246
 31
0.0
  0
LINE
  8
LC-007-005-----0
  6
CONTINUOUS
  5
1B4
 10
618.197165
 20
54.96849
 30
0.0
 11
614.697165
 21
58.46849
 31
0.0
  0
LINE
  8
LC-007-005-----0
  6
CONTINUOUS
  5
1B5
 10
548.570237
 20
124.595419
 30
0.0
 11
543.249418
 21
129.916238
 31
0.0
  0
LINE
  8
LC-007-005-----0
  6
CONTINUOUS
  5
1B6
 10
514.529421
 20
158.636235
 30
0.0
 11
509.208602
 21
163.957053
 31
0.0
  0
LINE
  8
LC-007-005-----0
  6
CONTINUOUS
  5
1B7
 10
618.197165
 20
52.140063
 30
0.0
 11
614.697165
 21
55.640063
 31
0.0
  0
LINE
  8
LC-007-005-----0
  6
CONTINUOUS
  5
1B8
 10
544.620306
 20
125.716923
 30
0.0
 11
538.097327
 21
132.239902
 31
0.0
  0
LINE
  8
LC-007-005-----0
  6
CONTINUOUS
  5
1B9
 10
516.853085
 20
153.484144
 30
0.0
 11
510.330106
 21
160.007123
 31
0.0
  0
LINE
  8
LC-007-005-----0
  6
CONTINUOUS
  5
1BA
 10
617.424819
 20
50.083982
 30
0.0
 11
614.697165
 21
52.811636
 31
0.0
  0
LINE
  8
LC-007-005-----0
  6
CONTINUOUS
  5
1BB
 10
540.08149
 20
127.427312
 30
0.0
 11
529.991559
 21
137.517243
 31
0.0
  0
LINE
  8
LC-007-005-----0
  6
CONTINUOUS
  5
1BC
 10
522.130426
 20
145.378375
 30
0.0
 11
512.040495
 21
155.468307
 31
0.0
  0
LINE
  8
LC-007-005-----0
  6
CONTINUOUS
  5
1BD
 10
534.403533
 20
130.276842
 30
0.0
 11
514.890025
 21
149.790349
 31
0.0
  0
ENDBLK
  8
0
  5
1BE
  0
BLOCK
  8
0
  5
1C0
  2
*X10
 70
    65
 10
723.497165
 20
303.083982
 30
0.0
  3
*X10
  0
LINE
  8
LC-007-005-----0
  6
DASHED
  5
1C1
 10
728.497165
 20
305.292949
 30
0.0
 11
725.706132
 21
308.083982
 31
0.0
  0
LINE
  8
LC-007-005-----0
  6
DASHED
  5
1C2
 10
728.497165
 20
303.878735
 30
0.0
 11
724.291919
 21
308.083982
 31
0.0
  0
LINE
  8
LC-007-005-----0
  6
CONTINUOUS
  5
1C3
 10
726.463491
 20
303.083982
 30
0.0
 11
723.497165
 21
306.050308
 31
0.0
  0
LINE
  8
LC-007-005-----0
  6
CONTINUOUS
  5
1C4
 10
725.049278
 20
303.083982
 30
0.0
 11
723.497165
 21
304.636095
 31
0.0
  0
ENDBLK
  8
0
  5
1C5
  0
BLOCK
  8
0
  5
1C7
  2
*X11
 70
    65
 10
506.897165
 20
303.083982
 30
0.0
  3
*X11
  0
LINE
  8
LC-007-005-----0
  6
CONTINUOUS
  5
1C8
 10
511.897165
 20
306.932487
 30
0.0
 11
510.745671
 21
308.083982
 31
0.0
  0
LINE
  8
LC-007-005-----0
  6
DASHED
  5
1C9
 10
511.897165
 20
304.10406
 30
0.0
 11
507.917243
 21
308.083982
 31
0.0
  0
LINE
  8
LC-007-005-----0
  6
DASHED
  5
1CA
 10
511.50303
 20
303.083982
 30
0.0
 11
506.897165
 21
307.689847
 31
0.0
  0
LINE
  8
LC-007-005-----0
  6
CONTINUOUS
  5
1CB
 10
508.674603
 20
303.083982
 30
0.0
 11
506.897165
 21
304.861419
 31
0.0
  0
LINE
  8
LC-007-005-----0
  6
CONTINUOUS
  5
1CC
 10
507.260389
 20
303.083982
 30
0.0
 11
506.897165
 21
303.447206
 31
0.0
  0
ENDBLK
  8
0
  5
1CD
  0
BLOCK
  8
0
  5
1CF
  2
*X12
 70
    65
 10
592.097165
 20
212.983982
 30
0.0
  3
*X12
  0
LINE
  8
LC-007-005-----0
  6
CONTINUOUS
  5
1D0
 10
676.517603
 20
215.483982
 30
0.0
 11
677.097165
 21
216.063544
 31
0.0
  0
LINE
  8
LC-007-005-----0
  6
CONTINUOUS
  5
1D1
 10
671.189176
 20
212.983982
 30
0.0
 11
675.689176
 21
217.483982
 31
0.0
  0
LINE
  8
LC-007-005-----0
  6
CONTINUOUS
  5
1D2
 10
668.578957
 20
213.20219
 30
0.0
 11
672.860749
 21
217.483982
 31
0.0
  0
LINE
  8
LC-007-005-----0
  6
CONTINUOUS
  5
1D3
 10
667.164744
 20
214.616404
 30
0.0
 11
670.032322
 21
217.483982
 31
0.0
  0
LINE
  8
LC-007-005-----0
  6
CONTINUOUS
  5
1D4
 10
665.203895
 20
215.483982
 30
0.0
 11
667.203895
 21
217.483982
 31
0.0
  0
LINE
  8
LC-007-005-----0
  6
CONTINUOUS
  5
1D5
 10
662.375468
 20
215.483982
 30
0.0
 11
664.375468
 21
217.483982
 31
0.0
  0
LINE
  8
LC-007-005-----0
  6
CONTINUOUS
  5
1D6
 10
659.547041
 20
215.483982
 30
0.0
 11
661.547041
 21
217.483982
 31
0.0
  0
LINE
  8
LC-007-005-----0
  6
CONTINUOUS
  5
1D7
 10
656.718613
 20
215.483982
 30
0.0
 11
658.718613
 21
217.483982
 31
0.0
  0
LINE
  8
LC-007-005-----0
  6
CONTINUOUS
  5
1D8
 10
653.890186
 20
215.483982
 30
0.0
 11
655.890186
 21
217.483982
 31
0.0
  0
LINE
  8
LC-007-005-----0
  6
CONTINUOUS
  5
1D9
 10
651.061759
 20
215.483982
 30
0.0
 11
653.061759
 21
217.483982
 31
0.0
  0
LINE
  8
LC-007-005-----0
  6
CONTINUOUS
  5
1DA
 10
648.233332
 20
215.483982
 30
0.0
 11
650.233332
 21
217.483982
 31
0.0
  0
LINE
  8
LC-007-005-----0
  6
CONTINUOUS
  5
1DB
 10
645.404905
 20
215.483982
 30
0.0
 11
647.404905
 21
217.483982
 31
0.0
  0
LINE
  8
LC-007-005-----0
  6
CONTINUOUS
  5
1DC
 10
642.576478
 20
215.483982
 30
0.0
 11
644.576478
 21
217.483982
 31
0.0
  0
LINE
  8
LC-007-005-----0
  6
CONTINUOUS
  5
1DD
 10
639.748051
 20
215.483982
 30
0.0
 11
641.748051
 21
217.483982
 31
0.0
  0
LINE
  8
LC-007-005-----0
  6
CONTINUOUS
  5
1DE
 10
636.919624
 20
215.483982
 30
0.0
 11
638.919624
 21
217.483982
 31
0.0
  0
LINE
  8
LC-007-005-----0
  6
CONTINUOUS
  5
1DF
 10
634.091196
 20
215.483982
 30
0.0
 11
636.091196
 21
217.483982
 31
0.0
  0
LINE
  8
LC-007-005-----0
  6
CONTINUOUS
  5
1E0
 10
631.262769
 20
215.483982
 30
0.0
 11
633.262769
 21
217.483982
 31
0.0
  0
LINE
  8
LC-007-005-----0
  6
CONTINUOUS
  5
1E1
 10
628.434342
 20
215.483982
 30
0.0
 11
630.434342
 21
217.483982
 31
0.0
  0
LINE
  8
LC-007-005-----0
  6
CONTINUOUS
  5
1E2
 10
625.605915
 20
215.483982
 30
0.0
 11
627.605915
 21
217.483982
 31
0.0
  0
LINE
  8
LC-007-005-----0
  6
CONTINUOUS
  5
1E3
 10
622.777488
 20
215.483982
 30
0.0
 11
624.777488
 21
217.483982
 31
0.0
  0
LINE
  8
LC-007-005-----0
  6
CONTINUOUS
  5
1E4
 10
619.949061
 20
215.483982
 30
0.0
 11
621.949061
 21
217.483982
 31
0.0
  0
LINE
  8
LC-007-005-----0
  6
CONTINUOUS
  5
1E5
 10
617.120634
 20
215.483982
 30
0.0
 11
619.120634
 21
217.483982
 31
0.0
  0
LINE
  8
LC-007-005-----0
  6
CONTINUOUS
  5
1E6
 10
614.292207
 20
215.483982
 30
0.0
 11
616.292207
 21
217.483982
 31
0.0
  0
LINE
  8
LC-007-005-----0
  6
CONTINUOUS
  5
1E7
 10
611.463779
 20
215.483982
 30
0.0
 11
613.463779
 21
217.483982
 31
0.0
  0
LINE
  8
LC-007-005-----0
  6
CONTINUOUS
  5
1E8
 10
608.635352
 20
215.483982
 30
0.0
 11
610.635352
 21
217.483982
 31
0.0
  0
LINE
  8
LC-007-005-----0
  6
CONTINUOUS
  5
1E9
 10
605.806925
 20
215.483982
 30
0.0
 11
607.806925
 21
217.483982
 31
0.0
  0
LINE
  8
LC-007-005-----0
  6
CONTINUOUS
  5
1EA
 10
602.978498
 20
215.483982
 30
0.0
 11
604.978498
 21
217.483982
 31
0.0
  0
LINE
  8
LC-007-005-----0
  6
CONTINUOUS
  5
1EB
 10
597.650071
 20
212.983982
 30
0.0
 11
602.150071
 21
217.483982
 31
0.0
  0
LINE
  8
LC-007-005-----0
  6
CONTINUOUS
  5
1EC
 10
595.397165
 20
213.559503
 30
0.0
 11
599.321644
 21
217.483982
 31
0.0
  0
LINE
  8
LC-007-005-----0
  6
CONTINUOUS
  5
1ED
 10
594.493217
 20
215.483982
 30
0.0
 11
596.493217
 21
217.483982
 31
0.0
  0
LINE
  8
LC-007-005-----0
  6
CONTINUOUS
  5
1EE
 10
592.097165
 20
215.916358
 30
0.0
 11
593.66479
 21
217.483982
 31
0.0
  0
ENDBLK
  8
0
  5
1EF
  0
BLOCK
  8
0
  5
1F1
  2
BLK2
 70
    64
 10
0.0
 20
0.0
 30
0.0
  3
BLK2
  0
ENDBLK
  8
0
  5
1F2
  0
BLOCK
  8
0
  5
1F4
  2
BLK3
 70
    64
 10
0.0
 20
0.0
 30
0.0
  3
BLK3
  0
ENDBLK
  8
0
  5
1F5
  0
BLOCK
  8
0
  5
1F7
  2
OBJ1
 70
    64
 10
0.0
 20
0.0
 30
0.0
  3
OBJ1
  0
LINE
  8
LC-001-002-----0
  6
CONTINUOUS
  5
1F9
 10
710.197165
 20
-62.437099
 30
0.0
 11
713.697165
 21
-64.457825
 31
0.0
  0
LINE
  8
LC-001-002-----0
  6
CONTINUOUS
  5
1FA
 10
713.697165
 20
-64.457825
 30
0.0
 11
713.697165
 21
-68.499277
 31
0.0
  0
LINE
  8
LC-001-002-----0
  6
CONTINUOUS
  5
1FB
 10
713.697165
 20
-68.499277
 30
0.0
 11
710.197165
 21
-70.520003
 31
0.0
  0
LINE
  8
LC-001-002-----0
  6
CONTINUOUS
  5
1FC
 10
710.197165
 20
-70.520003
 30
0.0
 11
706.697165
 21
-68.499277
 31
0.0
  0
LINE
  8
LC-001-002-----0
  6
CONTINUOUS
  5
1FD
 10
706.697165
 20
-68.499277
 30
0.0
 11
706.697165
 21
-64.457825
 31
0.0
  0
LINE
  8
LC-001-002-----0
  6
CONTINUOUS
  5
1FE
 10
706.697165
 20
-64.457825
 30
0.0
 11
710.197165
 21
-62.437099
 31
0.0
  0
ENDBLK
  8
0
  5
1FF
  0
BLOCK
  8
0
  5
201
  2
OBJ2
 70
    64
 10
0.0
 20
0.0
 30
0.0
  3
OBJ2
  0
LINE
  8
LC-001-002-----0
  6
CONTINUOUS
  5
202
 10
525.197165
 20
-62.437099
 30
0.0
 11
528.697165
 21
-64.457825
 31
0.0
  0
LINE
  8
LC-001-002-----0
  6
CONTINUOUS
  5
203
 10
528.697165
 20
-64.457825
 30
0.0
 11
528.697165
 21
-68.499277
 31
0.0
  0
LINE
  8
LC-001-002-----0
  6
CONTINUOUS
  5
204
 10
528.697165
 20
-68.499277
 30
0.0
 11
525.197165
 21
-70.520003
 31
0.0
  0
LINE
  8
LC-001-002-----0
  6
CONTINUOUS
  5
205
 10
525.197165
 20
-70.520003
 30
0.0
 11
521.697165
 21
-68.499277
 31
0.0
  0
LINE
  8
LC-001-002-----0
  6
CONTINUOUS
  5
206
 10
521.697165
 20
-68.499277
 30
0.0
 11
521.697165
 21
-64.457825
 31
0.0
  0
LINE
  8
LC-001-002-----0
  6
CONTINUOUS
  5
207
 10
521.697165
 20
-64.457825
 30
0.0
 11
525.197165
 21
-62.437099
 31
0.0
  0
ENDBLK
  8
0
  5
208
  0
BLOCK
  8
0
  5
20A
  2
BLK4
 70
    64
 10
0.0
 20
0.0
 30
0.0
  3
BLK4
  0
ENDBLK
  8
0
  5
20B
  0
BLOCK
  8
0
  5
20D
  2
*D18
 70
    65
 10
0.0
 20
0.0
 30
0.0
  3
*D18
  0
LINE
  8
LC-004-003-MTH-0
  6
CONTINUOUS
  5
20E
 10
620.697165
 20
50.083982
 30
0.0
 11
810.8
 21
50.083982
 31
0.0
  0
LINE
  8
LC-004-003-MTH-0
  6
CONTINUOUS
  5
20F
 10
674.197165
 20
123.083982
 30
0.0
 11
810.8
 21
123.083982
 31
0.0
  0
LINE
  8
LC-005-003-MTG-0
  6
CONTINUOUS
  5
210
 10
800.0
 20
50.083982
 30
0.0
 11
800.0
 21
123.083982
 31
0.0
  0
LINE
  8
LC-003-003-----0
  6
CONTINUOUS
  5
211
 10
797.650529
 20
67.92999
 30
0.0
 11
800.0
 21
50.083982
 31
0.0
  0
LINE
  8
LC-003-003-----0
  6
CONTINUOUS
  5
212
 10
800.0
 20
50.083982
 30
0.0
 11
802.349471
 21
67.92999
 31
0.0
  0
LINE
  8
LC-003-003-----0
  6
CONTINUOUS
  5
213
 10
802.349471
 20
67.92999
 30
0.0
 11
797.650529
 21
67.92999
 31
0.0
  0
LINE
  8
LC-003-003-----0
  6
CONTINUOUS
  5
214
 10
798.261391
 20
67.970028
 30
0.0
 11
800.0
 21
54.763982
 31
0.0
  0
LINE
  8
LC-003-003-----0
  6
CONTINUOUS
  5
215
 10
800.0
 20
54.763982
 30
0.0
 11
801.738609
 21
67.970028
 31
0.0
  0
LINE
  8
LC-003-003-----0
  6
CONTINUOUS
  5
216
 10
798.872254
 20
68.010066
 30
0.0
 11
800.0
 21
59.443982
 31
0.0
  0
LINE
  8
LC-003-003-----0
  6
CONTINUOUS
  5
217
 10
800.0
 20
59.443982
 30
0.0
 11
801.127746
 21
68.010066
 31
0.0
  0
LINE
  8
LC-003-003-----0
  6
CONTINUOUS
  5
218
 10
799.483116
 20
68.050104
 30
0.0
 11
800.0
 21
64.123982
 31
0.0
  0
LINE
  8
LC-003-003-----0
  6
CONTINUOUS
  5
219
 10
800.0
 20
64.123982
 30
0.0
 11
800.516884
 21
68.050104
 31
0.0
  0
LINE
  8
LC-003-003-----0
  6
CONTINUOUS
  5
21A
 10
802.349471
 20
105.237975
 30
0.0
 11
800.0
 21
123.083982
 31
0.0
  0
LINE
  8
LC-003-003-----0
  6
CONTINUOUS
  5
21B
 10
800.0
 20
123.083982
 30
0.0
 11
797.650529
 21
105.237975
 31
0.0
  0
LINE
  8
LC-003-003-----0
  6
CONTINUOUS
  5
21C
 10
797.650529
 20
105.237975
 30
0.0
 11
802.349471
 21
105.237975
 31
0.0
  0
LINE
  8
LC-003-003-----0
  6
CONTINUOUS
  5
21D
 10
801.738609
 20
105.197936
 30
0.0
 11
800.0
 21
118.403982
 31
0.0
  0
LINE
  8
LC-003-003-----0
  6
CONTINUOUS
  5
21E
 10
800.0
 20
118.403982
 30
0.0
 11
798.261391
 21
105.197936
 31
0.0
  0
LINE
  8
LC-003-003-----0
  6
CONTINUOUS
  5
21F
 10
801.127746
 20
105.157898
 30
0.0
 11
800.0
 21
113.723982
 31
0.0
  0
LINE
  8
LC-003-003-----0
  6
CONTINUOUS
  5
220
 10
800.0
 20
113.723982
 30
0.0
 11
798.872254
 21
105.157898
 31
0.0
  0
LINE
  8
LC-003-003-----0
  6
CONTINUOUS
  5
221
 10
800.516884
 20
105.11786
 30
0.0
 11
800.0
 21
109.043982
 31
0.0
  0
LINE
  8
LC-003-003-----0
  6
CONTINUOUS
  5
222
 10
800.0
 20
109.043982
 30
0.0
 11
799.483116
 21
105.11786
 31
0.0
  0
TEXT
  8
LC-003-003-----0
  6
CONTINUOUS
 62
     6
  5
223
 10
789.568001
 20
75.280254
 30
0.0
 40
18.0
  1
73
 50
90.0
 51
15.0
  7
LC-TXTSTYLE-150-400-0-0-D0
 72
     1
 11
789.568001
 21
87.143246
 31
0.0
  0
ENDBLK
  8
0
  5
224
  0
BLOCK
  8
0
  5
226
  2
BLK5
 70
    64
 10
0.0
 20
0.0
 30
0.0
  3
BLK5
  0
ENDBLK
  8
0
  5
227
  0
ENDSEC
  0
SECTION
  2
ENTITIES
  0
VIEWPORT
  8
LC-000
  5
3A9
 67
     1
 68
     1
 10
420.0
 20
297.0
 30
0.0
 40
840.0
 41
594.0
 69
     1
1001
ACAD
1000
MVIEW
1002
{
1070
    16
1010
0.0
1020
0.0
1030
0.0
1010
0.0
1020
0.0
1030
1.0
1040
0.0
1040
594.0
1040
420.0
1040
297.0
1040
50.0
1040
0.0
1040
0.0
1070
     0
1070
   100
1070
     1
1070
     1
1070
     0
1070
     0
1070
     0
1070
     0
1040
0.0
1040
0.0
1040
0.0
1040
1.0
1040
1.0
1040
0.0
1040
0.0
1070
     0
1002
{
1002
}
1002
}
  0
VIEWPORT
  8
0
  5
3AA
 67
     1
 68
     1
 10
0.0
 20
0.0
 30
0.0
 40
0.0
 41
0.0
 69
     1
1001
ACAD
1000
MVIEW
1002
{
1070
    16
1010
0.0
1020
0.0
1030
0.0
1010
0.0
1020
0.0
1030
1.0
1040
0.0
1040
594.0
1040
0.0
1040
0.0
1040
50.0
1040
0.0
1040
0.0
1070
     0
1070
   100
1070
     0
1070
     1
1070
     0
1070
     0
1070
     0
1070
     0
1040
0.0
1040
0.0
1040
0.0
1040
0.5
1040
0.5
1040
0.5
1040
0.5
1070
     0
1002
{
1002
}
1002
}
  0
DIMENSION
  8
0
  5
228
  2
*D0
 10
800.0
 20
216.216
 30
0.0
 11
800.0
 21
216.216
 31
0.0
  1
190
 13
730.697165
 23
312.983982
 33
0.0
 14
674.197165
 24
123.083982
 34
0.0
 50
90.0
  3
LC-DIM-L-0090-02-02
  0
DIMENSION
  8
0
  5
229
  2
*D1
 10
651.016879
 20
320.0
 30
0.0
 11
651.016879
 21
320.0
 31
0.0
 13
502.697165
 23
310.983982
 33
0.0
 14
732.697165
 24
310.983982
 34
0.0
  3
LC-DIM-L-0090-02-02
  0
INSERT
  8
0
  5
22B
  2
BLK1
 10
0.0
 20
0.0
 30
0.0
  0
INSERT
  8
0
  5
22C
  2
*X3
 10
682.597165
 20
277.483982
 30
0.0
  0
INSERT
  8
0
  5
22D
  2
*X4
 10
588.797165
 20
277.483982
 30
0.0
  0
INSERT
  8
0
  5
22E
  2
*X5
 10
679.597165
 20
274.983982
 30
0.0
  0
INSERT
  8
0
  5
22F
  2
*X6
 10
502.697165
 20
270.783982
 30
0.0
  0
DIMENSION
  8
0
  5
230
  2
*D7
 10
660.567698
 20
0.0
 30
0.0
 11
660.567698
 21
0.0
 31
0.0
  1
DN100
 13
614.697165
 23
50.083982
 33
0.0
 14
722.697165
 24
50.083982
 34
0.0
  3
LC-DIM-L-0090-02-02
  0
INSERT
  8
0
  5
231
  2
*X8
 10
620.697165
 20
50.083982
 30
0.0
  0
INSERT
  8
0
  5
232
  2
*X9
 10
507.697165
 20
50.083982
 30
0.0
  0
INSERT
  8
0
  5
233
  2
*X10
 10
723.497165
 20
303.083982
 30
0.0
  0
INSERT
  8
0
  5
234
  2
*X11
 10
506.897165
 20
303.083982
 30
0.0
  0
INSERT
  8
0
  5
235
  2
*X12
 10
592.097165
 20
212.983982
 30
0.0
  0
INSERT
  8
0
  5
236
  2
BLK2
 10
0.0
 20
0.0
 30
0.0
  0
INSERT
  8
0
  5
237
  2
BLK3
 10
0.0
 20
0.0
 30
0.0
  0
INSERT
  8
0
  5
238
  2
OBJ1
 10
0.0
 20
0.0
 30
0.0
  0
INSERT
  8
0
  5
239
  2
OBJ2
 10
0.0
 20
0.0
 30
0.0
  0
INSERT
  8
0
  5
23A
  2
BLK4
 10
0.0
 20
0.0
 30
0.0
  0
DIMENSION
  8
0
  5
23B
  2
*D18
 10
800.0
 20
84.348
 30
0.0
 11
800.0
 21
84.348
 31
0.0
 13
674.197165
 23
123.083982
 33
0.0
 14
620.697165
 24
50.083982
 34
0.0
 50
90.0
  3
LC-DIM-L-0090-02-02
  0
INSERT
  8
0
  5
23C
  2
BLK5
 10
0.0
 20
0.0
 30
0.0
  0
LINE
  8
LC-001-002-----0
  6
CONTINUOUS
  5
23D
 10
587.697165
 20
270.595098
 30
0.0
 11
587.697165
 21
277.983982
 31
0.0
  0
LINE
  8
LC-001-002-----0
  6
CONTINUOUS
  5
23E
 10
567.697165
 20
265.608538
 30
0.0
 11
567.697165
 21
298.183982
 31
0.0
  0
LINE
  8
LC-001-002-----0
  6
CONTINUOUS
  5
23F
 10
727.697165
 20
176.583982
 30
0.0
 11
727.697165
 21
303.083982
 31
0.0
  0
LINE
  8
LC-001-002-----0
  6
CONTINUOUS
  5
240
 10
507.697165
 20
176.583982
 30
0.0
 11
507.697165
 21
303.083982
 31
0.0
  0
LINE
  8
LC-001-002-----0
  6
CONTINUOUS
  5
241
 10
567.697165
 20
269.421808
 30
0.0
 11
564.597165
 21
268.648891
 31
0.0
  0
LINE
  8
LC-001-002-----0
  6
CONTINUOUS
  5
242
 10
567.697165
 20
268.700379
 30
0.0
 11
567.5714
 21
268.669022
 31
0.0
  0
LINE
  8
LC-001-002-----0
  6
CONTINUOUS
  5
243
 10
722.697165
 20
50.083982
 30
0.0
 11
614.697165
 21
50.083982
 31
0.0
  0
LINE
  8
LC-001-002-----0
  6
DASHDOT
 62
     2
  5
245
 10
668.697165
 20
74.25
 30
0.0
 11
668.697165
 21
133.65
 31
0.0
  0
LINE
  8
LC-001-002-----0
  6
CONTINUOUS
  5
246
 10
719.197165
 20
50.083982
 30
0.0
 11
719.197165
 21
154.789487
 31
0.0
  0
LINE
  8
LC-001-002-----0
  6
CONTINUOUS
  5
247
 10
618.197165
 20
50.083982
 30
0.0
 11
618.197165
 21
116.583982
 31
0.0
  0
LINE
  8
LC-001-002-----0
  6
CONTINUOUS
  5
248
 10
724.197165
 20
176.583982
 30
0.0
 11
724.197165
 21
303.083982
 31
0.0
  0
LINE
  8
LC-001-002-----0
  6
CONTINUOUS
  5
249
 10
674.197165
 20
126.583982
 30
0.0
 11
561.197165
 21
126.583982
 31
0.0
  0
LINE
  8
LC-001-002-----0
  6
CONTINUOUS
  5
24A
 10
511.197165
 20
176.583982
 30
0.0
 11
511.197165
 21
303.083982
 31
0.0
  0
ARC
  8
LC-002-002-RND-0
  6
CONTINUOUS
  5
24C
 10
561.197165
 20
176.583982
 30
0.0
 40
50.0
 50
180.0
 51
270.0
  0
ARC
  8
LC-002-002-RND-0
  6
CONTINUOUS
  5
24D
 10
561.197165
 20
176.583982
 30
0.0
 40
53.5
 50
180.0
 51
270.0
  0
ARC
  8
LC-002-002-RND-0
  6
CONTINUOUS
  5
24E
 10
674.197165
 20
176.583982
 30
0.0
 40
53.5
 50
335.03178
 51
0.0
  0
LINE
  8
LC-001-002-----0
  6
CONTINUOUS
  5
24F
 10
567.697165
 20
265.608538
 30
0.0
 11
565.297165
 21
265.010151
 31
0.0
  0
ARC
  8
LC-002-002-RND-0
  6
CONTINUOUS
  5
250
 10
674.197165
 20
176.583982
 30
0.0
 40
50.0
 50
270.0
 51
0.0
  0
ARC
  8
LC-002-002-RND-0
  6
CONTINUOUS
  5
251
 10
608.197165
 20
116.583982
 30
0.0
 40
10.0
 50
0.0
 51
90.0
  0
ARC
  8
LC-002-002-RND-0
  6
CONTINUOUS
  5
252
 10
608.197165
 20
116.583982
 30
0.0
 40
6.5
 50
0.0
 51
90.0
  0
LINE
  8
LC-001-002-----0
  6
CONTINUOUS
  5
253
 10
608.197165
 20
123.083982
 30
0.0
 11
561.197165
 21
123.083982
 31
0.0
  0
LINE
  8
LC-007-005-----0
  6
CONTINUOUS
  5
254
 10
676.931312
 20
217.483982
 30
0.0
 11
677.097165
 21
217.649836
 31
0.0
  0
LINE
  8
LC-007-005-----0
  6
CONTINUOUS
  5
255
 10
674.102885
 20
217.483982
 30
0.0
 11
677.097165
 21
220.478263
 31
0.0
  0
LINE
  8
LC-007-005-----0
  6
CONTINUOUS
  5
256
 10
674.097165
 20
220.30669
 30
0.0
 11
677.097165
 21
223.30669
 31
0.0
  0
LINE
  8
LC-007-005-----0
  6
CONTINUOUS
  5
257
 10
674.097165
 20
223.135117
 30
0.0
 11
677.097165
 21
226.135117
 31
0.0
  0
LINE
  8
LC-007-005-----0
  6
CONTINUOUS
  5
258
 10
674.097165
 20
225.963544
 30
0.0
 11
677.097165
 21
228.963544
 31
0.0
  0
LINE
  8
LC-007-005-----0
  6
CONTINUOUS
  5
259
 10
674.097165
 20
228.791971
 30
0.0
 11
677.097165
 21
231.791971
 31
0.0
  0
LINE
  8
LC-001-002-----0
  6
CONTINUOUS
  5
25A
 10
508.447165
 20
301.083982
 30
0.0
 11
507.697165
 21
301.083982
 31
0.0
  0
LINE
  8
LC-007-005-----0
  6
CONTINUOUS
  5
25B
 10
674.097165
 20
231.620398
 30
0.0
 11
677.097165
 21
234.620398
 31
0.0
  0
LINE
  8
LC-007-005-----0
  6
CONTINUOUS
  5
25C
 10
674.097165
 20
234.448825
 30
0.0
 11
677.097165
 21
237.448825
 31
0.0
  0
LINE
  8
LC-001-002-----0
  6
CONTINUOUS
  5
25D
 10
699.197165
 20
277.983982
 30
0.0
 11
699.197165
 21
307.983982
 31
0.0
  0
LINE
  8
LC-001-002-----0
  6
CONTINUOUS
  5
25E
 10
701.397165
 20
312.983982
 30
0.0
 11
585.197165
 21
312.983982
 31
0.0
  0
ARC
  8
LC-002-002-RND-0
  6
CONTINUOUS
  5
25F
 10
701.397165
 20
308.483982
 30
0.0
 40
4.5
 50
90.0
 51
180.0
  0
LINE
  8
LC-001-002-----0
  6
CONTINUOUS
  5
260
 10
732.697165
 20
295.983982
 30
0.0
 11
732.697165
 21
310.983982
 31
0.0
  0
LINE
  8
LC-001-002-----0
  6
CONTINUOUS
  5
261
 10
730.697165
 20
312.983982
 30
0.0
 11
701.397165
 21
312.983982
 31
0.0
  0
LINE
  8
LC-001-002-----0
  6
CONTINUOUS
  5
262
 10
502.697165
 20
295.983982
 30
0.0
 11
502.697165
 21
310.983982
 31
0.0
  0
LINE
  8
LC-001-002-----0
  6
CONTINUOUS
  5
263
 10
732.697165
 20
295.983982
 30
0.0
 11
728.497165
 21
295.983982
 31
0.0
  0
LINE
  8
LC-007-005-----0
  6
CONTINUOUS
  5
264
 10
674.097165
 20
237.277253
 30
0.0
 11
677.097165
 21
240.277253
 31
0.0
  0
CIRCLE
  8
LC-001-002-----0
  6
CONTINUOUS
  5
265
 10
577.697165
 20
257.083982
 30
0.0
 40
6.5
  0
ARC
  8
LC-001-002-----0
  6
CONTINUOUS
  5
266
 10
577.697165
 20
257.083982
 30
0.0
 40
10.0
 50
180.0
 51
0.0
  0
LINE
  8
LC-001-002-----0
  6
CONTINUOUS
  5
267
 10
587.697165
 20
257.083982
 30
0.0
 11
587.697165
 21
270.595098
 31
0.0
  0
LINE
  8
LC-001-002-----0
  6
CONTINUOUS
  5
268
 10
567.697165
 20
257.083982
 30
0.0
 11
567.697165
 21
265.608538
 31
0.0
  0
LINE
  8
LC-001-002-----0
  6
CONTINUOUS
  5
269
 10
567.697165
 20
295.983982
 30
0.0
 11
516.097165
 21
295.983982
 31
0.0
  0
ARC
  8
LC-002-002-RND-0
  6
CONTINUOUS
  5
26A
 10
730.697165
 20
310.983982
 30
0.0
 40
2.0
 50
0.0
 51
90.0
  0
ARC
  8
LC-002-002-RND-0
  6
CONTINUOUS
  5
26B
 10
504.697165
 20
310.983982
 30
0.0
 40
2.0
 50
90.0
 51
180.0
  0
LINE
  8
LC-001-002-----0
  6
CONTINUOUS
  5
26C
 10
728.497165
 20
295.983982
 30
0.0
 11
728.497165
 21
306.083982
 31
0.0
  0
LINE
  8
LC-001-002-----0
  6
CONTINUOUS
  5
26D
 10
728.497165
 20
306.083982
 30
0.0
 11
723.497165
 21
306.083982
 31
0.0
  0
LINE
  8
LC-001-002-----0
  6
CONTINUOUS
  5
26E
 10
723.497165
 20
295.983982
 30
0.0
 11
723.497165
 21
306.083982
 31
0.0
  0
LINE
  8
LC-001-002-----0
  6
CONTINUOUS
  5
26F
 10
719.297165
 20
295.983982
 30
0.0
 11
719.297165
 21
307.983982
 31
0.0
  0
LINE
  8
LC-001-002-----0
  6
CONTINUOUS
  5
270
 10
672.997165
 20
300.083982
 30
0.0
 11
615.797165
 21
300.083982
 31
0.0
  0
LINE
  8
LC-001-002-----0
  6
CONTINUOUS
  5
271
 10
719.297165
 20
307.983982
 30
0.0
 11
711.297165
 21
307.983982
 31
0.0
  0
LINE
  8
LC-001-002-----0
  6
CONTINUOUS
  5
272
 10
506.897165
 20
295.983982
 30
0.0
 11
506.897165
 21
306.083982
 31
0.0
  0
LINE
  8
LC-007-005-----0
  6
CONTINUOUS
  5
273
 10
674.097165
 20
240.10568
 30
0.0
 11
677.097165
 21
243.10568
 31
0.0
  0
LINE
  8
LC-001-002-----0
  6
CONTINUOUS
  5
274
 10
719.297165
 20
298.183982
 30
0.0
 11
699.197165
 21
298.183982
 31
0.0
  0
LINE
  8
LC-001-002-----0
  6
CONTINUOUS
  5
275
 10
506.897165
 20
306.083982
 30
0.0
 11
511.897165
 21
306.083982
 31
0.0
  0
LINE
  8
LC-001-002-----0
  6
CONTINUOUS
  5
276
 10
511.897165
 20
295.983982
 30
0.0
 11
511.897165
 21
306.083982
 31
0.0
  0
LINE
  8
LC-001-002-----0
  6
CONTINUOUS
  5
277
 10
711.297165
 20
307.983982
 30
0.0
 11
710.597165
 21
298.183982
 31
0.0
  0
LINE
  8
LC-001-002-----0
  6
CONTINUOUS
  5
278
 10
708.197165
 20
298.183982
 30
0.0
 11
707.497165
 21
307.983982
 31
0.0
  0
LINE
  8
LC-001-002-----0
  6
CONTINUOUS
  5
279
 10
516.097165
 20
295.983982
 30
0.0
 11
516.097165
 21
307.983982
 31
0.0
  0
LINE
  8
LC-001-002-----0
  6
CONTINUOUS
  5
27A
 10
516.097165
 20
307.983982
 30
0.0
 11
539.797165
 21
307.983982
 31
0.0
  0
LINE
  8
LC-001-002-----0
  6
CONTINUOUS
  5
27B
 10
696.897165
 20
295.983982
 30
0.0
 11
696.897165
 21
308.483982
 31
0.0
  0
LINE
  8
LC-001-002-----0
  6
CONTINUOUS
  5
27C
 10
543.597165
 20
307.983982
 30
0.0
 11
542.897165
 21
298.183982
 31
0.0
  0
LINE
  8
LC-001-002-----0
  6
CONTINUOUS
  5
27D
 10
540.497165
 20
298.183982
 30
0.0
 11
539.797165
 21
307.983982
 31
0.0
  0
LINE
  8
LC-001-002-----0
  6
CONTINUOUS
  5
27E
 10
687.697165
 20
-43.978551
 30
0.0
 11
547.697165
 21
-43.978551
 31
0.0
  0
LINE
  8
LC-001-002-----0
  6
CONTINUOUS
  5
27F
 10
567.697165
 20
298.183982
 30
0.0
 11
542.897165
 21
298.183982
 31
0.0
  0
LINE
  8
LC-001-002-----0
  6
CONTINUOUS
  5
280
 10
543.597165
 20
307.983982
 30
0.0
 11
586.997165
 21
307.983982
 31
0.0
  0
LINE
  8
LC-001-002-----0
  6
CONTINUOUS
  5
281
 10
707.497165
 20
307.983982
 30
0.0
 11
699.197165
 21
307.983982
 31
0.0
  0
LINE
  8
LC-001-002-----0
  6
CONTINUOUS
  5
282
 10
586.997165
 20
277.983982
 30
0.0
 11
586.997165
 21
307.983982
 31
0.0
  0
LINE
  8
LC-001-002-----0
  6
CONTINUOUS
  5
283
 10
699.197165
 20
277.983982
 30
0.0
 11
696.997165
 21
277.983982
 31
0.0
  0
LINE
  8
LC-001-002-----0
  6
CONTINUOUS
  5
284
 10
679.743301
 20
285.183982
 30
0.0
 11
674.497165
 21
285.183982
 31
0.0
  0
ARC
  8
LC-002-002-RND-0
  6
CONTINUOUS
  5
285
 10
689.897165
 20
295.983982
 30
0.0
 40
7.0
 50
270.0
 51
0.0
  0
LINE
  8
LC-001-002-----0
  6
CONTINUOUS
  5
286
 10
696.997165
 20
284.983982
 30
0.0
 11
682.597165
 21
284.983982
 31
0.0
  0
LINE
  8
LC-001-002-----0
  6
CONTINUOUS
  5
287
 10
682.597165
 20
276.883982
 30
0.0
 11
682.597165
 21
284.983982
 31
0.0
  0
LINE
  8
LC-001-002-----0
  6
CONTINUOUS
  5
288
 10
679.597165
 20
274.983982
 30
0.0
 11
679.597165
 21
283.983982
 31
0.0
  0
LINE
  8
LC-001-002-----0
  6
CONTINUOUS
  5
289
 10
643.297165
 20
288.983982
 30
0.0
 11
614.679716
 21
288.983982
 31
0.0
  0
LINE
  8
LC-001-002-----0
  6
CONTINUOUS
  5
28A
 10
682.597165
 20
276.883982
 30
0.0
 11
682.097165
 21
276.883982
 31
0.0
  0
LINE
  8
LC-001-002-----0
  6
CONTINUOUS
  5
28B
 10
689.897165
 20
288.983982
 30
0.0
 11
684.597165
 21
288.983982
 31
0.0
  0
LINE
  8
LC-001-002-----0
  6
CONTINUOUS
  5
28C
 10
682.097165
 20
276.883982
 30
0.0
 11
679.597165
 21
274.983982
 31
0.0
  0
LINE
  8
LC-001-002-----0
  6
CONTINUOUS
  5
28D
 10
609.197165
 20
270.783982
 30
0.0
 11
606.397165
 21
273.583982
 31
0.0
  0
ARC
  8
LC-002-002-RND-0
  6
CONTINUOUS
  5
28E
 10
684.597165
 20
283.983982
 30
0.0
 40
5.0
 50
90.0
 51
180.0
  0
LINE
  8
LC-001-002-----0
  6
CONTINUOUS
  5
28F
 10
609.197165
 20
270.783982
 30
0.0
 11
609.197165
 21
283.983982
 31
0.0
  0
ARC
  8
LC-002-002-RND-0
  6
CONTINUOUS
  5
290
 10
604.197165
 20
283.983982
 30
0.0
 40
5.0
 50
0.0
 51
90.0
  0
LINE
  8
LC-001-002-----0
  6
CONTINUOUS
  5
291
 10
674.114615
 20
288.983982
 30
0.0
 11
643.297165
 21
288.983982
 31
0.0
  0
ARC
  8
LC-002-002-RND-0
  6
CONTINUOUS
  5
292
 10
596.697165
 20
295.983982
 30
0.0
 40
7.0
 50
180.0
 51
270.0
  0
LINE
  8
LC-001-002-----0
  6
CONTINUOUS
  5
293
 10
589.197165
 20
277.983982
 30
0.0
 11
589.197165
 21
284.983982
 31
0.0
  0
LINE
  8
LC-001-002-----0
  6
CONTINUOUS
  5
294
 10
589.697165
 20
295.983982
 30
0.0
 11
589.697165
 21
308.483982
 31
0.0
  0
LINE
  8
LC-001-002-----0
  6
CONTINUOUS
  5
295
 10
585.197165
 20
312.983982
 30
0.0
 11
504.697165
 21
312.983982
 31
0.0
  0
ARC
  8
LC-002-002-RND-0
  6
CONTINUOUS
  5
296
 10
585.197165
 20
308.483982
 30
0.0
 40
4.5
 50
0.0
 51
90.0
  0
LINE
  8
LC-001-002-----0
  6
CONTINUOUS
  5
297
 10
679.597165
 20
274.983982
 30
0.0
 11
609.197165
 21
270.783982
 31
0.0
  0
LINE
  8
LC-001-002-----0
  6
CONTINUOUS
  5
298
 10
606.397165
 20
273.583982
 30
0.0
 11
606.397165
 21
277.083982
 31
0.0
  0
LINE
  8
LC-001-002-----0
  6
CONTINUOUS
  5
299
 10
606.397165
 20
277.083982
 30
0.0
 11
603.397165
 21
277.083982
 31
0.0
  0
LINE
  8
LC-001-002-----0
  6
CONTINUOUS
  5
29A
 10
603.397165
 20
277.083982
 30
0.0
 11
603.397165
 21
284.983982
 31
0.0
  0
LINE
  8
LC-001-002-----0
  6
CONTINUOUS
  5
29B
 10
589.197165
 20
284.983982
 30
0.0
 11
603.397165
 21
284.983982
 31
0.0
  0
LINE
  8
LC-001-002-----0
  6
CONTINUOUS
  5
29C
 10
604.197165
 20
288.983982
 30
0.0
 11
596.697165
 21
288.983982
 31
0.0
  0
LINE
  8
LC-001-002-----0
  6
CONTINUOUS
  5
29D
 10
696.997165
 20
277.983982
 30
0.0
 11
696.997165
 21
284.983982
 31
0.0
  0
LINE
  8
LC-001-002-----0
  6
CONTINUOUS
  5
29E
 10
589.197165
 20
277.983982
 30
0.0
 11
586.997165
 21
277.983982
 31
0.0
  0
LINE
  8
LC-001-002-----0
  6
CONTINUOUS
  5
29F
 10
516.097165
 20
305.183982
 30
0.0
 11
539.997165
 21
305.183982
 31
0.0
  0
LINE
  8
LC-001-002-----0
  6
CONTINUOUS
  5
2A0
 10
582.997165
 20
288.483982
 30
0.0
 11
582.997165
 21
305.183982
 31
0.0
  0
LINE
  8
LC-001-002-----0
  6
CONTINUOUS
  5
2A1
 10
582.997165
 20
288.483982
 30
0.0
 11
586.997165
 21
288.483982
 31
0.0
  0
LINE
  8
LC-001-002-----0
  6
CONTINUOUS
  5
2A2
 10
609.197165
 20
274.983982
 30
0.0
 11
609.197165
 21
283.983982
 31
0.0
  0
LINE
  8
LC-001-002-----0
  6
CONTINUOUS
  5
2A3
 10
614.297165
 20
285.183982
 30
0.0
 11
609.197165
 21
285.183982
 31
0.0
  0
LINE
  8
LC-001-002-----0
  6
CONTINUOUS
  5
2A4
 10
664.297165
 20
288.983982
 30
0.0
 11
664.297165
 21
300.083982
 31
0.0
  0
LINE
  8
LC-001-002-----0
  6
CONTINUOUS
  5
2A5
 10
658.297165
 20
288.983982
 30
0.0
 11
658.297165
 21
300.083982
 31
0.0
  0
LINE
  8
LC-001-002-----0
  6
CONTINUOUS
  5
2A6
 10
646.297165
 20
288.983982
 30
0.0
 11
646.297165
 21
300.083982
 31
0.0
  0
LINE
  8
LC-001-002-----0
  6
CONTINUOUS
  5
2A7
 10
640.297165
 20
288.983982
 30
0.0
 11
640.297165
 21
300.083982
 31
0.0
  0
LINE
  8
LC-001-002-----0
  6
CONTINUOUS
  5
2A8
 10
628.297165
 20
288.983982
 30
0.0
 11
628.297165
 21
300.083982
 31
0.0
  0
LINE
  8
LC-001-002-----0
  6
CONTINUOUS
  5
2A9
 10
622.297165
 20
288.983982
 30
0.0
 11
622.297165
 21
300.083982
 31
0.0
  0
LINE
  8
LC-001-002-----0
  6
CONTINUOUS
  5
2AA
 10
674.497165
 20
285.183982
 30
0.0
 11
672.997165
 21
300.083982
 31
0.0
  0
LINE
  8
LC-001-002-----0
  6
CONTINUOUS
  5
2AB
 10
615.797165
 20
300.083982
 30
0.0
 11
614.297165
 21
285.183982
 31
0.0
  0
LINE
  8
LC-001-002-----0
  6
CONTINUOUS
  5
2AC
 10
540.497165
 20
298.183982
 30
0.0
 11
516.097165
 21
298.183982
 31
0.0
  0
LINE
  8
LC-001-002-----0
  6
CONTINUOUS
  5
2AD
 10
542.897165
 20
298.183982
 30
0.0
 11
540.497165
 21
298.183982
 31
0.0
  0
LINE
  8
LC-001-002-----0
  6
CONTINUOUS
  5
2AE
 10
506.897165
 20
295.983982
 30
0.0
 11
502.697165
 21
295.983982
 31
0.0
  0
LINE
  8
LC-001-002-----0
  6
CONTINUOUS
  5
2AF
 10
516.097165
 20
295.983982
 30
0.0
 11
511.897165
 21
295.983982
 31
0.0
  0
LINE
  8
LC-001-002-----0
  6
CONTINUOUS
  5
2B0
 10
543.397165
 20
305.183982
 30
0.0
 11
586.997165
 21
305.183982
 31
0.0
  0
LINE
  8
LC-001-002-----0
  6
DASHDOT
 62
     2
  5
2B1
 10
643.297165
 20
-76.678551
 30
0.0
 11
643.297165
 21
-158.978551
 31
0.0
  0
LINE
  8
LC-007-005-----0
  6
CONTINUOUS
  5
2B2
 10
674.097165
 20
242.934107
 30
0.0
 11
677.097165
 21
245.934107
 31
0.0
  0
LINE
  8
LC-001-002-----0
  6
CONTINUOUS
  5
2B3
 10
595.097165
 20
223.483982
 30
0.0
 11
595.097165
 21
277.483982
 31
0.0
  0
LINE
  8
LC-001-002-----0
  6
CONTINUOUS
  5
2B4
 10
564.597165
 20
254.483982
 30
0.0
 11
564.597165
 21
268.648891
 31
0.0
  0
LINE
  8
LC-001-002-----0
  6
CONTINUOUS
  5
2B5
 10
677.097165
 20
217.483982
 30
0.0
 11
674.097165
 21
217.483982
 31
0.0
  0
LINE
  8
LC-001-002-----0
  6
CONTINUOUS
  5
2B6
 10
691.097165
 20
277.483982
 30
0.0
 11
688.097165
 21
277.483982
 31
0.0
  0
LINE
  8
LC-001-002-----0
  6
CONTINUOUS
  5
2B7
 10
691.097165
 20
268.483982
 30
0.0
 11
686.097165
 21
268.483982
 31
0.0
  0
LINE
  8
LC-001-002-----0
  6
CONTINUOUS
  5
2B8
 10
674.097165
 20
217.483982
 30
0.0
 11
674.097165
 21
265.327545
 31
0.0
  0
LINE
  8
LC-001-002-----0
  6
CONTINUOUS
  5
2B9
 10
677.097165
 20
217.483982
 30
0.0
 11
677.097165
 21
267.182802
 31
0.0
  0
LINE
  8
LC-001-002-----0
  6
CONTINUOUS
  5
2BA
 10
691.097165
 20
268.483982
 30
0.0
 11
677.097165
 21
254.483982
 31
0.0
  0
LINE
  8
LC-001-002-----0
  6
CONTINUOUS
 62
     2
  5
2BB
 10
608.197165
 20
123.083982
 30
0.0
 11
674.197165
 21
123.083982
 31
0.0
  0
LINE
  8
LC-001-002-----0
  6
CONTINUOUS
  5
2BC
 10
732.697165
 20
-88.978551
 30
0.0
 11
732.697165
 21
-158.978551
 31
0.0
  0
LINE
  8
LC-001-002-----0
  6
CONTINUOUS
  5
2BD
 10
502.697165
 20
-88.978551
 30
0.0
 11
502.697165
 21
-158.978551
 31
0.0
  0
ARC
  8
LC-002-002-RND-0
  6
CONTINUOUS
  5
2BE
 10
687.697165
 20
-88.978551
 30
0.0
 40
45.0
 50
0.0
 51
90.0
  0
ARC
  8
LC-002-002-RND-0
  6
CONTINUOUS
  5
2BF
 10
547.697165
 20
-88.978551
 30
0.0
 40
45.0
 50
90.0
 51
180.0
  0
LINE
  8
LC-001-002-----0
  6
CONTINUOUS
 62
     2
  5
2C0
 10
596.895572
 20
333.234
 30
0.0
 11
611.895572
 21
333.234
 31
0.0
  0
LINE
  8
LC-001-002-----0
  6
DASHDOT
 62
     2
  5
2C1
 10
720.947165
 20
-66.478551
 30
0.0
 11
699.447165
 21
-66.478551
 31
0.0
  0
LINE
  8
LC-001-002-----0
  6
DASHDOT
 62
     2
  5
2C2
 10
710.197165
 20
-55.728551
 30
0.0
 11
710.197165
 21
-77.228551
 31
0.0
  0
LINE
  8
LC-001-002-----0
  6
DASHDOT
 62
     2
  5
2C3
 10
525.197165
 20
-55.728551
 30
0.0
 11
525.197165
 21
-77.228551
 31
0.0
  0
LINE
  8
LC-001-002-----0
  6
DASHDOT
 62
     2
  5
2C4
 10
535.947165
 20
-66.478551
 30
0.0
 11
514.447165
 21
-66.478551
 31
0.0
  0
LINE
  8
LC-001-002-----0
  6
CONTINUOUS
 62
     2
  5
2C5
 10
596.895572
 20
348.234
 30
0.0
 11
596.895572
 21
333.234
 31
0.0
  0
CIRCLE
  8
LC-001-002-----0
  6
CONTINUOUS
  5
2C6
 10
710.197165
 20
-66.478551
 30
0.0
 40
9.5
  0
CIRCLE
  8
LC-001-002-----0
  6
CONTINUOUS
  5
2C7
 10
710.197165
 20
-66.478551
 30
0.0
 40
10.75
  0
LINE
  8
LC-001-002-----0
  6
CONTINUOUS
 62
     2
  5
2C8
 10
611.895572
 20
348.234
 30
0.0
 11
611.895572
 21
333.234
 31
0.0
  0
LINE
  8
LC-001-002-----0
  6
CONTINUOUS
 62
     2
  5
2C9
 10
596.895572
 20
348.234
 30
0.0
 11
611.895572
 21
348.234
 31
0.0
  0
CIRCLE
  8
LC-001-002-----0
  6
CONTINUOUS
  5
2CA
 10
525.197165
 20
-66.478551
 30
0.0
 40
10.75
  0
CIRCLE
  8
LC-001-002-----0
  6
CONTINUOUS
  5
2CB
 10
525.197165
 20
-66.478551
 30
0.0
 40
9.5
  0
LINE
  8
LC-001-002-----0
  6
CONTINUOUS
  5
2CC
 10
686.097165
 20
272.748573
 30
0.0
 11
688.797165
 21
274.418304
 31
0.0
  0
LINE
  8
LC-001-002-----0
  6
CONTINUOUS
  5
2CD
 10
585.197165
 20
-116.478551
 30
0.0
 11
701.397165
 21
-116.478551
 31
0.0
  0
LINE
  8
LC-003-003-----0
  6
CONTINUOUS
 62
     1
  5
2CE
 10
701.397165
 20
-88.178551
 30
0.0
 11
701.397165
 21
-111.478551
 31
0.0
  0
LINE
  8
LC-007-005-----0
  6
CONTINUOUS
  5
2CF
 10
674.097165
 20
245.762534
 30
0.0
 11
677.097165
 21
248.762534
 31
0.0
  0
ARC
  8
LC-002-002-RND-0
  6
CONTINUOUS
  5
2D0
 10
674.597165
 20
-105.978551
 30
0.0
 40
5.0
 50
0.0
 51
90.0
  0
LINE
  8
LC-003-003-----0
  6
CONTINUOUS
 62
     1
  5
2D1
 10
701.397165
 20
-134.478551
 30
0.0
 11
701.397165
 21
-147.478551
 31
0.0
  0
LINE
  8
LC-003-003-----0
  6
CONTINUOUS
 62
     1
  5
2D2
 10
701.397165
 20
-116.478551
 30
0.0
 11
701.397165
 21
-129.478551
 31
0.0
  0
LINE
  8
LC-003-003-----0
  6
CONTINUOUS
 62
     1
  5
2D3
 10
701.397165
 20
-152.478551
 30
0.0
 11
701.397165
 21
-158.978551
 31
0.0
  0
LINE
  8
LC-001-002-----0
  6
CONTINUOUS
  5
2D4
 10
691.097165
 20
268.483982
 30
0.0
 11
691.097165
 21
277.483982
 31
0.0
  0
LINE
  8
LC-001-002-----0
  6
CONTINUOUS
  5
2D5
 10
680.697165
 20
267.783982
 30
0.0
 11
677.097165
 21
265.983982
 31
0.0
  0
LINE
  8
LC-001-002-----0
  6
CONTINUOUS
  5
2D6
 10
595.597165
 20
217.483982
 30
0.0
 11
595.597165
 21
220.483982
 31
0.0
  0
LINE
  8
LC-001-002-----0
  6
CONTINUOUS
  5
2D7
 10
592.097165
 20
217.483982
 30
0.0
 11
592.097165
 21
271.692141
 31
0.0
  0
LINE
  8
LC-001-002-----0
  6
CONTINUOUS
  5
2D8
 10
607.597165
 20
220.483982
 30
0.0
 11
595.597165
 21
220.483982
 31
0.0
  0
LINE
  8
LC-001-002-----0
  6
CONTINUOUS
  5
2D9
 10
674.097165
 20
217.483982
 30
0.0
 11
595.597165
 21
217.483982
 31
0.0
  0
LINE
  8
LC-001-002-----0
  6
CONTINUOUS
  5
2DA
 10
600.698672
 20
223.483982
 30
0.0
 11
595.097165
 21
223.483982
 31
0.0
  0
LINE
  8
LC-001-002-----0
  6
CONTINUOUS
  5
2DB
 10
688.097165
 20
277.483982
 30
0.0
 11
682.997165
 21
277.483982
 31
0.0
  0
LINE
  8
LC-001-002-----0
  6
CONTINUOUS
  5
2DC
 10
677.097165
 20
267.182802
 30
0.0
 11
680.097165
 21
269.038059
 31
0.0
  0
LINE
  8
LC-001-002-----0
  6
CONTINUOUS
  5
2DD
 10
670.097165
 20
262.853869
 30
0.0
 11
674.097165
 21
265.327545
 31
0.0
  0
LINE
  8
LC-001-002-----0
  6
CONTINUOUS
  5
2DE
 10
600.698672
 20
223.483982
 30
0.0
 11
688.097165
 21
277.483982
 31
0.0
  0
LINE
  8
LC-001-002-----0
  6
CONTINUOUS
  5
2DF
 10
601.583926
 20
220.483982
 30
0.0
 11
662.097165
 21
257.906517
 31
0.0
  0
LINE
  8
LC-001-002-----0
  6
DASHDOT
 62
     2
  5
2E0
 10
644.397165
 20
312.983982
 30
0.0
 11
644.397165
 21
272.883982
 31
0.0
  0
LINE
  8
LC-001-002-----0
  6
CONTINUOUS
  5
2E1
 10
595.597165
 20
217.483982
 30
0.0
 11
592.097165
 21
217.483982
 31
0.0
  0
LINE
  8
LC-001-002-----0
  6
CONTINUOUS
  5
2E2
 10
585.197165
 20
-111.478551
 30
0.0
 11
701.397165
 21
-111.478551
 31
0.0
  0
LINE
  8
LC-001-002-----0
  6
CONTINUOUS
  5
2E3
 10
595.097165
 20
277.483982
 30
0.0
 11
591.397165
 21
277.483982
 31
0.0
  0
ARC
  8
LC-002-002-RND-0
  6
CONTINUOUS
  5
2E4
 10
596.697165
 20
-88.178551
 30
0.0
 40
7.0
 50
90.0
 51
180.0
  0
LINE
  8
LC-001-002-----0
  6
CONTINUOUS
  5
2E5
 10
592.097165
 20
242.483982
 30
0.0
 11
576.597165
 21
242.483982
 31
0.0
  0
ARC
  8
LC-001-002-----0
  6
CONTINUOUS
  5
2E6
 10
576.597165
 20
254.483982
 30
0.0
 40
12.0
 50
180.0
 51
270.0
  0
LINE
  8
LC-001-002-----0
  6
CONTINUOUS
  5
2E7
 10
592.097165
 20
274.783982
 30
0.0
 11
587.697165
 21
273.686939
 31
0.0
  0
ARC
  8
LC-002-002-RND-0
  6
CONTINUOUS
  5
2E8
 10
689.897165
 20
-88.178551
 30
0.0
 40
7.0
 50
0.0
 51
90.0
  0
LINE
  8
LC-001-002-----0
  6
CONTINUOUS
  5
2E9
 10
590.639087
 20
275.141872
 30
0.0
 11
587.697165
 21
274.408368
 31
0.0
  0
ARC
  8
LC-002-002-RND-0
  6
CONTINUOUS
  5
2EA
 10
568.297165
 20
265.758135
 30
0.0
 40
3.0
 50
104.0
 51
180.0
  0
LINE
  8
LC-001-002-----0
  6
CONTINUOUS
  5
2EB
 10
592.097165
 20
274.783982
 30
0.0
 11
592.097165
 21
277.483982
 31
0.0
  0
LINE
  8
LC-001-002-----0
  6
CONTINUOUS
  5
2EC
 10
591.397165
 20
276.112168
 30
0.0
 11
591.397165
 21
277.483982
 31
0.0
  0
LINE
  8
LC-001-002-----0
  6
CONTINUOUS
  5
2ED
 10
589.697165
 20
-88.178551
 30
0.0
 11
589.697165
 21
-111.478551
 31
0.0
  0
ARC
  8
LC-002-002-RND-0
  6
CONTINUOUS
  5
2EE
 10
590.397165
 20
276.112168
 30
0.0
 40
1.0
 50
284.0
 51
0.0
  0
LINE
  8
LC-001-002-----0
  6
CONTINUOUS
  5
2EF
 10
680.097165
 20
267.783982
 30
0.0
 11
686.097165
 21
267.783982
 31
0.0
  0
LINE
  8
LC-003-003-----0
  6
CONTINUOUS
 62
     1
  5
2F0
 10
596.697165
 20
-76.678551
 30
0.0
 11
604.297165
 21
-76.678551
 31
0.0
  0
LINE
  8
LC-001-002-----0
  6
DASHDOT
 62
     2
  5
2F1
 10
567.697165
 20
257.083982
 30
0.0
 11
587.697165
 21
257.083982
 31
0.0
  0
LINE
  8
LC-001-002-----0
  6
CONTINUOUS
  5
2F2
 10
680.097165
 20
267.783982
 30
0.0
 11
680.097165
 21
269.038059
 31
0.0
  0
LINE
  8
LC-001-002-----0
  6
CONTINUOUS
  5
2F3
 10
664.297165
 20
-98.278551
 30
0.0
 11
664.297165
 21
-76.678551
 31
0.0
  0
LINE
  8
LC-001-002-----0
  6
CONTINUOUS
  5
2F4
 10
686.097165
 20
267.783982
 30
0.0
 11
686.097165
 21
268.483982
 31
0.0
  0
LINE
  8
LC-001-002-----0
  6
CONTINUOUS
  5
2F5
 10
686.097165
 20
268.483982
 30
0.0
 11
686.097165
 21
272.785411
 31
0.0
  0
LINE
  8
LC-001-002-----0
  6
CONTINUOUS
  5
2F6
 10
607.597165
 20
224.202683
 30
0.0
 11
607.597165
 21
220.483982
 31
0.0
  0
LINE
  8
LC-001-002-----0
  6
CONTINUOUS
  5
2F7
 10
670.097165
 20
262.853869
 30
0.0
 11
670.097165
 21
256.685411
 31
0.0
  0
LINE
  8
LC-001-002-----0
  6
CONTINUOUS
  5
2F8
 10
662.097165
 20
257.906517
 30
0.0
 11
662.097165
 21
256.685411
 31
0.0
  0
LINE
  8
LC-001-002-----0
  6
CONTINUOUS
  5
2F9
 10
662.097165
 20
256.685411
 30
0.0
 11
670.097165
 21
256.685411
 31
0.0
  0
LINE
  8
LC-001-002-----0
  6
CONTINUOUS
  5
2FA
 10
565.297165
 20
265.010151
 30
0.0
 11
565.297165
 21
265.758135
 31
0.0
  0
LINE
  8
LC-001-002-----0
  6
CONTINUOUS
  5
2FB
 10
592.097165
 20
271.692141
 30
0.0
 11
587.697165
 21
270.595098
 31
0.0
  0
LINE
  8
LC-001-002-----0
  6
CONTINUOUS
  5
2FC
 10
688.797165
 20
268.483982
 30
0.0
 11
688.797165
 21
274.418304
 31
0.0
  0
LINE
  8
LC-001-002-----0
  6
CONTINUOUS
  5
2FD
 10
658.297165
 20
-98.278551
 30
0.0
 11
658.297165
 21
-76.678551
 31
0.0
  0
ARC
  8
LC-001-002-----0
  6
CONTINUOUS
  5
2FE
 10
543.397165
 20
260.383982
 30
0.0
 40
10.0
 50
70.649969
 51
260.820662
  0
LINE
  8
LC-001-002-----0
  6
CONTINUOUS
  5
2FF
 10
722.697165
 20
154.000802
 30
0.0
 11
722.697165
 21
50.083982
 31
0.0
  0
LINE
  8
LC-001-002-----0
  6
DASHDOT
 62
     2
  5
300
 10
577.697165
 20
263.583982
 30
0.0
 11
577.697165
 21
247.083982
 31
0.0
  0
LINE
  8
LC-001-002-----0
  6
CONTINUOUS
  5
301
 10
558.945048
 20
270.383982
 30
0.0
 11
567.697165
 21
270.383982
 31
0.0
  0
CIRCLE
  8
LC-001-002-----0
  6
CONTINUOUS
  5
302
 10
543.397165
 20
260.383982
 30
0.0
 40
6.0
  0
LINE
  8
LC-001-002-----0
  6
CONTINUOUS
  5
303
 10
541.801913
 20
250.512043
 30
0.0
 11
567.812684
 21
246.308843
 31
0.0
  0
ARC
  8
LC-002-002-RND-0
  6
CONTINUOUS
  5
304
 10
556.5773
 20
249.643879
 30
0.0
 40
1.5
 50
260.820662
 51
5.849698
  0
ARC
  8
LC-002-002-RND-0
  6
CONTINUOUS
  5
305
 10
557.07656
 20
268.38081
 30
0.0
 40
1.5
 50
351.09764
 51
103.791299
  0
LINE
  8
LC-001-002-----0
  6
CONTINUOUS
  5
306
 10
676.297165
 20
-98.278551
 30
0.0
 11
676.297165
 21
-76.678551
 31
0.0
  0
ARC
  8
LC-002-002-RND-0
  6
CONTINUOUS
  5
307
 10
560.697165
 20
248.471645
 30
0.0
 40
1.0
 50
260.820662
 51
0.0
  0
LINE
  8
LC-003-003-----0
  6
CONTINUOUS
 62
     1
  5
308
 10
682.297165
 20
-76.678551
 30
0.0
 11
689.897165
 21
-76.678551
 31
0.0
  0
LINE
  8
LC-001-002-----0
  6
CONTINUOUS
  5
309
 10
682.297165
 20
-98.278551
 30
0.0
 11
682.297165
 21
-76.678551
 31
0.0
  0
LINE
  8
LC-001-002-----0
  6
CONTINUOUS
  5
30A
 10
646.297165
 20
-98.278551
 30
0.0
 11
646.297165
 21
-76.678551
 31
0.0
  0
LINE
  8
LC-001-002-----0
  6
CONTINUOUS
  5
30B
 10
640.297165
 20
-98.278551
 30
0.0
 11
640.297165
 21
-76.678551
 31
0.0
  0
LINE
  8
LC-003-003-----0
  6
CONTINUOUS
 62
     1
  5
30C
 10
664.297165
 20
-76.678551
 30
0.0
 11
676.297165
 21
-76.678551
 31
0.0
  0
LINE
  8
LC-001-002-----0
  6
CONTINUOUS
  5
30D
 10
640.297165
 20
-98.278551
 30
0.0
 11
646.297165
 21
-98.278551
 31
0.0
  0
LINE
  8
LC-003-003-----0
  6
CONTINUOUS
 62
     1
  5
30E
 10
646.297165
 20
-76.678551
 30
0.0
 11
658.297165
 21
-76.678551
 31
0.0
  0
LINE
  8
LC-003-003-----0
  6
CONTINUOUS
 62
     1
  5
30F
 10
628.297165
 20
-76.678551
 30
0.0
 11
640.297165
 21
-76.678551
 31
0.0
  0
LINE
  8
LC-001-002-----0
  6
CONTINUOUS
  5
310
 10
628.297165
 20
-98.278551
 30
0.0
 11
628.297165
 21
-76.678551
 31
0.0
  0
ARC
  8
LC-002-002-RND-0
  6
CONTINUOUS
  5
311
 10
560.697165
 20
269.383982
 30
0.0
 40
1.0
 50
0.0
 51
90.0
  0
LINE
  8
LC-001-002-----0
  6
CONTINUOUS
  5
312
 10
622.297165
 20
-98.278551
 30
0.0
 11
622.297165
 21
-76.678551
 31
0.0
  0
LINE
  8
LC-001-002-----0
  6
CONTINUOUS
  5
313
 10
546.710549
 20
269.819102
 30
0.0
 11
550.797165
 21
268.383982
 31
0.0
  0
LINE
  8
LC-001-002-----0
  6
CONTINUOUS
  5
314
 10
550.797165
 20
268.383982
 30
0.0
 11
558.945048
 21
270.383982
 31
0.0
  0
LINE
  8
LC-001-002-----0
  6
CONTINUOUS
  5
315
 10
560.115126
 20
253.847311
 30
0.0
 11
564.676051
 21
253.11029
 31
0.0
  0
LINE
  8
LC-001-002-----0
  6
CONTINUOUS
  5
316
 10
560.547891
 20
248.712517
 30
0.0
 11
566.684532
 21
247.720869
 31
0.0
  0
LINE
  8
LC-001-002-----0
  6
CONTINUOUS
  5
317
 10
561.106092
 20
269.183982
 30
0.0
 11
566.743296
 21
269.183982
 31
0.0
  0
LINE
  8
LC-001-002-----0
  6
CONTINUOUS
  5
318
 10
560.404766
 20
264.183982
 30
0.0
 11
564.597165
 21
264.183982
 31
0.0
  0
LINE
  8
LC-001-002-----0
  6
CONTINUOUS
  5
319
 10
561.697165
 20
253.591662
 30
0.0
 11
561.697165
 21
264.183982
 31
0.0
  0
LINE
  8
LC-001-002-----0
  6
CONTINUOUS
  5
31A
 10
561.697165
 20
269.183982
 30
0.0
 11
561.697165
 21
269.383982
 31
0.0
  0
ARC
  8
LC-001-002-----0
  6
CONTINUOUS
  5
31B
 10
629.197165
 20
257.083982
 30
0.0
 40
69.157821
 50
169.923545
 51
174.107419
  0
ARC
  8
LC-001-002-----0
  6
CONTINUOUS
  5
31C
 10
629.197165
 20
257.083982
 30
0.0
 40
69.157821
 50
182.682493
 51
186.95263
  0
ARC
  8
LC-001-002-----0
  6
CONTINUOUS
  5
31D
 10
629.197165
 20
257.083982
 30
0.0
 40
71.5
 50
171.09764
 51
185.849698
  0
LINE
  8
LC-001-002-----0
  6
CONTINUOUS
  5
31E
 10
728.497165
 20
303.083982
 30
0.0
 11
723.497165
 21
303.083982
 31
0.0
  0
LINE
  8
LC-001-002-----0
  6
CONTINUOUS
  5
31F
 10
723.497165
 20
303.083982
 30
0.0
 11
723.497165
 21
306.083982
 31
0.0
  0
LINE
  8
LC-001-002-----0
  6
CONTINUOUS
  5
320
 10
723.497165
 20
295.983982
 30
0.0
 11
699.197165
 21
295.983982
 31
0.0
  0
LINE
  8
LC-001-002-----0
  6
CONTINUOUS
  5
321
 10
511.897165
 20
303.083982
 30
0.0
 11
506.897165
 21
303.083982
 31
0.0
  0
LINE
  8
LC-001-002-----0
  6
CONTINUOUS
  5
322
 10
506.897165
 20
303.083982
 30
0.0
 11
506.897165
 21
306.083982
 31
0.0
  0
LINE
  8
LC-001-002-----0
  6
CONTINUOUS
  5
323
 10
696.997165
 20
284.483982
 30
0.0
 11
696.997165
 21
277.483982
 31
0.0
  0
LINE
  8
LC-001-002-----0
  6
CONTINUOUS
  5
324
 10
589.197165
 20
284.483982
 30
0.0
 11
589.197165
 21
277.483982
 31
0.0
  0
LINE
  8
LC-007-005-----0
  6
CONTINUOUS
  5
325
 10
674.097165
 20
248.590961
 30
0.0
 11
677.097165
 21
251.590961
 31
0.0
  0
LINE
  8
LC-001-002-----0
  6
CONTINUOUS
  5
326
 10
695.997165
 20
274.483982
 30
0.0
 11
691.097165
 21
274.483982
 31
0.0
  0
LINE
  8
LC-001-002-----0
  6
CONTINUOUS
  5
327
 10
695.997165
 20
275.483982
 30
0.0
 11
691.097165
 21
275.483982
 31
0.0
  0
ARC
  8
LC-002-002-RND-0
  6
CONTINUOUS
  5
328
 10
589.697165
 20
284.483982
 30
0.0
 40
0.5
 50
90.0
 51
180.0
  0
LINE
  8
LC-001-002-----0
  6
CONTINUOUS
  5
329
 10
610.297165
 20
-98.278551
 30
0.0
 11
610.297165
 21
-76.678551
 31
0.0
  0
LINE
  8
LC-001-002-----0
  6
CONTINUOUS
  5
32A
 10
604.297165
 20
-98.278551
 30
0.0
 11
604.297165
 21
-76.678551
 31
0.0
  0
LINE
  8
LC-001-002-----0
  6
CONTINUOUS
  5
32B
 10
610.297165
 20
-98.278551
 30
0.0
 11
604.297165
 21
-98.278551
 31
0.0
  0
LINE
  8
LC-001-002-----0
  6
CONTINUOUS
  5
32C
 10
628.297165
 20
-98.278551
 30
0.0
 11
622.297165
 21
-98.278551
 31
0.0
  0
LINE
  8
LC-001-002-----0
  6
CONTINUOUS
  5
32D
 10
695.997165
 20
276.483982
 30
0.0
 11
691.097165
 21
276.483982
 31
0.0
  0
LINE
  8
LC-001-002-----0
  6
CONTINUOUS
  5
32E
 10
695.997165
 20
275.483982
 30
0.0
 11
695.997165
 21
274.483982
 31
0.0
  0
LINE
  8
LC-001-002-----0
  6
CONTINUOUS
  5
32F
 10
682.997165
 20
284.483982
 30
0.0
 11
682.997165
 21
277.483982
 31
0.0
  0
LINE
  8
LC-001-002-----0
  6
CONTINUOUS
  5
330
 10
590.197165
 20
275.483982
 30
0.0
 11
591.175229
 21
275.483982
 31
0.0
  0
LINE
  8
LC-001-002-----0
  6
CONTINUOUS
  5
331
 10
590.197165
 20
276.483982
 30
0.0
 11
591.397165
 21
276.483982
 31
0.0
  0
LINE
  8
LC-001-002-----0
  6
CONTINUOUS
  5
332
 10
590.197165
 20
275.483982
 30
0.0
 11
590.197165
 21
275.031688
 31
0.0
  0
LINE
  8
LC-001-002-----0
  6
CONTINUOUS
  5
333
 10
603.197165
 20
284.483982
 30
0.0
 11
603.197165
 21
277.483982
 31
0.0
  0
ARC
  8
LC-002-002-RND-0
  6
CONTINUOUS
  5
334
 10
695.997165
 20
277.483982
 30
0.0
 40
1.0
 50
270.0
 51
0.0
  0
ARC
  8
LC-002-002-RND-0
  6
CONTINUOUS
  5
335
 10
590.197165
 20
277.483982
 30
0.0
 40
1.0
 50
180.0
 51
270.0
  0
ARC
  8
LC-002-002-RND-0
  6
CONTINUOUS
  5
336
 10
696.497165
 20
284.483982
 30
0.0
 40
0.5
 50
0.0
 51
90.0
  0
ARC
  8
LC-002-002-RND-0
  6
CONTINUOUS
  5
337
 10
683.497165
 20
284.483982
 30
0.0
 40
0.5
 50
90.0
 51
180.0
  0
LINE
  8
LC-003-003-----0
  6
CONTINUOUS
 62
     1
  5
338
 10
585.197165
 20
-88.178551
 30
0.0
 11
585.197165
 21
-111.478551
 31
0.0
  0
LINE
  8
LC-001-002-----0
  6
CONTINUOUS
  5
339
 10
682.297165
 20
-81.178551
 30
0.0
 11
689.897165
 21
-81.178551
 31
0.0
  0
LINE
  8
LC-003-003-----0
  6
CONTINUOUS
 62
     1
  5
33A
 10
585.197165
 20
-116.478551
 30
0.0
 11
585.197165
 21
-129.478551
 31
0.0
  0
ARC
  8
LC-002-002-RND-0
  6
CONTINUOUS
  5
33B
 10
602.697165
 20
284.483982
 30
0.0
 40
0.5
 50
0.0
 51
90.0
  0
LINE
  8
LC-001-002-----0
  6
CONTINUOUS
  5
33C
 10
696.997165
 20
277.483982
 30
0.0
 11
689.497165
 21
277.483982
 31
0.0
  0
LINE
  8
LC-003-003-----0
  6
CONTINUOUS
 62
     1
  5
33D
 10
585.197165
 20
-134.478551
 30
0.0
 11
585.197165
 21
-147.478551
 31
0.0
  0
ARC
  8
LC-003-003-----0
  6
CONTINUOUS
 62
     1
  5
33E
 10
689.897165
 20
-88.178551
 30
0.0
 40
11.5
 50
0.0
 51
90.0
  0
LINE
  8
LC-001-002-----0
  6
CONTINUOUS
  5
33F
 10
589.197165
 20
277.483982
 30
0.0
 11
603.197165
 21
277.483982
 31
0.0
  0
LINE
  8
LC-001-002-----0
  6
DASHDOT
 62
     2
  5
340
 10
533.397165
 20
260.383982
 30
0.0
 11
549.397165
 21
260.383982
 31
0.0
  0
LINE
  8
LC-001-002-----0
  6
DASHDOT
 62
     2
  5
341
 10
543.397165
 20
270.383982
 30
0.0
 11
543.397165
 21
250.254259
 31
0.0
  0
LINE
  8
LC-001-002-----0
  6
CONTINUOUS
  5
342
 10
614.697165
 20
116.583982
 30
0.0
 11
614.697165
 21
50.083982
 31
0.0
  0
LINE
  8
LC-001-002-----0
  6
CONTINUOUS
  5
343
 10
677.097165
 20
215.483982
 30
0.0
 11
673.797165
 21
215.483982
 31
0.0
  0
LINE
  8
LC-001-002-----0
  6
CONTINUOUS
  5
344
 10
677.097165
 20
215.483982
 30
0.0
 11
677.097165
 21
217.483982
 31
0.0
  0
LINE
  8
LC-001-002-----0
  6
CONTINUOUS
  5
345
 10
592.097165
 20
217.483982
 30
0.0
 11
592.097165
 21
215.483982
 31
0.0
  0
LINE
  8
LC-001-002-----0
  6
CONTINUOUS
  5
346
 10
595.397165
 20
215.483982
 30
0.0
 11
595.397165
 21
212.983982
 31
0.0
  0
LINE
  8
LC-001-002-----0
  6
CONTINUOUS
  5
347
 10
604.297165
 20
-81.178551
 30
0.0
 11
596.697165
 21
-81.178551
 31
0.0
  0
LINE
  8
LC-001-002-----0
  6
CONTINUOUS
  5
348
 10
600.397165
 20
212.983982
 30
0.0
 11
595.397165
 21
212.983982
 31
0.0
  0
LINE
  8
LC-001-002-----0
  6
CONTINUOUS
  5
349
 10
600.397165
 20
212.983982
 30
0.0
 11
602.897165
 21
215.483982
 31
0.0
  0
LINE
  8
LC-001-002-----0
  6
CONTINUOUS
  5
34A
 10
673.797165
 20
215.483982
 30
0.0
 11
673.797165
 21
212.983982
 31
0.0
  0
LINE
  8
LC-001-002-----0
  6
CONTINUOUS
  5
34B
 10
668.797165
 20
212.983982
 30
0.0
 11
673.797165
 21
212.983982
 31
0.0
  0
LINE
  8
LC-001-002-----0
  6
CONTINUOUS
  5
34C
 10
668.797165
 20
212.983982
 30
0.0
 11
666.297165
 21
215.483982
 31
0.0
  0
LINE
  8
LC-001-002-----0
  6
CONTINUOUS
  5
34D
 10
666.297165
 20
215.483982
 30
0.0
 11
602.897165
 21
215.483982
 31
0.0
  0
LINE
  8
LC-001-002-----0
  6
CONTINUOUS
  5
34E
 10
595.397165
 20
215.483982
 30
0.0
 11
592.097165
 21
215.483982
 31
0.0
  0
ARC
  8
LC-003-003-----0
  6
CONTINUOUS
 62
     1
  5
34F
 10
596.697165
 20
-88.178551
 30
0.0
 40
11.5
 50
90.0
 51
180.0
  0
LINE
  8
LC-003-003-----0
  6
CONTINUOUS
 62
     1
  5
350
 10
585.197165
 20
-152.478551
 30
0.0
 11
585.197165
 21
-158.978551
 31
0.0
  0
LINE
  8
LC-001-002-----0
  6
CONTINUOUS
  5
351
 10
696.897165
 20
-88.178551
 30
0.0
 11
696.897165
 21
-111.478551
 31
0.0
  0
LINE
  8
LC-001-002-----0
  6
CONTINUOUS
  5
352
 10
609.197165
 20
-105.978551
 30
0.0
 11
609.197165
 21
-111.478551
 31
0.0
  0
LINE
  8
LC-001-002-----0
  6
CONTINUOUS
  5
353
 10
585.197165
 20
-152.478551
 30
0.0
 11
701.397165
 21
-152.478551
 31
0.0
  0
LINE
  8
LC-001-002-----0
  6
CONTINUOUS
  5
354
 10
585.197165
 20
-147.478551
 30
0.0
 11
701.397165
 21
-147.478551
 31
0.0
  0
LINE
  8
LC-001-002-----0
  6
CONTINUOUS
  5
355
 10
585.197165
 20
-134.478551
 30
0.0
 11
701.397165
 21
-134.478551
 31
0.0
  0
LINE
  8
LC-001-002-----0
  6
CONTINUOUS
  5
356
 10
585.197165
 20
-129.478551
 30
0.0
 11
701.397165
 21
-129.478551
 31
0.0
  0
LINE
  8
LC-001-002-----0
  6
CONTINUOUS
  5
357
 10
687.897165
 20
-40.078551
 30
0.0
 11
547.497165
 21
-40.078551
 31
0.0
  0
LINE
  8
LC-003-003-----0
  6
CONTINUOUS
 62
     1
  5
358
 10
610.297165
 20
-76.678551
 30
0.0
 11
622.297165
 21
-76.678551
 31
0.0
  0
LINE
  8
LC-001-002-----0
  6
CONTINUOUS
  5
359
 10
589.697165
 20
-152.478551
 30
0.0
 11
589.697165
 21
-158.978551
 31
0.0
  0
LINE
  8
LC-001-002-----0
  6
CONTINUOUS
  5
35A
 10
589.697165
 20
-134.478551
 30
0.0
 11
589.697165
 21
-147.478551
 31
0.0
  0
LINE
  8
LC-001-002-----0
  6
CONTINUOUS
  5
35B
 10
589.697165
 20
-116.478551
 30
0.0
 11
589.697165
 21
-129.478551
 31
0.0
  0
LINE
  8
LC-001-002-----0
  6
CONTINUOUS
  5
35C
 10
696.897165
 20
-116.478551
 30
0.0
 11
696.897165
 21
-129.478551
 31
0.0
  0
LINE
  8
LC-001-002-----0
  6
CONTINUOUS
  5
35D
 10
696.897165
 20
-134.478551
 30
0.0
 11
696.897165
 21
-147.478551
 31
0.0
  0
LINE
  8
LC-001-002-----0
  6
CONTINUOUS
  5
35E
 10
696.897165
 20
-152.478551
 30
0.0
 11
696.897165
 21
-158.978551
 31
0.0
  0
LINE
  8
LC-001-002-----0
  6
CONTINUOUS
  5
35F
 10
679.597165
 20
-105.978551
 30
0.0
 11
679.597165
 21
-111.478551
 31
0.0
  0
LINE
  8
LC-001-002-----0
  6
CONTINUOUS
  5
360
 10
614.197165
 20
-100.978551
 30
0.0
 11
674.597165
 21
-100.978551
 31
0.0
  0
LINE
  8
LC-001-002-----0
  6
CONTINUOUS
  5
361
 10
679.597165
 20
-116.478551
 30
0.0
 11
679.597165
 21
-129.478551
 31
0.0
  0
LINE
  8
LC-001-002-----0
  6
CONTINUOUS
  5
362
 10
609.197165
 20
-116.478551
 30
0.0
 11
609.197165
 21
-129.478551
 31
0.0
  0
LINE
  8
LC-001-002-----0
  6
CONTINUOUS
  5
363
 10
609.197165
 20
-134.478551
 30
0.0
 11
609.197165
 21
-147.478551
 31
0.0
  0
LINE
  8
LC-001-002-----0
  6
CONTINUOUS
  5
364
 10
679.597165
 20
-134.478551
 30
0.0
 11
679.597165
 21
-147.478551
 31
0.0
  0
LINE
  8
LC-001-002-----0
  6
CONTINUOUS
  5
365
 10
679.597165
 20
-152.478551
 30
0.0
 11
679.597165
 21
-158.978551
 31
0.0
  0
LINE
  8
LC-001-002-----0
  6
CONTINUOUS
  5
366
 10
609.197165
 20
-152.478551
 30
0.0
 11
609.197165
 21
-158.978551
 31
0.0
  0
ARC
  8
LC-002-002-RND-0
  6
CONTINUOUS
  5
367
 10
614.197165
 20
-105.978551
 30
0.0
 40
5.0
 50
90.0
 51
180.0
  0
ARC
  8
LC-001-002-----0
  6
CONTINUOUS
  5
368
 10
547.497165
 20
-88.778551
 30
0.0
 40
48.7
 50
90.0
 51
180.0
  0
LINE
  8
LC-001-002-----0
  6
CONTINUOUS
  5
369
 10
658.297165
 20
-98.278551
 30
0.0
 11
664.297165
 21
-98.278551
 31
0.0
  0
LINE
  8
LC-001-002-----0
  6
CONTINUOUS
  5
36A
 10
498.797165
 20
-88.778551
 30
0.0
 11
498.797165
 21
-158.978551
 31
0.0
  0
LINE
  8
LC-001-002-----0
  6
CONTINUOUS
  5
36B
 10
547.497165
 20
-42.778551
 30
0.0
 11
687.897165
 21
-42.778551
 31
0.0
  0
LINE
  8
LC-007-005-----0
  6
CONTINUOUS
  5
36C
 10
674.097165
 20
251.419388
 30
0.0
 11
677.097165
 21
254.419388
 31
0.0
  0
LINE
  8
LC-001-002-----0
  6
CONTINUOUS
  5
36D
 10
733.897165
 20
-88.778551
 30
0.0
 11
733.897165
 21
-158.978551
 31
0.0
  0
LINE
  8
LC-001-002-----0
  6
CONTINUOUS
  5
36E
 10
676.297165
 20
-98.278551
 30
0.0
 11
682.297165
 21
-98.278551
 31
0.0
  0
LINE
  8
LC-001-002-----0
  6
CONTINUOUS
  5
36F
 10
501.497165
 20
-158.978551
 30
0.0
 11
501.497165
 21
-88.778551
 31
0.0
  0
ARC
  8
LC-002-002-RND-0
  6
CONTINUOUS
  5
370
 10
687.897165
 20
-88.778551
 30
0.0
 40
46.0
 50
360.0
 51
90.0
  0
ARC
  8
LC-002-002-RND-0
  6
CONTINUOUS
  5
371
 10
547.497165
 20
-88.778551
 30
0.0
 40
46.0
 50
90.0
 51
180.0
  0
LINE
  8
LC-001-002-----0
  6
CONTINUOUS
  5
372
 10
736.597165
 20
-158.978551
 30
0.0
 11
736.597165
 21
-88.778551
 31
0.0
  0
ARC
  8
LC-001-002-----0
  6
CONTINUOUS
  5
373
 10
687.897165
 20
-88.778551
 30
0.0
 40
48.7
 50
360.0
 51
90.0
  0
LINE
  8
LC-001-002-----0
  6
DASHDOT
 62
     2
  5
374
 10
617.697165
 20
-40.078551
 30
0.0
 11
617.697165
 21
-158.978551
 31
0.0
  0
LINE
  8
LC-001-002-----0
  6
DASHDOT
 62
     2
  5
375
 10
736.597165
 20
-158.978551
 30
0.0
 11
498.797165
 21
-158.978551
 31
0.0
  0
LINE
  8
LC-007-005-----0
  6
CONTINUOUS
  5
376
 10
674.097165
 20
254.247815
 30
0.0
 11
677.097165
 21
257.247815
 31
0.0
  0
LINE
  8
LC-007-005-----0
  6
CONTINUOUS
  5
377
 10
688.797165
 20
268.947815
 30
0.0
 11
691.097165
 21
271.247815
 31
0.0
  0
LINE
  8
LC-007-005-----0
  6
CONTINUOUS
  5
378
 10
674.097165
 20
257.076242
 30
0.0
 11
677.097165
 21
260.076242
 31
0.0
  0
LINE
  8
LC-007-005-----0
  6
CONTINUOUS
  5
379
 10
684.804905
 20
267.783982
 30
0.0
 11
686.097165
 21
269.076242
 31
0.0
  0
LINE
  8
LC-007-005-----0
  6
CONTINUOUS
  5
37A
 10
688.797165
 20
271.776242
 30
0.0
 11
691.097165
 21
274.076242
 31
0.0
  0
LINE
  8
LC-007-005-----0
  6
CONTINUOUS
  5
37B
 10
674.097165
 20
259.90467
 30
0.0
 11
677.097165
 21
262.90467
 31
0.0
  0
LINE
  8
LC-007-005-----0
  6
CONTINUOUS
  5
37C
 10
681.976478
 20
267.783982
 30
0.0
 11
686.097165
 21
271.90467
 31
0.0
  0
LINE
  8
LC-007-005-----0
  6
CONTINUOUS
  5
37D
 10
688.308762
 20
274.116266
 30
0.0
 11
691.097165
 21
276.90467
 31
0.0
  0
LINE
  8
LC-007-005-----0
  6
CONTINUOUS
  5
37E
 10
668.04948
 20
256.685411
 30
0.0
 11
670.097165
 21
258.733097
 31
0.0
  0
LINE
  8
LC-007-005-----0
  6
CONTINUOUS
  5
37F
 10
674.097165
 20
262.733097
 30
0.0
 11
677.097165
 21
265.733097
 31
0.0
  0
LINE
  8
LC-007-005-----0
  6
CONTINUOUS
  5
380
 10
680.097165
 20
268.733097
 30
0.0
 11
688.848051
 21
277.483982
 31
0.0
  0
LINE
  8
LC-007-005-----0
  6
CONTINUOUS
  5
381
 10
665.221052
 20
256.685411
 30
0.0
 11
670.097165
 21
261.561524
 31
0.0
  0
LINE
  8
LC-007-005-----0
  6
CONTINUOUS
  5
382
 10
673.483983
 20
264.948342
 30
0.0
 11
682.660572
 21
274.124931
 31
0.0
  0
LINE
  8
LC-007-005-----0
  6
CONTINUOUS
  5
383
 10
662.392625
 20
256.685411
 30
0.0
 11
675.259033
 21
269.551818
 31
0.0
  0
LINE
  8
LC-007-005-----0
  6
CONTINUOUS
  5
384
 10
658.659205
 20
255.780417
 30
0.0
 11
667.857493
 21
264.978706
 31
0.0
  0
LINE
  8
LC-007-005-----0
  6
CONTINUOUS
  5
385
 10
651.246815
 20
251.196455
 30
0.0
 11
660.455954
 21
260.405593
 31
0.0
  0
LINE
  8
LC-007-005-----0
  6
CONTINUOUS
  5
386
 10
643.834426
 20
246.612493
 30
0.0
 11
653.054414
 21
255.832481
 31
0.0
  0
LINE
  8
LC-007-005-----0
  6
CONTINUOUS
  5
387
 10
636.422037
 20
242.028531
 30
0.0
 11
645.652874
 21
251.259368
 31
0.0
  0
LINE
  8
LC-007-005-----0
  6
CONTINUOUS
  5
388
 10
629.009647
 20
237.444568
 30
0.0
 11
638.251335
 21
246.686256
 31
0.0
  0
LINE
  8
LC-007-005-----0
  6
CONTINUOUS
  5
389
 10
621.597258
 20
232.860606
 30
0.0
 11
630.849795
 21
242.113144
 31
0.0
  0
LINE
  8
LC-007-005-----0
  6
CONTINUOUS
  5
38A
 10
614.184868
 20
228.276644
 30
0.0
 11
623.448256
 21
237.540031
 31
0.0
  0
LINE
  8
LC-007-005-----0
  6
CONTINUOUS
  5
38B
 10
606.772479
 20
223.692682
 30
0.0
 11
616.046716
 21
232.966919
 31
0.0
  0
LINE
  8
LC-007-005-----0
  6
CONTINUOUS
  5
38C
 10
600.735352
 20
220.483982
 30
0.0
 11
608.645177
 21
228.393806
 31
0.0
  0
LINE
  8
LC-007-005-----0
  6
CONTINUOUS
  5
38D
 10
594.906925
 20
217.483982
 30
0.0
 11
595.597165
 21
218.174222
 31
0.0
  0
LINE
  8
LC-007-005-----0
  6
CONTINUOUS
  5
38E
 10
597.906925
 20
220.483982
 30
0.0
 11
601.243637
 21
223.820694
 31
0.0
  0
LINE
  8
LC-007-005-----0
  6
CONTINUOUS
  5
38F
 10
592.097165
 20
217.502649
 30
0.0
 11
598.078498
 21
223.483982
 31
0.0
  0
LINE
  8
LC-007-005-----0
  6
CONTINUOUS
  5
390
 10
592.097165
 20
220.331076
 30
0.0
 11
595.250071
 21
223.483982
 31
0.0
  0
LINE
  8
LC-007-005-----0
  6
CONTINUOUS
  5
391
 10
592.097165
 20
223.159503
 30
0.0
 11
595.097165
 21
226.159503
 31
0.0
  0
LINE
  8
LC-007-005-----0
  6
CONTINUOUS
  5
392
 10
592.097165
 20
225.987931
 30
0.0
 11
595.097165
 21
228.987931
 31
0.0
  0
LINE
  8
LC-007-005-----0
  6
CONTINUOUS
  5
393
 10
592.097165
 20
228.816358
 30
0.0
 11
595.097165
 21
231.816358
 31
0.0
  0
LINE
  8
LC-007-005-----0
  6
CONTINUOUS
  5
394
 10
592.097165
 20
231.644785
 30
0.0
 11
595.097165
 21
234.644785
 31
0.0
  0
LINE
  8
LC-007-005-----0
  6
CONTINUOUS
  5
395
 10
592.097165
 20
234.473212
 30
0.0
 11
595.097165
 21
237.473212
 31
0.0
  0
LINE
  8
LC-007-005-----0
  6
CONTINUOUS
  5
396
 10
592.097165
 20
237.301639
 30
0.0
 11
595.097165
 21
240.301639
 31
0.0
  0
LINE
  8
LC-007-005-----0
  6
CONTINUOUS
  5
397
 10
592.097165
 20
240.130066
 30
0.0
 11
595.097165
 21
243.130066
 31
0.0
  0
LINE
  8
LC-007-005-----0
  6
CONTINUOUS
  5
398
 10
592.097165
 20
242.958493
 30
0.0
 11
595.097165
 21
245.958493
 31
0.0
  0
LINE
  8
LC-007-005-----0
  6
CONTINUOUS
  5
399
 10
592.097165
 20
245.78692
 30
0.0
 11
595.097165
 21
248.78692
 31
0.0
  0
LINE
  8
LC-007-005-----0
  6
CONTINUOUS
  5
39A
 10
592.097165
 20
248.615348
 30
0.0
 11
595.097165
 21
251.615348
 31
0.0
  0
LINE
  8
LC-007-005-----0
  6
CONTINUOUS
  5
39B
 10
592.097165
 20
251.443775
 30
0.0
 11
595.097165
 21
254.443775
 31
0.0
  0
LINE
  8
LC-007-005-----0
  6
CONTINUOUS
  5
39C
 10
592.097165
 20
254.272202
 30
0.0
 11
595.097165
 21
257.272202
 31
0.0
  0
LINE
  8
LC-007-005-----0
  6
CONTINUOUS
  5
39D
 10
592.097165
 20
257.100629
 30
0.0
 11
595.097165
 21
260.100629
 31
0.0
  0
LINE
  8
LC-007-005-----0
  6
CONTINUOUS
  5
39E
 10
592.097165
 20
259.929056
 30
0.0
 11
595.097165
 21
262.929056
 31
0.0
  0
LINE
  8
LC-007-005-----0
  6
CONTINUOUS
  5
39F
 10
592.097165
 20
262.757483
 30
0.0
 11
595.097165
 21
265.757483
 31
0.0
  0
LINE
  8
LC-007-005-----0
  6
CONTINUOUS
  5
3A0
 10
592.097165
 20
265.58591
 30
0.0
 11
595.097165
 21
268.58591
 31
0.0
  0
LINE
  8
LC-007-005-----0
  6
CONTINUOUS
  5
3A1
 10
592.097165
 20
268.414337
 30
0.0
 11
595.097165
 21
271.414337
 31
0.0
  0
LINE
  8
LC-007-005-----0
  6
CONTINUOUS
  5
3A2
 10
592.097165
 20
271.242765
 30
0.0
 11
595.097165
 21
274.242765
 31
0.0
  0
LINE
  8
LC-007-005-----0
  6
CONTINUOUS
  5
3A3
 10
588.927937
 20
270.901964
 30
0.0
 11
595.097165
 21
277.071192
 31
0.0
  0
LINE
  8
LC-007-005-----0
  6
CONTINUOUS
  5
3A4
 10
587.697165
 20
272.499619
 30
0.0
 11
589.278841
 21
274.081295
 31
0.0
  0
LINE
  8
LC-007-005-----0
  6
CONTINUOUS
  5
3A5
 10
592.097165
 20
276.899619
 30
0.0
 11
592.681528
 21
277.483982
 31
0.0
  0
LINE
  8
LC-001-002-----0
  6
DASHDOT
 62
     2
  5
3A6
 10
668.697165
 20
50.083982
 30
0.0
 11
668.697165
 21
74.25
 31
0.0
  0
LINE
  8
LC-001-002-----0
  6
DASHDOT
 62
     2
  5
3A7
 10
617.697165
 20
312.983982
 30
0.0
 11
617.697165
 21
126.583982
 31
0.0
  0
ENDSEC
  0
EOF
