  0
SECTION
  2
HEADER
  9
$ACADVER
  1
AC1009
  9
$INSBASE
 10
1.896383
 20
55.657895
 30
0.0
  9
$EXTMIN
 10
-269.603617
 20
-136.342105
 30
0.0
  9
$EXTMAX
 10
570.396383
 20
457.657895
 30
0.0
  9
$LIMMIN
 10
-269.603617
 20
-136.342105
  9
$LIMMAX
 10
570.396383
 20
457.657895
  9
$ORTHOMODE
 70
     0
  9
$REGENMODE
 70
     1
  9
$FILLMODE
 70
     1
  9
$QTEXTMODE
 70
     0
  9
$MIRRTEXT
 70
     1
  9
$DRAGMODE
 70
     2
  9
$LTSCALE
 40
2.0
  9
$OSMODE
 70
     0
  9
$ATTMODE
 70
     1
  9
$TEXTSIZE
 40
0.2
  9
$TRACEWID
 40
0.05
  9
$TEXTSTYLE
  7
STANDARD
  9
$CLAYER
  8
0
  9
$CELTYPE
  6
BYLAYER
  9
$CECOLOR
 62
     7
  9
$DIMSCALE
 40
2.0
  9
$DIMASZ
 40
3.5
  9
$DIMEXO
 40
0.0625
  9
$DIMDLI
 40
0.38
  9
$DIMRND
 40
0.0
  9
$DIMDLE
 40
0.0
  9
$DIMEXE
 40
0.18
  9
$DIMTP
 40
0.0
  9
$DIMTM
 40
0.0
  9
$DIMTXT
 40
3.5
  9
$DIMCEN
 40
0.09
  9
$DIMTSZ
 40
0.0
  9
$DIMTOL
 70
     0
  9
$DIMLIM
 70
     0
  9
$DIMTIH
 70
     1
  9
$DIMTOH
 70
     1
  9
$DIMSE1
 70
     0
  9
$DIMSE2
 70
     0
  9
$DIMTAD
 70
     1
  9
$DIMZIN
 70
     0
  9
$DIMBLK
  1

  9
$DIMASO
 70
     1
  9
$DIMSHO
 70
     1
  9
$DIMPOST
  1

  9
$DIMAPOST
  1

  9
$DIMALT
 70
     0
  9
$DIMALTD
 70
     2
  9
$DIMALTF
 40
25.4
  9
$DIMLFAC
 40
1.0
  9
$DIMTOFL
 70
     0
  9
$DIMTVP
 40
0.0
  9
$DIMTIX
 70
     0
  9
$DIMSOXD
 70
     0
  9
$DIMSAH
 70
     0
  9
$DIMBLK1
  1

  9
$DIMBLK2
  1

  9
$DIMSTYLE
  2
STANDARD
  9
$DIMCLRD
 70
     0
  9
$DIMCLRE
 70
     0
  9
$DIMCLRT
 70
     0
  9
$DIMTFAC
 40
1.0
  9
$DIMGAP
 40
0.09
  9
$LUNITS
 70
     2
  9
$LUPREC
 70
     2
  9
$AXISMODE
 70
     0
  9
$AXISUNIT
 10
0.0
 20
0.0
  9
$SKETCHINC
 40
0.1
  9
$FILLETRAD
 40
0.0
  9
$AUNITS
 70
     0
  9
$AUPREC
 70
     0
  9
$MENU
  1
acad
  9
$ELEVATION
 40
0.0
  9
$PELEVATION
 40
0.0
  9
$THICKNESS
 40
0.0
  9
$LIMCHECK
 70
     0
  9
$BLIPMODE
 70
     1
  9
$CHAMFERA
 40
0.0
  9
$CHAMFERB
 40
0.0
  9
$SKPOLY
 70
     0
  9
$TDCREATE
 40
0.000000000
  9
$TDUPDATE
 40
0.000000000
  9
$TDINDWG
 40
0.0000000000
  9
$TDUSRTIMER
 40
0.0000000000
  9
$USRTIMER
 70
     1
  9
$ANGBASE
 50
0.0
  9
$ANGDIR
 70
     0
  9
$PDMODE
 70
     0
  9
$PDSIZE
 40
0.0
  9
$PLINEWID
 40
0.0
  9
$COORDS
 70
     0
  9
$SPLFRAME
 70
     0
  9
$SPLINETYPE
 70
     6
  9
$SPLINESEGS
 70
     8
  9
$ATTDIA
 70
     0
  9
$ATTREQ
 70
     1
  9
$HANDLING
 70
     1
  9
$HANDSEED
  5
272
  9
$SURFTAB1
 70
     6
  9
$SURFTAB2
 70
     6
  9
$SURFTYPE
 70
     6
  9
$SURFU
 70
     6
  9
$SURFV
 70
     6
  9
$UCSNAME
  2

  9
$UCSORG
 10
0.0
 20
0.0
 30
0.0
  9
$UCSXDIR
 10
1.0
 20
0.0
 30
0.0
  9
$UCSYDIR
 10
0.0
 20
1.0
 30
0.0
  9
$PUCSNAME
  2

  9
$PUCSORG
 10
0.0
 20
0.0
 30
0.0
  9
$PUCSXDIR
 10
1.0
 20
0.0
 30
0.0
  9
$PUCSYDIR
 10
0.0
 20
1.0
 30
0.0
  9
$USERI1
 70
     0
  9
$USERI2
 70
     0
  9
$USERI3
 70
     0
  9
$USERI4
 70
     0
  9
$USERI5
 70
     0
  9
$USERR1
 40
0.0
  9
$USERR2
 40
0.0
  9
$USERR3
 40
0.0
  9
$USERR4
 40
0.0
  9
$USERR5
 40
0.0
  9
$WORLDVIEW
 70
     1
  9
$SHADEDGE
 70
     3
  9
$SHADEDIF
 70
    70
  9
$TILEMODE
 70
     1
  9
$MAXACTVP
 70
    16
  9
$PINSBASE
 10
0.0
 20
0.0
 30
0.0
  9
$PLIMCHECK
 70
     0
  9
$PEXTMIN
 10
1.000000E+20
 20
1.000000E+20
 30
1.000000E+20
  9
$PEXTMAX
 10
-1.000000E+20
 20
-1.000000E+20
 30
-1.000000E+20
  9
$PLIMMIN
 10
-269.603617
 20
-136.342105
  9
$PLIMMAX
 10
570.396383
 20
457.657895
  9
$UNITMODE
 70
     0
  9
$VISRETAIN
 70
     0
  9
$PLINEGEN
 70
     1
  9
$PSLTSCALE
 70
     0
  9
$TREEDEPTH
 70
  3020
  9
$DWGCODEPAGE
  3
dos850
  0
ENDSEC
  0
SECTION
  2
TABLES
  0
TABLE
  2
VPORT
 70
     1
  0
VPORT
  2
*ACTIVE
 70
     0
 10
0.0
 20
0.0
 11
1.0
 21
1.0
 12
420.0
 22
297.0
 13
0.0
 23
0.0
 14
1.0
 24
1.0
 15
0.0
 25
0.0
 16
0.0
 26
0.0
 36
1.0
 17
-269.603617
 27
-136.342105
 37
0.0
 40
594.0
 41
1.604229
 42
50.0
 43
0.0
 44
0.0
 50
0.0
 51
0.0
 71
     0
 72
   100
 73
     1
 74
     1
 75
     0
 76
     0
 77
     0
 78
     0
  0
ENDTAB
  0
TABLE
  2
LTYPE
 70
     2
  0
LTYPE
  2
CONTINUOUS
 70
    64
  3
Solid line
 72
    65
 73
     0
 40
0.0
  0
LTYPE
  2
DASHDOT
 70
    64
  3
__ . __ . __ . __ . __
 72
    65
 73
     4
 40
7.5
 49
5.0
 49
-1.25
 49
0.0
 49
-1.25
  0
ENDTAB
  0
TABLE
  2
LAYER
 70
    10
  0
LAYER
  2
0
 70
     0
 62
     7
  6
CONTINUOUS
  0
LAYER
  2
LC-INFO-1-2-MM-A3-0
 70
     1
 62
    -1
  6
CONTINUOUS
  0
LAYER
  2
LC-004-005-----0
 70
     0
 62
     2
  6
CONTINUOUS
  0
LAYER
  2
LC-006-003-MTH-0
 70
     0
 62
     2
  6
CONTINUOUS
  0
LAYER
  2
LC-007-003-MTG-0
 70
     0
 62
     2
  6
CONTINUOUS
  0
LAYER
  2
LC-003-003-----0
 70
     0
 62
     2
  6
CONTINUOUS
  0
LAYER
  2
LC-005-000-----0
 70
     0
 62
     7
  6
CONTINUOUS
  0
LAYER
  2
LC-001-002-----0
 70
     0
 62
     1
  6
CONTINUOUS
  0
LAYER
  2
LC-002-002-RND-0
 70
     0
 62
     1
  6
CONTINUOUS
  0
LAYER
  2
LC-000
 70
     0
 62
     7
  6
CONTINUOUS
  0
ENDTAB
  0
TABLE
  2
STYLE
 70
     4
  0
STYLE
  2
STANDARD
 70
     0
 40
0.0
 41
1.0
 50
0.0
 71
     0
 42
0.0
  3
txt
  4

  0
STYLE
  2
LC-STANDARD
 70
    64
 40
0.0
 41
1.0
 50
0.0
 71
     0
 42
3.5
  3
MONOTXT
  4

  0
STYLE
  2
LC-TXTSTYLE-150-400-0-0-D2
 70
    64
 40
0.0
 41
1.0
 50
15.0
 71
     0
 42
3.5
  3
MONOTXT
  4

  0
STYLE
  2
LC-TXTSTYLE-150-400-0-0-D3
 70
    64
 40
0.0
 41
1.0
 50
15.0
 71
     0
 42
3.5
  3
LC-STANDARD
  4

  0
ENDTAB
  0
TABLE
  2
VIEW
 70
     0
  0
ENDTAB
  0
TABLE
  2
UCS
 70
     0
  0
ENDTAB
  0
TABLE
  2
APPID
 70
     1
  0
APPID
  2
ACAD
 70
     0
  0
ENDTAB
  0
TABLE
  2
DIMSTYLE
 70
     3
  0
DIMSTYLE
  2
STANDARD
 70
     0
  3

  4

  5

  6

  7

 40
1.0
 41
0.18
 42
0.0625
 43
0.38
 44
0.18
 45
0.0
 46
0.0
 47
0.0
 48
0.0
 71
     0
 72
     0
 73
     1
 74
     1
 75
     0
 76
     0
 77
     0
 78
     0
140
0.18
141
0.09
142
0.0
143
25.4
144
1.0
145
0.0
146
1.0
147
0.09
170
     0
171
     2
172
     0
173
     0
174
     0
175
     0
176
     0
177
     0
178
     0
  0
DIMSTYLE
  2
LC-STANDARD
 70
     0
  3

  4

  5

  6

  7

 40
1.0
 41
3.5
 42
0.0
 43
7.5
 44
1.8
 45
0.0
 46
0.0
 47
0.0
 48
0.0
 71
     0
 72
     0
 73
     0
 74
     0
 75
     0
 76
     0
 77
     1
 78
     8
140
3.5
141
0.0
142
0.0
143
25.4
144
1.0
145
0.0
146
0.71
147
1.5
170
     0
171
     2
172
     1
173
     0
174
     0
175
     0
176
     0
177
     0
178
     3
  0
DIMSTYLE
  2
LC-DIM-L-0090-02-02
 70
     0
  3

  4

  5

  6

  7

 40
2.0
 41
3.5
 42
0.0
 43
7.5
 44
1.8
 45
0.0
 46
0.0
 47
0.0
 48
0.0
 71
     0
 72
     0
 73
     0
 74
     0
 75
     0
 76
     0
 77
     1
 78
     8
140
9.0
141
0.0
142
0.0
143
25.4
144
1.0
145
0.0
146
0.71
147
1.5
170
     0
171
     2
172
     0
173
     0
174
     0
175
     0
176
     2
177
     2
178
     6
  0
ENDTAB
  0
ENDSEC
  0
SECTION
  2
BLOCKS
  0
BLOCK
  8
0
  5
23
  2
*X0
 70
    65
 10
63.669898
 20
182.626441
 30
0.0
  3
*X0
  0
LINE
  8
LC-004-005-----0
  6
CONTINUOUS
  5
25
 10
103.495976
 20
182.691935
 30
0.0
 11
104.669898
 21
183.865858
 31
0.0
  0
LINE
  8
LC-004-005-----0
  6
CONTINUOUS
  5
26
 10
101.661335
 20
183.685722
 30
0.0
 11
102.72217
 21
184.746556
 31
0.0
  0
LINE
  8
LC-004-005-----0
  6
CONTINUOUS
  5
27
 10
100.714799
 20
185.567613
 30
0.0
 11
102.169898
 21
187.022712
 31
0.0
  0
LINE
  8
LC-004-005-----0
  6
CONTINUOUS
  5
28
 10
100.669898
 20
188.351139
 30
0.0
 11
102.169898
 21
189.851139
 31
0.0
  0
LINE
  8
LC-004-005-----0
  6
CONTINUOUS
  5
29
 10
100.669898
 20
191.179566
 30
0.0
 11
102.117273
 21
192.626941
 31
0.0
  0
LINE
  8
LC-004-005-----0
  6
CONTINUOUS
  5
2A
 10
66.669898
 20
182.63541
 30
0.0
 11
70.669898
 21
186.63541
 31
0.0
  0
LINE
  8
LC-004-005-----0
  6
CONTINUOUS
  5
2B
 10
69.169898
 20
187.963837
 30
0.0
 11
70.669898
 21
189.463837
 31
0.0
  0
LINE
  8
LC-004-005-----0
  6
CONTINUOUS
  5
2C
 10
69.169898
 20
190.792264
 30
0.0
 11
70.669898
 21
192.292264
 31
0.0
  0
ENDBLK
  8
0
  5
2D
  0
BLOCK
  8
0
  5
2F
  2
*X1
 70
    65
 10
120.905326
 20
182.626441
 30
0.0
  3
*X1
  0
LINE
  8
LC-004-005-----0
  6
CONTINUOUS
  5
30
 10
123.229471
 20
182.626441
 30
0.0
 11
124.75831
 21
184.155279
 31
0.0
  0
LINE
  8
LC-004-005-----0
  6
CONTINUOUS
  5
31
 10
126.39106
 20
185.788029
 30
0.0
 11
127.669886
 21
187.066856
 31
0.0
  0
LINE
  8
LC-004-005-----0
  6
CONTINUOUS
  5
32
 10
120.905326
 20
183.130723
 30
0.0
 11
121.901044
 21
184.126441
 31
0.0
  0
LINE
  8
LC-004-005-----0
  6
CONTINUOUS
  5
33
 10
126.419898
 20
188.645295
 30
0.0
 11
127.669945
 21
189.895342
 31
0.0
  0
LINE
  8
LC-004-005-----0
  6
CONTINUOUS
  5
34
 10
126.419898
 20
191.473722
 30
0.0
 11
127.670004
 21
192.723828
 31
0.0
  0
LINE
  8
LC-004-005-----0
  6
CONTINUOUS
  5
35
 10
130.573117
 20
195.626941
 30
0.0
 11
131.169898
 21
196.223722
 31
0.0
  0
LINE
  8
LC-004-005-----0
  6
CONTINUOUS
  5
36
 10
126.419898
 20
194.302149
 30
0.0
 11
127.670063
 21
195.552314
 31
0.0
  0
LINE
  8
LC-004-005-----0
  6
CONTINUOUS
  5
37
 10
127.74469
 20
195.626941
 30
0.0
 11
129.74469
 21
197.626941
 31
0.0
  0
LINE
  8
LC-004-005-----0
  6
CONTINUOUS
  5
38
 10
126.419898
 20
197.130576
 30
0.0
 11
126.916263
 21
197.626941
 31
0.0
  0
ENDBLK
  8
0
  5
39
  0
BLOCK
  8
0
  5
3B
  2
*X2
 70
    65
 10
40.169898
 20
182.626441
 30
0.0
  3
*X2
  0
LINE
  8
LC-004-005-----0
  6
CONTINUOUS
  5
3C
 10
49.690366
 20
182.626441
 30
0.0
 11
50.43447
 21
183.370545
 31
0.0
  0
LINE
  8
LC-004-005-----0
  6
CONTINUOUS
  5
3D
 10
46.861939
 20
182.626441
 30
0.0
 11
48.361939
 21
184.126441
 31
0.0
  0
LINE
  8
LC-004-005-----0
  6
CONTINUOUS
  5
3E
 10
44.738209
 20
183.331138
 30
0.0
 11
45.846173
 21
184.439102
 31
0.0
  0
LINE
  8
LC-004-005-----0
  6
CONTINUOUS
  5
3F
 10
43.710919
 20
185.132276
 30
0.0
 11
44.919898
 21
186.341254
 31
0.0
  0
LINE
  8
LC-004-005-----0
  6
CONTINUOUS
  5
40
 10
43.669892
 20
187.919675
 30
0.0
 11
44.919898
 21
189.169681
 31
0.0
  0
LINE
  8
LC-004-005-----0
  6
CONTINUOUS
  5
41
 10
43.669833
 20
190.748044
 30
0.0
 11
44.919898
 21
191.998109
 31
0.0
  0
LINE
  8
LC-004-005-----0
  6
CONTINUOUS
  5
42
 10
43.669775
 20
193.576412
 30
0.0
 11
44.919898
 21
194.826536
 31
0.0
  0
LINE
  8
LC-004-005-----0
  6
CONTINUOUS
  5
43
 10
42.891876
 20
195.626941
 30
0.0
 11
44.891876
 21
197.626941
 31
0.0
  0
LINE
  8
LC-004-005-----0
  6
CONTINUOUS
  5
44
 10
40.169898
 20
195.73339
 30
0.0
 11
42.063449
 21
197.626941
 31
0.0
  0
ENDBLK
  8
0
  5
45
  0
BLOCK
  8
0
  5
47
  2
*X3
 70
    65
 10
108.2315
 20
182.626441
 30
0.0
  3
*X3
  0
LINE
  8
LC-004-005-----0
  6
CONTINUOUS
  5
48
 10
111.915763
 20
182.626441
 30
0.0
 11
113.169898
 21
183.880576
 31
0.0
  0
LINE
  8
LC-004-005-----0
  6
CONTINUOUS
  5
49
 10
109.087336
 20
182.626441
 30
0.0
 11
110.587336
 21
184.126441
 31
0.0
  0
ENDBLK
  8
0
  5
4A
  0
BLOCK
  8
0
  5
4C
  2
BLK1
 70
    64
 10
0.0
 20
0.0
 30
0.0
  3
BLK1
  0
ENDBLK
  8
0
  5
4D
  0
BLOCK
  8
0
  5
4F
  2
*X5
 70
    65
 10
58.169898
 20
182.626441
 30
0.0
  3
*X5
  0
LINE
  8
LC-004-005-----0
  6
CONTINUOUS
  5
50
 10
61.004075
 20
182.626441
 30
0.0
 11
62.504075
 21
184.126441
 31
0.0
  0
LINE
  8
LC-004-005-----0
  6
CONTINUOUS
  5
51
 10
58.175647
 20
182.626441
 30
0.0
 11
59.675647
 21
184.126441
 31
0.0
  0
ENDBLK
  8
0
  5
52
  0
BLOCK
  8
0
  5
54
  2
BLK2
 70
    64
 10
0.0
 20
0.0
 30
0.0
  3
BLK2
  0
ENDBLK
  8
0
  5
55
  0
BLOCK
  8
0
  5
57
  2
*D7
 70
    65
 10
0.0
 20
0.0
 30
0.0
  3
*D7
  0
LINE
  8
LC-006-003-MTH-0
  6
CONTINUOUS
  5
59
 10
40.169898
 20
197.626941
 30
0.0
 11
40.169898
 21
220.8
 31
0.0
  0
LINE
  8
LC-006-003-MTH-0
  6
CONTINUOUS
  5
5A
 10
131.169898
 20
197.626941
 30
0.0
 11
131.169898
 21
220.8
 31
0.0
  0
LINE
  8
LC-007-003-MTG-0
  6
CONTINUOUS
  5
5C
 10
40.169898
 20
210.0
 30
0.0
 11
131.169898
 21
210.0
 31
0.0
  0
LINE
  8
LC-003-003-----0
  6
CONTINUOUS
  5
5E
 10
58.015906
 20
212.349471
 30
0.0
 11
40.169898
 21
210.0
 31
0.0
  0
LINE
  8
LC-003-003-----0
  6
CONTINUOUS
  5
5F
 10
40.169898
 20
210.0
 30
0.0
 11
58.015906
 21
207.650529
 31
0.0
  0
LINE
  8
LC-003-003-----0
  6
CONTINUOUS
  5
60
 10
58.015906
 20
207.650529
 30
0.0
 11
58.015906
 21
212.349471
 31
0.0
  0
LINE
  8
LC-003-003-----0
  6
CONTINUOUS
  5
61
 10
58.055944
 20
211.738609
 30
0.0
 11
44.849898
 21
210.0
 31
0.0
  0
LINE
  8
LC-003-003-----0
  6
CONTINUOUS
  5
62
 10
44.849898
 20
210.0
 30
0.0
 11
58.055944
 21
208.261391
 31
0.0
  0
LINE
  8
LC-003-003-----0
  6
CONTINUOUS
  5
63
 10
58.095982
 20
211.127746
 30
0.0
 11
49.529898
 21
210.0
 31
0.0
  0
LINE
  8
LC-003-003-----0
  6
CONTINUOUS
  5
64
 10
49.529898
 20
210.0
 30
0.0
 11
58.095982
 21
208.872254
 31
0.0
  0
LINE
  8
LC-003-003-----0
  6
CONTINUOUS
  5
65
 10
58.13602
 20
210.516884
 30
0.0
 11
54.209898
 21
210.0
 31
0.0
  0
LINE
  8
LC-003-003-----0
  6
CONTINUOUS
  5
66
 10
54.209898
 20
210.0
 30
0.0
 11
58.13602
 21
209.483116
 31
0.0
  0
LINE
  8
LC-003-003-----0
  6
CONTINUOUS
  5
67
 10
113.323891
 20
207.650529
 30
0.0
 11
131.169898
 21
210.0
 31
0.0
  0
LINE
  8
LC-003-003-----0
  6
CONTINUOUS
  5
68
 10
131.169898
 20
210.0
 30
0.0
 11
113.323891
 21
212.349471
 31
0.0
  0
LINE
  8
LC-003-003-----0
  6
CONTINUOUS
  5
69
 10
113.323891
 20
212.349471
 30
0.0
 11
113.323891
 21
207.650529
 31
0.0
  0
LINE
  8
LC-003-003-----0
  6
CONTINUOUS
  5
6A
 10
113.283853
 20
208.261391
 30
0.0
 11
126.489898
 21
210.0
 31
0.0
  0
LINE
  8
LC-003-003-----0
  6
CONTINUOUS
  5
6B
 10
126.489898
 20
210.0
 30
0.0
 11
113.283853
 21
211.738609
 31
0.0
  0
LINE
  8
LC-003-003-----0
  6
CONTINUOUS
  5
6C
 10
113.243815
 20
208.872254
 30
0.0
 11
121.809898
 21
210.0
 31
0.0
  0
LINE
  8
LC-003-003-----0
  6
CONTINUOUS
  5
6D
 10
121.809898
 20
210.0
 30
0.0
 11
113.243815
 21
211.127746
 31
0.0
  0
LINE
  8
LC-003-003-----0
  6
CONTINUOUS
  5
6E
 10
113.203776
 20
209.483116
 30
0.0
 11
117.129898
 21
210.0
 31
0.0
  0
LINE
  8
LC-003-003-----0
  6
CONTINUOUS
  5
6F
 10
117.129898
 20
210.0
 30
0.0
 11
113.203776
 21
210.516884
 31
0.0
  0
TEXT
  8
LC-003-003-----0
  6
CONTINUOUS
 62
     6
  5
71
 10
71.244671
 20
220.431999
 30
0.0
 40
18.0
  1
Ø91
 41
0.9
 51
15.0
  7
LC-TXTSTYLE-150-400-0-0-D0
 72
     1
 11
88.465144
 21
220.431999
 31
0.0
  0
ENDBLK
  8
0
  5
72
  0
BLOCK
  8
0
  5
74
  2
*D8
 70
    65
 10
0.0
 20
0.0
 30
0.0
  3
*D8
  0
LINE
  8
LC-006-003-MTH-0
  6
CONTINUOUS
  5
75
 10
43.66994
 20
185.626379
 30
0.0
 11
43.66994
 21
129.2
 31
0.0
  0
LINE
  8
LC-006-003-MTH-0
  6
CONTINUOUS
  5
76
 10
127.669857
 20
185.626379
 30
0.0
 11
127.669857
 21
129.2
 31
0.0
  0
LINE
  8
LC-007-003-MTG-0
  6
CONTINUOUS
  5
77
 10
43.66994
 20
140.0
 30
0.0
 11
127.669857
 21
140.0
 31
0.0
  0
LINE
  8
LC-003-003-----0
  6
CONTINUOUS
  5
78
 10
61.515947
 20
142.349471
 30
0.0
 11
43.66994
 21
140.0
 31
0.0
  0
LINE
  8
LC-003-003-----0
  6
CONTINUOUS
  5
79
 10
43.66994
 20
140.0
 30
0.0
 11
61.515947
 21
137.650529
 31
0.0
  0
LINE
  8
LC-003-003-----0
  6
CONTINUOUS
  5
7A
 10
61.515947
 20
137.650529
 30
0.0
 11
61.515947
 21
142.349471
 31
0.0
  0
LINE
  8
LC-003-003-----0
  6
CONTINUOUS
  5
7B
 10
61.555985
 20
141.738609
 30
0.0
 11
48.34994
 21
140.0
 31
0.0
  0
LINE
  8
LC-003-003-----0
  6
CONTINUOUS
  5
7C
 10
48.34994
 20
140.0
 30
0.0
 11
61.555985
 21
138.261391
 31
0.0
  0
LINE
  8
LC-003-003-----0
  6
CONTINUOUS
  5
7D
 10
61.596023
 20
141.127746
 30
0.0
 11
53.02994
 21
140.0
 31
0.0
  0
LINE
  8
LC-003-003-----0
  6
CONTINUOUS
  5
7E
 10
53.02994
 20
140.0
 30
0.0
 11
61.596023
 21
138.872254
 31
0.0
  0
LINE
  8
LC-003-003-----0
  6
CONTINUOUS
  5
7F
 10
61.636061
 20
140.516884
 30
0.0
 11
57.70994
 21
140.0
 31
0.0
  0
LINE
  8
LC-003-003-----0
  6
CONTINUOUS
  5
80
 10
57.70994
 20
140.0
 30
0.0
 11
61.636061
 21
139.483116
 31
0.0
  0
LINE
  8
LC-003-003-----0
  6
CONTINUOUS
  5
81
 10
109.823849
 20
137.650529
 30
0.0
 11
127.669857
 21
140.0
 31
0.0
  0
LINE
  8
LC-003-003-----0
  6
CONTINUOUS
  5
82
 10
127.669857
 20
140.0
 30
0.0
 11
109.823849
 21
142.349471
 31
0.0
  0
LINE
  8
LC-003-003-----0
  6
CONTINUOUS
  5
83
 10
109.823849
 20
142.349471
 30
0.0
 11
109.823849
 21
137.650529
 31
0.0
  0
LINE
  8
LC-003-003-----0
  6
CONTINUOUS
  5
84
 10
109.783811
 20
138.261391
 30
0.0
 11
122.989857
 21
140.0
 31
0.0
  0
LINE
  8
LC-003-003-----0
  6
CONTINUOUS
  5
85
 10
122.989857
 20
140.0
 30
0.0
 11
109.783811
 21
141.738609
 31
0.0
  0
LINE
  8
LC-003-003-----0
  6
CONTINUOUS
  5
86
 10
109.743773
 20
138.872254
 30
0.0
 11
118.309857
 21
140.0
 31
0.0
  0
LINE
  8
LC-003-003-----0
  6
CONTINUOUS
  5
87
 10
118.309857
 20
140.0
 30
0.0
 11
109.743773
 21
141.127746
 31
0.0
  0
LINE
  8
LC-003-003-----0
  6
CONTINUOUS
  5
88
 10
109.703735
 20
139.483116
 30
0.0
 11
113.629857
 21
140.0
 31
0.0
  0
LINE
  8
LC-003-003-----0
  6
CONTINUOUS
  5
89
 10
113.629857
 20
140.0
 30
0.0
 11
109.703735
 21
140.516884
 31
0.0
  0
TEXT
  8
LC-003-003-----0
  6
CONTINUOUS
 62
     6
  5
8A
 10
71.244671
 20
150.431999
 30
0.0
 40
18.0
  1
Ø84
 51
15.0
  7
LC-TXTSTYLE-150-400-0-0-D0
 72
     1
 11
88.465144
 21
150.431999
 31
0.0
  0
ENDBLK
  8
0
  5
8B
  0
BLOCK
  8
0
  5
8D
  2
*D9
 70
    65
 10
0.0
 20
0.0
 30
0.0
  3
*D9
  0
LINE
  8
LC-006-003-MTH-0
  6
CONTINUOUS
  5
8E
 10
46.66994
 20
182.626441
 30
0.0
 11
3.2
 21
182.626441
 31
0.0
  0
LINE
  8
LC-006-003-MTH-0
  6
CONTINUOUS
  5
8F
 10
40.169898
 20
197.626941
 30
0.0
 11
3.2
 21
197.626941
 31
0.0
  0
LINE
  8
LC-003-003-----0
  6
CONTINUOUS
  5
90
 10
16.349471
 20
164.780433
 30
0.0
 11
14.0
 21
182.626441
 31
0.0
  0
LINE
  8
LC-003-003-----0
  6
CONTINUOUS
  5
91
 10
14.0
 20
182.626441
 30
0.0
 11
11.650529
 21
164.780433
 31
0.0
  0
LINE
  8
LC-003-003-----0
  6
CONTINUOUS
  5
92
 10
11.650529
 20
164.780433
 30
0.0
 11
16.349471
 21
164.780433
 31
0.0
  0
LINE
  8
LC-003-003-----0
  6
CONTINUOUS
  5
93
 10
15.738609
 20
164.740395
 30
0.0
 11
14.0
 21
177.946441
 31
0.0
  0
LINE
  8
LC-003-003-----0
  6
CONTINUOUS
  5
94
 10
14.0
 20
177.946441
 30
0.0
 11
12.261391
 21
164.740395
 31
0.0
  0
LINE
  8
LC-003-003-----0
  6
CONTINUOUS
  5
95
 10
15.127746
 20
164.700357
 30
0.0
 11
14.0
 21
173.266441
 31
0.0
  0
LINE
  8
LC-003-003-----0
  6
CONTINUOUS
  5
96
 10
14.0
 20
173.266441
 30
0.0
 11
12.872254
 21
164.700357
 31
0.0
  0
LINE
  8
LC-003-003-----0
  6
CONTINUOUS
  5
97
 10
14.516884
 20
164.660319
 30
0.0
 11
14.0
 21
168.586441
 31
0.0
  0
LINE
  8
LC-003-003-----0
  6
CONTINUOUS
  5
98
 10
14.0
 20
168.586441
 30
0.0
 11
13.483116
 21
164.660319
 31
0.0
  0
LINE
  8
LC-003-003-----0
  6
CONTINUOUS
  5
99
 10
11.650529
 20
215.472948
 30
0.0
 11
14.0
 21
197.626941
 31
0.0
  0
LINE
  8
LC-003-003-----0
  6
CONTINUOUS
  5
9A
 10
14.0
 20
197.626941
 30
0.0
 11
16.349471
 21
215.472948
 31
0.0
  0
LINE
  8
LC-003-003-----0
  6
CONTINUOUS
  5
9B
 10
16.349471
 20
215.472948
 30
0.0
 11
11.650529
 21
215.472948
 31
0.0
  0
LINE
  8
LC-003-003-----0
  6
CONTINUOUS
  5
9C
 10
12.261391
 20
215.512987
 30
0.0
 11
14.0
 21
202.306941
 31
0.0
  0
LINE
  8
LC-003-003-----0
  6
CONTINUOUS
  5
9D
 10
14.0
 20
202.306941
 30
0.0
 11
15.738609
 21
215.512987
 31
0.0
  0
LINE
  8
LC-003-003-----0
  6
CONTINUOUS
  5
9E
 10
12.872254
 20
215.553025
 30
0.0
 11
14.0
 21
206.986941
 31
0.0
  0
LINE
  8
LC-003-003-----0
  6
CONTINUOUS
  5
9F
 10
14.0
 20
206.986941
 30
0.0
 11
15.127746
 21
215.553025
 31
0.0
  0
LINE
  8
LC-003-003-----0
  6
CONTINUOUS
  5
A0
 10
13.483116
 20
215.593063
 30
0.0
 11
14.0
 21
211.666941
 31
0.0
  0
LINE
  8
LC-003-003-----0
  6
CONTINUOUS
  5
A1
 10
14.0
 20
211.666941
 30
0.0
 11
14.516884
 21
215.593063
 31
0.0
  0
LINE
  8
LC-007-003-MTG-0
  6
CONTINUOUS
  5
A2
 10
14.0
 20
157.426441
 30
0.0
 11
14.0
 21
255.629461
 31
0.0
  0
TEXT
  8
LC-003-003-----0
  6
CONTINUOUS
 62
     6
  5
A3
 10
3.568001
 20
224.902187
 30
0.0
 40
18.0
  1
15
 50
90.0
 51
15.0
  7
LC-TXTSTYLE-150-400-0-0-D0
  0
ENDBLK
  8
0
  5
A4
  0
ENDSEC
  0
SECTION
  2
ENTITIES
  0
VIEWPORT
  8
LC-000
  5
26C
 67
     1
 68
     1
 10
420.0
 20
297.0
 30
0.0
 40
840.0
 41
594.0
 69
     1
1001
ACAD
1000
MVIEW
1002
{
1070
    16
1010
0.0
1020
0.0
1030
0.0
1010
0.0
1020
0.0
1030
1.0
1040
0.0
1040
594.0
1040
420.0
1040
297.0
1040
50.0
1040
0.0
1040
0.0
1070
     0
1070
   100
1070
     1
1070
     1
1070
     0
1070
     0
1070
     0
1070
     0
1040
0.0
1040
0.0
1040
0.0
1040
1.0
1040
1.0
1040
0.0
1040
0.0
1070
     0
1002
{
1002
}
1002
}
  0
VIEWPORT
  8
0
  5
26D
 67
     1
 68
     1
 10
0.0
 20
0.0
 30
0.0
 40
0.0
 41
0.0
 69
     1
1001
ACAD
1000
MVIEW
1002
{
1070
    16
1010
0.0
1020
0.0
1030
0.0
1010
0.0
1020
0.0
1030
1.0
1040
0.0
1040
594.0
1040
0.0
1040
0.0
1040
50.0
1040
0.0
1040
0.0
1070
     0
1070
   100
1070
     0
1070
     1
1070
     0
1070
     0
1070
     0
1070
     0
1040
0.0
1040
0.0
1040
0.0
1040
0.5
1040
0.5
1040
0.5
1040
0.5
1070
     0
1002
{
1002
}
1002
}
  0
INSERT
  8
0
  5
A5
  2
*X0
 10
63.669898
 20
182.626441
 30
0.0
  0
INSERT
  8
0
  5
A6
  2
*X1
 10
120.905326
 20
182.626441
 30
0.0
  0
INSERT
  8
0
  5
A7
  2
*X2
 10
40.169898
 20
182.626441
 30
0.0
  0
INSERT
  8
0
  5
A8
  2
*X3
 10
108.2315
 20
182.626441
 30
0.0
  0
INSERT
  8
0
  5
AA
  2
BLK1
 10
0.0
 20
0.0
 30
0.0
  0
INSERT
  8
0
  5
AB
  2
*X5
 10
58.169898
 20
182.626441
 30
0.0
  0
INSERT
  8
0
  5
AC
  2
BLK2
 10
0.0
 20
0.0
 30
0.0
  0
DIMENSION
  8
0
  5
AD
  2
*D7
 10
85.669898
 20
210.0
 30
0.0
 11
85.669898
 21
210.0
 31
0.0
  1
%%c<>
 13
40.169898
 23
197.626941
 33
0.0
 14
131.169898
 24
197.626941
 34
0.0
  3
LC-DIM-L-0090-02-02
  0
DIMENSION
  8
0
  5
AE
  2
*D8
 10
85.669898
 20
140.0
 30
0.0
 11
85.669898
 21
140.0
 31
0.0
  1
%%c<>
 13
43.66994
 23
185.626379
 33
0.0
 14
127.669857
 24
185.626379
 34
0.0
  3
LC-DIM-L-0090-02-02
  0
DIMENSION
  8
0
  5
AF
  2
*D9
 10
14.0
 20
190.126691
 30
0.0
 11
14.0
 21
190.126691
 31
0.0
 13
40.169898
 23
197.626941
 33
0.0
 14
46.66994
 24
182.626441
 34
0.0
 50
90.0
  3
LC-DIM-L-0090-02-02
  0
LINE
  8
LC-001-002-----0
  6
CONTINUOUS
  5
B1
 10
126.169898
 20
197.626941
 30
0.0
 11
85.669898
 21
197.626941
 31
0.0
  0
LINE
  8
LC-001-002-----0
  6
CONTINUOUS
  5
B2
 10
50.43447
 20
182.626441
 30
0.0
 11
50.43447
 21
184.126441
 31
0.0
  0
LINE
  8
LC-001-002-----0
  6
CONTINUOUS
  5
B3
 10
44.919898
 20
197.626941
 30
0.0
 11
85.669898
 21
197.626941
 31
0.0
  0
ARC
  8
LC-002-002-RND-0
  6
CONTINUOUS
  5
B5
 10
124.419898
 20
186.126441
 30
0.0
 40
2.0
 50
270.0
 51
0.0
  0
ARC
  8
LC-002-002-RND-0
  6
CONTINUOUS
  5
B6
 10
104.169898
 20
186.126441
 30
0.0
 40
2.0
 50
180.0
 51
270.0
  0
LINE
  8
LC-003-003-----0
  6
CONTINUOUS
  5
B7
 10
99.323498
 20
186.126441
 30
0.0
 11
71.969592
 21
186.126441
 31
0.0
  0
ARC
  8
LC-001-002-----0
  6
CONTINUOUS
  5
B8
 10
67.169898
 20
186.126441
 30
0.0
 40
3.5
 50
270.0
 51
0.0
  0
ARC
  8
LC-001-002-----0
  6
CONTINUOUS
  5
B9
 10
104.169898
 20
186.126441
 30
0.0
 40
3.5
 50
180.0
 51
270.0
  0
LINE
  8
LC-001-002-----0
  6
CONTINUOUS
  5
BA
 10
44.919898
 20
186.126441
 30
0.0
 11
44.919898
 21
197.626941
 31
0.0
  0
ARC
  8
LC-002-002-RND-0
  6
CONTINUOUS
  5
BB
 10
67.169898
 20
186.126441
 30
0.0
 40
2.0
 50
270.0
 51
0.0
  0
ARC
  8
LC-002-002-RND-0
  6
CONTINUOUS
  5
BC
 10
124.669857
 20
185.626441
 30
0.0
 40
3.0
 50
270.0
 51
359.99881
  0
ARC
  8
LC-002-002-RND-0
  6
CONTINUOUS
  5
BD
 10
46.919898
 20
186.126441
 30
0.0
 40
2.0
 50
180.0
 51
270.0
  0
LINE
  8
LC-001-002-----0
  6
CONTINUOUS
  5
BE
 10
126.419898
 20
186.126441
 30
0.0
 11
126.419898
 21
197.626941
 31
0.0
  0
LINE
  8
LC-001-002-----0
  6
CONTINUOUS
  5
BF
 10
124.419898
 20
184.126441
 30
0.0
 11
104.169898
 21
184.126441
 31
0.0
  0
ARC
  8
LC-002-002-RND-0
  6
CONTINUOUS
  5
C0
 10
46.66994
 20
185.626441
 30
0.0
 40
3.0
 50
180.00119
 51
270.0
  0
LINE
  8
LC-001-002-----0
  6
CONTINUOUS
  5
C1
 10
46.919898
 20
184.126441
 30
0.0
 11
67.169898
 21
184.126441
 31
0.0
  0
LINE
  8
LC-001-002-----0
  6
CONTINUOUS
  5
C2
 10
43.66994
 20
185.626379
 30
0.0
 11
43.669732
 21
195.626941
 31
0.0
  0
ARC
  8
LC-001-002-----0
  6
CONTINUOUS
  5
C3
 10
107.033596
 20
98.55865
 30
0.0
 40
37.5
 50
282.117948
 51
289.748758
  0
LINE
  8
LC-001-002-----0
  6
CONTINUOUS
  5
C4
 10
40.169898
 20
195.626941
 30
0.0
 11
40.169898
 21
197.626941
 31
0.0
  0
LINE
  8
LC-001-002-----0
  6
CONTINUOUS
  5
C5
 10
85.669898
 20
192.626941
 30
0.0
 11
70.669898
 21
192.626941
 31
0.0
  0
LINE
  8
LC-001-002-----0
  6
CONTINUOUS
  5
C6
 10
127.669857
 20
185.626379
 30
0.0
 11
127.670064
 21
195.626941
 31
0.0
  0
LINE
  8
LC-001-002-----0
  6
CONTINUOUS
  5
C7
 10
46.66994
 20
182.626441
 30
0.0
 11
67.169898
 21
182.626441
 31
0.0
  0
LINE
  8
LC-001-002-----0
  6
CONTINUOUS
  5
C8
 10
131.169898
 20
195.626941
 30
0.0
 11
131.169898
 21
197.626941
 31
0.0
  0
CIRCLE
  8
LC-001-002-----0
  6
CONTINUOUS
  5
C9
 10
85.669898
 20
72.383875
 30
0.0
 40
19.0
  0
LINE
  8
LC-001-002-----0
  6
CONTINUOUS
  5
CA
 10
43.669732
 20
195.626941
 30
0.0
 11
40.169898
 21
195.626941
 31
0.0
  0
LINE
  8
LC-001-002-----0
  6
CONTINUOUS
  5
CB
 10
69.169898
 20
192.626941
 30
0.0
 11
69.169898
 21
186.126441
 31
0.0
  0
LINE
  8
LC-001-002-----0
  6
CONTINUOUS
  5
CC
 10
44.919898
 20
197.626941
 30
0.0
 11
40.169898
 21
197.626941
 31
0.0
  0
LINE
  8
LC-001-002-----0
  6
CONTINUOUS
  5
CD
 10
100.669898
 20
192.626941
 30
0.0
 11
102.169898
 21
192.626941
 31
0.0
  0
ARC
  8
LC-001-002-----0
  6
CONTINUOUS
  5
CE
 10
99.531116
 20
103.196098
 30
0.0
 40
40.0
 50
288.514435
 51
294.680972
  0
ARC
  8
LC-001-002-----0
  6
CONTINUOUS
  5
CF
 10
82.267953
 20
38.769098
 30
0.0
 40
37.5
 50
37.141119
 51
43.276887
  0
CIRCLE
  8
LC-001-002-----0
  6
CONTINUOUS
  5
D0
 10
85.669898
 20
72.383875
 30
0.0
 40
16.5
  0
CIRCLE
  8
LC-001-002-----0
  6
CONTINUOUS
  5
D1
 10
85.669898
 20
72.383875
 30
0.0
 40
40.5
  0
ARC
  8
LC-001-002-----0
  6
CONTINUOUS
  5
D2
 10
99.531116
 20
41.571651
 30
0.0
 40
37.5
 50
49.086913
 51
51.236657
  0
ARC
  8
LC-001-002-----0
  6
CONTINUOUS
  5
D3
 10
73.683727
 20
40.794982
 30
0.0
 40
40.0
 50
30.465247
 51
35.094985
  0
ARC
  8
LC-001-002-----0
  6
CONTINUOUS
  5
D4
 10
107.033596
 20
98.55865
 30
0.0
 40
37.5
 50
262.922046
 51
267.210843
  0
ARC
  8
LC-001-002-----0
  6
CONTINUOUS
  5
D5
 10
107.033596
 20
98.55865
 30
0.0
 40
40.0
 50
273.514435
 51
279.680972
  0
LINE
  8
LC-001-002-----0
  6
CONTINUOUS
  5
D6
 10
127.670064
 20
195.626941
 30
0.0
 11
131.169898
 21
195.626941
 31
0.0
  0
LINE
  8
LC-001-002-----0
  6
CONTINUOUS
  5
D7
 10
102.169898
 20
192.626941
 30
0.0
 11
102.169898
 21
186.126441
 31
0.0
  0
ARC
  8
LC-001-002-----0
  6
CONTINUOUS
  5
D8
 10
113.080176
 20
92.137434
 30
0.0
 40
37.5
 50
267.117948
 51
274.748758
  0
ARC
  8
LC-001-002-----0
  6
CONTINUOUS
  5
D9
 10
73.683727
 20
40.794982
 30
0.0
 40
37.5
 50
22.141119
 51
28.276887
  0
ARC
  8
LC-001-002-----0
  6
CONTINUOUS
  5
DA
 10
65.916338
 20
44.973597
 30
0.0
 40
40.0
 50
15.465247
 51
20.094985
  0
ARC
  8
LC-001-002-----0
  6
CONTINUOUS
  5
DB
 10
113.080176
 20
92.137434
 30
0.0
 40
40.0
 50
258.514435
 51
264.680972
  0
ARC
  8
LC-001-002-----0
  6
CONTINUOUS
  5
DC
 10
91.084016
 20
39.034005
 30
0.0
 40
40.0
 50
50.319028
 51
56.485565
  0
ARC
  8
LC-001-002-----0
  6
CONTINUOUS
  5
DD
 10
117.258791
 20
84.370046
 30
0.0
 40
37.5
 50
252.117948
 51
259.748758
  0
ARC
  8
LC-001-002-----0
  6
CONTINUOUS
  5
DE
 10
65.916338
 20
44.973597
 30
0.0
 40
37.5
 50
7.141119
 51
13.276887
  0
ARC
  8
LC-001-002-----0
  6
CONTINUOUS
  5
DF
 10
59.495123
 20
51.020177
 30
0.0
 40
40.0
 50
0.465247
 51
5.094985
  0
ARC
  8
LC-001-002-----0
  6
CONTINUOUS
  5
E0
 10
99.531116
 20
103.196098
 30
0.0
 40
37.5
 50
277.922046
 51
282.210843
  0
ARC
  8
LC-001-002-----0
  6
CONTINUOUS
  5
E1
 10
117.258791
 20
84.370046
 30
0.0
 40
40.0
 50
243.514435
 51
249.680972
  0
LINE
  8
LC-001-002-----0
  6
CONTINUOUS
  5
E2
 10
120.905326
 20
182.626441
 30
0.0
 11
120.905326
 21
184.126441
 31
0.0
  0
ARC
  8
LC-001-002-----0
  6
CONTINUOUS
  5
E3
 10
91.084016
 20
105.733744
 30
0.0
 40
40.0
 50
289.049006
 51
290.840975
  0
ARC
  8
LC-001-002-----0
  6
CONTINUOUS
  5
E4
 10
119.284675
 20
75.78582
 30
0.0
 40
37.5
 50
237.117948
 51
244.748758
  0
ARC
  8
LC-001-002-----0
  6
CONTINUOUS
  5
E5
 10
117.258791
 20
84.370046
 30
0.0
 40
37.5
 50
232.922046
 51
237.210843
  0
ARC
  8
LC-001-002-----0
  6
CONTINUOUS
  5
E6
 10
59.495123
 20
51.020177
 30
0.0
 40
37.5
 50
352.141119
 51
358.276887
  0
ARC
  8
LC-001-002-----0
  6
CONTINUOUS
  5
E7
 10
54.857675
 20
58.522657
 30
0.0
 40
40.0
 50
345.465247
 51
350.094985
  0
ARC
  8
LC-001-002-----0
  6
CONTINUOUS
  5
E8
 10
119.019768
 20
66.969757
 30
0.0
 40
37.5
 50
222.117948
 51
229.748758
  0
ARC
  8
LC-001-002-----0
  6
CONTINUOUS
  5
E9
 10
119.284675
 20
75.78582
 30
0.0
 40
40.0
 50
228.514435
 51
234.680972
  0
ARC
  8
LC-001-002-----0
  6
CONTINUOUS
  5
EA
 10
119.284675
 20
75.78582
 30
0.0
 40
37.5
 50
217.922046
 51
222.210843
  0
ARC
  8
LC-001-002-----0
  6
CONTINUOUS
  5
EB
 10
119.019768
 20
66.969757
 30
0.0
 40
40.0
 50
223.50684
 51
230.942531
  0
ARC
  8
LC-001-002-----0
  6
CONTINUOUS
  5
EC
 10
99.531116
 20
103.196098
 30
0.0
 40
37.5
 50
297.117948
 51
304.748758
  0
LINE
  8
LC-001-002-----0
  6
CONTINUOUS
  5
ED
 10
113.169898
 20
182.626441
 30
0.0
 11
113.169898
 21
184.126441
 31
0.0
  0
ARC
  8
LC-001-002-----0
  6
CONTINUOUS
  5
EE
 10
59.495123
 20
93.747573
 30
0.0
 40
37.5
 50
12.117948
 51
19.748758
  0
ARC
  8
LC-001-002-----0
  6
CONTINUOUS
  5
EF
 10
91.084016
 20
39.034005
 30
0.0
 40
37.5
 50
52.141119
 51
58.276887
  0
LINE
  8
LC-001-002-----0
  6
CONTINUOUS
  5
F0
 10
108.2315
 20
182.626441
 30
0.0
 11
108.2315
 21
184.126441
 31
0.0
  0
ARC
  8
LC-001-002-----0
  6
CONTINUOUS
  5
F1
 10
82.267953
 20
38.769098
 30
0.0
 40
40.0
 50
45.465247
 51
50.094985
  0
ARC
  8
LC-001-002-----0
  6
CONTINUOUS
  5
F2
 10
119.019768
 20
66.969757
 30
0.0
 40
37.5
 50
233.763343
 51
236.393451
  0
CIRCLE
  8
LC-001-002-----0
  6
CONTINUOUS
  5
F3
 10
85.669898
 20
72.383875
 30
0.0
 40
38.75
  0
CIRCLE
  8
LC-001-002-----0
  6
CONTINUOUS
  5
F4
 10
85.669898
 20
72.383875
 30
0.0
 40
45.5
  0
ARC
  8
LC-001-002-----0
  6
CONTINUOUS
  5
F5
 10
54.857675
 20
86.245092
 30
0.0
 40
40.0
 50
18.514435
 51
24.680972
  0
ARC
  8
LC-001-002-----0
  6
CONTINUOUS
  5
F6
 10
119.284675
 20
68.981929
 30
0.0
 40
37.5
 50
127.141119
 51
133.276887
  0
ARC
  8
LC-001-002-----0
  6
CONTINUOUS
  5
F7
 10
116.482122
 20
86.245092
 30
0.0
 40
37.5
 50
138.606549
 51
141.236657
  0
ARC
  8
LC-001-002-----0
  6
CONTINUOUS
  5
F8
 10
117.258791
 20
60.397703
 30
0.0
 40
40.0
 50
120.465247
 51
125.094985
  0
ARC
  8
LC-001-002-----0
  6
CONTINUOUS
  5
F9
 10
59.495123
 20
93.747573
 30
0.0
 40
37.5
 50
352.922046
 51
357.210843
  0
ARC
  8
LC-001-002-----0
  6
CONTINUOUS
  5
FA
 10
59.495123
 20
93.747573
 30
0.0
 40
40.0
 50
3.514435
 51
9.680972
  0
ARC
  8
LC-001-002-----0
  6
CONTINUOUS
  5
FB
 10
65.916338
 20
99.794153
 30
0.0
 40
37.5
 50
357.117948
 51
4.748758
  0
ARC
  8
LC-001-002-----0
  6
CONTINUOUS
  5
FC
 10
117.258791
 20
60.397703
 30
0.0
 40
37.5
 50
112.141119
 51
118.276887
  0
ARC
  8
LC-001-002-----0
  6
CONTINUOUS
  5
FD
 10
113.080176
 20
52.630315
 30
0.0
 40
40.0
 50
105.465247
 51
110.094985
  0
ARC
  8
LC-001-002-----0
  6
CONTINUOUS
  5
FE
 10
65.916338
 20
99.794153
 30
0.0
 40
40.0
 50
348.514435
 51
354.680972
  0
ARC
  8
LC-001-002-----0
  6
CONTINUOUS
  5
FF
 10
119.019768
 20
77.797992
 30
0.0
 40
40.0
 50
140.319028
 51
146.485565
  0
ARC
  8
LC-001-002-----0
  6
CONTINUOUS
  5
100
 10
82.267953
 20
38.769098
 30
0.0
 40
40.0
 50
35.319028
 51
41.485565
  0
ARC
  8
LC-001-002-----0
  6
CONTINUOUS
  5
101
 10
119.019768
 20
77.797992
 30
0.0
 40
40.0
 50
150.465247
 51
155.094985
  0
ARC
  8
LC-001-002-----0
  6
CONTINUOUS
  5
102
 10
73.683727
 20
40.794982
 30
0.0
 40
40.0
 50
20.319028
 51
26.485565
  0
ARC
  8
LC-001-002-----0
  6
CONTINUOUS
  5
103
 10
65.916338
 20
44.973597
 30
0.0
 40
40.0
 50
5.319028
 51
11.485565
  0
ARC
  8
LC-001-002-----0
  6
CONTINUOUS
  5
104
 10
59.495123
 20
51.020177
 30
0.0
 40
40.0
 50
350.319028
 51
356.485565
  0
ARC
  8
LC-001-002-----0
  6
CONTINUOUS
  5
105
 10
54.857675
 20
58.522657
 30
0.0
 40
40.0
 50
335.319028
 51
341.485565
  0
ARC
  8
LC-001-002-----0
  6
CONTINUOUS
  5
106
 10
73.683727
 20
103.972768
 30
0.0
 40
37.5
 50
342.117948
 51
349.748758
  0
ARC
  8
LC-001-002-----0
  6
CONTINUOUS
  5
107
 10
113.080176
 20
52.630315
 30
0.0
 40
37.5
 50
97.141119
 51
103.276887
  0
ARC
  8
LC-001-002-----0
  6
CONTINUOUS
  5
108
 10
119.284675
 20
75.78582
 30
0.0
 40
37.5
 50
248.763343
 51
251.393451
  0
ARC
  8
LC-001-002-----0
  6
CONTINUOUS
  5
109
 10
119.284675
 20
75.78582
 30
0.0
 40
40.0
 50
214.049006
 51
215.840975
  0
ARC
  8
LC-001-002-----0
  6
CONTINUOUS
  5
10A
 10
59.495123
 20
51.020177
 30
0.0
 40
37.5
 50
340.251242
 51
347.882052
  0
ARC
  8
LC-001-002-----0
  6
CONTINUOUS
  5
10B
 10
59.495123
 20
51.020177
 30
0.0
 40
40.0
 50
339.057469
 51
346.49316
  0
ARC
  8
LC-001-002-----0
  6
CONTINUOUS
  5
10C
 10
107.033596
 20
46.209099
 30
0.0
 40
40.0
 50
90.465247
 51
95.094985
  0
ARC
  8
LC-001-002-----0
  6
CONTINUOUS
  5
10D
 10
65.916338
 20
44.973597
 30
0.0
 40
37.5
 50
355.251242
 51
2.882052
  0
ARC
  8
LC-001-002-----0
  6
CONTINUOUS
  5
10E
 10
117.258791
 20
84.370046
 30
0.0
 40
40.0
 50
229.049006
 51
230.840975
  0
LINE
  8
LC-001-002-----0
  6
CONTINUOUS
  5
10F
 10
104.669898
 20
182.626441
 30
0.0
 11
104.669898
 21
184.126441
 31
0.0
  0
ARC
  8
LC-001-002-----0
  6
CONTINUOUS
  5
110
 10
119.284675
 20
75.78582
 30
0.0
 40
40.0
 50
238.50684
 51
245.942531
  0
ARC
  8
LC-001-002-----0
  6
CONTINUOUS
  5
111
 10
65.916338
 20
44.973597
 30
0.0
 40
40.0
 50
354.057469
 51
1.49316
  0
ARC
  8
LC-001-002-----0
  6
CONTINUOUS
  5
112
 10
54.857675
 20
86.245092
 30
0.0
 40
37.5
 50
7.922046
 51
12.210843
  0
ARC
  8
LC-001-002-----0
  6
CONTINUOUS
  5
113
 10
73.683727
 20
103.972768
 30
0.0
 40
40.0
 50
333.514435
 51
339.680972
  0
ARC
  8
LC-001-002-----0
  6
CONTINUOUS
  5
114
 10
52.320029
 20
77.797992
 30
0.0
 40
40.0
 50
19.049006
 51
20.840975
  0
ARC
  8
LC-001-002-----0
  6
CONTINUOUS
  5
115
 10
82.267953
 20
105.998652
 30
0.0
 40
37.5
 50
327.117948
 51
334.748758
  0
ARC
  8
LC-001-002-----0
  6
CONTINUOUS
  5
116
 10
73.683727
 20
103.972768
 30
0.0
 40
37.5
 50
322.922046
 51
327.210843
  0
ARC
  8
LC-001-002-----0
  6
CONTINUOUS
  5
117
 10
107.033596
 20
46.209099
 30
0.0
 40
37.5
 50
82.141119
 51
88.276887
  0
ARC
  8
LC-001-002-----0
  6
CONTINUOUS
  5
118
 10
116.482122
 20
58.522657
 30
0.0
 40
37.5
 50
218.763343
 51
221.393451
  0
ARC
  8
LC-001-002-----0
  6
CONTINUOUS
  5
119
 10
99.531116
 20
41.571651
 30
0.0
 40
40.0
 50
75.465247
 51
80.094985
  0
ARC
  8
LC-001-002-----0
  6
CONTINUOUS
  5
11A
 10
91.084016
 20
105.733744
 30
0.0
 40
37.5
 50
312.117948
 51
319.748758
  0
ARC
  8
LC-001-002-----0
  6
CONTINUOUS
  5
11B
 10
54.857675
 20
58.522657
 30
0.0
 40
40.0
 50
324.057469
 51
331.49316
  0
ARC
  8
LC-001-002-----0
  6
CONTINUOUS
  5
11C
 10
54.857675
 20
58.522657
 30
0.0
 40
37.5
 50
325.251242
 51
332.882052
  0
ARC
  8
LC-001-002-----0
  6
CONTINUOUS
  5
11D
 10
119.019768
 20
66.969757
 30
0.0
 40
40.0
 50
213.514435
 51
219.680972
  0
ARC
  8
LC-001-002-----0
  6
CONTINUOUS
  5
11E
 10
82.267953
 20
105.998652
 30
0.0
 40
40.0
 50
318.514435
 51
324.680972
  0
ARC
  8
LC-001-002-----0
  6
CONTINUOUS
  5
11F
 10
82.267953
 20
105.998652
 30
0.0
 40
37.5
 50
307.922046
 51
312.210843
  0
ARC
  8
LC-001-002-----0
  6
CONTINUOUS
  5
120
 10
91.084016
 20
105.733744
 30
0.0
 40
40.0
 50
313.50684
 51
320.942531
  0
ARC
  8
LC-001-002-----0
  6
CONTINUOUS
  5
121
 10
54.857675
 20
86.245092
 30
0.0
 40
37.5
 50
27.117948
 51
34.748758
  0
LINE
  8
LC-001-002-----0
  6
CONTINUOUS
  5
122
 10
58.169898
 20
182.626441
 30
0.0
 11
58.169898
 21
184.126441
 31
0.0
  0
ARC
  8
LC-001-002-----0
  6
CONTINUOUS
  5
123
 10
119.019768
 20
77.797992
 30
0.0
 40
37.5
 50
142.141119
 51
148.276887
  0
ARC
  8
LC-001-002-----0
  6
CONTINUOUS
  5
124
 10
119.284675
 20
68.981929
 30
0.0
 40
40.0
 50
135.465247
 51
140.094985
  0
ARC
  8
LC-001-002-----0
  6
CONTINUOUS
  5
125
 10
91.084016
 20
105.733744
 30
0.0
 40
37.5
 50
323.763343
 51
326.393451
  0
ARC
  8
LC-001-002-----0
  6
CONTINUOUS
  5
126
 10
119.284675
 20
68.981929
 30
0.0
 40
40.0
 50
125.319028
 51
131.485565
  0
ARC
  8
LC-001-002-----0
  6
CONTINUOUS
  5
127
 10
117.258791
 20
60.397703
 30
0.0
 40
40.0
 50
110.319028
 51
116.485565
  0
ARC
  8
LC-001-002-----0
  6
CONTINUOUS
  5
128
 10
113.080176
 20
52.630315
 30
0.0
 40
40.0
 50
95.319028
 51
101.485565
  0
ARC
  8
LC-001-002-----0
  6
CONTINUOUS
  5
129
 10
107.033596
 20
46.209099
 30
0.0
 40
40.0
 50
80.319028
 51
86.485565
  0
ARC
  8
LC-001-002-----0
  6
CONTINUOUS
  5
12A
 10
99.531116
 20
41.571651
 30
0.0
 40
40.0
 50
65.319028
 51
71.485565
  0
ARC
  8
LC-001-002-----0
  6
CONTINUOUS
  5
12B
 10
82.267953
 20
105.998652
 30
0.0
 40
37.5
 50
338.763343
 51
341.393451
  0
ARC
  8
LC-001-002-----0
  6
CONTINUOUS
  5
12C
 10
82.267953
 20
105.998652
 30
0.0
 40
40.0
 50
304.049006
 51
305.840975
  0
ARC
  8
LC-001-002-----0
  6
CONTINUOUS
  5
12D
 10
107.033596
 20
46.209099
 30
0.0
 40
37.5
 50
70.251242
 51
77.882052
  0
ARC
  8
LC-001-002-----0
  6
CONTINUOUS
  5
12E
 10
107.033596
 20
46.209099
 30
0.0
 40
40.0
 50
69.057469
 51
76.49316
  0
ARC
  8
LC-001-002-----0
  6
CONTINUOUS
  5
12F
 10
113.080176
 20
52.630315
 30
0.0
 40
37.5
 50
85.251242
 51
92.882052
  0
ARC
  8
LC-001-002-----0
  6
CONTINUOUS
  5
130
 10
73.683727
 20
103.972768
 30
0.0
 40
40.0
 50
319.049006
 51
320.840975
  0
ARC
  8
LC-001-002-----0
  6
CONTINUOUS
  5
131
 10
116.482122
 20
86.245092
 30
0.0
 40
37.5
 50
157.141119
 51
163.276887
  0
ARC
  8
LC-001-002-----0
  6
CONTINUOUS
  5
132
 10
82.267953
 20
105.998652
 30
0.0
 40
40.0
 50
328.50684
 51
335.942531
  0
ARC
  8
LC-001-002-----0
  6
CONTINUOUS
  5
133
 10
113.080176
 20
52.630315
 30
0.0
 40
40.0
 50
84.057469
 51
91.49316
  0
ARC
  8
LC-001-002-----0
  6
CONTINUOUS
  5
134
 10
99.531116
 20
103.196098
 30
0.0
 40
37.5
 50
308.763343
 51
311.393451
  0
ARC
  8
LC-001-002-----0
  6
CONTINUOUS
  5
135
 10
99.531116
 20
41.571651
 30
0.0
 40
40.0
 50
54.057469
 51
61.49316
  0
ARC
  8
LC-001-002-----0
  6
CONTINUOUS
  5
136
 10
99.531116
 20
41.571651
 30
0.0
 40
37.5
 50
55.251242
 51
62.882052
  0
ARC
  8
LC-001-002-----0
  6
CONTINUOUS
  5
137
 10
117.258791
 20
84.370046
 30
0.0
 40
37.5
 50
263.763343
 51
266.393451
  0
ARC
  8
LC-001-002-----0
  6
CONTINUOUS
  5
138
 10
91.084016
 20
105.733744
 30
0.0
 40
40.0
 50
303.514435
 51
309.680972
  0
ARC
  8
LC-001-002-----0
  6
CONTINUOUS
  5
139
 10
73.683727
 20
103.972768
 30
0.0
 40
37.5
 50
353.763343
 51
356.393451
  0
ARC
  8
LC-001-002-----0
  6
CONTINUOUS
  5
13A
 10
117.258791
 20
84.370046
 30
0.0
 40
40.0
 50
253.50684
 51
260.942531
  0
ARC
  8
LC-001-002-----0
  6
CONTINUOUS
  5
13B
 10
73.683727
 20
103.972768
 30
0.0
 40
40.0
 50
343.50684
 51
350.942531
  0
ARC
  8
LC-001-002-----0
  6
CONTINUOUS
  5
13C
 10
117.258791
 20
60.397703
 30
0.0
 40
40.0
 50
99.057469
 51
106.49316
  0
ARC
  8
LC-001-002-----0
  6
CONTINUOUS
  5
13D
 10
117.258791
 20
60.397703
 30
0.0
 40
37.5
 50
100.251242
 51
107.882052
  0
ARC
  8
LC-001-002-----0
  6
CONTINUOUS
  5
13E
 10
73.683727
 20
40.794982
 30
0.0
 40
40.0
 50
9.057469
 51
16.49316
  0
ARC
  8
LC-001-002-----0
  6
CONTINUOUS
  5
13F
 10
73.683727
 20
40.794982
 30
0.0
 40
37.5
 50
10.251242
 51
17.882052
  0
ARC
  8
LC-001-002-----0
  6
CONTINUOUS
  5
140
 10
65.916338
 20
99.794153
 30
0.0
 40
40.0
 50
334.049006
 51
335.840975
  0
ARC
  8
LC-001-002-----0
  6
CONTINUOUS
  5
141
 10
65.916338
 20
99.794153
 30
0.0
 40
40.0
 50
358.50684
 51
5.942531
  0
ARC
  8
LC-001-002-----0
  6
CONTINUOUS
  5
142
 10
65.916338
 20
99.794153
 30
0.0
 40
37.5
 50
337.922046
 51
342.210843
  0
ARC
  8
LC-001-002-----0
  6
CONTINUOUS
  5
143
 10
65.916338
 20
99.794153
 30
0.0
 40
37.5
 50
8.763343
 51
11.393451
  0
ARC
  8
LC-001-002-----0
  6
CONTINUOUS
  5
144
 10
113.080176
 20
92.137434
 30
0.0
 40
40.0
 50
244.136732
 51
245.840975
  0
ARC
  8
LC-001-002-----0
  6
CONTINUOUS
  5
145
 10
113.080176
 20
92.137434
 30
0.0
 40
40.0
 50
268.50684
 51
275.942531
  0
ARC
  8
LC-001-002-----0
  6
CONTINUOUS
  5
146
 10
59.495123
 20
93.747573
 30
0.0
 40
40.0
 50
349.049006
 51
350.840975
  0
ARC
  8
LC-001-002-----0
  6
CONTINUOUS
  5
147
 10
119.284675
 20
68.981929
 30
0.0
 40
37.5
 50
115.251242
 51
122.882052
  0
ARC
  8
LC-001-002-----0
  6
CONTINUOUS
  5
148
 10
119.284675
 20
68.981929
 30
0.0
 40
40.0
 50
114.057469
 51
121.721122
  0
ARC
  8
LC-001-002-----0
  6
CONTINUOUS
  5
149
 10
113.080176
 20
92.137434
 30
0.0
 40
37.5
 50
247.922046
 51
252.210843
  0
ARC
  8
LC-001-002-----0
  6
CONTINUOUS
  5
14A
 10
113.080176
 20
92.137434
 30
0.0
 40
37.5
 50
278.763343
 51
281.393451
  0
ARC
  8
LC-001-002-----0
  6
CONTINUOUS
  5
14B
 10
59.495123
 20
93.747573
 30
0.0
 40
40.0
 50
13.50684
 51
20.942531
  0
ARC
  8
LC-001-002-----0
  6
CONTINUOUS
  5
14C
 10
59.495123
 20
93.747573
 30
0.0
 40
37.5
 50
23.763343
 51
26.393451
  0
ARC
  8
LC-001-002-----0
  6
CONTINUOUS
  5
14D
 10
54.857675
 20
86.245092
 30
0.0
 40
40.0
 50
4.049006
 51
5.840975
  0
ARC
  8
LC-001-002-----0
  6
CONTINUOUS
  5
14E
 10
119.019768
 20
77.797992
 30
0.0
 40
37.5
 50
130.251242
 51
137.882052
  0
ARC
  8
LC-001-002-----0
  6
CONTINUOUS
  5
14F
 10
119.019768
 20
77.797992
 30
0.0
 40
40.0
 50
129.057469
 51
136.49316
  0
ARC
  8
LC-001-002-----0
  6
CONTINUOUS
  5
150
 10
54.857675
 20
86.245092
 30
0.0
 40
40.0
 50
28.50684
 51
35.942531
  0
ARC
  8
LC-001-002-----0
  6
CONTINUOUS
  5
151
 10
107.033596
 20
98.55865
 30
0.0
 40
40.0
 50
259.049006
 51
260.840975
  0
ARC
  8
LC-001-002-----0
  6
CONTINUOUS
  5
152
 10
82.267953
 20
38.769098
 30
0.0
 40
37.5
 50
25.251242
 51
32.882052
  0
ARC
  8
LC-001-002-----0
  6
CONTINUOUS
  5
153
 10
82.267953
 20
38.769098
 30
0.0
 40
40.0
 50
24.057469
 51
31.49316
  0
ARC
  8
LC-001-002-----0
  6
CONTINUOUS
  5
154
 10
119.019768
 20
77.797992
 30
0.0
 40
37.5
 50
123.606549
 51
126.236657
  0
ARC
  8
LC-001-002-----0
  6
CONTINUOUS
  5
155
 10
119.284675
 20
68.981929
 30
0.0
 40
37.5
 50
108.606549
 51
111.236657
  0
ARC
  8
LC-001-002-----0
  6
CONTINUOUS
  5
156
 10
117.258791
 20
60.397703
 30
0.0
 40
37.5
 50
93.606549
 51
96.236657
  0
ARC
  8
LC-001-002-----0
  6
CONTINUOUS
  5
157
 10
113.080176
 20
52.630315
 30
0.0
 40
37.5
 50
78.606549
 51
81.236657
  0
ARC
  8
LC-001-002-----0
  6
CONTINUOUS
  5
158
 10
107.033596
 20
46.209099
 30
0.0
 40
37.5
 50
63.606549
 51
66.236657
  0
LINE
  8
LC-001-002-----0
  6
CONTINUOUS
  5
159
 10
63.108297
 20
182.626441
 30
0.0
 11
63.108297
 21
184.126441
 31
0.0
  0
ARC
  8
LC-001-002-----0
  6
CONTINUOUS
  5
15A
 10
107.033596
 20
98.55865
 30
0.0
 40
40.0
 50
283.50684
 51
290.942531
  0
ARC
  8
LC-001-002-----0
  6
CONTINUOUS
  5
15B
 10
64.3062
 20
46.209099
 30
0.0
 40
37.5
 50
102.117948
 51
109.748758
  0
ARC
  8
LC-001-002-----0
  6
CONTINUOUS
  5
15C
 10
107.033596
 20
98.55865
 30
0.0
 40
37.5
 50
293.763343
 51
295.913087
  0
ARC
  8
LC-001-002-----0
  6
CONTINUOUS
  5
15D
 10
71.808681
 20
41.571651
 30
0.0
 40
40.0
 50
108.514435
 51
114.680972
  0
ARC
  8
LC-001-002-----0
  6
CONTINUOUS
  5
15E
 10
99.531116
 20
103.196098
 30
0.0
 40
40.0
 50
274.049006
 51
275.840975
  0
ARC
  8
LC-001-002-----0
  6
CONTINUOUS
  5
15F
 10
91.084016
 20
39.034005
 30
0.0
 40
37.5
 50
40.251242
 51
47.882052
  0
ARC
  8
LC-001-002-----0
  6
CONTINUOUS
  5
160
 10
91.084016
 20
39.034005
 30
0.0
 40
40.0
 50
39.057469
 51
46.49316
  0
ARC
  8
LC-001-002-----0
  6
CONTINUOUS
  5
161
 10
89.071843
 20
105.998652
 30
0.0
 40
37.5
 50
217.141119
 51
223.276887
  0
ARC
  8
LC-001-002-----0
  6
CONTINUOUS
  5
162
 10
99.531116
 20
103.196098
 30
0.0
 40
40.0
 50
298.50684
 51
305.942531
  0
ARC
  8
LC-001-002-----0
  6
CONTINUOUS
  5
163
 10
71.808681
 20
103.196098
 30
0.0
 40
37.5
 50
228.606549
 51
231.236657
  0
LINE
  8
LC-001-002-----0
  6
CONTINUOUS
  5
164
 10
66.669898
 20
182.626441
 30
0.0
 11
66.669898
 21
184.126441
 31
0.0
  0
ARC
  8
LC-001-002-----0
  6
CONTINUOUS
  5
165
 10
97.656069
 20
103.972768
 30
0.0
 40
40.0
 50
210.465247
 51
215.094985
  0
ARC
  8
LC-001-002-----0
  6
CONTINUOUS
  5
166
 10
91.084016
 20
39.034005
 30
0.0
 40
37.5
 50
33.606549
 51
36.236657
  0
ARC
  8
LC-001-002-----0
  6
CONTINUOUS
  5
167
 10
64.3062
 20
46.209099
 30
0.0
 40
37.5
 50
82.922046
 51
87.210843
  0
ARC
  8
LC-001-002-----0
  6
CONTINUOUS
  5
168
 10
82.267953
 20
38.769098
 30
0.0
 40
37.5
 50
18.606549
 51
21.236657
  0
ARC
  8
LC-001-002-----0
  6
CONTINUOUS
  5
169
 10
64.3062
 20
46.209099
 30
0.0
 40
40.0
 50
93.514435
 51
99.680972
  0
ARC
  8
LC-001-002-----0
  6
CONTINUOUS
  5
16A
 10
73.683727
 20
40.794982
 30
0.0
 40
37.5
 50
3.606549
 51
6.236657
  0
ARC
  8
LC-001-002-----0
  6
CONTINUOUS
  5
16B
 10
58.25962
 20
52.630315
 30
0.0
 40
37.5
 50
87.117948
 51
94.748758
  0
ARC
  8
LC-001-002-----0
  6
CONTINUOUS
  5
16C
 10
65.916338
 20
44.973597
 30
0.0
 40
37.5
 50
348.606549
 51
351.236657
  0
ARC
  8
LC-001-002-----0
  6
CONTINUOUS
  5
16D
 10
97.656069
 20
103.972768
 30
0.0
 40
37.5
 50
202.141119
 51
208.276887
  0
ARC
  8
LC-001-002-----0
  6
CONTINUOUS
  5
16E
 10
59.495123
 20
51.020177
 30
0.0
 40
37.5
 50
333.606549
 51
336.236657
  0
ARC
  8
LC-001-002-----0
  6
CONTINUOUS
  5
16F
 10
105.423458
 20
99.794153
 30
0.0
 40
40.0
 50
195.465247
 51
200.094985
  0
ARC
  8
LC-001-002-----0
  6
CONTINUOUS
  5
170
 10
58.25962
 20
52.630315
 30
0.0
 40
40.0
 50
78.514435
 51
84.680972
  0
ARC
  8
LC-001-002-----0
  6
CONTINUOUS
  5
171
 10
80.25578
 20
105.733744
 30
0.0
 40
40.0
 50
230.319028
 51
236.485565
  0
ARC
  8
LC-001-002-----0
  6
CONTINUOUS
  5
172
 10
80.25578
 20
105.733744
 30
0.0
 40
40.0
 50
240.465247
 51
245.094985
  0
ARC
  8
LC-001-002-----0
  6
CONTINUOUS
  5
173
 10
54.081005
 20
60.397703
 30
0.0
 40
37.5
 50
72.117948
 51
79.748758
  0
ARC
  8
LC-001-002-----0
  6
CONTINUOUS
  5
174
 10
105.423458
 20
99.794153
 30
0.0
 40
37.5
 50
187.141119
 51
193.276887
  0
ARC
  8
LC-001-002-----0
  6
CONTINUOUS
  5
175
 10
111.844674
 20
93.747573
 30
0.0
 40
40.0
 50
180.465247
 51
185.094985
  0
ARC
  8
LC-001-002-----0
  6
CONTINUOUS
  5
176
 10
71.808681
 20
41.571651
 30
0.0
 40
37.5
 50
97.922046
 51
102.210843
  0
ARC
  8
LC-001-002-----0
  6
CONTINUOUS
  5
177
 10
54.081005
 20
60.397703
 30
0.0
 40
40.0
 50
63.514435
 51
69.680972
  0
ARC
  8
LC-001-002-----0
  6
CONTINUOUS
  5
178
 10
80.25578
 20
39.034005
 30
0.0
 40
40.0
 50
109.049006
 51
110.840975
  0
ARC
  8
LC-001-002-----0
  6
CONTINUOUS
  5
179
 10
52.055121
 20
68.981929
 30
0.0
 40
37.5
 50
57.117948
 51
64.748758
  0
ARC
  8
LC-001-002-----0
  6
CONTINUOUS
  5
17A
 10
54.081005
 20
60.397703
 30
0.0
 40
37.5
 50
52.922046
 51
57.210843
  0
ARC
  8
LC-001-002-----0
  6
CONTINUOUS
  5
17B
 10
111.844674
 20
93.747573
 30
0.0
 40
37.5
 50
172.141119
 51
178.276887
  0
ARC
  8
LC-001-002-----0
  6
CONTINUOUS
  5
17C
 10
116.482122
 20
86.245092
 30
0.0
 40
40.0
 50
165.465247
 51
170.094985
  0
ARC
  8
LC-001-002-----0
  6
CONTINUOUS
  5
17D
 10
52.320029
 20
77.797992
 30
0.0
 40
37.5
 50
42.117948
 51
49.748758
  0
ARC
  8
LC-001-002-----0
  6
CONTINUOUS
  5
17E
 10
52.055121
 20
68.981929
 30
0.0
 40
40.0
 50
48.514435
 51
54.680972
  0
ARC
  8
LC-001-002-----0
  6
CONTINUOUS
  5
17F
 10
52.055121
 20
68.981929
 30
0.0
 40
37.5
 50
37.922046
 51
42.210843
  0
ARC
  8
LC-001-002-----0
  6
CONTINUOUS
  5
180
 10
52.320029
 20
77.797992
 30
0.0
 40
40.0
 50
43.50684
 51
50.942531
  0
ARC
  8
LC-001-002-----0
  6
CONTINUOUS
  5
181
 10
71.808681
 20
41.571651
 30
0.0
 40
37.5
 50
117.117948
 51
124.748758
  0
ARC
  8
LC-001-002-----0
  6
CONTINUOUS
  5
182
 10
80.25578
 20
105.733744
 30
0.0
 40
37.5
 50
232.141119
 51
238.276887
  0
ARC
  8
LC-001-002-----0
  6
CONTINUOUS
  5
183
 10
89.071843
 20
105.998652
 30
0.0
 40
40.0
 50
225.465247
 51
230.094985
  0
ARC
  8
LC-001-002-----0
  6
CONTINUOUS
  5
184
 10
52.320029
 20
77.797992
 30
0.0
 40
37.5
 50
53.763343
 51
56.393451
  0
ARC
  8
LC-001-002-----0
  6
CONTINUOUS
  5
185
 10
89.071843
 20
105.998652
 30
0.0
 40
40.0
 50
215.319028
 51
221.485565
  0
ARC
  8
LC-001-002-----0
  6
CONTINUOUS
  5
186
 10
97.656069
 20
103.972768
 30
0.0
 40
40.0
 50
200.319028
 51
206.485565
  0
ARC
  8
LC-001-002-----0
  6
CONTINUOUS
  5
187
 10
105.423458
 20
99.794153
 30
0.0
 40
40.0
 50
185.319028
 51
191.485565
  0
ARC
  8
LC-001-002-----0
  6
CONTINUOUS
  5
188
 10
111.844674
 20
93.747573
 30
0.0
 40
40.0
 50
170.319028
 51
176.485565
  0
ARC
  8
LC-001-002-----0
  6
CONTINUOUS
  5
189
 10
116.482122
 20
86.245092
 30
0.0
 40
40.0
 50
155.319028
 51
161.485565
  0
ARC
  8
LC-001-002-----0
  6
CONTINUOUS
  5
18A
 10
52.055121
 20
68.981929
 30
0.0
 40
37.5
 50
68.763343
 51
71.393451
  0
ARC
  8
LC-001-002-----0
  6
CONTINUOUS
  5
18B
 10
52.055121
 20
68.981929
 30
0.0
 40
40.0
 50
34.049006
 51
35.840975
  0
ARC
  8
LC-001-002-----0
  6
CONTINUOUS
  5
18C
 10
111.844674
 20
93.747573
 30
0.0
 40
37.5
 50
160.251242
 51
167.882052
  0
ARC
  8
LC-001-002-----0
  6
CONTINUOUS
  5
18D
 10
111.844674
 20
93.747573
 30
0.0
 40
40.0
 50
159.057469
 51
166.49316
  0
ARC
  8
LC-001-002-----0
  6
CONTINUOUS
  5
18E
 10
105.423458
 20
99.794153
 30
0.0
 40
37.5
 50
175.251242
 51
182.882052
  0
ARC
  8
LC-001-002-----0
  6
CONTINUOUS
  5
18F
 10
54.081005
 20
60.397703
 30
0.0
 40
40.0
 50
49.049006
 51
50.840975
  0
ARC
  8
LC-001-002-----0
  6
CONTINUOUS
  5
190
 10
71.808681
 20
103.196098
 30
0.0
 40
37.5
 50
247.141119
 51
253.276887
  0
ARC
  8
LC-001-002-----0
  6
CONTINUOUS
  5
191
 10
52.055121
 20
68.981929
 30
0.0
 40
40.0
 50
58.50684
 51
65.942531
  0
ARC
  8
LC-001-002-----0
  6
CONTINUOUS
  5
192
 10
105.423458
 20
99.794153
 30
0.0
 40
40.0
 50
174.057469
 51
181.49316
  0
ARC
  8
LC-001-002-----0
  6
CONTINUOUS
  5
193
 10
54.857675
 20
86.245092
 30
0.0
 40
37.5
 50
38.763343
 51
41.393451
  0
ARC
  8
LC-001-002-----0
  6
CONTINUOUS
  5
194
 10
116.482122
 20
86.245092
 30
0.0
 40
40.0
 50
144.057469
 51
151.49316
  0
ARC
  8
LC-001-002-----0
  6
CONTINUOUS
  5
195
 10
116.482122
 20
86.245092
 30
0.0
 40
37.5
 50
145.251242
 51
152.882052
  0
ARC
  8
LC-001-002-----0
  6
CONTINUOUS
  5
196
 10
52.320029
 20
77.797992
 30
0.0
 40
40.0
 50
33.514435
 51
39.680972
  0
ARC
  8
LC-001-002-----0
  6
CONTINUOUS
  5
197
 10
54.081005
 20
60.397703
 30
0.0
 40
37.5
 50
83.763343
 51
86.393451
  0
ARC
  8
LC-001-002-----0
  6
CONTINUOUS
  5
198
 10
54.081005
 20
60.397703
 30
0.0
 40
40.0
 50
73.50684
 51
80.942531
  0
ARC
  8
LC-001-002-----0
  6
CONTINUOUS
  5
199
 10
97.656069
 20
103.972768
 30
0.0
 40
40.0
 50
189.057469
 51
196.49316
  0
ARC
  8
LC-001-002-----0
  6
CONTINUOUS
  5
19A
 10
97.656069
 20
103.972768
 30
0.0
 40
37.5
 50
190.251242
 51
197.882052
  0
ARC
  8
LC-001-002-----0
  6
CONTINUOUS
  5
19B
 10
58.25962
 20
52.630315
 30
0.0
 40
40.0
 50
64.049006
 51
65.840975
  0
ARC
  8
LC-001-002-----0
  6
CONTINUOUS
  5
19C
 10
58.25962
 20
52.630315
 30
0.0
 40
40.0
 50
88.50684
 51
95.942531
  0
ARC
  8
LC-001-002-----0
  6
CONTINUOUS
  5
19D
 10
58.25962
 20
52.630315
 30
0.0
 40
37.5
 50
67.922046
 51
72.210843
  0
ARC
  8
LC-001-002-----0
  6
CONTINUOUS
  5
19E
 10
58.25962
 20
52.630315
 30
0.0
 40
37.5
 50
98.763343
 51
101.393451
  0
ARC
  8
LC-001-002-----0
  6
CONTINUOUS
  5
19F
 10
64.3062
 20
46.209099
 30
0.0
 40
40.0
 50
79.049006
 51
80.840975
  0
ARC
  8
LC-001-002-----0
  6
CONTINUOUS
  5
1A0
 10
89.071843
 20
105.998652
 30
0.0
 40
37.5
 50
205.251242
 51
212.882052
  0
ARC
  8
LC-001-002-----0
  6
CONTINUOUS
  5
1A1
 10
89.071843
 20
105.998652
 30
0.0
 40
40.0
 50
204.057469
 51
211.49316
  0
ARC
  8
LC-001-002-----0
  6
CONTINUOUS
  5
1A2
 10
64.3062
 20
46.209099
 30
0.0
 40
40.0
 50
103.50684
 51
110.942531
  0
ARC
  8
LC-001-002-----0
  6
CONTINUOUS
  5
1A3
 10
64.3062
 20
46.209099
 30
0.0
 40
37.5
 50
113.763343
 51
116.393451
  0
ARC
  8
LC-001-002-----0
  6
CONTINUOUS
  5
1A4
 10
71.808681
 20
41.571651
 30
0.0
 40
40.0
 50
94.049006
 51
95.840975
  0
ARC
  8
LC-001-002-----0
  6
CONTINUOUS
  5
1A5
 10
80.25578
 20
105.733744
 30
0.0
 40
37.5
 50
220.251242
 51
227.882052
  0
ARC
  8
LC-001-002-----0
  6
CONTINUOUS
  5
1A6
 10
80.25578
 20
105.733744
 30
0.0
 40
40.0
 50
219.057469
 51
226.49316
  0
ARC
  8
LC-001-002-----0
  6
CONTINUOUS
  5
1A7
 10
71.808681
 20
41.571651
 30
0.0
 40
40.0
 50
118.50684
 51
125.942531
  0
ARC
  8
LC-001-002-----0
  6
CONTINUOUS
  5
1A8
 10
80.25578
 20
105.733744
 30
0.0
 40
37.5
 50
213.606549
 51
216.236657
  0
ARC
  8
LC-001-002-----0
  6
CONTINUOUS
  5
1A9
 10
89.071843
 20
105.998652
 30
0.0
 40
37.5
 50
198.606549
 51
201.236657
  0
ARC
  8
LC-001-002-----0
  6
CONTINUOUS
  5
1AA
 10
97.656069
 20
103.972768
 30
0.0
 40
37.5
 50
183.606549
 51
186.236657
  0
ARC
  8
LC-001-002-----0
  6
CONTINUOUS
  5
1AB
 10
105.423458
 20
99.794153
 30
0.0
 40
37.5
 50
168.606549
 51
171.236657
  0
ARC
  8
LC-001-002-----0
  6
CONTINUOUS
  5
1AC
 10
111.844674
 20
93.747573
 30
0.0
 40
37.5
 50
153.606549
 51
156.236657
  0
ARC
  8
LC-001-002-----0
  6
CONTINUOUS
  5
1AD
 10
107.033596
 20
46.209099
 30
0.0
 40
37.5
 50
92.789157
 51
97.077954
  0
ARC
  8
LC-001-002-----0
  6
CONTINUOUS
  5
1AE
 10
111.844674
 20
51.020177
 30
0.0
 40
37.5
 50
192.117948
 51
199.748758
  0
ARC
  8
LC-001-002-----0
  6
CONTINUOUS
  5
1AF
 10
116.482122
 20
58.522657
 30
0.0
 40
40.0
 50
198.514435
 51
204.680972
  0
ARC
  8
LC-001-002-----0
  6
CONTINUOUS
  5
1B0
 10
52.055121
 20
75.78582
 30
0.0
 40
37.5
 50
307.141119
 51
313.276887
  0
ARC
  8
LC-001-002-----0
  6
CONTINUOUS
  5
1B1
 10
54.857675
 20
58.522657
 30
0.0
 40
37.5
 50
318.606549
 51
321.236657
  0
ARC
  8
LC-001-002-----0
  6
CONTINUOUS
  5
1B2
 10
54.081005
 20
84.370046
 30
0.0
 40
40.0
 50
300.465247
 51
305.094985
  0
ARC
  8
LC-001-002-----0
  6
CONTINUOUS
  5
1B3
 10
111.844674
 20
51.020177
 30
0.0
 40
37.5
 50
172.922046
 51
177.210843
  0
ARC
  8
LC-001-002-----0
  6
CONTINUOUS
  5
1B4
 10
111.844674
 20
51.020177
 30
0.0
 40
40.0
 50
183.514435
 51
189.680972
  0
ARC
  8
LC-001-002-----0
  6
CONTINUOUS
  5
1B5
 10
105.423458
 20
44.973597
 30
0.0
 40
37.5
 50
177.117948
 51
184.748758
  0
ARC
  8
LC-001-002-----0
  6
CONTINUOUS
  5
1B6
 10
54.081005
 20
84.370046
 30
0.0
 40
37.5
 50
292.141119
 51
298.276887
  0
ARC
  8
LC-001-002-----0
  6
CONTINUOUS
  5
1B7
 10
58.25962
 20
92.137434
 30
0.0
 40
40.0
 50
285.465247
 51
290.094985
  0
ARC
  8
LC-001-002-----0
  6
CONTINUOUS
  5
1B8
 10
105.423458
 20
44.973597
 30
0.0
 40
40.0
 50
168.514435
 51
174.680972
  0
ARC
  8
LC-001-002-----0
  6
CONTINUOUS
  5
1B9
 10
52.320029
 20
66.969757
 30
0.0
 40
40.0
 50
320.319028
 51
326.485565
  0
ARC
  8
LC-001-002-----0
  6
CONTINUOUS
  5
1BA
 10
54.857675
 20
58.522657
 30
0.0
 40
37.5
 50
337.141119
 51
343.276887
  0
ARC
  8
LC-001-002-----0
  6
CONTINUOUS
  5
1BB
 10
97.656069
 20
40.794982
 30
0.0
 40
37.5
 50
162.117948
 51
169.748758
  0
ARC
  8
LC-001-002-----0
  6
CONTINUOUS
  5
1BC
 10
58.25962
 20
92.137434
 30
0.0
 40
37.5
 50
277.141119
 51
283.276887
  0
ARC
  8
LC-001-002-----0
  6
CONTINUOUS
  5
1BD
 10
64.3062
 20
98.55865
 30
0.0
 40
40.0
 50
270.465247
 51
275.094985
  0
ARC
  8
LC-001-002-----0
  6
CONTINUOUS
  5
1BE
 10
116.482122
 20
58.522657
 30
0.0
 40
37.5
 50
187.922046
 51
192.210843
  0
ARC
  8
LC-001-002-----0
  6
CONTINUOUS
  5
1BF
 10
97.656069
 20
40.794982
 30
0.0
 40
40.0
 50
153.514435
 51
159.680972
  0
ARC
  8
LC-001-002-----0
  6
CONTINUOUS
  5
1C0
 10
119.019768
 20
66.969757
 30
0.0
 40
40.0
 50
199.049006
 51
200.840975
  0
ARC
  8
LC-001-002-----0
  6
CONTINUOUS
  5
1C1
 10
89.071843
 20
38.769098
 30
0.0
 40
37.5
 50
147.117948
 51
154.748758
  0
ARC
  8
LC-001-002-----0
  6
CONTINUOUS
  5
1C2
 10
97.656069
 20
40.794982
 30
0.0
 40
37.5
 50
142.922046
 51
147.210843
  0
ARC
  8
LC-001-002-----0
  6
CONTINUOUS
  5
1C3
 10
64.3062
 20
98.55865
 30
0.0
 40
37.5
 50
262.141119
 51
268.276887
  0
ARC
  8
LC-001-002-----0
  6
CONTINUOUS
  5
1C4
 10
71.808681
 20
103.196098
 30
0.0
 40
40.0
 50
255.465247
 51
260.094985
  0
ARC
  8
LC-001-002-----0
  6
CONTINUOUS
  5
1C5
 10
80.25578
 20
39.034005
 30
0.0
 40
37.5
 50
132.117948
 51
139.748758
  0
ARC
  8
LC-001-002-----0
  6
CONTINUOUS
  5
1C6
 10
89.071843
 20
38.769098
 30
0.0
 40
40.0
 50
138.514435
 51
144.680972
  0
ARC
  8
LC-001-002-----0
  6
CONTINUOUS
  5
1C7
 10
89.071843
 20
38.769098
 30
0.0
 40
37.5
 50
127.922046
 51
132.210843
  0
ARC
  8
LC-001-002-----0
  6
CONTINUOUS
  5
1C8
 10
80.25578
 20
39.034005
 30
0.0
 40
40.0
 50
133.50684
 51
140.942531
  0
ARC
  8
LC-001-002-----0
  6
CONTINUOUS
  5
1C9
 10
116.482122
 20
58.522657
 30
0.0
 40
37.5
 50
207.117948
 51
214.748758
  0
ARC
  8
LC-001-002-----0
  6
CONTINUOUS
  5
1CA
 10
52.320029
 20
66.969757
 30
0.0
 40
37.5
 50
322.141119
 51
328.276887
  0
ARC
  8
LC-001-002-----0
  6
CONTINUOUS
  5
1CB
 10
52.055121
 20
75.78582
 30
0.0
 40
40.0
 50
315.465247
 51
320.094985
  0
ARC
  8
LC-001-002-----0
  6
CONTINUOUS
  5
1CC
 10
80.25578
 20
39.034005
 30
0.0
 40
37.5
 50
143.763343
 51
146.393451
  0
ARC
  8
LC-001-002-----0
  6
CONTINUOUS
  5
1CD
 10
52.055121
 20
75.78582
 30
0.0
 40
40.0
 50
305.319028
 51
311.485565
  0
ARC
  8
LC-001-002-----0
  6
CONTINUOUS
  5
1CE
 10
54.081005
 20
84.370046
 30
0.0
 40
40.0
 50
290.319028
 51
296.485565
  0
ARC
  8
LC-001-002-----0
  6
CONTINUOUS
  5
1CF
 10
58.25962
 20
92.137434
 30
0.0
 40
40.0
 50
275.319028
 51
281.485565
  0
ARC
  8
LC-001-002-----0
  6
CONTINUOUS
  5
1D0
 10
64.3062
 20
98.55865
 30
0.0
 40
40.0
 50
260.319028
 51
266.485565
  0
ARC
  8
LC-001-002-----0
  6
CONTINUOUS
  5
1D1
 10
71.808681
 20
103.196098
 30
0.0
 40
40.0
 50
245.319028
 51
251.485565
  0
ARC
  8
LC-001-002-----0
  6
CONTINUOUS
  5
1D2
 10
89.071843
 20
38.769098
 30
0.0
 40
37.5
 50
158.763343
 51
161.393451
  0
ARC
  8
LC-001-002-----0
  6
CONTINUOUS
  5
1D3
 10
89.071843
 20
38.769098
 30
0.0
 40
40.0
 50
124.049006
 51
125.840975
  0
ARC
  8
LC-001-002-----0
  6
CONTINUOUS
  5
1D4
 10
64.3062
 20
98.55865
 30
0.0
 40
37.5
 50
250.251242
 51
257.882052
  0
ARC
  8
LC-001-002-----0
  6
CONTINUOUS
  5
1D5
 10
64.3062
 20
98.55865
 30
0.0
 40
40.0
 50
249.057469
 51
256.49316
  0
ARC
  8
LC-001-002-----0
  6
CONTINUOUS
  5
1D6
 10
58.25962
 20
92.137434
 30
0.0
 40
37.5
 50
265.251242
 51
272.882052
  0
ARC
  8
LC-001-002-----0
  6
CONTINUOUS
  5
1D7
 10
97.656069
 20
40.794982
 30
0.0
 40
40.0
 50
139.049006
 51
140.840975
  0
ARC
  8
LC-001-002-----0
  6
CONTINUOUS
  5
1D8
 10
52.320029
 20
66.969757
 30
0.0
 40
40.0
 50
330.465247
 51
335.094985
  0
ARC
  8
LC-001-002-----0
  6
CONTINUOUS
  5
1D9
 10
89.071843
 20
38.769098
 30
0.0
 40
40.0
 50
148.50684
 51
155.942531
  0
ARC
  8
LC-001-002-----0
  6
CONTINUOUS
  5
1DA
 10
58.25962
 20
92.137434
 30
0.0
 40
40.0
 50
264.057469
 51
271.49316
  0
ARC
  8
LC-001-002-----0
  6
CONTINUOUS
  5
1DB
 10
71.808681
 20
41.571651
 30
0.0
 40
37.5
 50
128.763343
 51
131.393451
  0
ARC
  8
LC-001-002-----0
  6
CONTINUOUS
  5
1DC
 10
71.808681
 20
103.196098
 30
0.0
 40
40.0
 50
234.057469
 51
241.49316
  0
ARC
  8
LC-001-002-----0
  6
CONTINUOUS
  5
1DD
 10
71.808681
 20
103.196098
 30
0.0
 40
37.5
 50
235.251242
 51
242.882052
  0
ARC
  8
LC-001-002-----0
  6
CONTINUOUS
  5
1DE
 10
80.25578
 20
39.034005
 30
0.0
 40
40.0
 50
123.514435
 51
129.680972
  0
ARC
  8
LC-001-002-----0
  6
CONTINUOUS
  5
1DF
 10
97.656069
 20
40.794982
 30
0.0
 40
37.5
 50
173.763343
 51
176.393451
  0
ARC
  8
LC-001-002-----0
  6
CONTINUOUS
  5
1E0
 10
97.656069
 20
40.794982
 30
0.0
 40
40.0
 50
163.50684
 51
170.942531
  0
ARC
  8
LC-001-002-----0
  6
CONTINUOUS
  5
1E1
 10
54.081005
 20
84.370046
 30
0.0
 40
40.0
 50
279.057469
 51
286.49316
  0
ARC
  8
LC-001-002-----0
  6
CONTINUOUS
  5
1E2
 10
54.081005
 20
84.370046
 30
0.0
 40
37.5
 50
280.251242
 51
287.882052
  0
ARC
  8
LC-001-002-----0
  6
CONTINUOUS
  5
1E3
 10
105.423458
 20
44.973597
 30
0.0
 40
40.0
 50
154.049006
 51
155.840975
  0
ARC
  8
LC-001-002-----0
  6
CONTINUOUS
  5
1E4
 10
105.423458
 20
44.973597
 30
0.0
 40
40.0
 50
178.50684
 51
185.942531
  0
ARC
  8
LC-001-002-----0
  6
CONTINUOUS
  5
1E5
 10
105.423458
 20
44.973597
 30
0.0
 40
37.5
 50
157.922046
 51
162.210843
  0
ARC
  8
LC-001-002-----0
  6
CONTINUOUS
  5
1E6
 10
105.423458
 20
44.973597
 30
0.0
 40
37.5
 50
188.763343
 51
191.393451
  0
ARC
  8
LC-001-002-----0
  6
CONTINUOUS
  5
1E7
 10
111.844674
 20
51.020177
 30
0.0
 40
40.0
 50
169.049006
 51
170.840975
  0
ARC
  8
LC-001-002-----0
  6
CONTINUOUS
  5
1E8
 10
52.055121
 20
75.78582
 30
0.0
 40
37.5
 50
295.251242
 51
302.882052
  0
ARC
  8
LC-001-002-----0
  6
CONTINUOUS
  5
1E9
 10
52.055121
 20
75.78582
 30
0.0
 40
40.0
 50
294.057469
 51
301.49316
  0
ARC
  8
LC-001-002-----0
  6
CONTINUOUS
  5
1EA
 10
111.844674
 20
51.020177
 30
0.0
 40
40.0
 50
193.50684
 51
200.942531
  0
ARC
  8
LC-001-002-----0
  6
CONTINUOUS
  5
1EB
 10
111.844674
 20
51.020177
 30
0.0
 40
37.5
 50
203.763343
 51
206.393451
  0
ARC
  8
LC-001-002-----0
  6
CONTINUOUS
  5
1EC
 10
116.482122
 20
58.522657
 30
0.0
 40
40.0
 50
184.049006
 51
185.840975
  0
ARC
  8
LC-001-002-----0
  6
CONTINUOUS
  5
1ED
 10
52.320029
 20
66.969757
 30
0.0
 40
37.5
 50
310.251242
 51
317.882052
  0
ARC
  8
LC-001-002-----0
  6
CONTINUOUS
  5
1EE
 10
52.320029
 20
66.969757
 30
0.0
 40
40.0
 50
309.057469
 51
316.49316
  0
ARC
  8
LC-001-002-----0
  6
CONTINUOUS
  5
1EF
 10
116.482122
 20
58.522657
 30
0.0
 40
40.0
 50
208.50684
 51
215.942531
  0
ARC
  8
LC-001-002-----0
  6
CONTINUOUS
  5
1F0
 10
52.320029
 20
66.969757
 30
0.0
 40
37.5
 50
303.606549
 51
306.236657
  0
ARC
  8
LC-001-002-----0
  6
CONTINUOUS
  5
1F1
 10
52.055121
 20
75.78582
 30
0.0
 40
37.5
 50
288.606549
 51
291.236657
  0
ARC
  8
LC-001-002-----0
  6
CONTINUOUS
  5
1F2
 10
54.081005
 20
84.370046
 30
0.0
 40
37.5
 50
273.606549
 51
276.236657
  0
ARC
  8
LC-001-002-----0
  6
CONTINUOUS
  5
1F3
 10
58.25962
 20
92.137434
 30
0.0
 40
37.5
 50
258.606549
 51
261.236657
  0
ARC
  8
LC-001-002-----0
  6
CONTINUOUS
  5
1F4
 10
64.3062
 20
98.55865
 30
0.0
 40
37.5
 50
243.606549
 51
246.236657
  0
ARC
  8
LC-001-002-----0
  6
CONTINUOUS
  5
1F5
 10
82.267953
 20
105.998652
 30
0.0
 40
37.5
 50
316.723113
 51
322.858881
  0
ARC
  8
LC-001-002-----0
  6
CONTINUOUS
  5
1F6
 10
99.531116
 20
41.571651
 30
0.0
 40
37.5
 50
67.141119
 51
73.276887
  0
ARC
  8
LC-001-002-----0
  6
CONTINUOUS
  5
1F7
 10
91.084016
 20
39.034005
 30
0.0
 40
40.0
 50
60.465247
 51
65.094985
  0
ARC
  8
LC-001-002-----0
  6
CONTINUOUS
  5
1F8
 10
91.084016
 20
105.733744
 30
0.0
 40
37.5
 50
292.922046
 51
297.210843
  0
ARC
  8
LC-001-002-----0
  6
CONTINUOUS
  5
1F9
 10
80.25578
 20
39.034005
 30
0.0
 40
37.5
 50
112.922046
 51
117.210843
  0
ARC
  8
LC-001-002-----0
  6
CONTINUOUS
  5
1FA
 10
52.320029
 20
77.797992
 30
0.0
 40
37.5
 50
22.922046
 51
27.210843
  0
ARC
  8
LC-001-002-----0
  6
CONTINUOUS
  5
1FB
 10
119.019768
 20
66.969757
 30
0.0
 40
37.5
 50
202.922046
 51
207.210843
  0
ARC
  8
LC-001-002-----0
  6
CONTINUOUS
  5
1FC
 10
73.683727
 20
103.972768
 30
0.0
 40
37.5
 50
331.723113
 51
337.858881
  0
ARC
  8
LC-001-002-----0
  6
CONTINUOUS
  5
1FD
 10
65.916338
 20
99.794153
 30
0.0
 40
40.0
 50
339.905015
 51
344.534753
  0
ARC
  8
LC-001-002-----0
  6
CONTINUOUS
  5
1FE
 10
99.531116
 20
41.571651
 30
0.0
 40
40.0
 50
84.159025
 51
85.950994
  0
ARC
  8
LC-001-002-----0
  6
CONTINUOUS
  5
1FF
 10
73.683727
 20
103.972768
 30
0.0
 40
40.0
 50
324.905015
 51
329.534753
  0
ARC
  8
LC-001-002-----0
  6
CONTINUOUS
  5
200
 10
91.084016
 20
39.034005
 30
0.0
 40
40.0
 50
69.159025
 51
70.950994
  0
ARC
  8
LC-001-002-----0
  6
CONTINUOUS
  5
201
 10
99.531116
 20
41.571651
 30
0.0
 40
37.5
 50
77.789157
 51
82.077954
  0
ARC
  8
LC-001-002-----0
  6
CONTINUOUS
  5
202
 10
82.267953
 20
105.998652
 30
0.0
 40
40.0
 50
309.905015
 51
314.534753
  0
ARC
  8
LC-001-002-----0
  6
CONTINUOUS
  5
203
 10
91.084016
 20
105.733744
 30
0.0
 40
37.5
 50
301.723113
 51
307.858881
  0
ARC
  8
LC-001-002-----0
  6
CONTINUOUS
  5
204
 10
82.267953
 20
38.769098
 30
0.0
 40
40.0
 50
54.159025
 51
55.950994
  0
ARC
  8
LC-001-002-----0
  6
CONTINUOUS
  5
205
 10
91.084016
 20
39.034005
 30
0.0
 40
37.5
 50
62.789157
 51
67.077954
  0
ARC
  8
LC-001-002-----0
  6
CONTINUOUS
  5
206
 10
99.531116
 20
103.196098
 30
0.0
 40
37.5
 50
286.723113
 51
292.858881
  0
ARC
  8
LC-001-002-----0
  6
CONTINUOUS
  5
207
 10
91.084016
 20
105.733744
 30
0.0
 40
40.0
 50
294.905015
 51
299.534753
  0
ARC
  8
LC-001-002-----0
  6
CONTINUOUS
  5
208
 10
73.683727
 20
40.794982
 30
0.0
 40
40.0
 50
39.159025
 51
40.950994
  0
ARC
  8
LC-001-002-----0
  6
CONTINUOUS
  5
209
 10
82.267953
 20
38.769098
 30
0.0
 40
37.5
 50
47.789157
 51
52.077954
  0
ARC
  8
LC-001-002-----0
  6
CONTINUOUS
  5
20A
 10
65.916338
 20
44.973597
 30
0.0
 40
40.0
 50
24.159025
 51
25.950994
  0
ARC
  8
LC-001-002-----0
  6
CONTINUOUS
  5
20B
 10
73.683727
 20
40.794982
 30
0.0
 40
37.5
 50
32.789157
 51
37.077954
  0
ARC
  8
LC-001-002-----0
  6
CONTINUOUS
  5
20C
 10
107.033596
 20
98.55865
 30
0.0
 40
37.5
 50
271.723113
 51
277.858881
  0
ARC
  8
LC-001-002-----0
  6
CONTINUOUS
  5
20D
 10
99.531116
 20
103.196098
 30
0.0
 40
40.0
 50
279.905015
 51
284.534753
  0
ARC
  8
LC-001-002-----0
  6
CONTINUOUS
  5
20E
 10
59.495123
 20
51.020177
 30
0.0
 40
40.0
 50
9.159025
 51
10.950994
  0
ARC
  8
LC-001-002-----0
  6
CONTINUOUS
  5
20F
 10
65.916338
 20
44.973597
 30
0.0
 40
37.5
 50
17.789157
 51
22.077954
  0
ARC
  8
LC-001-002-----0
  6
CONTINUOUS
  5
210
 10
113.080176
 20
92.137434
 30
0.0
 40
37.5
 50
256.723113
 51
262.858881
  0
ARC
  8
LC-001-002-----0
  6
CONTINUOUS
  5
211
 10
107.033596
 20
98.55865
 30
0.0
 40
40.0
 50
264.905015
 51
269.534753
  0
ARC
  8
LC-001-002-----0
  6
CONTINUOUS
  5
212
 10
54.857675
 20
58.522657
 30
0.0
 40
40.0
 50
354.159025
 51
355.950994
  0
ARC
  8
LC-001-002-----0
  6
CONTINUOUS
  5
213
 10
59.495123
 20
51.020177
 30
0.0
 40
37.5
 50
2.789157
 51
7.077954
  0
ARC
  8
LC-001-002-----0
  6
CONTINUOUS
  5
214
 10
117.258791
 20
84.370046
 30
0.0
 40
37.5
 50
241.723113
 51
247.858881
  0
ARC
  8
LC-001-002-----0
  6
CONTINUOUS
  5
215
 10
113.080176
 20
92.137434
 30
0.0
 40
40.0
 50
249.905015
 51
254.534753
  0
ARC
  8
LC-001-002-----0
  6
CONTINUOUS
  5
216
 10
117.258791
 20
84.370046
 30
0.0
 40
40.0
 50
234.905015
 51
239.534753
  0
ARC
  8
LC-001-002-----0
  6
CONTINUOUS
  5
217
 10
119.284675
 20
75.78582
 30
0.0
 40
37.5
 50
226.723113
 51
232.858881
  0
ARC
  8
LC-001-002-----0
  6
CONTINUOUS
  5
218
 10
54.857675
 20
58.522657
 30
0.0
 40
37.5
 50
347.789157
 51
352.077954
  0
ARC
  8
LC-001-002-----0
  6
CONTINUOUS
  5
219
 10
52.320029
 20
66.969757
 30
0.0
 40
40.0
 50
339.159025
 51
340.950994
  0
ARC
  8
LC-001-002-----0
  6
CONTINUOUS
  5
21A
 10
119.284675
 20
75.78582
 30
0.0
 40
40.0
 50
219.905015
 51
224.534753
  0
ARC
  8
LC-001-002-----0
  6
CONTINUOUS
  5
21B
 10
119.019768
 20
66.969757
 30
0.0
 40
37.5
 50
211.723113
 51
217.858881
  0
ARC
  8
LC-001-002-----0
  6
CONTINUOUS
  5
21C
 10
52.055121
 20
75.78582
 30
0.0
 40
40.0
 50
324.159025
 51
325.950994
  0
ARC
  8
LC-001-002-----0
  6
CONTINUOUS
  5
21D
 10
52.320029
 20
66.969757
 30
0.0
 40
37.5
 50
332.789157
 51
337.077954
  0
ARC
  8
LC-001-002-----0
  6
CONTINUOUS
  5
21E
 10
116.482122
 20
58.522657
 30
0.0
 40
37.5
 50
196.723113
 51
202.858881
  0
ARC
  8
LC-001-002-----0
  6
CONTINUOUS
  5
21F
 10
119.019768
 20
66.969757
 30
0.0
 40
40.0
 50
204.905015
 51
209.534753
  0
ARC
  8
LC-001-002-----0
  6
CONTINUOUS
  5
220
 10
52.055121
 20
75.78582
 30
0.0
 40
37.5
 50
317.789157
 51
322.077954
  0
ARC
  8
LC-001-002-----0
  6
CONTINUOUS
  5
221
 10
54.081005
 20
84.370046
 30
0.0
 40
40.0
 50
309.159025
 51
310.950994
  0
ARC
  8
LC-001-002-----0
  6
CONTINUOUS
  5
222
 10
111.844674
 20
51.020177
 30
0.0
 40
37.5
 50
181.723113
 51
187.858881
  0
ARC
  8
LC-001-002-----0
  6
CONTINUOUS
  5
223
 10
116.482122
 20
58.522657
 30
0.0
 40
40.0
 50
189.905015
 51
194.534753
  0
ARC
  8
LC-001-002-----0
  6
CONTINUOUS
  5
224
 10
54.081005
 20
84.370046
 30
0.0
 40
37.5
 50
302.789157
 51
307.077954
  0
ARC
  8
LC-001-002-----0
  6
CONTINUOUS
  5
225
 10
58.25962
 20
92.137434
 30
0.0
 40
40.0
 50
294.159025
 51
295.950994
  0
ARC
  8
LC-001-002-----0
  6
CONTINUOUS
  5
226
 10
111.844674
 20
51.020177
 30
0.0
 40
40.0
 50
174.905015
 51
179.534753
  0
ARC
  8
LC-001-002-----0
  6
CONTINUOUS
  5
227
 10
105.423458
 20
44.973597
 30
0.0
 40
37.5
 50
166.723113
 51
172.858881
  0
ARC
  8
LC-001-002-----0
  6
CONTINUOUS
  5
228
 10
58.25962
 20
92.137434
 30
0.0
 40
37.5
 50
287.789157
 51
292.077954
  0
ARC
  8
LC-001-002-----0
  6
CONTINUOUS
  5
229
 10
64.3062
 20
98.55865
 30
0.0
 40
40.0
 50
279.159025
 51
280.950994
  0
ARC
  8
LC-001-002-----0
  6
CONTINUOUS
  5
22A
 10
105.423458
 20
44.973597
 30
0.0
 40
40.0
 50
159.905015
 51
164.534753
  0
ARC
  8
LC-001-002-----0
  6
CONTINUOUS
  5
22B
 10
97.656069
 20
40.794982
 30
0.0
 40
37.5
 50
151.723113
 51
157.858881
  0
ARC
  8
LC-001-002-----0
  6
CONTINUOUS
  5
22C
 10
64.3062
 20
98.55865
 30
0.0
 40
37.5
 50
272.789157
 51
277.077954
  0
ARC
  8
LC-001-002-----0
  6
CONTINUOUS
  5
22D
 10
71.808681
 20
103.196098
 30
0.0
 40
40.0
 50
264.159025
 51
265.950994
  0
ARC
  8
LC-001-002-----0
  6
CONTINUOUS
  5
22E
 10
97.656069
 20
40.794982
 30
0.0
 40
40.0
 50
144.905015
 51
149.534753
  0
ARC
  8
LC-001-002-----0
  6
CONTINUOUS
  5
22F
 10
80.25578
 20
105.733744
 30
0.0
 40
40.0
 50
249.159025
 51
250.950994
  0
ARC
  8
LC-001-002-----0
  6
CONTINUOUS
  5
230
 10
71.808681
 20
103.196098
 30
0.0
 40
37.5
 50
257.789157
 51
262.077954
  0
ARC
  8
LC-001-002-----0
  6
CONTINUOUS
  5
231
 10
89.071843
 20
38.769098
 30
0.0
 40
37.5
 50
136.723113
 51
142.858881
  0
ARC
  8
LC-001-002-----0
  6
CONTINUOUS
  5
232
 10
89.071843
 20
38.769098
 30
0.0
 40
40.0
 50
129.905015
 51
134.534753
  0
ARC
  8
LC-001-002-----0
  6
CONTINUOUS
  5
233
 10
80.25578
 20
39.034005
 30
0.0
 40
37.5
 50
121.723113
 51
127.858881
  0
ARC
  8
LC-001-002-----0
  6
CONTINUOUS
  5
234
 10
80.25578
 20
105.733744
 30
0.0
 40
37.5
 50
242.789157
 51
247.077954
  0
ARC
  8
LC-001-002-----0
  6
CONTINUOUS
  5
235
 10
89.071843
 20
105.998652
 30
0.0
 40
40.0
 50
234.159025
 51
235.950994
  0
ARC
  8
LC-001-002-----0
  6
CONTINUOUS
  5
236
 10
71.808681
 20
41.571651
 30
0.0
 40
37.5
 50
106.723113
 51
112.858881
  0
ARC
  8
LC-001-002-----0
  6
CONTINUOUS
  5
237
 10
80.25578
 20
39.034005
 30
0.0
 40
40.0
 50
114.905015
 51
119.534753
  0
ARC
  8
LC-001-002-----0
  6
CONTINUOUS
  5
238
 10
97.656069
 20
103.972768
 30
0.0
 40
40.0
 50
219.159025
 51
220.950994
  0
ARC
  8
LC-001-002-----0
  6
CONTINUOUS
  5
239
 10
89.071843
 20
105.998652
 30
0.0
 40
37.5
 50
227.789157
 51
232.077954
  0
ARC
  8
LC-001-002-----0
  6
CONTINUOUS
  5
23A
 10
71.808681
 20
41.571651
 30
0.0
 40
40.0
 50
99.905015
 51
104.534753
  0
ARC
  8
LC-001-002-----0
  6
CONTINUOUS
  5
23B
 10
64.3062
 20
46.209099
 30
0.0
 40
37.5
 50
91.723113
 51
97.858881
  0
ARC
  8
LC-001-002-----0
  6
CONTINUOUS
  5
23C
 10
97.656069
 20
103.972768
 30
0.0
 40
37.5
 50
212.789157
 51
217.077954
  0
ARC
  8
LC-001-002-----0
  6
CONTINUOUS
  5
23D
 10
105.423458
 20
99.794153
 30
0.0
 40
40.0
 50
204.159025
 51
205.950994
  0
ARC
  8
LC-001-002-----0
  6
CONTINUOUS
  5
23E
 10
58.25962
 20
52.630315
 30
0.0
 40
37.5
 50
76.723113
 51
82.858881
  0
ARC
  8
LC-001-002-----0
  6
CONTINUOUS
  5
23F
 10
64.3062
 20
46.209099
 30
0.0
 40
40.0
 50
84.905015
 51
89.534753
  0
ARC
  8
LC-001-002-----0
  6
CONTINUOUS
  5
240
 10
111.844674
 20
93.747573
 30
0.0
 40
40.0
 50
189.159025
 51
190.950994
  0
ARC
  8
LC-001-002-----0
  6
CONTINUOUS
  5
241
 10
105.423458
 20
99.794153
 30
0.0
 40
37.5
 50
197.789157
 51
202.077954
  0
ARC
  8
LC-001-002-----0
  6
CONTINUOUS
  5
242
 10
58.25962
 20
52.630315
 30
0.0
 40
40.0
 50
69.905015
 51
74.534753
  0
ARC
  8
LC-001-002-----0
  6
CONTINUOUS
  5
243
 10
54.081005
 20
60.397703
 30
0.0
 40
37.5
 50
61.723113
 51
67.858881
  0
ARC
  8
LC-001-002-----0
  6
CONTINUOUS
  5
244
 10
111.844674
 20
93.747573
 30
0.0
 40
37.5
 50
182.789157
 51
187.077954
  0
ARC
  8
LC-001-002-----0
  6
CONTINUOUS
  5
245
 10
116.482122
 20
86.245092
 30
0.0
 40
40.0
 50
174.159025
 51
175.950994
  0
ARC
  8
LC-001-002-----0
  6
CONTINUOUS
  5
246
 10
52.055121
 20
68.981929
 30
0.0
 40
37.5
 50
46.723113
 51
52.858881
  0
ARC
  8
LC-001-002-----0
  6
CONTINUOUS
  5
247
 10
54.081005
 20
60.397703
 30
0.0
 40
40.0
 50
54.905015
 51
59.534753
  0
ARC
  8
LC-001-002-----0
  6
CONTINUOUS
  5
248
 10
119.019768
 20
77.797992
 30
0.0
 40
40.0
 50
159.159025
 51
160.950994
  0
ARC
  8
LC-001-002-----0
  6
CONTINUOUS
  5
249
 10
116.482122
 20
86.245092
 30
0.0
 40
37.5
 50
167.789157
 51
172.077954
  0
ARC
  8
LC-001-002-----0
  6
CONTINUOUS
  5
24A
 10
52.055121
 20
68.981929
 30
0.0
 40
40.0
 50
39.905015
 51
44.534753
  0
ARC
  8
LC-001-002-----0
  6
CONTINUOUS
  5
24B
 10
52.320029
 20
77.797992
 30
0.0
 40
37.5
 50
31.723113
 51
37.858881
  0
ARC
  8
LC-001-002-----0
  6
CONTINUOUS
  5
24C
 10
119.284675
 20
68.981929
 30
0.0
 40
40.0
 50
144.159025
 51
145.950994
  0
ARC
  8
LC-001-002-----0
  6
CONTINUOUS
  5
24D
 10
119.019768
 20
77.797992
 30
0.0
 40
37.5
 50
152.789157
 51
157.077954
  0
ARC
  8
LC-001-002-----0
  6
CONTINUOUS
  5
24E
 10
52.320029
 20
77.797992
 30
0.0
 40
40.0
 50
24.905015
 51
29.534753
  0
ARC
  8
LC-001-002-----0
  6
CONTINUOUS
  5
24F
 10
54.857675
 20
86.245092
 30
0.0
 40
37.5
 50
16.723113
 51
22.858881
  0
ARC
  8
LC-001-002-----0
  6
CONTINUOUS
  5
250
 10
119.284675
 20
68.981929
 30
0.0
 40
37.5
 50
137.789157
 51
142.077954
  0
ARC
  8
LC-001-002-----0
  6
CONTINUOUS
  5
251
 10
117.258791
 20
60.397703
 30
0.0
 40
40.0
 50
129.159025
 51
130.950994
  0
ARC
  8
LC-001-002-----0
  6
CONTINUOUS
  5
252
 10
59.495123
 20
93.747573
 30
0.0
 40
37.5
 50
1.723113
 51
7.858881
  0
ARC
  8
LC-001-002-----0
  6
CONTINUOUS
  5
253
 10
54.857675
 20
86.245092
 30
0.0
 40
40.0
 50
9.905015
 51
14.534753
  0
ARC
  8
LC-001-002-----0
  6
CONTINUOUS
  5
254
 10
117.258791
 20
60.397703
 30
0.0
 40
37.5
 50
122.789157
 51
127.077954
  0
ARC
  8
LC-001-002-----0
  6
CONTINUOUS
  5
255
 10
113.080176
 20
52.630315
 30
0.0
 40
40.0
 50
114.159025
 51
115.950994
  0
ARC
  8
LC-001-002-----0
  6
CONTINUOUS
  5
256
 10
107.033596
 20
46.209099
 30
0.0
 40
40.0
 50
99.159025
 51
100.950994
  0
ARC
  8
LC-001-002-----0
  6
CONTINUOUS
  5
257
 10
113.080176
 20
52.630315
 30
0.0
 40
37.5
 50
107.789157
 51
112.077954
  0
ARC
  8
LC-001-002-----0
  6
CONTINUOUS
  5
258
 10
65.916338
 20
99.794153
 30
0.0
 40
37.5
 50
346.723113
 51
352.858881
  0
ARC
  8
LC-001-002-----0
  6
CONTINUOUS
  5
259
 10
59.495123
 20
93.747573
 30
0.0
 40
40.0
 50
354.905015
 51
359.534753
  0
CIRCLE
  8
LC-001-002-----0
  6
CONTINUOUS
  5
25A
 10
85.669898
 20
72.383875
 30
0.0
 40
15.0
  0
LINE
  8
LC-001-002-----0
  6
CONTINUOUS
  5
25B
 10
70.669898
 20
192.626941
 30
0.0
 11
69.169898
 21
192.626941
 31
0.0
  0
LINE
  8
LC-001-002-----0
  6
CONTINUOUS
  5
25C
 10
70.669898
 20
192.626941
 30
0.0
 11
70.669898
 21
186.126441
 31
0.0
  0
LINE
  8
LC-001-002-----0
  6
CONTINUOUS
  5
25D
 10
85.669898
 20
182.626441
 30
0.0
 11
67.169898
 21
182.626441
 31
0.0
  0
LINE
  8
LC-001-002-----0
  6
CONTINUOUS
  5
25E
 10
124.669857
 20
182.626441
 30
0.0
 11
104.169898
 21
182.626441
 31
0.0
  0
LINE
  8
LC-001-002-----0
  6
CONTINUOUS
  5
25F
 10
100.669898
 20
192.626941
 30
0.0
 11
100.669898
 21
186.126441
 31
0.0
  0
LINE
  8
LC-001-002-----0
  6
CONTINUOUS
  5
260
 10
126.169898
 20
197.626941
 30
0.0
 11
131.169898
 21
197.626941
 31
0.0
  0
LINE
  8
LC-001-002-----0
  6
CONTINUOUS
  5
261
 10
116.624506
 20
182.626441
 30
0.0
 11
116.624506
 21
184.126441
 31
0.0
  0
LINE
  8
LC-001-002-----0
  6
CONTINUOUS
  5
262
 10
105.689455
 20
182.626441
 30
0.0
 11
105.689455
 21
184.126441
 31
0.0
  0
LINE
  8
LC-001-002-----0
  6
CONTINUOUS
  5
263
 10
54.71529
 20
182.626441
 30
0.0
 11
54.71529
 21
184.126441
 31
0.0
  0
LINE
  8
LC-001-002-----0
  6
CONTINUOUS
  5
264
 10
65.650341
 20
182.626441
 30
0.0
 11
65.650341
 21
184.126441
 31
0.0
  0
LINE
  8
LC-001-002-----0
  6
CONTINUOUS
  5
265
 10
85.669898
 20
192.626941
 30
0.0
 11
100.669898
 21
192.626941
 31
0.0
  0
LINE
  8
LC-001-002-----0
  6
CONTINUOUS
  5
266
 10
85.669898
 20
182.626441
 30
0.0
 11
104.169898
 21
182.626441
 31
0.0
  0
LINE
  8
LC-001-002-----0
  6
DASHDOT
 62
     2
  5
268
 10
40.169898
 20
72.383875
 30
0.0
 11
131.169898
 21
72.383875
 31
0.0
  0
LINE
  8
LC-001-002-----0
  6
DASHDOT
 62
     2
  5
269
 10
85.669898
 20
117.883875
 30
0.0
 11
85.669898
 21
26.883875
 31
0.0
  0
LINE
  8
LC-001-002-----0
  6
DASHDOT
 62
     2
  5
26A
 10
85.669898
 20
182.626441
 30
0.0
 11
85.669898
 21
197.626941
 31
0.0
  0
ENDSEC
  0
EOF
